osu file format v14

[General]
AudioFilename: audio.mp3
AudioLeadIn: 0
PreviewTime: 43720
Countdown: 0
SampleSet: Soft
StackLeniency: 0.4
Mode: 0
LetterboxInBreaks: 0
WidescreenStoryboard: 0

[Editor]
DistanceSpacing: 1.5
BeatDivisor: 4
GridSize: 32
TimelineZoom: 2

[Metadata]
Title:Ghost Assassin (Hourglass Bonusmix)
TitleUnicode:Ghost Assassin (Hourglass Bonusmix)
Artist:Maduk feat. Veela
ArtistUnicode:Maduk feat. Veela
Creator:xiqingwa
Version:Darkness
Source:
Tags:
BeatmapID:2016759
BeatmapSetID:963250

[Difficulty]
HPDrainRate:6
CircleSize:4.2
OverallDifficulty:8
ApproachRate:8.8
SliderMultiplier:1.4
SliderTickRate:1

[Events]
//Background and Video events
0,0,"bg_1.jpg",0,0
//Break Periods
2,88067,103091
//Storyboard Layer 0 (Background)
//Storyboard Layer 1 (Fail)
//Storyboard Layer 2 (Pass)
//Storyboard Layer 3 (Foreground)
//Storyboard Sound Samples

[TimingPoints]
84,340.909090909091,4,2,1,100,1,0
19174,-125,4,2,1,40,0,0
21816,-125,4,2,1,5,0,0
21902,-125,4,2,1,40,0,0
32811,-125,4,2,1,45,0,0
38265,-125,4,2,1,50,0,0
43379,-125,4,2,1,70,0,0
43720,-76.9230769230769,4,2,1,60,0,0
65538,-125,4,2,1,70,0,0
65879,-62.5,4,2,1,80,0,1
66220,-76.9230769230769,4,2,1,80,0,1
87015,-62.5,4,2,1,80,0,1
87356,-125,4,2,1,40,0,0
103720,-125,4,2,1,50,0,0
108834,-125,4,2,1,70,0,0
109174,-62.5,4,2,1,80,0,1
109856,-76.9230769230769,4,2,1,80,0,1
130907,-76.9230769230769,4,2,1,40,0,0
131334,-76.9230769230769,4,2,1,80,0,1
131504,-76.9230769230769,4,2,1,60,0,0

[Colours]
Combo1 : 51,155,189
Combo2 : 237,237,90
Combo3 : 70,63,209
Combo4 : 88,61,182

[HitObjects]
180,144,19174,6,0,B|182:81|83:61|28:159|121:238|203:161|203:161|253:102|306:109|306:109|280:124|274:150,1,448,2|2,0:3|0:3,0:0:0:0:
256,192,20623,12,0,21816,0:0:0:0:
271,139,21902,5,0,3:0:0:0:
282,126,22243,6,0,L|260:239,1,112,8|0,0:3|0:0,0:0:0:0:
187,286,22754,1,8,0:3:0:0:
187,286,22924,2,0,P|157:273|129:267,1,56,10|0,0:3|0:0,0:0:0:0:
250,352,23265,2,0,B|315:353|285:319|358:318,1,112,10|10,0:3|0:3,0:0:0:0:
427,366,23777,1,2,0:3:0:0:
461,300,23947,2,0,L|448:359,1,56,2|10,0:3|0:3,0:0:0:0:
393,254,24288,1,10,0:3:0:0:
462,216,24459,1,2,0:3:0:0:
377,239,24629,6,0,P|374:215|365:179,1,56,10|0,0:3|0:0,0:0:0:0:
422,127,24970,2,0,P|425:103|434:67,1,56,10|0,0:3|0:0,0:0:0:0:
385,5,25311,1,0,0:0:0:0:
385,5,25481,1,8,0:3:0:0:
334,98,25652,2,0,L|240:79,1,84,10|0,0:3|0:0,0:0:0:0:
235,87,25993,6,0,B|216:120|216:120|227:204,1,112,10|10,0:3|0:3,0:0:0:0:
282,253,26504,1,2,0:3:0:0:
367,257,26674,1,2,0:3:0:0:
367,257,26845,2,0,L|353:194,1,56,10|10,0:3|0:3,0:0:0:0:
349,123,27186,1,2,0:3:0:0:
237,182,27356,6,0,B|198:177|198:177|169:154|169:154|129:148,1,112,10|10,0:3|0:3,0:0:0:0:
41,134,27868,2,0,P|48:166|51:195,2,56,0|0|8,0:0|0:0|0:3,0:0:0:0:
106,76,28379,2,0,P|113:45|121:18,1,56,10|0,0:3|0:0,0:0:0:0:
30,142,28720,2,0,L|37:265,1,112,10|2,0:3|0:3,0:0:0:0:
101,320,29231,1,0,0:0:0:0:
101,320,29402,2,0,L|157:326,1,56,2|8,0:3|0:3,0:0:0:0:
229,288,29743,1,10,0:3:0:0:
175,221,29913,1,2,0:3:0:0:
232,303,30084,6,0,P|258:331|329:323,1,112,8|8,0:3|0:3,0:0:0:0:
412,300,30595,2,0,P|408:254|410:185,1,112,0|8,0:0|0:3,0:0:0:0:
491,118,31106,2,0,P|496:145|495:177,1,56,10|0,0:3|0:0,0:0:0:0:
394,102,31447,6,0,B|388:68|388:68|409:17,1,84,10|0,0:3|0:0,0:0:0:0:
424,21,31788,2,0,L|496:36,1,56,10|0,0:3|0:0,0:0:0:0:
322,31,32129,1,2,0:3:0:0:
322,31,32299,2,0,L|252:40,1,56,10|8,0:3|0:3,0:0:0:0:
202,95,32640,1,2,0:3:0:0:
72,62,32811,6,0,B|97:41|108:5|108:5|147:55|113:127|96:104|55:150|93:220,1,280
187,221,33834,2,0,P|181:189|160:171,1,56,2|0,0:3|0:0,0:0:0:0:
181,239,34174,6,0,B|218:269|267:240|253:228|302:202|342:232,1,168,2|0,0:3|0:0,0:0:0:0:
411,287,34856,2,0,L|415:347,2,56,10|0|2,0:3|0:0|0:3,0:0:0:0:
426,208,35368,1,0,0:0:0:0:
328,246,35538,6,0,L|316:154,1,84,2|2,0:3|0:3,0:0:0:0:
410,73,36049,2,0,B|375:55|375:55|241:83,1,168,2|10,0:3|0:3,0:0:0:0:
65,47,36902,6,0,P|121:75|187:-8,1,168,2|0,0:3|0:0,0:0:0:0:
147,93,37584,2,0,B|120:155|152:145|128:216,1,112,2|2,0:3|0:3,0:0:0:0:
92,282,38095,1,2,0:3:0:0:
176,372,38265,5,8,3:0:0:0:
14,334,38606,1,2,3:0:0:0:
237,290,38947,1,0,3:0:0:0:
94,377,39288,1,2,3:0:0:0:
333,374,39629,5,2,3:0:0:0:
260,206,39970,1,0,3:0:0:0:
498,265,40311,1,2,3:0:0:0:
498,265,40481,1,0,0:0:0:0:
386,294,40652,1,0,3:0:0:0:
386,294,40822,1,2,0:3:0:0:
431,176,40993,5,2,3:0:0:0:
510,129,41163,1,0,3:0:0:0:
424,93,41334,1,0,3:0:0:0:
343,142,41504,1,0,3:0:0:0:
434,193,41674,5,0,3:0:0:0:
350,66,41845,1,0,3:0:0:0:
243,172,42015,1,0,3:0:0:0:
331,152,42186,1,0,3:0:0:0:
207,46,42356,5,4,0:2:0:0:
161,34,42441,1,4,0:2:0:0:
116,51,42527,1,4,0:2:0:0:
93,93,42612,1,4,0:2:0:0:
104,140,42697,5,4,0:2:0:0:
82,123,42782,1,4,0:2:0:0:
55,118,42868,1,4,0:2:0:0:
28,125,42953,1,4,0:2:0:0:
7,143,43038,5,4,0:2:0:0:
10,129,43123,1,4,0:2:0:0:
14,116,43209,2,0,L|5:75,1,28,4|4,0:2|0:2,0:0:0:0:
66,290,43379,5,8,0:3:0:0:
54,279,43720,6,0,B|102:263|128:287|115:292|143:316|188:301,1,136.499993751526,6|0,3:0|0:0,0:0:0:0:
274,348,44061,2,0,L|263:297,1,45.4999979171754,10|0,0:3|0:0,0:0:0:0:
285,222,44231,1,2,0:3:0:0:
383,129,44402,2,0,P|373:183|368:228,1,90.9999958343508,2|0,0:3|3:0,0:0:0:0:
269,52,44743,2,0,P|279:106|284:151,1,90.9999958343508,10|2,0:3|0:3,0:0:0:0:
440,54,45084,6,0,L|348:40,1,90.9999958343508,2|0,0:3|3:0,0:0:0:0:
174,92,45424,1,10,0:3:0:0:
259,64,45595,1,2,0:3:0:0:
257,52,45680,1,0,0:0:0:0:
255,41,45765,1,0,0:0:0:0:
146,14,45936,1,2,3:0:0:0:
56,117,46106,2,0,P|64:63|63:14,1,90.9999958343508,8|0,0:3|0:0,0:0:0:0:
0,197,46447,6,0,B|-17:243|-17:243|8:341,1,136.499993751526,2|0,3:0|0:0,0:0:0:0:
83,365,46788,2,0,L|133:357,1,45.4999979171754,10|0,0:3|0:0,0:0:0:0:
194,311,46959,1,2,0:3:0:0:
357,266,47129,2,0,P|308:262|264:254,1,90.9999958343508,2|0,0:3|3:0,0:0:0:0:
404,379,47470,2,0,P|448:371|494:367,1,90.9999958343508,2|0,0:3|0:0,0:0:0:0:
453,224,47811,5,2,0:3:0:0:
365,276,47981,2,0,L|349:172,1,90.9999958343508,2|8,3:0|0:3,0:0:0:0:
432,98,48322,1,2,0:3:0:0:
430,109,48407,1,0,0:0:0:0:
428,120,48493,1,0,0:0:0:0:
340,107,48663,1,2,3:0:0:0:
489,29,48834,2,0,L|394:13,1,90.9999958343508,8|0,0:3|0:0,0:0:0:0:
202,31,49174,5,2,3:0:0:0:
246,98,49345,1,2,0:3:0:0:
184,30,49515,1,10,0:3:0:0:
142,99,49686,1,2,0:3:0:0:
68,46,49856,1,2,0:3:0:0:
117,176,50027,2,0,L|133:87,1,90.9999958343508,2|8,3:0|0:3,0:0:0:0:
29,218,50368,5,2,0:3:0:0:
191,224,50538,1,2,3:0:0:0:
117,263,50709,1,2,3:0:0:0:
104,186,50879,1,10,0:3:0:0:
200,302,51049,1,2,0:3:0:0:
281,217,51220,1,0,0:0:0:0:
278,231,51305,1,0,0:0:0:0:
275,246,51390,1,2,3:0:0:0:
405,348,51561,2,0,L|392:255,1,90.9999958343508,8|2,0:3|0:3,0:0:0:0:
494,117,51902,5,2,3:0:0:0:
469,193,52072,1,0,0:0:0:0:
391,168,52243,1,2,0:3:0:0:
416,92,52413,1,0,0:0:0:0:
474,208,52584,2,0,P|461:263|454:307,1,90.9999958343508,2|2,0:3|3:0,0:0:0:0:
311,193,52924,1,10,0:3:0:0:
343,273,53095,5,2,0:3:0:0:
331,271,53180,1,0,0:0:0:0:
320,269,53265,1,2,3:0:0:0:
230,205,53436,2,0,L|244:311,1,90.9999958343508,2|8,0:3|0:3,0:0:0:0:
89,369,53777,2,0,L|103:263,1,90.9999958343508,2|0,0:3|3:0,0:0:0:0:
134,189,54118,1,2,0:3:0:0:
61,122,54288,5,4,0:2:0:0:
85,98,54373,1,4,0:2:0:0:
117,86,54459,1,4,0:2:0:0:
150,89,54544,1,4,0:2:0:0:
180,105,54629,6,0,B|217:125|250:103|239:92|272:78|310:94,1,136.499993751526,2|0,3:0|0:0,0:0:0:0:
380,38,54970,2,0,L|386:87,1,45.4999979171754,10|0,0:3|0:0,0:0:0:0:
354,164,55140,1,2,0:3:0:0:
486,105,55311,2,0,L|459:225,1,90.9999958343508,2|0,0:3|3:0,0:0:0:0:
358,266,55652,2,0,L|331:146,1,90.9999958343508,10|0,0:3|0:0,0:0:0:0:
430,345,55993,6,0,P|370:349|329:356,1,90.9999958343508,2|0,0:3|3:0,0:0:0:0:
190,291,56334,1,8,0:3:0:0:
264,248,56504,1,2,0:3:0:0:
261,325,56674,1,0,0:0:0:0:
263,336,56760,1,0,0:0:0:0:
265,347,56845,1,2,3:0:0:0:
177,274,57015,2,0,L|166:163,1,90.9999958343508,8|0,0:3|0:0,0:0:0:0:
212,73,57356,5,2,3:0:0:0:
133,50,57527,1,2,0:3:0:0:
206,85,57697,1,10,0:3:0:0:
112,133,57868,1,2,0:3:0:0:
21,65,58038,2,0,P|32:119|39:166,1,90.9999958343508,2|0,0:3|3:0,0:0:0:0:
0,306,58379,5,10,0:3:0:0:
70,235,58549,1,2,0:3:0:0:
71,246,58635,1,0,0:0:0:0:
72,257,58720,1,2,0:3:0:0:
139,315,58890,2,0,L|234:326,1,90.9999958343508,0|8,3:0|0:3,0:0:0:0:
354,215,59231,1,2,0:3:0:0:
320,347,59402,1,0,0:0:0:0:
316,336,59487,1,0,0:0:0:0:
313,325,59572,1,2,3:0:0:0:
448,219,59743,2,0,P|437:267|432:323,1,90.9999958343508,8|2,0:3|0:3,0:0:0:0:
263,241,60084,5,2,3:0:0:0:
291,169,60254,1,2,0:3:0:0:
199,104,60424,1,10,0:3:0:0:
215,177,60595,1,2,0:3:0:0:
306,160,60765,2,0,L|401:144,1,90.9999958343508,2|0,0:3|3:0,0:0:0:0:
199,184,61106,2,0,L|95:166,1,90.9999958343508,10|0,0:3|0:0,0:0:0:0:
30,243,61447,5,2,3:0:0:0:
147,268,61618,1,0,3:0:0:0:
16,227,61788,2,0,P|24:273|27:324,1,90.9999958343508,10|2,0:3|0:3,0:0:0:0:
125,382,62129,1,0,0:0:0:0:
122,370,62214,1,0,0:0:0:0:
120,359,62299,1,2,3:0:0:0:
230,247,62470,2,0,L|333:233,1,90.9999958343508,8|2,0:3|0:3,0:0:0:0:
437,133,62811,6,0,B|411:173|411:173|424:272,1,136.499993751526,2|0,3:0|0:0,0:0:0:0:
493,357,63152,2,0,L|497:303,1,45.4999979171754,10|0,0:3|0:0,0:0:0:0:
509,230,63322,1,2,3:0:0:0:
426,274,63493,1,2,0:3:0:0:
426,285,63578,1,0,0:0:0:0:
427,296,63663,1,2,0:3:0:0:
315,217,63834,2,0,L|415:200,1,90.9999958343508,10|0,0:3|0:0,0:0:0:0:
249,304,64174,5,2,3:0:0:0:
205,142,64345,1,0,0:0:0:0:
255,317,64515,1,8,0:3:0:0:
153,223,64686,1,2,0:3:0:0:
273,96,64856,5,4,0:2:0:0:
259,77,64941,1,4,0:2:0:0:
240,65,65027,1,4,0:2:0:0:
218,60,65112,1,4,0:2:0:0:
196,65,65197,5,4,0:2:0:0:
180,107,65282,1,4,0:2:0:0:
147,137,65368,1,4,0:2:0:0:
103,148,65453,1,4,0:2:0:0:
59,136,65538,1,2,0:3:0:0:
59,136,65879,6,0,B|45:181|45:181|88:259|88:259|73:298,1,168,12|0,0:3|0:0,0:0:0:0:
15,350,66220,1,2,0:3:0:0:
15,350,66390,1,0,3:0:0:0:
160,281,66561,1,8,0:3:0:0:
121,362,66731,1,0,0:0:0:0:
143,365,66816,1,0,0:0:0:0:
165,368,66902,1,2,0:3:0:0:
266,274,67072,5,0,3:0:0:0:
168,187,67243,2,0,L|175:289,1,90.9999958343508,8|2,0:3|0:3,0:0:0:0:
349,364,67584,1,0,0:0:0:0:
351,352,67669,1,0,0:0:0:0:
353,341,67754,1,2,3:0:0:0:
330,226,67924,2,0,B|368:241|398:219|392:208|420:187|456:198,1,136.499993751526,8|0,0:3|0:0,0:0:0:0:
340,141,68265,6,0,P|284:139|255:229,1,136.499993751526,2|0,3:0|0:0,0:0:0:0:
191,290,68606,2,0,L|179:242,1,45.4999979171754,8|0,0:3|0:0,0:0:0:0:
140,179,68777,1,0,0:0:0:0:
44,219,68947,1,2,0:3:0:0:
130,165,69118,1,0,3:0:0:0:
13,67,69288,2,0,L|118:56,1,90.9999958343508,8|0,0:3|0:0,0:0:0:0:
283,72,69629,5,2,0:3:0:0:
222,127,69799,1,0,3:0:0:0:
177,1,69970,1,8,0:3:0:0:
108,62,70140,1,4,0:2:0:0:
111,84,70226,1,4,0:2:0:0:
115,106,70311,1,4,0:2:0:0:
119,129,70396,1,4,0:2:0:0:
123,151,70481,1,2,3:0:0:0:
240,265,70652,2,0,B|220:217|220:217|244:120,1,136.499993751526,8|0,0:3|0:0,0:0:0:0:
327,38,70993,6,0,P|327:94|333:190,1,136.499993751526,2|0,3:0|0:0,0:0:0:0:
433,255,71334,2,0,L|437:199,1,45.4999979171754,8|0,0:3|0:0,0:0:0:0:
462,141,71504,1,0,0:0:0:0:
360,193,71674,1,2,0:3:0:0:
349,189,71760,1,0,0:0:0:0:
338,186,71845,1,0,3:0:0:0:
246,295,72015,2,0,L|352:278,1,90.9999958343508,8|0,0:3|0:0,0:0:0:0:
387,343,72271,5,0,0:0:0:0:
380,359,72356,1,2,3:0:0:0:
452,260,72527,2,0,L|465:358,1,90.9999958343508,2|8,3:0|0:3,0:0:0:0:
287,222,72868,2,0,L|266:373,1,136.499993751526,2|0,0:3|0:0,0:0:0:0:
189,384,73209,2,0,L|181:337,1,45.4999979171754,2|0,3:0|0:0,0:0:0:0:
91,252,73379,1,8,0:3:0:0:
113,249,73464,1,4,0:2:0:0:
136,246,73549,1,4,0:2:0:0:
158,243,73635,1,4,0:2:0:0:
183,240,73720,6,0,P|198:179|140:124,1,136.499993751526,2|0,3:0|0:0,0:0:0:0:
43,83,74061,2,0,L|90:70,1,45.4999979171754,8|0,0:3|0:0,0:0:0:0:
154,32,74231,1,0,0:0:0:0:
248,71,74402,1,2,0:3:0:0:
245,82,74487,1,0,0:0:0:0:
243,93,74572,1,0,3:0:0:0:
360,214,74743,2,0,P|348:155|340:74,1,136.499993751526,8|0,0:3|0:0,0:0:0:0:
406,11,75084,5,2,3:0:0:0:
512,106,75254,2,0,L|421:97,1,90.9999958343508,0|8,0:0|0:3,0:0:0:0:
277,207,75595,2,0,L|368:198,1,90.9999958343508,2|0,0:3|3:0,0:0:0:0:
434,229,75851,1,0,0:0:0:0:
445,239,75936,1,2,0:3:0:0:
352,377,76106,2,0,L|369:278,1,90.9999958343508,8|0,0:3|0:0,0:0:0:0:
196,142,76447,6,0,B|172:189|172:189|188:280,1,136.499993751526,6|0,3:0|0:0,0:0:0:0:
226,361,76788,2,0,L|178:349,1,45.4999979171754,8|0,0:3|0:0,0:0:0:0:
104,358,76959,1,0,0:0:0:0:
74,283,77129,1,2,0:3:0:0:
85,281,77214,1,0,0:0:0:0:
96,279,77299,1,0,3:0:0:0:
29,152,77470,1,8,0:3:0:0:
0,246,77640,1,0,0:0:0:0:
17,139,77811,5,2,0:3:0:0:
135,189,77981,2,0,L|128:88,1,90.9999958343508,0|8,3:0|0:3,0:0:0:0:
265,9,78322,1,2,0:3:0:0:
322,113,78493,1,0,0:0:0:0:
299,108,78578,1,0,0:0:0:0:
277,103,78663,1,2,3:0:0:0:
414,53,78834,1,8,0:3:0:0:
438,76,78919,1,4,0:2:0:0:
450,107,79004,1,4,0:2:0:0:
446,141,79089,1,4,0:2:0:0:
428,169,79174,6,0,P|420:222|412:329,1,136.499993751526,2|0,3:0|0:0,0:0:0:0:
508,379,79515,2,0,L|503:327,1,45.4999979171754,8|0,0:3|0:0,0:0:0:0:
512,259,79686,1,0,0:0:0:0:
423,315,79856,1,2,0:3:0:0:
411,317,79941,1,0,0:0:0:0:
400,320,80027,1,0,3:0:0:0:
253,213,80197,2,0,L|359:228,1,90.9999958343508,8|0,0:3|0:0,0:0:0:0:
259,364,80538,5,2,0:3:0:0:
169,250,80709,2,0,P|176:293|180:340,1,90.9999958343508,2|8,3:0|0:3,0:0:0:0:
59,281,81049,1,2,0:3:0:0:
126,171,81220,1,0,0:0:0:0:
148,167,81305,1,0,0:0:0:0:
171,164,81390,1,2,3:0:0:0:
63,58,81561,1,8,0:3:0:0:
23,130,81731,1,0,0:0:0:0:
178,71,81902,6,0,B|219:54|250:76|240:83|271:108|313:92,1,136.499993751526,2|0,3:0|0:0,0:0:0:0:
415,138,82243,2,0,L|352:152,1,45.4999979171754,8|0,0:3|0:0,0:0:0:0:
295,191,82413,1,0,0:0:0:0:
292,105,82584,1,2,0:3:0:0:
294,82,82669,1,0,0:0:0:0:
297,59,82754,1,0,3:0:0:0:
512,37,82924,2,0,L|494:145,1,90.9999958343508,8|0,0:3|0:0,0:0:0:0:
367,260,83265,6,0,P|412:248|459:245,1,90.9999958343508,2|2,3:0|0:3,0:0:0:0:
358,351,83521,1,0,3:0:0:0:
334,335,83606,2,0,L|283:332,1,45.4999979171754,8|0,0:3|0:0,0:0:0:0:
200,289,83777,2,0,L|211:397,1,90.9999958343508,2|0,0:3|0:0,0:0:0:0:
123,238,84118,1,2,3:0:0:0:
261,188,84288,1,8,0:3:0:0:
238,184,84373,1,4,0:2:0:0:
216,181,84459,1,4,0:2:0:0:
193,177,84544,1,4,0:2:0:0:
171,174,84629,6,0,B|153:131|153:131|169:39,1,136.499993751526,2|0,3:0|0:0,0:0:0:0:
268,2,84970,2,0,L|271:63,1,45.4999979171754,8|0,0:3|0:0,0:0:0:0:
316,114,85140,1,2,3:0:0:0:
409,53,85311,1,2,0:3:0:0:
386,48,85396,1,0,0:0:0:0:
364,43,85481,1,0,0:3:0:0:
365,191,85652,2,0,P|414:174|454:165,1,90.9999958343508,8|0,0:3|0:0,0:0:0:0:
290,264,85993,5,2,3:0:0:0:
217,197,86163,1,2,0:3:0:0:
371,268,86334,1,8,0:3:0:0:
294,350,86504,1,4,0:2:0:0:
271,347,86589,1,4,0:2:0:0:
248,344,86674,1,4,0:2:0:0:
226,341,86760,1,4,0:2:0:0:
203,338,86845,1,2,3:0:0:0:
97,195,87015,2,0,P|108:260|119:365,1,168,8|0,0:3|0:0,0:0:0:0:
26,214,87356,6,0,B|65:202|96:168|96:168|126:200|186:202,1,168,2|2,0:3|0:3,0:0:0:0:
249,115,103720,5,2,3:0:0:0:
258,128,104061,1,0,3:0:0:0:
244,142,104402,1,2,3:0:0:0:
262,165,104743,1,0,3:0:0:0:
205,223,105084,1,2,3:0:0:0:
296,273,105424,1,2,3:0:0:0:
296,273,105595,1,2,0:3:0:0:
177,327,105765,1,0,3:0:0:0:
177,327,105851,1,0,0:0:0:0:
177,327,105936,1,2,0:3:0:0:
335,378,106106,1,0,3:0:0:0:
335,378,106277,2,0,L|344:335,1,28
438,212,106447,5,2,3:0:0:0:
339,181,106618,1,0,3:0:0:0:
308,280,106788,1,0,3:0:0:0:
407,311,106959,1,2,3:0:0:0:
256,211,107129,5,2,3:0:0:0:
253,197,107214,1,0,3:0:0:0:
250,184,107299,1,0,3:0:0:0:
317,100,107470,1,0,3:0:0:0:
167,12,107640,1,0,3:0:0:0:
41,131,107811,5,4,0:2:0:0:
46,165,107896,1,4,0:2:0:0:
51,200,107981,1,4,0:2:0:0:
56,234,108066,1,4,0:2:0:0:
77,259,108152,5,4,0:2:0:0:
80,238,108237,1,4,0:2:0:0:
83,217,108322,1,4,0:2:0:0:
87,196,108407,1,4,0:2:0:0:
111,179,108493,5,4,0:2:0:0:
112,190,108578,1,4,0:2:0:0:
114,201,108663,2,0,L|118:237,1,28,4|4,0:2|0:2,0:0:0:0:
101,71,108834,5,8,0:3:0:0:
90,82,109174,6,0,B|64:75|34:87|35:87|35:87|136:-5|217:75|195:88|261:170|373:99,1,392,4|0,3:0|0:0,0:0:0:0:
427,83,109856,6,0,L|408:182,1,90.9999958343508,2|0,0:3|3:0,0:0:0:0:
326,303,110197,2,0,L|320:255,1,45.4999979171754,10|0,0:3|0:0,0:0:0:0:
274,193,110368,1,2,0:3:0:0:
420,268,110538,2,0,P|402:318|392:366,1,90.9999958343508,2|0,0:3|3:0,0:0:0:0:
228,269,110879,5,10,0:3:0:0:
321,315,111049,1,2,0:3:0:0:
310,318,111134,1,0,0:0:0:0:
299,322,111220,1,0,0:3:0:0:
339,233,111390,1,0,3:0:0:0:
221,353,111561,1,10,0:3:0:0:
220,188,111731,2,0,P|235:237|241:276,1,90.9999958343508,0|2,0:0|3:0,0:0:0:0:
130,344,112072,1,2,0:3:0:0:
45,216,112243,2,0,L|143:234,1,90.9999958343508,8|0,0:3|0:0,0:0:0:0:
302,155,112584,6,0,B|281:112|281:112|301:19,1,136.499993751526,2|0,0:3|0:0,0:0:0:0:
416,8,112924,2,0,L|420:55,1,45.4999979171754,8|0,0:3|0:0,0:0:0:0:
463,120,113095,1,2,0:3:0:0:
377,218,113265,2,0,L|389:121,1,90.9999958343508,2|0,0:3|3:0,0:0:0:0:
285,269,113606,5,10,0:3:0:0:
438,286,113777,1,2,0:3:0:0:
441,296,113862,1,0,0:0:0:0:
444,307,113947,1,2,0:3:0:0:
362,362,114118,1,0,3:0:0:0:
362,211,114288,1,8,0:3:0:0:
344,372,114459,2,0,P|288:360|250:354,1,90.9999958343508,2|0,0:3|3:0,0:0:0:0:
116,341,114799,1,2,0:3:0:0:
205,221,114970,2,0,L|189:332,1,90.9999958343508,8|0,0:3|0:0,0:0:0:0:
57,173,115311,6,0,B|94:144|94:144|199:133,1,136.499993751526,2|0,0:3|0:0,0:0:0:0:
295,108,115652,2,0,L|244:86,1,45.4999979171754,10|0,0:3|0:0,0:0:0:0:
193,35,115822,1,2,0:3:0:0:
327,15,115993,1,2,3:0:0:0:
329,179,116163,1,0,3:0:0:0:
344,26,116334,6,0,L|449:12,1,90.9999958343508,10|2,0:3|0:3,0:0:0:0:
509,157,116674,1,4,0:2:0:0:
475,157,116759,1,4,0:2:0:0:
445,173,116845,1,4,3:2:0:0:
427,202,116929,1,4,0:2:0:0:
424,235,117014,1,8,0:3:0:0:
340,373,117186,2,0,P|336:321|329:278,1,90.9999958343508,2|0,0:3|3:0,0:0:0:0:
254,232,117527,1,2,0:3:0:0:
125,303,117697,2,0,L|239:315,1,90.9999958343508,8|2,0:3|0:3,0:0:0:0:
21,287,118038,5,2,0:3:0:0:
23,297,118123,1,0,0:0:0:0:
26,308,118208,1,0,3:0:0:0:
131,198,118379,2,0,P|119:240|115:299,1,90.9999958343508,10|2,0:3|0:3,0:0:0:0:
47,133,118720,5,2,3:0:0:0:
113,201,118890,1,0,0:0:0:0:
179,55,119061,1,10,0:3:0:0:
134,123,119231,1,0,0:0:0:0:
227,221,119402,2,0,L|212:128,1,90.9999958343508,2|0,3:0|0:0,0:0:0:0:
331,11,119743,1,8,0:3:0:0:
467,42,119913,2,0,L|447:149,1,90.9999958343508,2|0,0:3|3:0,0:0:0:0:
411,209,120254,1,2,0:3:0:0:
512,299,120424,2,0,P|509:247|499:210,1,90.9999958343508,8|0,0:3|0:0,0:0:0:0:
294,257,120765,6,0,B|332:241|369:270|354:277|377:298|422:292,1,136.499993751526,2|0,0:3|0:0,0:0:0:0:
297,340,121106,2,0,L|239:328,1,45.4999979171754,10|0,0:3|0:0,0:0:0:0:
179,300,121277,1,2,0:3:0:0:
237,181,121447,2,0,P|284:173|331:160,1,90.9999958343508,2|0,0:3|3:0,0:0:0:0:
192,113,121788,5,10,0:3:0:0:
155,210,121959,1,2,0:3:0:0:
110,107,122129,1,2,0:3:0:0:
108,95,122214,1,0,0:0:0:0:
107,84,122299,1,2,3:0:0:0:
273,18,122470,1,8,0:3:0:0:
200,122,122640,1,2,0:3:0:0:
179,39,122811,1,0,3:0:0:0:
317,123,122981,2,0,L|299:218,1,90.9999958343508,2|8,0:3|0:3,0:0:0:0:
223,314,123322,1,2,0:3:0:0:
353,296,123493,5,2,0:3:0:0:
341,294,123578,1,0,0:0:0:0:
330,292,123663,1,2,3:0:0:0:
454,345,123834,2,0,P|446:287|444:254,1,90.9999958343508,10|0,0:3|0:0,0:0:0:0:
499,136,124174,1,2,0:3:0:0:
427,175,124345,1,2,3:0:0:0:
353,50,124515,1,10,0:3:0:0:
427,94,124686,1,2,0:3:0:0:
331,214,124856,5,4,0:2:0:0:
335,191,124941,1,4,0:2:0:0:
339,169,125026,1,4,3:2:0:0:
343,146,125111,1,4,0:2:0:0:
347,124,125196,1,10,0:3:0:0:
201,26,125368,2,0,P|212:77|218:125,1,90.9999958343508,2|0,0:3|3:0,0:0:0:0:
112,232,125709,1,2,0:3:0:0:
39,115,125879,2,0,L|145:131,1,90.9999958343508,8|2,0:3|0:3,0:0:0:0:
249,240,126220,5,2,0:3:0:0:
246,228,126305,1,0,0:0:0:0:
244,217,126390,1,2,3:0:0:0:
165,341,126561,1,2,0:3:0:0:
274,320,126731,1,2,0:3:0:0:
86,305,126902,5,2,3:0:0:0:
230,384,127072,1,0,3:0:0:0:
166,231,127243,2,0,P|160:280|161:324,1,90.9999958343508,8|0,0:3|0:0,0:0:0:0:
40,214,127584,1,2,0:3:0:0:
37,202,127669,1,0,0:0:0:0:
35,191,127754,1,0,3:0:0:0:
208,141,127924,1,8,0:3:0:0:
129,26,128095,5,4,0:2:0:0:
124,59,128180,1,4,0:2:0:0:
120,93,128265,1,4,3:2:0:0:
115,127,128350,1,4,0:2:0:0:
111,161,128435,1,4,0:2:0:0:
274,72,128606,2,0,L|386:60,1,90.9999958343508,8|2,0:3|3:0,0:0:0:0:
480,193,128947,5,2,0:3:0:0:
480,193,129032,1,0,0:0:0:0:
480,193,129118,1,0,0:0:0:0:
344,151,129288,1,2,0:3:0:0:
457,79,129459,1,2,0:3:0:0:
392,226,129629,5,4,3:2:0:0:
388,259,129714,1,4,0:2:0:0:
386,294,129799,1,4,0:2:0:0:
385,328,129884,1,4,0:2:0:0:
384,362,129969,1,10,0:3:0:0:
512,270,130140,1,2,0:3:0:0:
484,173,130311,5,4,0:2:0:0:
461,167,130396,1,4,0:2:0:0:
439,162,130481,1,4,0:2:0:0:
257,83,130652,5,4,0:2:0:0:
279,44,130737,1,4,0:2:0:0:
321,29,130822,1,4,0:2:0:0:
363,45,130907,1,4,0:2:0:0:
363,45,131334,6,0,L|350:104,1,45.4999979171754,10|0,0:3|0:0,0:0:0:0:
308,156,131504,2,0,L|318:209,1,45.4999979171754,2|0,0:3|0:0,0:0:0:0:
358,278,131674,2,0,L|341:374,1,90.9999958343508,2|0,0:3|3:0,0:0:0:0:
173,229,132015,1,10,0:3:0:0:
241,282,132186,1,2,0:3:0:0:
157,229,132356,2,0,P|111:235|50:233,2,90.9999958343508,2|0|8,0:3|3:0|0:3,0:0:0:0:
197,147,132868,1,0,0:0:0:0:
101,72,133038,5,2,0:3:0:0:
104,94,133123,1,0,0:0:0:0:
108,116,133208,1,0,3:0:0:0:
233,0,133379,1,10,0:3:0:0:
188,71,133549,1,2,0:3:0:0:
284,102,133720,2,0,L|378:88,1,90.9999958343508,2|0,3:0|0:0,0:0:0:0:
508,205,134061,6,0,L|458:196,1,45.4999979171754,10|0,0:3|0:0,0:0:0:0:
365,268,134231,2,0,L|415:259,1,45.4999979171754,2|0,0:3|0:0,0:0:0:0:
505,220,134402,2,0,L|494:315,1,90.9999958343508,2|0,0:3|3:0,0:0:0:0:
365,375,134743,1,10,0:3:0:0:
284,323,134913,1,2,0:3:0:0:
195,362,135084,2,0,L|103:345,2,90.9999958343508,2|0|8,0:3|3:0|0:3,0:0:0:0:
159,278,135595,1,0,0:0:0:0:
234,239,135765,5,2,0:3:0:0:
256,235,135850,1,0,0:0:0:0:
278,231,135935,1,0,3:0:0:0:
296,106,136106,1,10,0:3:0:0:
221,156,136277,1,2,0:3:0:0:
295,93,136447,2,0,P|231:78|198:64,1,90.9999958343508,2|0,3:0|0:0,0:0:0:0:
56,20,136788,6,0,P|63:45|66:68,1,45.4999979171754,10|0,0:3|0:0,0:0:0:0:
126,146,136959,2,0,P|133:121|136:98,1,45.4999979171754,2|0,0:3|0:0,0:0:0:0:
16,141,137129,2,0,L|25:234,1,90.9999958343508,2|0,0:3|3:0,0:0:0:0:
121,348,137470,1,10,0:3:0:0:
120,256,137640,1,2,0:3:0:0:
103,344,137811,2,0,P|150:336|203:321,2,90.9999958343508,2|0|8,3:0|3:0|0:3,0:0:0:0:
16,312,138322,1,0,0:0:0:0:
128,248,138493,5,2,0:3:0:0:
131,225,138578,1,0,0:0:0:0:
134,202,138663,1,0,3:0:0:0:
77,130,138834,1,10,0:3:0:0:
164,82,139004,1,2,0:3:0:0:
59,16,139174,2,0,L|164:1,1,90.9999958343508,2|2,3:0|0:3,0:0:0:0:
330,39,139515,6,0,B|317:92,1,45.4999979171754,10|0,0:3|0:0,0:0:0:0:
258,195,139686,2,0,B|245:142,1,45.4999979171754,2|0,0:3|0:0,0:0:0:0:
343,29,139856,2,0,L|358:131,1,90.9999958343508,2|0,0:3|3:0,0:0:0:0:
351,241,140197,1,10,0:3:0:0:
426,182,140368,1,2,0:3:0:0:
498,252,140538,2,0,P|483:300|471:353,2,90.9999958343508,2|0|8,3:0|0:0|0:3,0:0:0:0:
392,314,141049,1,0,0:0:0:0:
335,239,141220,5,2,3:0:0:0:
312,241,141305,1,0,0:0:0:0:
289,244,141390,1,0,0:0:0:0:
222,139,141561,1,10,0:3:0:0:
176,217,141731,1,2,0:3:0:0:
237,131,141902,2,0,P|291:151|327:159,1,90.9999958343508,2|0,3:0|0:0,0:0:0:0:
191,0,142243,6,0,P|184:27|181:45,1,45.4999979171754,10|0,0:3|0:0,0:0:0:0:
298,68,142413,2,0,P|295:47|288:23,1,45.4999979171754,2|0,0:3|0:0,0:0:0:0:
191,51,142584,2,0,L|84:58,1,90.9999958343508,2|0,0:3|3:0,0:0:0:0:
37,222,142924,1,10,0:3:0:0:
119,172,143095,1,2,0:3:0:0:
110,255,143265,2,0,L|127:350,2,90.9999958343508,2|0|8,0:3|3:0|0:3,0:0:0:0:
187,234,143777,1,0,0:0:0:0:
253,187,143947,5,2,0:3:0:0:
275,182,144032,1,0,0:0:0:0:
297,178,144117,1,0,3:0:0:0:
364,309,144288,1,10,0:3:0:0:
287,270,144459,1,2,0:3:0:0:
387,207,144629,2,0,L|479:237,1,90.9999958343508,2|0,3:0|0:0,0:0:0:0:
399,103,144970,6,0,L|350:115,1,45.4999979171754,2|0,0:3|0:0,0:0:0:0:
468,15,145140,2,0,L|517:27,1,45.4999979171754,2|0,0:3|0:0,0:0:0:0:
388,88,145311,2,0,L|266:80,1,90.9999958343508,2|0,0:3|3:0,0:0:0:0:
137,57,145652,1,10,0:3:0:0:
203,119,145822,1,2,0:3:0:0:
122,57,145993,2,0,P|130:114|135:165,2,90.9999958343508,2|0|8,0:3|3:0|0:3,0:0:0:0:
50,119,146504,1,0,0:0:0:0:
77,209,146674,5,2,0:3:0:0:
82,231,146759,1,0,0:0:0:0:
87,253,146844,1,0,3:0:0:0:
199,280,147015,1,10,0:3:0:0:
125,360,147186,1,2,0:3:0:0:
212,294,147356,2,0,L|318:286,1,90.9999958343508,2|0,3:0|0:0,0:0:0:0:
471,212,147697,6,0,L|463:261,1,45.4999979171754,10|0,0:3|0:0,0:0:0:0:
385,324,147868,2,0,L|377:275,1,45.4999979171754,2|0,0:3|0:0,0:0:0:0:
485,200,148038,2,0,L|366:182,1,90.9999958343508,2|0,0:3|3:0,0:0:0:0:
278,122,148379,1,10,0:3:0:0:
368,88,148549,1,2,0:3:0:0:
295,40,148720,2,0,P|244:24|204:18,1,90.9999958343508,2|0,3:0|0:0,0:0:0:0:
136,69,148976,5,0,3:0:0:0:
146,93,149061,1,8,0:3:0:0:
93,174,149231,1,0,0:0:0:0:
183,262,149402,1,2,0:3:0:0:
187,239,149487,1,0,0:0:0:0:
192,217,149572,1,0,3:0:0:0:
278,160,149743,1,10,0:3:0:0:
333,223,149913,1,2,0:3:0:0:
463,151,150084,5,2,3:0:0:0:
256,192,150169,12,0,152811,0:0:0:0:
