osu file format v14

[General]
AudioFilename: ga.mp3
AudioLeadIn: 0
PreviewTime: 43720
Countdown: 0
SampleSet: Soft
StackLeniency: 0.4
Mode: 0
LetterboxInBreaks: 0
WidescreenStoryboard: 1

[Editor]
Bookmarks: 65538,87356,98265
DistanceSpacing: 1.5
BeatDivisor: 4
GridSize: 8
TimelineZoom: 1.7

[Metadata]
Title:Ghost Assassin (Hourglass Bonusmix)
TitleUnicode:Ghost Assassin (Hourglass Bonusmix)
Artist:Maduk feat. Veela
ArtistUnicode:Maduk feat. Veela
Creator:_tranquility
Version:DuckRadio's Insane
Source:
Tags:drum and bass dnb liquid remix english Nelliel Alumetri Ksardas Sersh4nt DuckRadio
BeatmapID:2003655
BeatmapSetID:953367

[Difficulty]
HPDrainRate:5
CircleSize:4
OverallDifficulty:8.5
ApproachRate:9
SliderMultiplier:2
SliderTickRate:1

[Events]
//Background and Video events
0,0,"bg.jpg",0,0
//Break Periods
2,87548,97657
//Storyboard Layer 0 (Background)
//Storyboard Layer 1 (Fail)
//Storyboard Layer 2 (Pass)
//Storyboard Layer 3 (Foreground)
//Storyboard Sound Samples

[TimingPoints]
76,340.909090909091,4,2,1,20,1,0
21894,-200,4,2,1,40,0,0
23172,-200,4,2,1,40,0,0
23257,-133.333333333333,4,2,1,40,0,0
24280,-200,4,2,1,40,0,0
24536,-200,4,2,1,40,0,0
24621,-133.333333333333,4,2,1,40,0,0
25644,-200,4,2,1,40,0,0
25899,-200,4,2,1,40,0,0
25985,-133.333333333333,4,2,1,40,0,0
27007,-200,4,2,1,40,0,0
27263,-200,4,2,1,40,0,0
27348,-133.333333333333,4,2,1,40,0,0
28371,-166.666666666667,4,2,1,40,0,0
29735,-166.666666666667,4,2,1,40,0,0
32462,-166.666666666667,4,2,1,40,0,0
32803,-333.333333333333,4,2,1,30,0,0
34166,-250,4,2,1,20,0,0
35530,-200,4,2,1,30,0,0
36894,-153.846153846154,4,2,1,30,0,0
38257,-133.333333333333,4,2,2,50,0,0
40985,-100,4,2,2,50,0,0
41666,-100,4,2,2,60,0,0
42348,-100,4,2,8,60,0,0
42689,-100,4,2,9,60,0,0
43030,-100,4,2,10,60,0,0
43371,-100,4,2,2,70,0,0
43712,-100,4,2,2,70,0,1
43968,-100,4,2,2,70,0,1
44053,-100,4,2,2,70,0,1
44649,-100,4,2,2,70,0,1
44735,-100,4,2,2,70,0,1
45587,-125,4,2,2,70,0,1
45843,-100,4,2,2,70,0,1
45928,-111.111111111111,4,2,2,70,0,1
46183,-100,4,2,2,70,0,1
46269,-111.111111111111,4,2,2,70,0,1
46439,-100,4,2,2,70,0,1
47121,-125,4,2,2,70,0,1
47377,-100,4,2,2,70,0,1
47462,-111.111111111111,4,2,2,70,0,1
47718,-100,4,2,2,70,0,1
47803,-111.111111111111,4,2,2,70,0,1
47973,-125,4,2,2,70,0,1
48229,-100,4,2,2,70,0,1
48314,-111.111111111111,4,2,2,70,0,1
48570,-100,4,2,2,70,0,1
48655,-100,4,2,2,70,0,1
48911,-100,4,2,2,70,0,1
48996,-100,4,2,2,70,0,1
51041,-125,4,2,2,70,0,1
51297,-100,4,2,2,70,0,1
51382,-111.111111111111,4,2,2,70,0,1
51638,-100,4,2,2,70,0,1
51723,-111.111111111111,4,2,2,70,0,1
52235,-100,4,2,2,70,0,1
53769,-125,4,2,2,70,0,1
54024,-100,4,2,2,70,0,1
54110,-111.111111111111,4,2,2,70,0,1
54365,-100,4,2,2,70,0,1
54451,-111.111111111111,4,2,2,70,0,1
54621,-100,4,2,2,70,0,1
56496,-125,4,2,2,70,0,1
56752,-100,4,2,2,70,0,1
56837,-111.111111111111,4,2,2,70,0,1
57093,-100,4,2,2,70,0,1
57178,-111.111111111111,4,2,2,70,0,1
57348,-100,4,2,2,70,0,1
59223,-125,4,2,2,70,0,1
59479,-100,4,2,2,70,0,1
59564,-111.111111111111,4,2,2,70,0,1
59820,-100,4,2,2,70,0,1
59905,-111.111111111111,4,2,2,70,0,1
60076,-100,4,2,2,70,0,1
60757,-125,4,2,2,70,0,1
61013,-100,4,2,2,70,0,1
61098,-111.111111111111,4,2,2,70,0,1
61354,-100,4,2,2,70,0,1
61439,-111.111111111111,4,2,2,70,0,1
61951,-125,4,2,2,70,0,1
62206,-100,4,2,2,70,0,1
62291,-111.111111111111,4,2,2,70,0,1
62547,-100,4,2,2,70,0,1
62632,-111.111111111111,4,2,2,70,0,1
62803,-100,4,2,2,70,0,1
64848,-100,4,2,2,40,0,1
65189,-133.333333333333,4,2,2,40,0,1
65530,-333.333333333333,4,2,2,70,0,0
65786,-100,4,2,2,70,0,0
65871,-100,4,2,2,70,0,0
85985,-100,4,2,2,60,0,0
86666,-133.333333333333,4,2,2,60,0,0
87348,-100,4,2,1,50,0,0
98257,-200,4,2,1,50,0,0
100985,-133.333333333333,4,2,1,40,0,0
102348,-133.333333333333,4,2,1,30,0,0
103712,-100,4,2,2,50,0,0
106439,-100,4,2,2,50,0,0
107121,-100,4,2,2,60,0,0
107803,-100,4,2,8,60,0,0
108144,-100,4,2,9,60,0,0
108485,-100,4,2,10,60,0,0
108826,-100,4,2,2,70,0,0
109166,-100,4,2,2,70,0,1
111723,-125,4,2,2,70,0,1
111979,-125,4,2,2,70,0,1
112064,-111.111111111111,4,2,2,70,0,1
112320,-125,4,2,2,70,0,1
112405,-111.111111111111,4,2,2,70,0,1
112576,-100,4,2,2,70,0,1
114451,-125,4,2,2,70,0,1
114706,-125,4,2,2,70,0,1
114791,-111.111111111111,4,2,2,70,0,1
115047,-125,4,2,2,70,0,1
115132,-111.111111111111,4,2,2,70,0,1
115985,-100,4,2,2,70,0,1
117178,-125,4,2,2,70,0,1
117433,-125,4,2,2,70,0,1
117519,-111.111111111111,4,2,2,70,0,1
117774,-125,4,2,2,70,0,1
117860,-111.111111111111,4,2,2,70,0,1
118030,-100,4,2,2,70,0,1
119905,-125,4,2,2,70,0,1
120161,-125,4,2,2,70,0,1
120246,-111.111111111111,4,2,2,70,0,1
120502,-125,4,2,2,70,0,1
120587,-111.111111111111,4,2,2,70,0,1
120757,-100,4,2,2,70,0,1
122632,-125,4,2,2,70,0,1
122888,-125,4,2,2,70,0,1
122973,-111.111111111111,4,2,2,70,0,1
123229,-125,4,2,2,70,0,1
123314,-111.111111111111,4,2,2,70,0,1
124166,-100,4,2,2,70,0,1
125360,-125,4,2,2,70,0,1
125615,-125,4,2,2,70,0,1
125701,-111.111111111111,4,2,2,70,0,1
125956,-125,4,2,2,70,0,1
126041,-111.111111111111,4,2,2,70,0,1
126212,-100,4,2,2,70,0,1
128087,-125,4,2,2,70,0,1
128343,-125,4,2,2,70,0,1
128428,-111.111111111111,4,2,2,70,0,1
128683,-125,4,2,2,70,0,1
128769,-100,4,2,2,70,0,1
129706,-100,4,2,1,70,0,1
129962,-100,4,2,2,70,0,1
130047,-100,4,2,1,70,0,1
130303,-133.333333333333,4,2,2,50,0,1
130985,-133.333333333333,4,2,2,50,0,0
131326,-100,4,2,2,55,0,0
152803,-100,4,2,1,55,0,0

[Colours]
Combo1 : 131,189,233
Combo2 : 143,91,215
Combo3 : 174,105,207
Combo4 : 52,120,222

[HitObjects]
256,192,19166,12,0,21808,0:0:0:0:
458,20,21894,6,0,P|455:70|471:133,1,100,0|8,3:0|0:2,0:0:0:0:
465,118,22576,5,0,0:0:0:0:
378,165,22746,1,2,0:2:0:0:
500,243,22916,2,0,L|410:242,1,75,8|0,0:2|0:0,0:0:0:0:
407,243,23257,6,0,B|370:238|342:271|342:277|342:284|303:301|263:294,1,150.000005722046,2|8,0:2|0:2,0:0:0:0:
271,295,24110,5,2,0:2:0:0:
183,384,24280,2,0,L|177:300,1,75,8|0,0:2|0:0,0:0:0:0:
176,298,24621,2,0,P|114:290|46:356,1,150.000005722046,2|8,0:2|0:2,0:0:0:0:
50,343,25473,5,2,0:2:0:0:
39,206,25644,2,0,P|92:204|125:179,1,75,8|0,0:2|0:0,0:0:0:0:
120,189,25985,2,0,B|142:156|133:119|128:119|122:119|114:79|134:44,1,150.000005722046,2|8,0:2|0:2,0:0:0:0:
133,45,26837,5,2,0:2:0:0:
44,76,27007,2,0,L|49:161,1,75,8|0,0:2|0:0,0:0:0:0:
50,164,27348,2,0,P|85:132|184:149,1,150.000005722046,2|8,0:2|0:2,0:0:0:0:
180,145,28201,5,2,0:2:0:0:
301,260,28371,2,0,P|296:228|309:188,1,59.9999981689454,8|0,0:2|0:0,0:0:0:0:
423,79,28712,2,0,P|447:148|428:210,1,119.999996337891,2|8,0:2|0:2,0:0:0:0:
437,192,29564,5,2,0:2:0:0:
310,144,29735,2,0,P|358:142|389:156,1,59.9999981689454,8|0,0:2|0:0,0:0:0:0:
232,199,30076,2,0,P|223:119|256:67,1,119.999996337891,2|8,0:2|0:2,0:0:0:0:
239,85,30928,5,2,0:2:0:0:
232,199,31098,2,0,L|238:271,1,59.9999981689454,8|0,0:2|0:0,0:0:0:0:
210,331,31439,2,0,B|240:348|272:338|272:331|271:326|314:315|336:333,1,119.999996337891,2|8,0:2|0:2,0:0:0:0:
325,327,32291,5,2,0:2:0:0:
416,256,32462,2,0,L|412:341,1,59.9999981689454,8|0,0:2|0:0,0:0:0:0:
390,170,32803,6,0,B|384:137|384:137|385:106,3,59.9999981689454,2|2|2|2,0:2|0:2|0:2|0:2,0:0:0:0:
347,42,34166,6,0,P|387:32|435:48,3,80,2|2|2|2,0:2|0:2|0:2|0:2,0:0:0:0:
283,91,35530,6,0,L|180:87,1,100,2|2,0:2|0:2,0:0:0:0:
113,170,36212,2,0,L|216:166,1,100,2|2,0:2|0:2,0:0:0:0:
17,19,36894,2,0,P|-8:78|17:151,1,129.999994049073,2|2,0:2|0:2,0:0:0:0:
49,226,37576,2,0,P|74:285|48:366,1,129.999994049073,2|2,0:2|0:2,0:0:0:0:
60,347,38257,6,0,P|84:287|172:252,1,150.000005722046,2|2,0:2|0:2,0:0:0:0:
257,285,38939,1,2,0:2:0:0:
298,380,39280,1,2,0:2:0:0:
322,184,39621,2,0,B|359:217|359:217|375:343,1,150.000005722046,2|2,0:2|0:2,0:0:0:0:
493,165,40303,1,2,0:2:0:0:
472,275,40644,1,2,0:2:0:0:
398,133,40985,6,0,P|391:79|395:28,1,100,2|2,0:2|0:2,0:0:0:0:
322,184,41326,1,2,0:2:0:0:
297,63,41496,1,2,0:2:0:0:
134,168,41666,2,0,L|256:157,1,100,2|2,0:2|0:2,0:0:0:0:
301,320,42007,1,2,0:2:0:0:
322,184,42178,1,2,0:2:0:0:
94,261,42348,5,8,0:2:0:0:
69,232,42433,1,8,0:2:0:0:
53,198,42519,1,8,0:2:0:0:
48,161,42604,1,8,0:2:0:0:
54,124,42689,2,0,L|49:65,3,50,8|8|8|8,0:2|0:2|0:2|0:2,0:0:0:0:
136,33,43030,2,0,L|131:92,3,50,8|8|8|8,0:2|0:2|0:2|0:2,0:0:0:0:
26,0,43371,5,8,0:2:0:0:
255,0,43712,6,0,L|269:155,1,150,4|0,0:2|0:0,0:0:0:0:
270,163,44053,1,8,0:2:0:0:
384,75,44223,1,0,0:0:0:0:
315,258,44394,2,0,P|255:261|174:173,1,150,0|0,0:0|0:0,0:0:0:0:
183,195,44735,1,8,0:2:0:0:
162,352,44905,1,0,0:0:0:0:
74,178,45076,6,0,L|80:289,1,100,0|2,0:0|0:2,0:0:0:0:
10,117,45416,1,8,0:2:0:0:
160,130,45587,2,0,P|197:77|190:2,1,120,0|0,0:0|0:0,0:0:0:0:
194,8,45928,2,0,P|221:66|288:105,1,134.999995880127,2|0,0:2|0:0,0:0:0:0:
295,101,46269,1,0,0:0:0:0:
388,2,46439,6,0,L|381:108,1,100,2|0,0:2|0:0,0:0:0:0:
416,179,46780,1,8,0:2:0:0:
416,179,46951,1,0,0:0:0:0:
450,353,47121,2,0,P|400:316|319:323,1,120,0|0,0:0|0:0,0:0:0:0:
332,324,47462,2,0,L|316:182,1,134.999995880127,8|0,0:2|0:0,0:0:0:0:
314,177,47803,5,0,0:0:0:0:
242,358,47973,2,0,P|241:294|206:225,1,120,2|0,0:2|0:0,0:0:0:0:
205,234,48314,2,0,P|140:258|66:227,1,134.999995880127,2|0,0:0|0:0,0:0:0:0:
71,226,48655,2,0,L|63:67,1,150,2|0,0:2|0:0,0:0:0:0:
62,62,48996,1,0,0:0:0:0:
187,127,49166,5,2,0:2:0:0:
187,127,49337,1,0,0:0:0:0:
279,0,49507,2,0,L|277:102,1,100,8|0,0:2|0:0,0:0:0:0:
358,201,49848,1,0,0:0:0:0:
358,201,50019,1,2,0:2:0:0:
432,128,50189,1,8,0:2:0:0:
421,23,50360,1,0,0:0:0:0:
358,201,50530,6,0,P|405:236|476:230,1,100,2|2,0:2|0:2,0:0:0:0:
359,81,50871,1,8,0:2:0:0:
248,178,51041,2,0,P|251:236|292:302,1,120,0|0,0:0|0:0,0:0:0:0:
291,302,51382,2,0,P|219:294|139:330,1,134.999995880127,2|0,0:2|0:0,0:0:0:0:
151,324,51723,1,0,0:0:0:0:
88,194,51894,5,2,0:2:0:0:
88,194,52064,1,0,0:0:0:0:
30,365,52235,2,0,L|19:248,1,100,8|0,0:2|0:0,0:0:0:0:
10,113,52576,1,0,0:0:0:0:
10,113,52746,1,2,0:2:0:0:
154,23,52916,2,0,P|85:40|42:21,1,100,8|0,0:2|0:0,0:0:0:0:
245,27,53257,5,2,0:2:0:0:
310,212,53428,2,0,P|320:158|308:108,1,100,0|8,0:0|0:2,0:0:0:0:
327,337,53769,2,0,L|463:323,1,120,0|0,0:0|0:0,0:0:0:0:
464,328,54110,2,0,P|445:284|466:180,1,134.999995880127,2|0,0:2|0:0,0:0:0:0:
463,188,54451,1,0,0:0:0:0:
375,49,54621,6,0,L|384:163,1,100,2|0,0:2|0:0,0:0:0:0:
293,17,54962,1,8,0:2:0:0:
293,17,55132,1,0,0:0:0:0:
251,207,55303,2,0,L|243:92,1,100,0|2,0:0|0:2,0:0:0:0:
189,275,55644,2,0,P|234:299|285:294,1,100,8|0,0:2|0:0,0:0:0:0:
440,265,55985,6,0,L|437:375,1,100,0|2,0:0|0:2,0:0:0:0:
355,208,56326,1,8,0:2:0:0:
512,144,56496,2,0,P|441:129|404:81,1,120,0|0,0:0|0:0,0:0:0:0:
411,84,56837,2,0,P|352:96|288:64,1,134.999995880127,2|0,0:2|0:0,0:0:0:0:
282,54,57178,1,0,0:0:0:0:
214,231,57348,6,0,L|205:120,1,100,2|0,0:2|0:0,0:0:0:0:
144,24,57689,1,8,0:2:0:0:
144,24,57860,1,0,0:0:0:0:
112,186,58030,2,0,P|56:218|0:210,1,100,0|2,0:0|0:2,0:0:0:0:
84,92,58371,1,8,0:2:0:0:
136,272,58541,1,0,0:0:0:0:
296,152,58712,6,0,L|288:256,1,100,0|2,0:0|0:2,0:0:0:0:
368,24,59053,1,8,0:2:0:0:
512,184,59223,2,0,P|440:184|400:144,1,120,0|0,0:0|0:0,0:0:0:0:
404,143,59564,2,0,L|410:289,1,134.999995880127,2|0,0:2|0:0,0:0:0:0:
411,290,59905,1,0,0:0:0:0:
312,104,60076,6,0,L|304:219,1,100,2|0,0:2|0:0,0:0:0:0:
240,312,60416,1,8,0:2:0:0:
240,312,60587,1,0,0:0:0:0:
112,181,60757,2,0,P|75:233|79:301,1,120,0|0,0:0|0:0,0:0:0:0:
82,297,61098,2,0,P|70:239|11:182,1,134.999995880127,8|0,0:2|0:0,0:0:0:0:
5,181,61439,5,2,0:2:0:0:
104,64,61610,1,2,0:2:0:0:
168,264,61780,1,8,0:2:0:0:
232,88,61951,2,0,P|298:58|370:72,1,120,0|0,0:0|0:0,0:0:0:0:
356,68,62291,2,0,L|364:212,1,134.999995880127,2|0,0:2|0:0,0:0:0:0:
365,213,62632,1,0,0:0:0:0:
497,343,62803,6,0,P|453:353|384:320,1,100,2|0,0:2|0:0,0:0:0:0:
279,199,63144,1,8,0:2:0:0:
279,199,63314,1,2,0:2:0:0:
248,352,63485,1,0,0:0:0:0:
180,173,63655,1,0,0:0:0:0:
180,281,63826,1,8,0:2:0:0:
248,102,63996,1,0,0:0:0:0:
91,296,64166,6,0,P|35:296|-8:273,1,100,2|0,0:2|0:0,0:0:0:0:
39,71,64507,1,8,0:2:0:0:
60,201,64678,1,0,0:0:0:0:
173,33,64848,5,2,0:2:0:0:
215,7,64933,1,2,0:2:0:0:
265,4,65019,1,2,0:2:0:0:
310,24,65104,1,2,0:2:0:0:
341,63,65189,2,0,L|344:104,3,37.5000014305115,8|2|2|2,0:2|0:2|0:2|0:2,0:0:0:0:
360,120,65530,6,0,L|357:171,1,44.999998626709,4|0,0:1|0:0,0:0:0:0:
384,248,65871,5,12,0:2:0:0:
384,248,66041,1,0,0:0:0:0:
279,384,66212,2,0,L|275:280,1,100,0|2,0:0|0:2,0:0:0:0:
192,160,66553,1,8,0:2:0:0:
192,160,66723,1,0,0:0:0:0:
77,275,66894,6,0,P|139:280|187:254,1,100,0|2,0:0|0:2,0:0:0:0:
146,78,67235,1,8,0:2:0:0:
16,216,67405,2,0,P|-4:260|13:337,1,100,0|0,0:0|0:0,0:0:0:0:
236,325,67746,2,0,P|256:281|239:204,1,100,2|8,0:2|0:2,0:0:0:0:
199,138,68087,1,0,0:0:0:0:
335,298,68257,6,0,P|380:308|437:291,1,100,2|0,0:2|0:0,0:0:0:0:
485,128,68598,1,8,0:2:0:0:
485,128,68769,1,0,0:0:0:0:
381,224,68939,2,0,L|377:122,1,100,0|2,0:0|0:2,0:0:0:0:
292,25,69280,2,0,L|288:127,1,100,8|0,0:2|0:0,0:0:0:0:
126,196,69621,6,0,P|62:204|12:177,1,100,0|2,0:0|0:2,0:0:0:0:
192,32,69962,1,8,0:2:0:0:
208,184,70132,2,0,L|216:290,1,100,0|0,0:0|0:0,0:0:0:0:
128,384,70473,2,0,L|136:278,1,100,2|8,0:2|0:2,0:0:0:0:
88,200,70814,1,0,0:0:0:0:
248,336,70985,6,0,P|304:352|368:328,1,100,2|0,0:2|0:0,0:0:0:0:
456,208,71326,1,8,0:2:0:0:
456,208,71496,1,0,0:0:0:0:
294,159,71666,2,0,L|302:271,1,100,0|2,0:0|0:2,0:0:0:0:
368,72,72007,1,8,0:2:0:0:
368,72,72178,1,0,0:0:0:0:
208,176,72348,6,0,P|153:176|106:148,1,100,2|2,0:2|0:2,0:0:0:0:
16,0,72689,1,8,0:2:0:0:
26,126,72860,2,0,L|32:241,1,100,0|0,0:0|0:0,0:0:0:0:
102,343,73201,2,0,L|108:228,1,100,2|8,0:2|0:2,0:0:0:0:
208,176,73541,1,0,0:0:0:0:
233,347,73712,6,0,P|272:311|329:307,1,100,2|0,0:2|0:0,0:0:0:0:
480,376,74053,1,8,0:2:0:0:
480,376,74223,1,0,0:0:0:0:
406,203,74394,2,0,L|412:321,1,100,0|2,0:0|0:2,0:0:0:0:
480,120,74735,1,8,0:2:0:0:
480,120,74905,1,0,0:0:0:0:
358,0,75076,6,0,L|352:113,1,100,2|0,0:2|0:0,0:0:0:0:
192,0,75416,1,8,0:2:0:0:
122,111,75587,2,0,P|66:95|36:46,1,100,0|2,0:0|0:2,0:0:0:0:
170,187,75928,2,0,P|210:145|211:87,1,100,0|8,0:0|0:2,0:0:0:0:
85,193,76269,1,0,0:0:0:0:
242,290,76439,6,0,L|126:281,1,100,2|0,0:2|0:0,0:0:0:0:
304,360,76780,1,8,0:2:0:0:
304,360,76951,1,0,0:0:0:0:
392,208,77121,2,0,L|401:330,1,100,0|2,0:0|0:2,0:0:0:0:
456,120,77462,1,8,0:2:0:0:
456,120,77632,1,0,0:0:0:0:
328,0,77803,5,0,0:0:0:0:
269,99,77973,2,0,P|197:115|157:99,1,100,2|8,0:2|0:2,0:0:0:0:
80,24,78314,2,0,L|72:128,1,100,0|0,0:0|0:0,0:0:0:0:
88,232,78655,1,2,0:2:0:0:
216,32,78826,1,8,0:2:0:0:
216,32,78996,1,0,0:0:0:0:
320,171,79166,6,0,P|384:171|432:131,1,100,2|0,0:2|0:0,0:0:0:0:
480,8,79507,1,8,0:2:0:0:
480,8,79678,1,0,0:0:0:0:
504,208,79848,2,0,L|498:95,1,100,0|2,0:0|0:2,0:0:0:0:
416,272,80189,1,8,0:2:0:0:
416,272,80360,1,0,0:0:0:0:
307,152,80530,6,0,L|301:266,1,100,0|2,0:0|0:2,0:0:0:0:
344,352,80871,1,8,0:2:0:0:
226,224,81041,2,0,P|154:224|122:256,1,100,0|0,0:0|0:0,0:0:0:0:
0,136,81382,2,0,P|69:154|92:193,1,100,2|8,0:2|0:2,0:0:0:0:
120,320,81723,1,0,0:0:0:0:
173,136,81894,6,0,L|162:26,1,100,2|0,0:2|0:0,0:0:0:0:
226,224,82235,1,8,0:2:0:0:
226,224,82405,1,0,0:0:0:0:
336,120,82576,2,0,L|327:239,1,100,0|2,0:0|0:2,0:0:0:0:
408,32,82916,1,8,0:2:0:0:
408,32,83087,1,0,0:0:0:0:
416,184,83257,6,0,P|454:227|511:241,1,100,2|0,0:2|0:0,0:0:0:0:
449,309,83513,1,2,0:2:0:0:
449,309,83598,2,0,L|308:314,1,100,8|0,0:2|0:0,0:0:0:0:
248,368,83939,1,0,0:0:0:0:
248,368,84110,1,2,0:2:0:0:
195,146,84280,1,8,0:2:0:0:
160,272,84451,1,0,0:0:0:0:
304,120,84621,6,0,P|357:109|424:128,1,100,2|0,0:2|0:0,0:0:0:0:
240,0,84962,1,8,0:2:0:0:
224,168,85132,1,2,0:2:0:0:
176,72,85303,1,2,0:2:0:0:
176,72,85388,1,2,0:0:0:0:
176,72,85473,1,2,0:0:0:0:
216,280,85644,1,8,0:2:0:0:
216,280,85814,1,0,0:0:0:0:
40,216,85985,6,0,L|140:212,1,100,2|0,0:2|0:0,0:0:0:0:
0,104,86326,1,8,0:2:0:0:
0,104,86496,1,0,0:0:0:0:
152,64,86666,2,0,L|67:56,1,75.0000028610231,0|2,0:0|0:2,0:0:0:0:
304,112,87007,2,0,L|229:119,1,75.0000028610231,8|0,0:2|0:0,0:0:0:0:
352,24,87348,5,4,0:2:0:0:
400,16,98257,6,0,L|408:136,1,100,2|8,0:2|0:2,0:0:0:0:
406,115,98769,1,0,0:0:0:0:
464,208,98939,2,0,L|456:328,1,100,2|8,0:2|0:2,0:0:0:0:
336,360,99621,6,0,P|344:304|327:240,1,100,2|8,0:2|0:2,0:0:0:0:
236,213,100132,2,0,P|228:262|236:311,1,100,0|0,0:0|0:0,0:0:0:0:
236,311,100644,1,8,0:2:0:0:
128,255,100814,1,0,0:0:0:0:
128,255,100985,6,0,P|48:255|-8:319,1,150.000005722046,2|8,0:2|0:2,0:0:0:0:
0,301,101496,1,0,0:0:0:0:
32,168,101666,2,0,L|25:88,1,75.0000028610231,2|0,0:2|0:0,0:0:0:0:
112,16,102007,2,0,L|105:96,1,75.0000028610231,8|0,0:2|0:0,0:0:0:0:
216,40,102348,6,0,P|264:32|304:130,1,150.000005722046,2|8,0:2|0:2,0:0:0:0:
384,32,102860,1,0,0:0:0:0:
435,114,103030,2,0,L|444:202,1,75.0000028610231,2|0,0:2|0:0,0:0:0:0:
375,313,103371,2,0,L|382:238,1,75.0000028610231,8|0,0:2|0:0,0:0:0:0:
288,344,103712,6,0,B|297:232|297:232|265:139,1,200,2|2,0:2|0:2,0:0:0:0:
137,221,104394,1,2,0:2:0:0:
139,356,104735,1,2,0:2:0:0:
19,186,105076,6,0,B|72:272|72:272|40:365,1,200,2|2,0:2|0:2,0:0:0:0:
121,85,105757,1,2,0:2:0:0:
137,221,106098,1,2,0:2:0:0:
224,56,106439,6,0,L|336:40,1,100,2|2,0:2|0:2,0:0:0:0:
408,168,106780,1,2,0:2:0:0:
432,16,106951,1,2,0:2:0:0:
362,245,107121,6,0,P|434:253|490:213,1,100,2|2,0:2|0:0,0:0:0:0:
288,144,107462,1,2,0:2:0:0:
280,328,107632,1,2,0:2:0:0:
151,249,107803,5,8,0:2:0:0:
113,251,107888,1,8,0:2:0:0:
81,270,107973,1,8,0:2:0:0:
59,300,108058,1,8,0:2:0:0:
48,335,108144,5,8,0:2:0:0:
74,293,108229,1,8,0:2:0:0:
80,244,108314,1,8,0:2:0:0:
63,197,108399,1,8,0:2:0:0:
24,160,108485,6,0,L|21:226,3,50,8|8|8|8,0:2|0:2|0:2|0:2,0:0:0:0:
88,56,108826,5,8,0:2:0:0:
254,150,109166,5,4,0:2:0:0:
273,2,109337,1,0,0:0:0:0:
349,153,109507,1,8,0:2:0:0:
194,44,109678,1,0,0:0:0:0:
440,83,109848,2,0,P|463:146|445:221,1,100,0|2,0:0|0:2,0:0:0:0:
396,304,110189,1,8,0:2:0:0:
396,304,110360,1,0,0:0:0:0:
239,166,110530,6,0,L|350:155,1,100,0|2,0:0|0:2,0:0:0:0:
177,263,110871,1,8,0:2:0:0:
132,171,111041,1,0,0:0:0:0:
174,369,111212,2,0,P|123:354|68:288,1,100,0|2,0:0|0:2,0:0:0:0:
47,145,111553,1,8,0:2:0:0:
177,263,111723,6,0,P|240:261|297:196,1,120
288,212,112064,2,0,P|306:269|386:306,1,134.999995880127,2|0,0:2|0:0,0:0:0:0:
387,302,112405,1,0,0:0:0:0:
478,125,112576,2,0,L|488:271,1,100,0|0,0:0|0:0,0:0:0:0:
426,29,112916,1,8,0:2:0:0:
426,29,113087,1,0,0:0:0:0:
372,223,113257,6,0,L|378:123,1,100,0|2,0:0|0:2,0:0:0:0:
292,300,113598,1,8,0:2:0:0:
292,300,113769,1,0,0:0:0:0:
211,121,113939,2,0,P|150:103|97:127,1,100,0|2,0:0|0:2,0:0:0:0:
276,26,114280,1,8,0:2:0:0:
155,184,114451,6,0,P|129:246|162:324,1,120
150,305,114791,2,0,P|100:273|31:310,1,134.999995880127,2|0,0:2|0:0,0:0:0:0:
29,313,115132,1,0,0:0:0:0:
17,106,115303,1,0,0:0:0:0:
17,106,115473,1,2,0:2:0:0:
126,93,115644,1,8,0:2:0:0:
181,6,115814,1,0,0:0:0:0:
259,185,115985,6,0,L|270:61,1,100,2|2,0:2|0:2,0:0:0:0:
319,275,116326,1,8,0:2:0:0:
319,275,116496,1,0,0:0:0:0:
405,136,116666,2,0,L|418:250,1,100,0|2,0:0|0:2,0:0:0:0:
484,51,117007,1,8,0:2:0:0:
505,229,117178,6,0,P|481:293|414:327,1,120
427,324,117519,2,0,P|361:308|299:357,1,134.999995880127,2|0,0:2|0:0,0:0:0:0:
303,354,117860,1,0,0:0:0:0:
206,204,118030,2,0,L|212:324,1,100,0|2,0:0|0:2,0:0:0:0:
133,130,118371,1,8,0:2:0:0:
133,130,118541,1,0,0:0:0:0:
22,233,118712,5,2,0:2:0:0:
7,88,118882,1,0,0:0:0:0:
118,275,119053,1,8,0:2:0:0:
133,130,119223,1,0,0:0:0:0:
210,303,119394,2,0,P|261:316|338:294,1,100,2|0,0:2|0:0,0:0:0:0:
145,378,119735,1,8,0:2:0:0:
263,230,119905,6,0,P|282:176|272:91,1,120
277,100,120246,2,0,P|312:154|387:164,1,134.999995880127,2|0,0:2|0:0,0:0:0:0:
391,162,120587,1,0,0:0:0:0:
480,102,120757,2,0,L|490:-34,1,100,0|2,0:0|0:2,0:0:0:0:
510,208,121098,1,8,0:2:0:0:
510,208,121269,1,0,0:0:0:0:
393,287,121439,6,0,P|380:338|403:423,1,100,0|2,0:0|0:2,0:0:0:0:
286,183,121780,1,8,0:2:0:0:
286,183,121951,1,0,0:0:0:0:
195,319,122121,2,0,L|187:201,1,100,0|2,0:0|0:2,0:0:0:0:
122,367,122462,1,8,0:2:0:0:
203,134,122632,6,0,P|138:148|104:219,1,120
101,200,122973,2,0,P|92:141|32:89,1,134.999995880127,2|0,0:2|0:0,0:0:0:0:
23,88,123314,1,0,0:0:0:0:
156,0,123485,1,0,0:0:0:0:
156,0,123655,1,2,0:2:0:0:
218,88,123826,1,8,0:2:0:0:
327,88,123996,1,0,0:0:0:0:
267,253,124166,6,0,L|275:139,1,100,0|2,0:0|0:2,0:0:0:0:
331,324,124507,1,8,0:2:0:0:
331,324,124678,1,0,0:0:0:0:
167,217,124848,2,0,L|176:343,1,100,0|2,0:0|0:2,0:0:0:0:
76,167,125189,1,8,0:2:0:0:
274,153,125360,6,0,P|321:116|335:37,1,120
338,44,125701,2,0,P|355:100|422:147,1,134.999995880127,2|0,0:2|0:0,0:0:0:0:
428,144,126041,1,0,0:0:0:0:
342,239,126212,2,0,P|336:300|364:363,1,100,0|2,0:0|0:2,0:0:0:0:
274,153,126553,1,8,0:2:0:0:
274,153,126723,1,0,0:0:0:0:
196,300,126894,6,0,L|184:171,1,100,2|2,0:2|0:2,0:0:0:0:
122,355,127235,1,8,0:2:0:0:
122,355,127405,1,0,0:0:0:0:
40,229,127576,2,0,L|32:340,1,100,0|0,0:0|0:0,0:0:0:0:
108,148,127916,1,8,0:2:0:0:
196,300,128087,6,0,P|248:303|281:268,1,80,0|2,0:0|0:2,0:0:0:0:
297,255,128343,1,0,0:0:0:0:
297,255,128428,2,0,P|345:288|424:274,1,134.999995880127,2|0,0:2|0:0,0:0:0:0:
442,266,128769,1,2,0:2:0:0:
512,187,128939,1,2,0:2:0:0:
512,187,129024,1,2,0:2:0:0:
512,187,129110,1,2,0:2:0:0:
372,55,129280,2,0,L|377:157,1,100,8|0,0:2|0:0,0:0:0:0:
262,30,129621,6,0,P|209:16|146:35,1,100,2|2,0:2|0:2,0:0:0:0:
210,105,129877,1,2,0:0:0:0:
210,105,129962,2,0,P|215:161|190:221,1,100,8|0,0:0|0:0,0:0:0:0:
17,123,130303,6,0,L|14:72,3,37.5000014305115,2|2|2|2,0:2|0:2|0:2|0:2,0:0:0:0:
117,139,130644,2,0,L|114:190,3,37.5000014305115,8|2|2|2,0:2|0:2|0:2|0:2,0:0:0:0:
99,118,130985,5,4,0:1:0:0:
96,111,131326,5,12,0:2:0:0:
50,306,131496,1,0,0:0:0:0:
171,237,131666,2,0,P|221:216|280:228,1,100,0|2,0:0|0:2,0:0:0:0:
239,129,132007,1,8,0:2:0:0:
230,304,132178,1,0,0:0:0:0:
346,167,132348,2,0,L|359:298,1,100,0|2,0:0|0:2,0:0:0:0:
402,88,132689,1,8,0:2:0:0:
402,88,132860,1,0,0:0:0:0:
206,89,133030,6,0,P|263:67|299:9,1,100,0|2,0:0|0:2,0:0:0:0:
262,202,133371,1,8,0:2:0:0:
206,6,133541,1,0,0:0:0:0:
121,153,133712,6,0,L|113:45,1,100,2|0,0:2|0:0,0:0:0:0:
186,278,134053,1,8,0:2:0:0:
206,89,134223,1,0,0:0:0:0:
102,242,134394,2,0,P|37:244|-13:210,1,100,0|2,0:0|0:2,0:0:0:0:
35,345,134735,1,8,0:2:0:0:
64,166,134905,1,0,0:0:0:0:
186,278,135076,2,0,L|180:158,1,100,0|2,0:0|0:2,0:0:0:0:
264,352,135416,1,8,0:2:0:0:
264,352,135587,1,0,0:0:0:0:
392,259,135757,6,0,P|345:245|283:266,1,100,0|2,0:0|0:2,0:0:0:0:
327,147,136098,1,8,0:2:0:0:
342,323,136269,1,0,0:0:0:0:
416,184,136439,6,0,P|463:170|525:191,1,100,2|0,0:2|0:0,0:0:0:0:
423,54,136780,1,8,0:2:0:0:
392,259,136951,1,0,0:0:0:0:
241,150,137121,2,0,P|191:143|137:169,1,100,0|2,0:0|0:2,0:0:0:0:
45,299,137462,1,8,0:2:0:0:
97,93,137632,1,0,0:0:0:0:
201,222,137803,2,0,L|197:321,1,100,2|2,0:2|0:2,0:0:0:0:
256,125,138144,1,8,0:2:0:0:
256,125,138314,1,0,0:0:0:0:
392,222,138485,6,0,P|324:228|280:208,1,100,0|2,0:0|0:2,0:0:0:0:
463,122,138826,1,8,0:2:0:0:
462,300,138996,1,0,0:0:0:0:
344,150,139166,6,0,P|336:87|363:34,1,100,2|0,0:2|0:0,0:0:0:0:
295,217,139507,1,8,0:2:0:0:
259,19,139678,1,0,0:0:0:0:
186,137,139848,2,0,L|185:256,1,100,0|2,0:0|0:2,0:0:0:0:
33,92,140189,1,8,0:2:0:0:
76,254,140360,1,0,0:0:0:0:
140,72,140530,2,0,P|199:61|256:96,1,100,2|0,0:2|0:0,0:0:0:0:
71,1,140871,1,8,0:2:0:0:
71,1,141041,1,0,0:0:0:0:
188,165,141212,6,0,L|81:158,1,100,2|0,0:2|0:0,0:0:0:0:
214,260,141553,1,8,0:2:0:0:
234,75,141723,1,0,0:0:0:0:
314,236,141894,6,0,P|369:233|416:193,1,100,2|0,0:2|0:0,0:0:0:0:
475,37,142235,1,8,0:2:0:0:
484,246,142405,1,0,0:0:0:0:
337,156,142576,2,0,L|208:141,1,100,0|2,0:0|0:2,0:0:0:0:
379,41,142916,1,8,0:2:0:0:
404,208,143087,1,0,0:0:0:0:
255,62,143257,2,0,P|205:64|163:93,1,100,0|2,0:0|0:2,0:0:0:0:
117,278,143598,1,8,0:2:0:0:
117,278,143769,1,0,0:0:0:0:
1,185,143939,6,0,L|107:180,1,100,0|2,0:0|0:2,0:0:0:0:
193,310,144280,1,8,0:2:0:0:
234,141,144451,1,0,0:0:0:0:
300,271,144621,6,0,L|309:381,1,100,2|0,0:2|0:0,0:0:0:0:
406,170,144962,1,8,0:2:0:0:
401,352,145132,1,0,0:0:0:0:
491,235,145303,2,0,P|513:177|495:115,1,100,0|2,0:0|0:2,0:0:0:0:
345,76,145644,1,8,0:2:0:0:
381,258,145814,1,0,0:0:0:0:
278,154,145985,2,0,L|154:142,1,100,0|2,0:0|0:2,0:0:0:0:
406,170,146326,1,8,0:2:0:0:
406,170,146496,1,0,0:0:0:0:
288,257,146666,6,0,P|266:314|281:382,1,100,0|2,0:0|0:2,0:0:0:0:
163,217,147007,1,8,0:2:0:0:
174,380,147178,1,0,0:0:0:0:
95,266,147348,6,0,P|36:257|-22:293,1,100,2|0,0:2|0:0,0:0:0:0:
87,121,147689,1,8,0:2:0:0:
49,338,147860,1,0,0:0:0:0:
0,162,148030,2,0,P|-5:115|11:60,1,100,0|2,0:0|0:2,0:0:0:0:
155,206,148371,1,8,0:2:0:0:
137,22,148541,1,0,0:0:0:0:
237,163,148712,2,0,L|242:60,1,100,2|0,0:2|0:0,0:0:0:0:
314,10,148968,1,2,0:2:0:0:
314,10,149053,2,0,L|321:124,1,100,8|0,0:2|0:0,0:0:0:0:
512,106,149394,6,0,P|463:117|428:188,1,100,0|2,0:0|0:2,0:0:0:0:
400,38,149735,1,8,0:2:0:0:
370,219,149905,1,0,0:0:0:0:
512,188,150076,6,0,L|505:297,1,100,2|0,0:2|0:0,0:0:0:0:
346,120,150416,1,8,0:2:0:0:
361,332,150587,1,2,0:2:0:0:
240,245,150757,2,0,L|246:135,1,100,0|0,0:0|0:0,0:0:0:0:
160,312,151098,1,8,0:2:0:0:
141,143,151269,1,0,0:0:0:0:
265,331,151439,5,2,0:2:0:0:
265,331,151610,1,0,0:0:0:0:
464,262,151780,1,8,0:2:0:0:
464,262,151951,1,0,0:0:0:0:
291,154,152121,5,0,0:0:0:0:
424,123,152291,1,2,0:2:0:0:
246,60,152462,1,8,0:2:0:0:
426,23,152632,1,0,0:0:0:0:
377,213,152803,5,4,3:2:0:0:
