osu file format v14

[General]
AudioFilename: ga.mp3
AudioLeadIn: 0
PreviewTime: 43720
Countdown: 0
SampleSet: Soft
StackLeniency: 0.4
Mode: 0
LetterboxInBreaks: 0
WidescreenStoryboard: 0

[Editor]
DistanceSpacing: 1.5
BeatDivisor: 4
GridSize: 32
TimelineZoom: 2.799999

[Metadata]
Title:Ghost Assassin (Hourglass Bonusmix)
TitleUnicode:Ghost Assassin (Hourglass Bonusmix)
Artist:Maduk feat. Veela
ArtistUnicode:Maduk feat. Veela
Creator:_tranquility
Version:Alumetri's Extra
Source:
Tags:drum and bass dnb liquid remix english Nelliel Alumetri Ksardas Sersh4nt DuckRadio
BeatmapID:1990559
BeatmapSetID:953367

[Difficulty]
HPDrainRate:5.2
CircleSize:3.6
OverallDifficulty:8.8
ApproachRate:9.1
SliderMultiplier:1.82
SliderTickRate:1

[Events]
//Background and Video events
0,0,"bg 1.jpg",0,0
//Break Periods
2,87548,103128
//Storyboard Layer 0 (Background)
//Storyboard Layer 1 (Fail)
//Storyboard Layer 2 (Pass)
//Storyboard Layer 3 (Foreground)
//Storyboard Sound Samples

[TimingPoints]
76,340.909090909091,4,2,1,20,1,0
21894,-95.2380952380952,4,2,1,40,0,0
32803,-95.2380952380952,4,2,1,30,0,0
35530,-95.2380952380952,4,2,1,30,0,0
38257,-100,4,2,2,50,0,0
38598,-95.2380952380952,4,2,1,50,0,0
38939,-100,4,2,1,50,0,0
39280,-95.2380952380952,4,2,1,50,0,0
39621,-100,4,2,1,50,0,0
39962,-95.2380952380952,4,2,1,50,0,0
40303,-100,4,2,1,50,0,0
40644,-95.2380952380952,4,2,1,50,0,0
40985,-95.2380952380952,4,2,2,50,0,0
41666,-95.2380952380952,4,2,2,60,0,0
42348,-95.2380952380952,4,2,8,60,0,0
42689,-95.2380952380952,4,2,9,60,0,0
43030,-95.2380952380952,4,2,10,60,0,0
43371,-95.2380952380952,4,2,2,70,0,0
43712,-83.3333333333333,4,2,2,70,0,1
64848,-83.3333333333333,4,2,2,40,0,1
65530,-133.333333333333,4,2,2,70,0,0
65871,-83.3333333333333,4,2,2,70,0,1
85985,-83.3333333333333,4,2,2,60,0,1
87348,-83.3333333333333,4,2,1,50,0,0
98257,-100,4,2,1,50,0,0
100985,-100,4,2,1,40,0,0
102348,-100,4,2,1,30,0,0
103712,-100,4,2,2,50,0,0
104053,-86.9565217391304,4,2,1,50,0,0
104394,-100,4,2,1,50,0,0
104735,-86.9565217391304,4,2,1,50,0,0
105076,-100,4,2,1,50,0,0
105416,-86.9565217391304,4,2,1,50,0,0
106439,-100,4,2,2,50,0,0
107121,-100,4,2,2,60,0,0
107803,-86.9565217391304,4,2,8,60,0,0
108144,-86.9565217391304,4,2,9,60,0,0
108485,-86.9565217391304,4,2,10,60,0,0
108826,-86.9565217391304,4,2,2,70,0,0
109166,-74.0740740740741,4,2,2,70,0,1
130303,-74.0740740740741,4,2,2,50,0,1
130985,-74.0740740740741,4,2,2,50,0,0
131326,-74.0740740740741,4,2,2,55,0,1
152803,-74.0740740740741,4,2,1,55,0,0

[Colours]
Combo1 : 196,0,196
Combo2 : 255,128,64
Combo3 : 236,192,60
Combo4 : 128,128,255

[HitObjects]
67,82,21894,6,0,P|112:62|169:71,1,95.5499970840455,4|0,3:0|0:0,0:0:0:0:
238,162,22235,2,0,L|211:272,1,95.5499970840455,8|0,0:2|0:0,0:0:0:0:
125,356,22576,1,0,0:0:0:0:
116,242,22746,1,2,0:2:0:0:
93,370,22916,1,8,0:2:0:0:
140,227,23087,1,0,0:0:0:0:
235,362,23257,6,0,P|281:360|327:336,1,95.5499970840455,2|0,0:2|0:0,0:0:0:0:
416,229,23598,2,0,P|462:231|508:255,1,95.5499970840455,8|0,0:2|0:0,0:0:0:0:
343,158,23939,1,0,0:0:0:0:
276,242,24110,1,2,0:2:0:0:
325,127,24280,1,8,0:2:0:0:
303,284,24451,1,0,0:0:0:0:
228,125,24621,6,0,P|178:125|132:157,1,95.5499970840455,2|0,0:2|0:0,0:0:0:0:
297,46,24962,2,0,P|347:46|393:78,1,95.5499970840455,8|0,0:2|0:0,0:0:0:0:
425,175,25303,1,0,0:0:0:0:
354,262,25473,1,2,0:2:0:0:
325,127,25644,1,8,0:2:0:0:
380,282,25814,1,0,0:0:0:0:
253,233,25985,6,0,P|205:239|148:258,1,95.5499970840455,2|0,0:2|0:0,0:0:0:0:
4,215,26326,2,0,P|-2:161|18:105,1,95.5499970840455,8|0,0:2|0:0,0:0:0:0:
111,53,26666,1,0,0:0:0:0:
207,118,26837,1,2,0:2:0:0:
301,56,27007,1,8,0:2:0:0:
207,147,27178,1,0,0:0:0:0:
364,179,27348,6,0,P|408:184|478:204,1,95.5499970840455,2|0,0:2|0:0,0:0:0:0:
266,259,27689,2,0,P|222:264|152:284,1,95.5499970840455,8|0,0:2|0:0,0:0:0:0:
58,352,28030,1,0,0:0:0:0:
176,384,28201,1,2,0:2:0:0:
287,343,28371,1,8,0:2:0:0:
159,365,28541,1,0,0:0:0:0:
319,371,28712,6,0,L|422:354,1,95.5499970840455,2|0,0:2|0:0,0:0:0:0:
457,196,29053,2,0,L|354:213,1,95.5499970840455,8|0,0:2|0:0,0:0:0:0:
214,241,29394,1,0,0:0:0:0:
285,128,29564,1,2,0:2:0:0:
202,262,29735,1,8,0:2:0:0:
292,113,29905,1,0,0:0:0:0:
352,304,30076,6,0,P|365:255|361:204,1,95.5499970840455,2|0,0:2|0:0,0:0:0:0:
196,160,30416,2,0,L|88:174,1,95.5499970840455,8|0,0:2|0:0,0:0:0:0:
292,113,30757,1,0,0:0:0:0:
185,55,30928,1,2,0:2:0:0:
297,12,31098,1,8,0:2:0:0:
393,77,31269,1,0,0:0:0:0:
276,207,31439,6,0,L|292:110,1,95.5499970840455,2|0,0:2|0:0,0:0:0:0:
101,172,31780,2,0,L|117:269,1,95.5499970840455,8|0,0:2|0:0,0:0:0:0:
142,384,32121,1,0,0:0:0:0:
36,319,32291,1,2,0:2:0:0:
172,357,32462,1,8,0:2:0:0:
17,351,32632,1,0,0:0:0:0:
200,278,32803,6,0,P|243:294|284:329,1,95.5499970840455,2|0,0:2|0:0,0:0:0:0:
93,227,33144,2,0,P|50:243|9:278,1,95.5499970840455,2|0,0:2|0:0,0:0:0:0:
199,188,33485,2,0,P|202:137|182:88,1,95.5499970840455,2|0,0:2|0:0,0:0:0:0:
5,76,33826,2,0,P|2:127|22:176,1,95.5499970840455,2|0,0:2|0:0,0:0:0:0:
144,25,34166,6,0,P|194:17|243:37,1,95.5499970840455,2|0,0:2|0:0,0:0:0:0:
335,156,34507,2,0,P|385:164|434:144,1,95.5499970840455,2|0,0:2|0:0,0:0:0:0:
199,188,34848,2,0,L|192:288,1,95.5499970840455,2|0,0:2|0:0,0:0:0:0:
433,244,35189,2,0,L|426:144,1,95.5499970840455,2|0,0:2|0:0,0:0:0:0:
219,109,35530,6,0,P|169:112|124:152,1,95.5499970840455,2|0,0:2|0:0,0:0:0:0:
171,361,35871,2,0,P|221:358|266:318,1,95.5499970840455,2|0,0:2|0:0,0:0:0:0:
65,232,36212,2,0,L|52:336,1,95.5499970840455,2|0,0:2|0:0,0:0:0:0:
244,237,36553,2,0,L|257:341,1,95.5499970840455,2|0,0:2|0:0,0:0:0:0:
391,198,36894,6,0,P|397:148|358:95,1,95.5499970840455,2|0,0:2|0:0,0:0:0:0:
144,163,37235,2,0,L|252:151,1,95.5499970840455,2|0,0:2|0:0,0:0:0:0:
425,45,37576,2,0,P|369:30|323:47,1,95.5499970840455,2|0,0:2|0:0,0:0:0:0:
143,143,37916,2,0,L|251:131,1,95.5499970840455,2|0,0:2|0:0,0:0:0:0:
21,97,38257,6,0,L|33:237,1,136.5,2|0,0:2|0:0,0:0:0:0:
89,311,38598,2,0,P|138:317|182:290,1,95.5499970840455,2|0,0:2|0:0,0:0:0:0:
298,241,38939,6,0,B|320:323|283:306|310:383,1,136.5,2|0,0:2|0:0,0:0:0:0:
404,329,39280,2,0,P|446:327|495:303,1,95.5499970840455,2|0,0:2|0:0,0:0:0:0:
428,207,39621,6,0,B|357:209|371:245|295:240,1,136.5,2|0,0:2|0:0,0:0:0:0:
235,147,39962,2,0,P|282:139|321:166,1,95.5499970840455,2|0,0:2|0:0,0:0:0:0:
167,202,40303,6,0,P|149:142|192:69,1,136.5,2|0,0:2|0:0,0:0:0:0:
276,36,40644,2,0,L|375:53,1,95.5499970840455,2|0,0:2|0:0,0:0:0:0:
484,158,40985,5,2,0:2:0:0:
297,240,41155,1,2,0:2:0:0:
370,52,41326,1,2,0:2:0:0:
415,288,41496,1,2,0:2:0:0:
235,147,41666,1,2,0:2:0:0:
250,380,41837,1,2,0:2:0:0:
428,207,42007,1,2,0:2:0:0:
167,202,42178,1,2,0:2:0:0:
409,335,42348,6,0,L|416:277,1,47.7749985420228,8|8,0:2|0:2,0:0:0:0:
240,99,42519,2,0,L|233:157,1,47.7749985420228,8|8,0:2|0:2,0:0:0:0:
417,346,42689,6,0,L|425:283,1,47.7749985420228,8|8,0:2|0:2,0:0:0:0:
231,87,42860,2,0,L|223:151,1,47.7749985420228,8|8,0:2|0:2,0:0:0:0:
426,359,43030,6,0,L|435:289,1,47.7749985420228,8|8,0:2|0:2,0:0:0:0:
222,74,43201,2,0,L|213:144,1,47.7749985420228,8|8,0:2|0:2,0:0:0:0:
179,375,43371,5,8,0:2:0:0:
179,375,43712,6,0,P|119:376|80:343,1,109.199996667481,4|0,0:2|0:0,0:0:0:0:
86,166,44053,1,8,0:2:0:0:
147,306,44223,1,0,0:0:0:0:
10,205,44394,2,0,P|3:155|37:93,1,109.199996667481,0|2,0:0|0:2,0:0:0:0:
160,32,44735,2,0,L|273:56,1,109.199996667481,8|0,0:2|0:0,0:0:0:0:
379,141,45076,5,0,0:0:0:0:
286,245,45246,1,2,0:2:0:0:
404,117,45416,1,8,0:2:0:0:
225,134,45587,1,0,0:0:0:0:
382,238,45757,2,0,L|498:223,1,109.199996667481,0|2,0:0|0:2,0:0:0:0:
276,329,46098,2,0,L|160:314,1,109.199996667481,8|0,0:2|0:0,0:0:0:0:
38,226,46439,6,0,P|30:174|79:110,1,109.199996667481,2|0,0:2|0:0,0:0:0:0:
225,78,46780,1,8,0:2:0:0:
108,187,46951,1,0,0:0:0:0:
273,245,47121,2,0,L|403:236,1,109.199996667481,0|2,0:0|0:2,0:0:0:0:
333,70,47462,2,0,L|224:77,1,109.199996667481,8|0,0:2|0:0,0:0:0:0:
55,125,47803,5,0,0:0:0:0:
86,298,47973,1,2,0:2:0:0:
152,148,48144,2,0,L|135:27,1,109.199996667481,8|0,0:2|0:0,0:0:0:0:
38,226,48485,1,0,0:0:0:0:
213,250,48655,1,2,0:2:0:0:
2,322,48826,2,0,P|8:261|53:216,1,109.199996667481,8|0,0:2|0:0,0:0:0:0:
186,342,49166,6,0,L|301:333,1,109.199996667481,2|0,0:2|0:0,0:0:0:0:
389,210,49507,1,8,0:2:0:0:
213,250,49678,1,0,0:0:0:0:
429,222,49848,1,0,0:0:0:0:
246,156,50019,1,2,0:2:0:0:
431,331,50189,2,0,L|428:221,1,109.199996667481,8|0,0:2|0:0,0:0:0:0:
363,55,50530,5,2,0:2:0:0:
300,240,50701,1,2,0:2:0:0:
429,111,50871,2,0,P|446:62|423:-7,1,109.199996667481,8|0,0:2|0:0,0:0:0:0:
510,188,51212,1,0,0:0:0:0:
363,55,51382,1,2,0:2:0:0:
300,240,51553,2,0,L|302:349,1,109.199996667481,8|0,0:2|0:0,0:0:0:0:
204,167,51894,5,2,0:2:0:0:
144,322,52064,1,0,0:0:0:0:
238,150,52235,1,8,0:2:0:0:
302,349,52405,1,0,0:0:0:0:
88,253,52576,1,0,0:0:0:0:
300,240,52746,1,2,0:2:0:0:
68,236,52916,1,8,0:2:0:0:
302,349,53087,1,0,0:0:0:0:
58,341,53257,6,0,P|51:287|75:224,1,109.199996667481,2|0,0:2|0:0,0:0:0:0:
179,140,53598,1,8,0:2:0:0:
234,304,53769,1,0,0:0:0:0:
100,159,53939,2,0,P|53:154|1:189,1,109.199996667481,2|0,0:2|0:0,0:0:0:0:
258,184,54280,2,0,P|265:124|239:72,1,109.199996667481,8|0,0:2|0:0,0:0:0:0:
67,235,54621,6,0,L|80:351,1,109.199996667481,2|0,0:2|0:0,0:0:0:0:
179,140,54962,1,8,0:2:0:0:
234,304,55132,1,0,0:0:0:0:
350,161,55303,2,0,P|401:162|455:192,1,109.199996667481,0|2,0:0|0:2,0:0:0:0:
245,80,55644,2,0,P|190:81|143:107,1,109.199996667481,8|0,0:2|0:0,0:0:0:0:
67,235,55985,5,0,0:0:0:0:
258,184,56155,1,2,0:2:0:0:
49,127,56326,2,0,L|67:239,1,109.199996667481,8|0,0:2|0:0,0:0:0:0:
183,369,56666,1,0,0:0:0:0:
150,208,56837,1,2,0:2:0:0:
288,314,57007,1,8,0:2:0:0:
91,354,57178,1,0,0:0:0:0:
258,184,57348,6,0,L|378:170,1,109.199996667481,2|0,0:2|0:0,0:0:0:0:
182,97,57689,1,8,0:2:0:0:
213,275,57860,1,0,0:0:0:0:
430,121,58030,2,0,P|377:91|323:104,1,109.199996667481,0|2,0:0|0:2,0:0:0:0:
288,314,58371,2,0,P|341:320|386:291,1,109.199996667481,8|0,0:2|0:0,0:0:0:0:
258,184,58712,5,0,0:0:0:0:
221,369,58882,1,2,0:2:0:0:
142,222,59053,2,0,P|128:167|128:104,1,109.199996667481,8|0,0:2|0:0,0:0:0:0:
267,288,59394,1,0,0:0:0:0:
322,111,59564,1,2,0:2:0:0:
414,259,59735,2,0,P|428:314|428:377,1,109.199996667481,8|0,0:2|0:0,0:0:0:0:
455,115,60076,5,2,0:2:0:0:
512,282,60246,1,0,0:0:0:0:
324,232,60416,1,8,0:2:0:0:
512,197,60587,1,0,0:0:0:0:
322,111,60757,2,0,L|202:132,1,109.199996667481,0|2,0:0|0:2,0:0:0:0:
84,234,61098,2,0,P|81:287|104:336,1,109.199996667481,8|0,0:2|0:0,0:0:0:0:
16,141,61439,5,2,0:2:0:0:
158,271,61610,1,2,0:2:0:0:
140,108,61780,2,0,L|125:-10,1,109.199996667481,8|0,0:2|0:0,0:0:0:0:
84,234,62121,1,0,0:0:0:0:
46,61,62291,1,2,0:2:0:0:
214,129,62462,2,0,L|227:237,1,109.199996667481,8|0,0:2|0:0,0:0:0:0:
370,363,62803,6,0,P|424:369|475:336,1,109.199996667481,2|0,0:2|0:0,0:0:0:0:
455,115,63144,1,8,0:2:0:0:
408,292,63314,2,0,L|394:183,1,109.199996667481,2|0,0:2|0:0,0:0:0:0:
369,13,63655,1,0,0:0:0:0:
481,144,63826,2,0,L|495:253,1,109.199996667481,8|0,0:2|0:0,0:0:0:0:
317,114,64166,6,0,P|262:108|202:139,1,109.199996667481,2|0,0:2|0:0,0:0:0:0:
149,318,64507,1,8,0:2:0:0:
308,247,64678,1,0,0:0:0:0:
119,199,64848,6,0,P|87:202|57:215,3,54.5999983337403,2|2|2|2,0:2|0:2|0:2|0:2,0:0:0:0:
213,128,65189,2,0,P|226:98|230:66,3,54.5999983337403,8|2|2|2,0:2|0:2|0:2|0:2,0:0:0:0:
206,262,65530,6,0,L|307:247,1,102.375003905296,4|0,0:1|0:0,0:0:0:0:
417,147,65871,6,0,P|423:98|393:37,1,109.199996667481,12|0,0:2|0:0,0:0:0:0:
503,260,66212,1,0,0:0:0:0:
512,84,66382,1,2,0:2:0:0:
415,232,66553,2,0,L|296:248,1,109.199996667481,8|0,0:2|0:0,0:0:0:0:
149,318,66894,5,0,0:0:0:0:
316,339,67064,1,2,0:2:0:0:
131,217,67235,2,0,P|123:268|153:322,1,109.199996667481,8|0,0:2|0:0,0:0:0:0:
54,124,67576,1,0,0:0:0:0:
24,288,67746,1,2,0:2:0:0:
214,236,67916,2,0,P|208:184|165:140,1,109.199996667481,8|0,0:2|0:0,0:0:0:0:
209,361,68257,6,0,L|320:338,1,109.199996667481,2|0,0:2|0:0,0:0:0:0:
484,258,68598,1,8,0:2:0:0:
319,230,68769,1,0,0:0:0:0:
483,152,68939,1,0,0:0:0:0:
436,339,69110,1,2,0:2:0:0:
384,130,69280,2,0,L|403:22,1,109.199996667481,8|0,0:2|0:0,0:0:0:0:
315,263,69621,5,0,0:0:0:0:
225,103,69791,1,2,0:2:0:0:
195,299,69962,2,0,P|242:309|304:285,1,109.199996667481,8|0,0:2|0:0,0:0:0:0:
384,130,70303,1,0,0:0:0:0:
484,258,70473,1,2,0:2:0:0:
429,58,70644,2,0,P|382:48|320:72,1,109.199996667481,8|0,0:2|0:0,0:0:0:0:
183,190,70985,6,0,L|196:311,1,109.199996667481,2|0,0:2|0:0,0:0:0:0:
27,181,71326,2,0,L|40:60,1,109.199996667481,8|0,0:2|0:0,0:0:0:0:
236,14,71666,1,0,0:0:0:0:
106,127,71837,1,2,0:2:0:0:
281,165,72007,1,8,0:2:0:0:
116,30,72178,1,0,0:0:0:0:
98,224,72348,5,2,0:2:0:0:
325,67,72519,1,2,0:2:0:0:
194,298,72689,2,0,L|79:308,1,109.199996667481,8|0,0:2|0:0,0:0:0:0:
281,165,73030,1,0,0:0:0:0:
98,224,73201,1,2,0:2:0:0:
318,298,73371,2,0,L|426:307,1,109.199996667481,8|0,0:2|0:0,0:0:0:0:
373,119,73712,6,0,P|314:131|275:174,1,109.199996667481,2|0,0:2|0:0,0:0:0:0:
429,13,74053,1,8,0:2:0:0:
477,198,74223,1,0,0:0:0:0:
320,31,74394,2,0,L|208:45,1,109.199996667481,0|2,0:0|0:2,0:0:0:0:
98,224,74735,2,0,L|210:238,1,109.199996667481,8|0,0:2|0:0,0:0:0:0:
31,127,75076,5,2,0:2:0:0:
12,300,75246,1,0,0:0:0:0:
119,143,75416,2,0,P|116:94|69:47,1,109.199996667481,8|0,0:2|0:0,0:0:0:0:
206,237,75757,1,2,0:2:0:0:
211,44,75928,1,0,0:0:0:0:
98,224,76098,2,0,P|101:273|139:326,1,109.199996667481,8|0,0:2|0:0,0:0:0:0:
303,367,76439,6,0,L|413:355,1,109.199996667481,2|0,0:2|0:0,0:0:0:0:
500,212,76780,1,8,0:2:0:0:
326,250,76951,1,0,0:0:0:0:
508,320,77121,2,0,L|498:199,1,109.199996667481,0|2,0:0|0:2,0:0:0:0:
334,141,77462,2,0,L|324:262,1,109.199996667481,8|0,0:2|0:0,0:0:0:0:
437,62,77803,5,0,0:0:0:0:
422,259,77973,1,2,0:2:0:0:
242,69,78144,2,0,L|356:55,1,109.199996667481,8|0,0:2|0:0,0:0:0:0:
499,211,78485,1,0,0:0:0:0:
334,141,78655,1,2,0:2:0:0:
394,364,78826,2,0,L|423:253,1,109.199996667481,8|0,0:2|0:0,0:0:0:0:
252,170,79166,6,0,P|195:169|145:198,1,109.199996667481,2|0,0:2|0:0,0:0:0:0:
115,368,79507,1,8,0:2:0:0:
46,197,79678,1,0,0:0:0:0:
215,249,79848,1,0,0:0:0:0:
24,336,80019,1,2,0:2:0:0:
218,364,80189,2,0,L|334:349,1,109.199996667481,8|0,0:2|0:0,0:0:0:0:
404,206,80530,5,0,0:0:0:0:
477,351,80701,1,2,0:2:0:0:
422,165,80871,1,8,0:2:0:0:
326,349,81041,1,0,0:0:0:0:
492,213,81212,2,0,P|505:158|470:96,1,109.199996667481,0|2,0:0|0:2,0:0:0:0:
314,240,81553,2,0,L|327:368,1,109.199996667481,8|0,0:2|0:0,0:0:0:0:
163,211,81894,6,0,L|176:83,1,109.199996667481,2|0,0:2|0:0,0:0:0:0:
56,3,82235,1,8,0:2:0:0:
75,186,82405,1,0,0:0:0:0:
195,23,82576,1,0,0:0:0:0:
0,73,82746,1,2,0:2:0:0:
256,87,82916,2,0,L|369:66,1,109.199996667481,8|0,0:2|0:0,0:0:0:0:
506,5,83257,5,2,0:2:0:0:
466,179,83428,1,2,0:2:0:0:
466,179,83513,1,2,0:2:0:0:
466,179,83598,2,0,P|421:212|357:208,2,109.199996667481,8|0|0,0:2|0:0|0:0,0:0:0:0:
363,67,84110,1,2,0:2:0:0:
296,261,84280,2,0,P|287:203|317:140,1,109.199996667481,8|0,0:2|0:0,0:0:0:0:
474,311,84621,6,0,L|355:330,1,109.199996667481,2|0,0:2|0:0,0:0:0:0:
192,275,84962,1,8,0:2:0:0:
369,212,85132,2,0,L|476:194,2,109.199996667481,2|0|0,0:2|0:0|0:0,0:0:0:0:
179,166,85644,2,0,L|192:278,1,109.199996667481,8|0,0:2|0:0,0:0:0:0:
285,73,85985,5,2,0:2:0:0:
369,212,86155,1,0,0:0:0:0:
301,42,86326,1,8,0:2:0:0:
179,166,86496,1,0,0:0:0:0:
382,126,86666,1,0,0:0:0:0:
195,31,86837,1,2,0:2:0:0:
261,229,87007,2,0,L|371:211,1,109.199996667481,8|0,0:2|0:0,0:0:0:0:
484,122,87348,5,4,0:2:0:0:
80,78,103712,6,0,P|136:47|207:68,1,136.5,2|0,0:2|0:0,0:0:0:0:
268,148,104053,2,0,B|245:204|268:186|246:253,1,104.65000199604,2|0,0:2|0:0,0:0:0:0:
457,194,104394,6,0,P|410:166|332:194,1,136.5,2|0,0:2|0:0,0:0:0:0:
356,325,104735,2,0,P|398:281|393:236,1,104.65000199604,2|0,0:2|0:0,0:0:0:0:
268,148,105076,6,0,B|190:136|214:181|127:177,1,136.5,2|0,0:2|0:0,0:0:0:0:
59,82,105416,2,0,P|112:72|153:101,1,104.65000199604,2|0,0:2|0:0,0:0:0:0:
117,256,105757,2,0,L|99:310,3,52.3250009980202,2|0|0|0,0:2|0:0|0:0|0:0,0:0:0:0:
244,222,106098,1,2,0:2:0:0:
284,366,106269,1,0,0:0:0:0:
284,366,106354,1,0,0:0:0:0:
284,366,106439,5,2,0:2:0:0:
138,177,106610,1,2,0:2:0:0:
89,384,106780,1,2,0:2:0:0:
218,143,106951,1,2,0:2:0:0:
374,352,107121,1,2,0:2:0:0:
100,305,107291,1,2,0:2:0:0:
395,240,107462,1,2,0:2:0:0:
152,93,107632,1,2,0:2:0:0:
190,338,107803,6,0,L|202:259,1,52.3250009980202,8|8,0:2|0:2,0:0:0:0:
307,86,107973,2,0,L|319:165,1,52.3250009980202,8|8,0:2|0:2,0:0:0:0:
184,350,108144,6,0,L|197:263,1,52.3250009980202,8|8,0:2|0:2,0:0:0:0:
312,73,108314,2,0,L|326:160,1,52.3250009980202,8|8,0:2|0:2,0:0:0:0:
177,364,108485,6,0,L|192:268,1,52.3250009980202,8|8,0:2|0:2,0:0:0:0:
319,59,108655,2,0,L|333:155,1,52.3250009980202,8|8,0:2|0:2,0:0:0:0:
361,382,108826,5,8,0:2:0:0:
361,382,109166,6,0,L|485:363,1,122.850000468636,4|0,0:2|0:0,0:0:0:0:
289,296,109507,1,8,0:2:0:0:
459,223,109678,1,0,0:0:0:0:
256,188,109848,2,0,L|132:169,1,122.850000468636,0|2,0:0|0:2,0:0:0:0:
358,102,110189,1,8,0:2:0:0:
289,296,110360,1,0,0:0:0:0:
247,78,110530,6,0,P|313:71|360:106,1,122.850000468636,0|2,0:0|0:2,0:0:0:0:
286,323,110871,1,8,0:2:0:0:
288,152,111041,1,0,0:0:0:0:
459,223,111212,1,0,0:0:0:0:
220,238,111382,1,2,0:2:0:0:
437,337,111553,2,0,P|463:287|456:215,1,122.850000468636,8|0,0:2|0:0,0:0:0:0:
332,64,111894,6,0,P|276:72|209:81,1,122.850000468636,2|0,0:2|0:0,0:0:0:0:
88,181,112235,1,8,0:2:0:0:
288,152,112405,1,0,0:0:0:0:
118,61,112576,1,0,0:0:0:0:
146,269,112746,1,2,0:2:0:0:
210,80,112916,1,8,0:2:0:0:
265,272,113087,1,0,0:0:0:0:
49,187,113257,6,0,L|34:59,1,122.850000468636,0|2,0:0|0:2,0:0:0:0:
208,176,113598,1,8,0:2:0:0:
43,305,113769,1,0,0:0:0:0:
132,128,113939,1,0,0:0:0:0:
185,328,114110,1,2,0:2:0:0:
49,187,114280,1,8,0:2:0:0:
17,384,114451,1,0,0:0:0:0:
144,251,114621,6,0,P|204:244|257:281,1,122.850000468636,2|0,0:2|0:0,0:0:0:0:
362,374,114962,2,0,P|422:381|475:344,1,122.850000468636,8|0,0:2|0:0,0:0:0:0:
483,132,115303,1,0,0:0:0:0:
404,306,115473,1,2,0:2:0:0:
512,115,115644,1,8,0:2:0:0:
472,347,115814,1,0,0:0:0:0:
254,277,115985,5,2,0:2:0:0:
510,212,116155,1,2,0:2:0:0:
293,177,116326,2,0,L|170:193,1,122.850000468636,8|0,0:2|0:0,0:0:0:0:
374,95,116666,1,0,0:0:0:0:
211,39,116837,1,2,0:2:0:0:
391,216,117007,2,0,L|373:91,1,122.850000468636,8|0,0:2|0:0,0:0:0:0:
211,39,117348,6,0,P|145:31|90:66,1,122.850000468636,2|0,0:2|0:0,0:0:0:0:
0,270,117689,2,0,L|127:253,1,122.850000468636,8|0,0:2|0:0,0:0:0:0:
306,231,118030,1,0,0:0:0:0:
164,112,118201,1,2,0:2:0:0:
219,343,118371,2,0,L|192:216,1,122.850000468636,8|0,0:2|0:0,0:0:0:0:
391,167,118712,6,0,P|406:237|396:300,1,122.850000468636,2|0,0:2|0:0,0:0:0:0:
202,102,119053,2,0,P|187:172|197:235,1,122.850000468636,8|0,0:2|0:0,0:0:0:0:
288,17,119394,1,2,0:2:0:0:
318,204,119564,1,0,0:0:0:0:
438,55,119735,1,8,0:2:0:0:
202,102,119905,1,0,0:0:0:0:
459,175,120076,6,0,L|436:47,1,122.850000468636,2|0,0:2|0:0,0:0:0:0:
307,223,120416,2,0,L|330:351,1,122.850000468636,8|0,0:2|0:0,0:0:0:0:
367,128,120757,1,0,0:0:0:0:
417,320,120928,1,2,0:2:0:0:
285,143,121098,1,8,0:2:0:0:
328,343,121269,1,0,0:0:0:0:
164,166,121439,6,0,L|289:142,1,122.850000468636,0|2,0:0|0:2,0:0:0:0:
142,320,121780,2,0,L|17:296,1,122.850000468636,8|0,0:2|0:0,0:0:0:0:
88,96,122121,1,0,0:0:0:0:
200,255,122291,1,2,0:2:0:0:
198,46,122462,1,8,0:2:0:0:
59,197,122632,1,0,0:0:0:0:
284,142,122803,6,0,L|404:115,1,122.850000468636,2|0,0:2|0:0,0:0:0:0:
319,281,123144,2,0,L|199:254,1,122.850000468636,8|0,0:2|0:0,0:0:0:0:
432,200,123485,1,0,0:0:0:0:
337,373,123655,1,2,0:2:0:0:
503,250,123826,2,0,P|516:189|481:129,1,122.850000468636,8|0,0:2|0:0,0:0:0:0:
338,31,124166,5,0,0:0:0:0:
432,200,124337,1,2,0:2:0:0:
253,187,124507,2,0,L|124:178,1,122.850000468636,8|0,0:2|0:0,0:0:0:0:
0,69,124848,1,0,0:0:0:0:
186,4,125019,1,2,0:2:0:0:
44,214,125189,1,8,0:2:0:0:
49,0,125360,1,0,0:0:0:0:
130,178,125530,6,0,P|134:238|100:290,1,122.850000468636,2|0,0:2|0:0,0:0:0:0:
0,69,125871,2,0,L|133:55,1,122.850000468636,8|0,0:2|0:0,0:0:0:0:
244,185,126212,1,0,0:0:0:0:
44,214,126382,1,2,0:2:0:0:
201,95,126553,1,8,0:2:0:0:
205,299,126723,1,0,0:0:0:0:
122,56,126894,5,2,0:2:0:0:
101,289,127064,1,2,0:2:0:0:
219,76,127235,2,0,P|277:67|342:95,1,122.850000468636,8|0,0:2|0:0,0:0:0:0:
416,268,127576,1,0,0:0:0:0:
489,93,127746,1,2,0:2:0:0:
339,225,127916,2,0,P|327:285|363:348,1,122.850000468636,8|0,0:2|0:0,0:0:0:0:
226,170,128257,5,2,0:2:0:0:
226,170,128343,1,2,0:2:0:0:
226,170,128428,1,2,0:2:0:0:
193,329,128598,1,8,0:2:0:0:
304,132,128769,1,2,0:2:0:0:
352,338,128939,5,2,0:2:0:0:
352,338,129024,1,2,0:2:0:0:
352,338,129110,1,2,0:2:0:0:
113,253,129280,1,8,0:2:0:0:
339,225,129451,1,0,0:0:0:0:
128,169,129621,6,0,P|96:169|58:188,3,61.4250002343178,2|2|2|2,0:2|0:2|0:2|0:0,0:0:0:0:
238,108,129962,2,0,P|254:80|256:37,3,61.4250002343178,8|2|2|2,0:2|0:0|0:2|0:0,0:0:0:0:
209,219,130303,6,0,L|224:280,1,61.4250002343178,2|2,0:2|0:2,0:0:0:0:
354,165,130473,2,0,L|338:224,1,61.4250002343178,2|2,0:2|0:2,0:0:0:0:
194,224,130644,6,0,L|213:297,1,61.4250002343178,8|2,0:2|0:2,0:0:0:0:
368,159,130814,2,0,L|350:231,1,61.4250002343178,2|2,0:2|0:2,0:0:0:0:
300,375,130985,5,4,0:1:0:0:
420,316,131155,1,0,0:0:0:0:
209,283,131326,6,0,L|80:314,1,122.850000468636,12|0,0:2|0:0,0:0:0:0:
256,148,131666,1,0,0:0:0:0:
341,302,131837,1,2,0:2:0:0:
170,179,132007,2,0,P|173:115|219:67,1,122.850000468636,8|0,0:2|0:0,0:0:0:0:
411,41,132348,5,0,0:0:0:0:
256,148,132519,1,2,0:2:0:0:
433,161,132689,2,0,L|409:33,1,122.850000468636,8|0,0:2|0:0,0:0:0:0:
331,248,133030,1,0,0:0:0:0:
290,63,133201,1,2,0:2:0:0:
209,248,133371,2,0,L|231:368,1,122.850000468636,8|0,0:2|0:0,0:0:0:0:
256,148,133712,5,2,0:2:0:0:
81,252,133882,1,0,0:0:0:0:
139,62,134053,1,8,0:2:0:0:
148,314,134223,1,0,0:0:0:0:
17,76,134394,2,0,L|142:61,1,122.850000468636
209,248,134735,1,8,0:2:0:0:
226,51,134905,1,0,0:0:0:0:
290,226,135076,6,0,L|419:212,1,122.850000468636,0|2,0:0|0:2,0:0:0:0:
142,291,135416,2,0,L|13:277,1,122.850000468636,8|0,0:2|0:0,0:0:0:0:
218,139,135757,1,0,0:0:0:0:
259,339,135928,1,2,0:2:0:0:
131,167,136098,2,0,P|132:114|185:56,1,122.850000468636,8|0,0:2|0:0,0:0:0:0:
342,24,136439,6,0,L|465:17,1,122.850000468636,2|0,0:2|0:0,0:0:0:0:
329,184,136780,1,8,0:2:0:0:
251,0,136951,1,0,0:0:0:0:
401,233,137121,2,0,P|412:173|369:107,1,122.850000468636,0|2,0:0|0:2,0:0:0:0:
227,250,137462,1,8,0:2:0:0:
174,61,137632,1,0,0:0:0:0:
329,184,137803,6,0,L|306:307,1,122.850000468636,2|2,0:2|0:2,0:0:0:0:
104,160,138144,2,0,L|127:283,1,122.850000468636,8|0,0:2|0:0,0:0:0:0:
250,102,138485,1,0,0:0:0:0:
59,68,138655,1,2,0:2:0:0:
284,68,138826,1,8,0:2:0:0:
104,160,138996,1,0,0:0:0:0:
329,184,139166,6,0,L|457:163,1,122.850000468636,2|0,0:2|0:0,0:0:0:0:
218,281,139507,1,8,0:2:0:0:
250,102,139678,1,0,0:0:0:0:
306,304,139848,2,0,L|434:283,1,122.850000468636,0|2,0:0|0:2,0:0:0:0:
180,206,140189,1,8,0:2:0:0:
364,99,140360,1,0,0:0:0:0:
159,91,140530,6,0,P|152:148|197:220,1,122.850000468636,2|0,0:2|0:0,0:0:0:0:
371,213,140871,2,0,L|497:192,1,122.850000468636,8|0,0:2|0:0,0:0:0:0:
377,6,141212,2,0,L|255:26,1,122.850000468636,2|0,0:2|0:0,0:0:0:0:
180,206,141553,1,8,0:2:0:0:
96,21,141723,1,0,0:0:0:0:
67,226,141894,6,0,P|123:235|185:200,1,122.850000468636,2|0,0:2|0:0,0:0:0:0:
255,26,142235,1,8,0:2:0:0:
112,149,142405,1,0,0:0:0:0:
310,200,142576,2,0,L|436:183,1,122.850000468636,0|2,0:0|0:2,0:0:0:0:
226,302,142916,1,8,0:2:0:0:
199,115,143087,1,0,0:0:0:0:
128,331,143257,6,0,L|2:314,1,122.850000468636,0|2,0:0|0:2,0:0:0:0:
300,359,143598,2,0,L|426:342,1,122.850000468636,8|0,0:2|0:0,0:0:0:0:
259,183,143939,2,0,L|221:316,1,122.850000468636,0|2,0:0|0:2,0:0:0:0:
348,90,144280,1,8,0:2:0:0:
444,262,144451,1,0,0:0:0:0:
404,25,144621,6,0,P|340:7|277:40,1,122.850000468636,2|0,0:2|0:0,0:0:0:0:
347,222,144962,1,8,0:2:0:0:
480,82,145132,1,0,0:0:0:0:
259,183,145303,2,0,P|195:201|132:168,1,122.850000468636,0|2,0:0|0:2,0:0:0:0:
55,9,145644,1,8,0:2:0:0:
202,114,145814,1,0,0:0:0:0:
0,203,145985,6,0,L|13:76,1,122.850000468636,0|2,0:0|0:2,0:0:0:0:
144,180,146326,2,0,L|157:307,1,122.850000468636,8|0,0:2|0:0,0:0:0:0:
285,104,146666,1,0,0:0:0:0:
275,275,146837,1,2,0:2:0:0:
403,174,147007,1,8,0:2:0:0:
202,114,147178,1,0,0:0:0:0:
373,293,147348,6,0,L|403:170,1,122.850000468636,2|0,0:2|0:0,0:0:0:0:
444,0,147689,1,8,0:2:0:0:
501,189,147860,1,0,0:0:0:0:
316,98,148030,2,0,P|257:88|191:125,1,122.850000468636,0|2,0:0|0:2,0:0:0:0:
178,295,148371,1,8,0:2:0:0:
86,112,148541,1,0,0:0:0:0:
38,300,148712,5,2,0:2:0:0:
246,239,148882,1,0,0:0:0:0:
246,239,148968,1,2,0:2:0:0:
246,239,149053,2,0,L|375:207,1,122.850000468636,8|0,0:2|0:0,0:0:0:0:
201,113,149394,1,0,0:0:0:0:
178,295,149564,1,2,0:2:0:0:
86,112,149735,1,8,0:2:0:0:
38,300,149905,1,0,0:0:0:0:
3,108,150076,6,0,P|14:67|83:27,1,122.850000468636,2|0,0:2|0:0,0:0:0:0:
104,252,150416,1,8,0:2:0:0:
283,111,150587,2,0,P|272:70|203:30,1,122.850000468636,2|0,0:2|0:0,0:0:0:0:
246,239,150928,1,0,0:0:0:0:
86,112,151098,1,8,0:2:0:0:
176,294,151269,1,0,0:0:0:0:
283,111,151439,5,2,0:2:0:0:
104,252,151610,1,0,0:0:0:0:
324,301,151780,1,8,0:2:0:0:
201,113,151951,1,0,0:0:0:0:
103,339,152121,1,0,0:0:0:0:
324,204,152291,1,2,0:2:0:0:
86,112,152462,1,8,0:2:0:0:
250,346,152632,1,0,0:0:0:0:
371,108,152803,5,4,3:2:0:0:
