osu file format v14

[General]
AudioFilename: audio.mp3
AudioLeadIn: 0
PreviewTime: 43563
Countdown: 0
SampleSet: Soft
StackLeniency: 0.7
Mode: 0
LetterboxInBreaks: 0
WidescreenStoryboard: 0

[Editor]
Bookmarks: 112356,122011
DistanceSpacing: 1.6
BeatDivisor: 4
GridSize: 32
TimelineZoom: 1

[Metadata]
Title:Taking Control (feat. Lachi)
TitleUnicode:Taking Control (feat. Lachi)
Artist:Maduk
ArtistUnicode:Maduk
Creator:Asphyxia
Version:Journey
Source:
Tags:liquicity liquid dnb drum n bass english electronic fa featured artist pennek slips and mappers mappers' mapper's guild mg edm dance music ukf
BeatmapID:3572049
BeatmapSetID:1746310

[Difficulty]
HPDrainRate:6
CircleSize:4
OverallDifficulty:8.5
ApproachRate:9
SliderMultiplier:1.5
SliderTickRate:1

[Events]
//Background and Video events
0,0,"wallhaven-g7lod7.jpg",0,0
//Break Periods
2,112555,121411
//Storyboard Layer 0 (Background)
//Storyboard Layer 1 (Fail)
//Storyboard Layer 2 (Pass)
//Storyboard Layer 3 (Foreground)
//Storyboard Layer 4 (Overlay)
//Storyboard Sound Samples

[TimingPoints]
632,344.827586206897,4,2,0,100,1,0
632,-100,4,2,1,50,0,0
2011,-100,4,2,1,35,0,0
2097,-100,4,2,1,50,0,0
3390,-100,4,2,1,35,0,0
3476,-100,4,2,1,50,0,0
4769,-125,4,2,1,50,0,0
5459,-166.666666666667,4,2,1,50,0,0
6149,-100,4,2,1,35,0,0
6235,-100,4,2,1,50,0,0
7528,-100,4,2,1,35,0,0
7614,-100,4,2,1,50,0,0
8907,-100,4,2,1,35,0,0
8994,-100,4,2,1,50,0,0
10287,-125,4,2,1,50,0,0
10976,-166.666666666667,4,2,1,50,0,0
11666,-100,4,2,1,35,0,0
11752,-100,4,2,1,50,0,0
13045,-100,4,2,1,35,0,0
13132,-100,4,2,1,50,0,0
14425,-100,4,2,1,35,0,0
14511,-100,4,2,1,50,0,0
17183,-100,4,2,1,35,0,0
17269,-100,4,2,1,50,0,0
18563,-100,4,2,1,35,0,0
18649,-100,4,2,1,50,0,0
19942,-100,4,2,1,35,0,0
20028,-100,4,2,1,50,0,0
22700,-125,4,2,1,50,0,0
25976,-100,4,2,1,50,0,0
26494,-125,4,2,1,50,0,0
33735,-100,4,2,1,60,0,0
43390,-83.3333333333333,4,2,1,60,0,0
44425,-83.3333333333333,4,2,0,60,0,0
44769,-66.6666666666667,4,2,2,75,0,1
54252,-83.3333333333333,4,2,2,75,0,1
54597,-66.6666666666667,4,2,2,75,0,1
66838,-76.9230769230769,4,2,2,60,0,0
110976,-76.923076923077,4,2,10,60,0,0
111063,-76.9230769230769,4,2,2,60,0,0
111494,-100,4,2,1,60,0,0
112011,-142.857142857143,4,2,1,60,0,0
112356,-142.857142857143,4,2,11,60,0,0
122011,-100,4,2,1,60,0,0
130287,-83.3333333333333,4,2,1,60,0,0
132700,-83.3333333333333,4,2,0,60,0,0
132787,-83.3333333333333,4,2,1,60,0,0
133045,-66.6666666666667,4,2,2,75,0,1
142183,-83.3333333333333,4,2,2,75,0,1
142700,-66.6666666666667,4,2,2,75,0,1
153735,-100,4,2,1,60,0,0
155114,-76.9230769230769,4,2,2,75,0,1
174080,-58.8235294117647,4,2,2,75,0,1
174425,-76.9230769230769,4,2,1,60,0,0
175632,-166.666666666667,4,2,1,60,0,0

[Colours]
Combo1 : 255,166,166
Combo2 : 159,159,208
Combo3 : 136,189,255
Combo4 : 255,198,255

[HitObjects]
256,192,632,5,4,0:0:0:0:
256,192,976,2,0,P|251:239|240:279,1,75,2|0,0:0|0:0,0:0:0:0:
180,318,1321,2,0,P|251:296|326:289,1,150
368,360,1838,1,0,0:0:0:0:
356,199,2011,5,6,0:0:0:0:
356,199,2356,1,0,0:0:0:0:
413,290,2528,1,2,0:0:0:0:
467,226,2700,2,0,P|357:199|349:222,1,150
357,198,3218,1,0,0:0:0:0:
413,290,3390,6,0,P|419:215|441:143,1,150,6|0,0:0|0:0,0:0:0:0:
441,143,3907,1,0,0:0:0:0:
370,99,4080,2,0,P|366:61|358:25,2,75,2|0|0,0:0|0:0|0:0,0:0:0:0:
283,49,4597,1,0,0:0:0:0:
283,49,4769,6,0,P|288:78|290:108,2,60,2|0|0,0:0|0:0|0:0,0:0:0:0:
209,115,5287,1,0,0:0:0:0:
209,115,5459,6,0,P|207:93|202:71,2,44.999998626709,2|0|0,0:0|0:0|0:0,0:0:0:0:
122,79,5976,1,0,0:0:0:0:
73,217,6149,5,4,0:0:0:0:
73,217,6494,2,0,P|25:211|-12:199,1,75,0|2,0:0|0:0,0:0:0:0:
150,170,6838,2,0,P|155:225|171:279,1,112.5
171,279,7183,1,0,0:0:0:0:
101,359,7356,1,0,0:0:0:0:
231,346,7528,6,0,P|268:350|305:360,1,75,6|0,0:0|0:0,0:0:0:0:
380,254,7873,2,0,P|343:258|306:268,1,75
380,254,8218,1,2,0:0:0:0:
252,151,8390,2,0,P|289:155|325:164,1,75
325,164,8735,1,0,0:0:0:0:
425,100,8907,5,6,0:0:0:0:
439,26,9080,2,0,P|362:10|307:59,1,150
257,204,9597,1,2,0:0:0:0:
191,168,9769,1,0,0:0:0:0:
233,105,9942,1,0,0:0:0:0:
298,140,10114,1,0,0:0:0:0:
191,168,10287,6,0,P|154:164|118:155,1,60,2|0,0:0|0:0,0:0:0:0:
67,125,10632,1,0,0:0:0:0:
128,87,10804,1,0,0:0:0:0:
131,159,10976,6,0,P|137:186|140:213,1,44.999998626709,2|0,0:0|0:0,0:0:0:0:
79,242,11321,1,0,0:0:0:0:
127,295,11494,1,0,0:0:0:0:
186,256,11666,5,4,0:0:0:0:
307,331,11838,2,0,P|270:335|234:344,1,75,2|0,0:0|0:0,0:0:0:0:
307,331,12183,1,0,0:0:0:0:
236,187,12356,2,0,P|245:112|266:60,1,112.5,2|0,0:0|0:0,0:0:0:0:
257,77,12700,2,0,P|294:81|330:90,1,75
492,105,13045,6,0,P|493:43|448:7,1,112.5,6|0,0:0|0:0,0:0:0:0:
459,11,13390,1,2,0:0:0:0:
410,86,13563,1,2,0:0:0:0:
284,28,13735,2,0,P|230:44|174:49,1,112.5,2|0,0:0|0:0,0:0:0:0:
174,49,14080,2,0,P|178:86|187:122,1,75
131,279,14425,6,0,P|55:280|10:225,1,150,6|0,0:0|0:0,0:0:0:0:
188,208,14942,2,0,P|166:279|160:354,1,150
160,354,15459,1,0,0:0:0:0:
245,78,15804,6,0,P|215:21|122:51,1,150,2|0,0:0|0:0,0:0:0:0:
76,83,16321,1,0,0:0:0:0:
55,10,16494,1,2,0:0:0:0:
151,98,16666,1,0,0:0:0:0:
76,83,16838,1,0,0:0:0:0:
40,150,17011,1,0,0:0:0:0:
92,205,17183,5,6,0:0:0:0:
162,175,17356,2,0,P|172:211|176:294,1,112.5,2|0,0:0|0:0,0:0:0:0:
176,285,17700,1,0,0:0:0:0:
260,226,17873,2,0,P|301:236|344:237,1,75,2|0,0:0|0:0,0:0:0:0:
396,196,18218,1,0,0:0:0:0:
437,258,18390,1,0,0:0:0:0:
499,144,18563,6,0,P|502:106|511:70,1,75,6|0,0:0|0:0,0:0:0:0:
443,50,18907,1,0,0:0:0:0:
443,50,19080,1,0,0:0:0:0:
338,138,19252,2,0,P|300:140|264:149,1,75,2|0,0:0|0:0,0:0:0:0:
78,124,19597,2,0,P|77:62|122:26,1,112.5
111,29,19942,5,6,0:0:0:0:
111,29,20287,2,0,P|132:100|138:175,1,150,2|0,0:0|0:0,0:0:0:0:
212,167,20804,1,0,0:0:0:0:
221,241,20976,1,0,0:0:0:0:
286,203,21149,1,0,0:0:0:0:
235,329,21321,6,0,P|197:326|161:317,1,75,2|0,0:0|0:0,0:0:0:0:
221,241,21666,1,0,0:0:0:0:
221,241,21838,1,0,0:0:0:0:
84,357,22011,1,2,0:0:0:0:
161,317,22183,1,0,0:0:0:0:
0,214,22356,2,0,P|46:173|103:184,1,112.5
93,178,22700,6,0,P|85:118|66:61,1,120,4|8,3:2|0:0,0:0:0:0:
66,61,23218,1,0,0:0:0:0:
256,128,23563,1,0,3:0:0:0:
256,32,23735,1,8,0:0:0:0:
256,128,23907,1,0,0:0:0:0:
256,32,24080,6,0,P|312:50|372:58,1,120,0|8,3:0|0:0,0:0:0:0:
256,352,24769,1,0,0:0:0:0:
256,352,24942,1,0,3:0:0:0:
256,352,25114,1,8,0:0:0:0:
372,197,25459,6,0,P|312:204|255:223,1,120,0|8,3:0|0:0,0:0:0:0:
173,240,25976,2,0,P|150:203|230:150,1,150,0|0,0:0|3:0,0:0:0:0:
255,222,26494,2,0,P|259:259|268:295,1,60,8|0,0:0|0:0,0:0:0:0:
200,348,26838,6,0,P|140:341|83:322,1,120,0|8,3:0|0:0,0:0:0:0:
173,240,27356,1,0,0:0:0:0:
91,218,27528,1,0,0:0:0:0:
152,161,27700,1,0,3:0:0:0:
45,83,27873,1,8,0:0:0:0:
133,18,28045,1,0,0:0:0:0:
133,18,28218,6,0,P|162:24|192:26,1,60,0|0,3:0|2:0,0:0:0:0:
382,3,28563,1,8,0:0:0:0:
457,40,28735,2,0,P|471:108|427:157,1,120,0|0,0:0|3:0,0:0:0:0:
376,196,29252,2,0,P|319:177|259:169,1,120,8|0,0:0|3:0,0:0:0:0:
184,206,29769,5,0,0:0:0:0:
171,289,29942,1,8,0:0:0:0:
237,339,30114,1,0,0:0:0:0:
329,251,30287,1,0,0:0:0:0:
329,251,30459,2,0,P|330:280|336:310,1,60,0|8,3:0|2:0,0:0:0:0:
237,339,30804,1,0,0:0:0:0:
426,294,30976,5,0,3:0:0:0:
426,294,31149,2,0,P|425:265|419:235,2,60,0|8|0,2:0|2:0|0:0,0:0:0:0:
365,174,31666,1,0,0:0:0:0:
501,224,31838,1,0,3:0:0:0:
451,158,32011,1,8,0:0:0:0:
418,234,32183,1,0,0:0:0:0:
295,208,32356,6,0,P|293:138|344:97,1,120,0|8,3:0|0:0,0:0:0:0:
365,174,32873,2,0,P|383:230|390:290,1,120,0|0,0:0|3:0,0:0:0:0:
226,270,33390,2,0,P|181:275|138:289,1,90,8|0,0:0|0:0,0:0:0:0:
138,288,33735,5,6,1:2:0:0:
152,108,34080,1,8,0:2:0:0:
152,108,34425,1,0,0:0:0:0:
28,139,34597,1,0,0:0:0:0:
56,14,34769,1,8,1:2:0:0:
256,192,35114,5,0,1:0:0:0:
360,108,35459,1,8,0:2:0:0:
360,108,35804,1,0,0:0:0:0:
484,139,35976,1,0,0:0:0:0:
456,14,36149,1,8,1:2:0:0:
256,192,36494,5,0,1:0:0:0:
96,294,36838,1,8,0:2:0:0:
96,294,37183,1,0,0:0:0:0:
7,201,37356,1,0,0:0:0:0:
131,174,37528,1,8,1:2:0:0:
256,352,37873,5,0,1:0:0:0:
416,294,38218,1,10,1:2:0:0:
416,294,38390,1,0,0:0:0:0:
425,153,38562,1,2,1:2:0:0:
499,272,38734,1,0,0:0:0:0:
505,186,38907,1,8,1:2:0:0:
369,219,39079,1,0,0:0:0:0:
425,153,39252,6,0,P|421:116|412:80,1,75,2|0,1:2|1:0,0:0:0:0:
486,28,39597,1,8,1:2:0:0:
486,28,39769,1,0,1:2:0:0:
256,32,39942,2,0,P|292:41|329:45,1,75,0|0,1:2|1:2,0:2:0:0:
329,159,40287,1,8,1:2:0:0:
242,131,40459,1,0,1:2:0:0:
254,220,40632,5,0,1:2:0:0:
171,183,40804,1,0,1:2:0:0:
329,159,40976,2,0,P|338:195|341:232,1,75,8|0,1:2|1:2,0:2:0:0:
171,183,41321,2,0,P|162:147|157:110,1,75,0|0,1:2|1:2,0:2:0:0:
277,110,41666,2,0,P|271:165|254:219,1,112.5,10|0,1:2|0:2,0:2:0:0:
254,220,42011,6,0,P|258:257|268:293,1,75,0|0,1:2|1:2,0:2:0:0:
201,370,42356,1,8,1:2:0:0:
341,232,42528,1,0,1:2:0:0:
171,183,42700,1,0,1:2:0:0:
317,117,42873,1,0,1:2:0:0:
217,16,43045,1,8,1:2:0:0:
254,220,43218,1,0,1:2:0:0:
217,16,43390,5,0,1:2:0:0:
248,4,43476,1,0,1:2:0:0:
281,7,43563,1,0,1:2:0:0:
309,25,43649,1,0,1:2:0:0:
326,54,43735,1,10,1:2:0:0:
328,86,43821,1,0,1:2:0:0:
317,117,43907,1,2,1:2:0:0:
314,151,43994,1,0,1:2:0:0:
326,182,44080,1,2,1:2:0:0:
349,206,44166,1,0,1:2:0:0:
379,219,44252,1,2,1:2:0:0:
412,219,44338,1,0,1:2:0:0:
443,205,44425,2,0,P|447:163|417:116,1,89.9999972534181,10|0,0:2|0:0,0:0:0:0:
494,41,44769,6,0,P|479:107|458:288,1,225.000008583069,6|8,3:2|0:0,0:0:0:0:
328,240,45287,2,0,P|343:174|364:-7,1,225.000008583069,2|0,0:0|3:0,0:0:0:0:
113,203,45804,2,0,P|108:252|143:307,1,112.500004291535,10|0,0:0|0:0,0:0:0:0:
189,367,46063,1,0,0:0:0:0:
189,367,46149,6,0,P|167:256|134:148,1,225.000008583069,2|8,3:2|0:0,0:0:0:0:
49,21,46666,1,2,0:0:0:0:
83,3,46752,1,0,0:0:0:0:
121,6,46838,1,0,0:0:0:0:
154,27,46925,1,0,0:0:0:0:
175,59,47011,1,0,3:0:0:0:
172,256,47183,2,0,P|125:285|70:282,1,112.500004291535,10|2,0:0|0:0,0:0:0:0:
36,211,47442,1,0,0:0:0:0:
36,211,47528,5,2,3:2:0:0:
104,87,47700,1,0,0:0:0:0:
0,0,47873,1,8,0:0:0:0:
258,31,48045,2,0,B|317:9|375:63|312:96|366:151|432:134,1,225.000008583069,2|0,0:0|3:0,0:0:0:0:
378,227,48563,2,0,P|388:158|423:40,1,168.750006437302,10|0,0:0|0:0,0:0:0:0:
480,19,48907,5,2,3:2:0:0:
312,126,49080,1,0,0:0:0:0:
378,227,49252,1,8,0:0:0:0:
294,353,49425,1,2,0:0:0:0:
478,250,49597,1,0,0:0:0:0:
478,250,49769,1,0,3:0:0:0:
211,155,49942,1,10,0:0:0:0:
368,63,50114,1,0,0:0:0:0:
201,0,50287,6,0,P|186:66|165:247,1,225.000008583069,2|8,3:2|0:0,0:0:0:0:
256,242,50804,2,0,P|271:176|292:-5,1,225.000008583069,2|0,0:0|3:0,0:0:0:0:
365,177,51321,2,0,P|420:181|466:151,1,112.500004291535,10|0,0:0|0:0,0:0:0:0:
501,68,51580,1,0,0:0:0:0:
501,68,51666,6,0,P|390:89|283:123,1,225.000008583069,2|8,3:2|0:0,0:0:0:0:
295,328,52183,2,0,P|406:307|513:273,1,225.000008583069,2|0,0:0|3:0,0:0:0:0:
277,2,52700,2,0,P|236:7|221:133,1,168.750006437302,10|0,0:0|0:0,0:0:0:0:
283,122,53045,5,2,3:2:0:0:
177,213,53218,1,0,0:0:0:0:
98,57,53390,1,8,0:0:0:0:
77,199,53563,2,0,P|72:255|58:309,1,112.500004291535,2|0,0:0|0:0,0:0:0:0:
98,57,53907,1,0,3:0:0:0:
177,213,54080,1,10,0:0:0:0:
283,122,54252,6,0,P|287:65|301:11,1,89.9999972534181,0|2,0:0|3:2,0:0:0:0:
294,33,54597,1,0,0:0:0:0:
376,127,54769,1,8,0:0:0:0:
292,206,54942,1,2,0:0:0:0:
483,176,55114,2,0,P|478:120|464:66,1,112.500004291535,0|0,0:0|3:0,0:0:0:0:
463,65,55459,1,8,0:0:0:0:
292,206,55632,1,2,0:3:0:0:
480,307,55804,6,0,P|416:331|367:258,1,168.750006437302,6|0,3:2|0:0,0:0:0:0:
366,259,56149,1,8,0:0:0:0:
257,345,56321,2,0,P|201:349|146:364,1,112.500004291535
206,254,56666,1,0,3:0:0:0:
10,148,56838,6,0,P|60:44|169:62,1,225.000008583069,10|2,0:0|3:2,0:0:0:0:
250,156,57356,1,0,0:0:0:0:
250,156,57442,1,0,0:0:0:0:
250,156,57528,2,0,P|254:100|269:45,1,112.500004291535,8|2,0:0|0:3,0:0:0:0:
512,206,57873,2,0,P|422:212|334:236,1,168.750006437302
286,280,58218,2,0,P|314:324|364:309,1,112.500004291535,10|2,0:0|0:3,0:0:0:0:
268,45,58563,6,0,P|192:24|154:93,1,168.750006437302,2|0,3:2|0:0,0:0:0:0:
153,91,58907,1,8,0:0:0:0:
407,177,59080,2,0,P|421:122|425:66,1,112.500004291535,2|0,0:0|0:0,0:0:0:0:
268,45,59425,1,0,3:0:0:0:
477,245,59597,6,0,P|427:349|318:331,1,225.000008583069,10|2,0:0|3:2,0:0:0:0:
213,185,60114,1,0,0:0:0:0:
213,185,60200,1,0,0:0:0:0:
213,185,60287,2,0,P|227:240|231:296,1,112.500004291535,8|2,0:0|0:3,0:0:0:0:
0,64,60632,2,0,P|81:84|165:89,1,168.750006437302
243,109,60976,2,0,P|258:58|214:30,1,112.500004291535,10|2,0:0|0:3,0:0:0:0:
20,227,61321,6,0,P|19:305|95:324,1,168.750006437302,2|0,3:2|0:0,0:0:0:0:
95,323,61666,1,8,0:0:0:0:
245,245,61838,2,0,P|299:230|355:226,1,112.500004291535,2|0,0:0|0:0,0:0:0:0:
373,140,62183,1,0,3:0:0:0:
344,346,62356,6,0,P|442:306|441:200,1,225.000008583069,10|2,0:0|3:2,0:0:0:0:
242,32,62873,1,0,0:0:0:0:
242,32,62959,1,0,0:0:0:0:
242,32,63045,2,0,P|255:86|260:142,1,112.500004291535,8|2,0:0|0:3,0:0:0:0:
244,350,63390,2,0,P|162:329|78:324,1,168.750006437302
3,306,63735,2,0,P|-12:357|32:385,1,112.500004291535,10|0,0:0|0:0,0:0:0:0:
262,222,64080,6,0,P|306:286|379:258,1,168.750006437302,2|0,3:2|0:0,0:0:0:0:
379,257,64425,1,8,0:0:0:0:
512,381,64597,2,0,P|496:326|493:270,1,112.500004291535,2|0,3:2|0:0,0:0:0:0:
419,371,64942,1,0,3:0:0:0:
502,85,65114,2,0,P|422:78|381:148,1,168.750006437302,10|0,0:0|0:0,0:0:0:0:
381,146,65459,6,0,P|393:170|403:197,3,56.2500021457673,0|0|0|0,3:0|0:0|0:0|0:0,0:0:0:0:
325,231,65804,2,0,P|306:190|301:172,3,56.2500021457673,8|0|0|0,0:0|0:0|0:0|0:0,0:0:0:0:
210,172,66149,1,0,3:0:0:0:
182,123,66235,1,0,0:0:0:0:
188,67,66321,1,0,0:0:0:0:
226,25,66407,1,0,0:0:0:0:
281,15,66494,2,0,P|277:41|269:69,1,56.2500021457673,2|0,0:3|0:0,0:0:0:0:
381,148,66666,2,0,P|408:141|436:136,1,56.2500021457673,2|0,0:3|0:0,0:0:0:0:
276,302,66838,6,0,P|214:289|164:285,1,97.4999955368044,4|0,3:2|0:0,0:0:0:0:
108,320,67097,1,0,0:0:0:0:
108,320,67183,1,8,0:0:0:0:
101,153,67356,1,0,0:0:0:0:
101,153,67442,1,0,0:0:0:0:
101,153,67528,2,0,P|98:128|94:104,2,48.7499977684022,2|0|0,0:0|0:0|3:0,0:0:0:0:
180,285,67873,1,10,0:0:0:0:
49,215,68045,1,2,0:0:0:0:
188,67,68218,6,0,P|268:60|309:130,1,146.249993305207,2|0,3:2|0:0,0:0:0:0:
306,106,68563,2,0,P|311:57|322:10,1,97.4999955368044,10|0,0:0|0:0,0:0:0:0:
371,189,68907,2,0,P|419:183|466:172,1,97.4999955368044,0|2,0:0|3:2,0:0:0:0:
309,274,69252,1,10,0:0:0:0:
429,356,69425,1,0,0:0:0:0:
429,356,69511,1,0,0:0:0:0:
429,356,69597,5,2,3:2:0:0:
371,189,69769,1,2,0:0:0:0:
313,369,69942,2,0,P|264:365|217:354,1,97.4999955368044,8|2,0:0|0:0,0:0:0:0:
217,354,70200,1,0,0:0:0:0:
188,334,70287,1,0,0:0:0:0:
154,325,70373,1,0,0:0:0:0:
120,329,70459,1,0,3:0:0:0:
90,345,70545,1,0,0:0:0:0:
66,370,70632,1,8,0:0:0:0:
100,245,70804,1,2,0:0:0:0:
22,175,70976,5,0,3:0:0:0:
140,115,71149,1,2,0:0:0:0:
51,0,71321,2,0,P|47:47|76:85,1,97.4999955368044,10|2,0:0|0:0,0:0:0:0:
76,85,71580,1,0,0:0:0:0:
108,109,71667,1,2,0:0:0:0:
140,115,71753,1,0,0:0:0:0:
172,107,71838,2,0,P|192:96|198:90,4,24.3749988842011,0|0|0|0|10,3:0|0:0|0:0|0:0|0:0,0:0:0:0:
226,222,72183,1,2,0:0:0:0:
226,222,72269,1,0,0:0:0:0:
226,222,72356,6,0,P|301:230|376:245,1,146.249993305207,0|0,3:0|0:0,0:0:0:0:
370,244,72700,2,0,P|381:198|358:156,1,97.4999955368044,10|2,0:0|0:0,0:0:0:0:
136,259,73045,2,0,P|124:304|147:346,1,97.4999955368044,2|0,0:0|3:0,0:0:0:0:
227,338,73304,1,0,0:0:0:0:
227,338,73390,2,0,P|274:326|322:323,1,97.4999955368044,10|0,0:0|0:0,0:0:0:0:
451,383,73735,6,0,P|501:334|490:264,1,146.249993305207,2|0,3:2|0:0,0:0:0:0:
452,166,74080,2,0,P|438:237|430:310,2,146.249993305207,10|2|2,0:0|0:0|3:2,0:0:0:0:
503,19,74769,2,0,P|456:12|416:38,1,97.4999955368044,8|0,0:0|0:0,0:0:0:0:
386,112,75028,1,0,0:0:0:0:
386,112,75114,5,2,3:2:0:0:
292,40,75287,1,2,0:0:0:0:
200,112,75459,1,10,0:0:0:0:
91,67,75632,1,0,0:0:0:0:
66,91,75719,1,0,0:0:0:0:
50,121,75805,1,0,0:0:0:0:
46,155,75891,1,0,0:0:0:0:
55,189,75977,1,0,3:0:0:0:
145,321,76149,2,0,P|147:272|159:225,1,97.4999955368044,10|2,0:0|0:0,0:0:0:0:
212,156,76407,1,0,0:0:0:0:
212,156,76494,5,0,3:0:0:0:
285,203,76666,1,2,0:0:0:0:
332,130,76838,1,10,0:0:0:0:
259,83,77011,1,0,0:0:0:0:
259,83,77097,1,0,0:0:0:0:
259,83,77183,1,2,0:0:0:0:
430,215,77356,1,0,3:0:0:0:
224,314,77528,1,10,0:0:0:0:
212,156,77700,1,0,3:0:0:0:
212,156,77787,1,0,0:0:0:0:
212,156,77873,6,0,P|284:163|356:178,1,146.249993305207,0|0,3:0|0:0,0:0:0:0:
430,215,78218,2,0,P|442:170|419:128,1,97.4999955368044,8|2,0:0|0:0,0:0:0:0:
251,51,78563,2,0,P|202:53|155:65,1,97.4999955368044,2|0,0:0|3:0,0:0:0:0:
86,97,78821,1,0,0:0:0:0:
86,97,78907,2,0,P|74:52|97:10,1,97.4999955368044,10|0,0:0|0:0,0:0:0:0:
314,130,79252,6,0,P|326:175|303:217,1,97.4999955368044,0|2,3:0|0:0,0:0:0:0:
228,247,79511,1,0,0:0:0:0:
228,247,79597,1,10,0:0:0:0:
369,63,79769,1,2,0:0:0:0:
369,63,79856,1,0,0:0:0:0:
369,63,79942,2,0,P|416:74|464:76,1,97.4999955368044,0|2,0:0|3:2,0:0:0:0:
429,257,80287,1,8,0:0:0:0:
302,217,80459,1,2,0:0:0:0:
451,332,80632,6,0,P|501:282|490:213,1,146.249993305207,2|0,3:2|0:0,0:0:0:0:
490,213,80976,1,10,0:0:0:0:
302,217,81149,1,2,0:0:0:0:
302,217,81235,1,0,0:0:0:0:
302,217,81321,2,0,P|300:168|289:120,1,97.4999955368044,0|0,0:0|3:0,0:0:0:0:
123,240,81666,2,0,P|166:262|212:277,1,97.4999955368044,10|2,0:0|0:0,0:0:0:0:
65,77,82011,5,0,3:0:0:0:
57,314,82183,2,0,P|21:325|-13:342,1,48.7499977684022,2|0,0:3|0:0,0:0:0:0:
12,331,82356,2,0,P|58:342|99:319,1,97.4999955368044,10|2,0:0|0:0,0:0:0:0:
123,240,82614,1,0,0:0:0:0:
123,240,82700,1,2,0:0:0:0:
115,196,82787,1,0,0:0:0:0:
107,152,82873,2,0,P|110:133|117:114,4,24.3749988842011,0|0|0|0|10,3:0|0:0|0:0|0:0|0:0,0:0:0:0:
354,132,83218,1,2,0:0:0:0:
354,132,83304,1,0,0:0:0:0:
354,132,83390,6,0,P|352:83|341:35,1,97.4999955368044,0|2,3:0|0:0,0:0:0:0:
263,17,83649,1,0,0:0:0:0:
263,17,83735,1,8,0:0:0:0:
361,245,83907,2,0,P|337:240|312:237,1,48.7499977684022,2|0,0:0|0:0,0:0:0:0:
312,237,84080,2,0,P|300:282|323:324,1,97.4999955368044,2|0,0:0|3:0,0:0:0:0:
399,344,84338,1,0,0:0:0:0:
399,344,84425,2,0,P|446:333|495:331,1,97.4999955368044,10|0,0:0|0:0,0:0:0:0:
256,167,84769,6,0,P|155:165|117:258,1,194.999991073609,2|8,3:2|0:0,0:0:0:0:
192,333,85287,2,0,P|193:284|204:236,1,97.4999955368044,2|0,0:0|0:0,0:0:0:0:
109,331,85632,1,2,3:0:0:0:
325,107,85804,2,0,P|348:148|336:194,1,97.4999955368044,10|0,0:0|0:0,0:0:0:0:
127,45,86149,6,0,P|177:35|228:29,1,97.4999955368044,0|2,3:0|0:0,0:0:0:0:
307,29,86407,1,0,0:0:0:0:
307,29,86494,1,8,0:0:0:0:
431,148,86666,1,0,0:0:0:0:
504,72,86838,1,0,0:0:0:0:
404,32,87011,1,0,3:0:0:0:
335,194,87183,1,10,0:0:0:0:
426,271,87356,1,2,0:0:0:0:
426,271,87442,1,0,0:0:0:0:
426,271,87528,5,2,3:2:0:0:
371,326,87700,1,2,0:0:0:0:
300,291,87873,1,10,0:0:0:0:
244,346,88045,1,2,0:0:0:0:
103,304,88218,5,2,3:2:0:0:
143,16,88390,1,0,3:0:0:0:
143,16,88735,2,0,P|167:13|191:8,1,48.7499977684022,0|0,3:0|0:0,0:0:0:0:
276,67,88907,5,6,3:2:0:0:
390,41,89080,1,2,0:0:0:0:
419,153,89252,1,10,0:0:0:0:
508,7,89425,1,2,0:0:0:0:
508,7,89511,1,0,0:0:0:0:
508,7,89597,2,0,P|507:55|496:103,1,97.4999955368044,0|2,0:0|3:2,0:0:0:0:
276,67,89942,1,8,0:0:0:0:
330,285,90114,1,0,0:0:0:0:
330,285,90200,1,0,0:0:0:0:
330,285,90287,5,2,3:2:0:0:
256,165,90459,2,0,P|215:142|169:154,1,97.4999955368044,2|8,0:0|0:0,0:0:0:0:
51,297,90804,1,0,0:0:0:0:
208,233,90976,1,2,0:0:0:0:
29,122,91149,2,0,P|30:73|41:25,1,97.4999955368044,0|8,3:0|0:0,0:0:0:0:
316,66,91494,1,2,0:0:0:0:
316,66,91580,1,0,0:0:0:0:
316,66,91666,5,0,3:0:0:0:
256,165,91838,1,2,0:0:0:0:
354,228,92011,1,10,0:0:0:0:
273,367,92183,1,2,0:0:0:0:
452,281,92356,1,2,0:0:0:0:
238,290,92528,1,0,3:2:0:0:
338,142,92700,1,10,0:0:0:0:
273,367,92873,1,2,0:0:0:0:
79,231,93045,6,0,P|80:182|91:134,1,97.4999955368044,0|0,3:0|0:0,0:0:0:0:
24,0,93390,2,0,P|48:3|72:8,1,48.7499977684022,10|0,0:0|0:0,0:0:0:0:
137,64,93563,2,0,P|160:68|185:72,1,48.7499977684022,2|0,0:0|0:0,0:0:0:0:
253,30,93735,1,2,0:0:0:0:
281,232,93907,1,0,3:0:0:0:
338,142,94080,2,0,P|387:141|435:130,1,97.4999955368044,10|0,0:0|0:0,0:0:0:0:
425,277,94425,6,0,P|337:303|280:231,1,194.999991073609,2|8,3:2|0:0,0:0:0:0:
354,32,94942,2,0,P|441:5|498:77,1,194.999991073609,2|0,0:0|3:0,0:0:0:0:
434,130,95459,2,0,P|345:138|258:156,1,146.249993305207,10|0,0:0|0:0,0:0:0:0:
289,149,95804,5,0,3:0:0:0:
182,56,95976,1,2,0:0:0:0:
182,56,96063,1,0,0:0:0:0:
182,56,96149,2,0,P|180:105|168:152,1,97.4999955368044,8|0,0:0|0:0,0:0:0:0:
233,273,96494,1,2,0:0:0:0:
359,209,96666,1,0,3:0:0:0:
443,249,96838,2,0,P|466:290|454:336,1,97.4999955368044,8|0,0:0|0:0,0:0:0:0:
316,367,97183,6,0,P|243:354|171:348,1,146.249993305207,0|0,3:0|0:0,0:0:0:0:
171,348,97528,2,0,P|147:306|159:260,1,97.4999955368044,8|0,0:0|0:0,0:0:0:0:
359,209,97873,1,0,0:0:0:0:
214,148,98045,1,0,3:0:0:0:
284,18,98218,2,0,P|295:65|297:113,1,97.4999955368044,8|2,0:0|0:0,0:0:0:0:
284,199,98476,1,0,0:0:0:0:
284,199,98563,5,0,3:0:0:0:
206,69,98735,1,0,0:0:0:0:
158,260,98907,1,10,0:0:0:0:
214,148,99080,1,2,0:3:0:0:
97,201,99252,1,2,0:0:0:0:
54,46,99425,1,2,3:2:0:0:
140,115,99597,1,10,0:0:0:0:
10,199,99769,1,2,3:2:0:0:
119,337,99942,6,0,P|207:363|264:291,1,194.999991073609,2|8,3:2|0:0,0:0:0:0:
276,171,100459,2,0,P|364:145|421:217,1,194.999991073609,0|2,0:0|3:2,0:0:0:0:
264,290,100976,1,8,0:0:0:0:
207,112,101149,1,0,0:0:0:0:
207,112,101235,1,0,0:0:0:0:
207,112,101321,5,0,3:0:0:0:
273,54,101494,1,2,0:0:0:0:
193,17,101666,1,10,0:0:0:0:
276,171,101838,1,2,0:0:0:0:
111,141,102011,1,0,0:0:0:0:
207,112,102183,1,2,3:2:0:0:
72,230,102356,1,10,0:0:0:0:
42,54,102528,1,2,0:0:0:0:
207,112,102700,6,0,P|206:161|195:209,1,97.4999955368044,0|2,3:0|0:0,0:0:0:0:
325,251,103045,1,10,0:0:0:0:
185,339,103218,1,2,0:0:0:0:
185,339,103390,1,0,0:0:0:0:
405,291,103563,1,2,3:2:0:0:
240,271,103735,1,10,0:0:0:0:
344,345,103907,1,2,0:0:0:0:
391,185,104080,6,0,P|390:136|379:88,1,97.4999955368044,0|0,3:0|0:0,0:0:0:0:
276,70,104425,1,10,0:0:0:0:
464,6,104597,1,2,0:0:0:0:
464,6,104683,1,0,0:0:0:0:
464,6,104769,2,0,P|459:29|455:54,1,48.7499977684022,2|0,0:0|0:0,0:0:0:0:
495,127,104942,2,0,P|491:151|486:175,1,48.7499977684022,2|0,3:2|0:0,0:0:0:0:
423,256,105114,1,8,0:0:0:0:
500,361,105287,1,2,0:0:0:0:
259,354,105459,6,0,P|233:265|305:208,1,194.999991073609,0|8,3:0|0:0,0:0:0:0:
364,340,105976,1,0,0:0:0:0:
364,340,106063,1,0,0:0:0:0:
364,340,106149,1,0,0:0:0:0:
482,255,106321,1,0,3:0:0:0:
377,117,106494,2,0,P|328:118|280:129,1,97.4999955368044,8|0,0:0|0:0,0:0:0:0:
201,98,106838,5,0,3:0:0:0:
304,208,107011,1,2,0:0:0:0:
263,43,107183,1,10,0:0:0:0:
222,188,107356,1,2,0:3:0:0:
106,87,107528,2,0,P|94:42|117:0,1,97.4999955368044,2|2,0:0|3:0,0:0:0:0:
195,32,107787,1,0,0:0:0:0:
195,32,107873,2,0,P|242:42|291:43,1,97.4999955368044,10|2,0:0|0:3,0:0:0:0:
370,9,108218,5,0,3:0:0:0:
322,172,108390,1,0,0:0:0:0:
389,114,108563,1,8,0:0:0:0:
199,136,108735,5,0,3:0:0:0:
199,136,108907,1,0,0:0:0:0:
399,197,109080,1,0,3:0:0:0:
246,349,109252,5,8,0:0:0:0:
322,172,109425,1,0,3:0:0:0:
323,320,109597,5,0,0:0:0:0:
199,271,109769,1,2,0:0:0:0:
278,248,109942,1,2,0:0:0:0:
322,172,110114,1,2,0:0:0:0:
268,114,110287,1,2,0:0:0:0:
336,76,110459,1,2,0:0:0:0:
269,33,110632,1,2,0:0:0:0:
269,33,110804,1,2,0:0:0:0:
192,195,110976,6,0,P|144:205|95:205,1,97.4999955368044,4|2,0:0|0:3,0:0:0:0:
268,248,111321,1,0,0:0:0:0:
268,248,111494,6,0,P|305:248|341:257,1,75,2|2,0:3|0:0,0:0:0:0:
192,300,111838,1,2,0:3:0:0:
265,151,112011,6,0,P|265:103|234:42,1,104.999996795654,2|4,0:0|0:0,0:0:0:0:
88,92,122011,6,0,P|124:101|161:105,1,75,0|0,1:0|0:0,0:0:0:0:
226,67,122356,1,8,0:0:0:0:
163,185,122528,2,0,P|125:188|89:198,1,75
163,185,122873,1,0,0:0:0:0:
84,281,123045,2,0,P|120:290|157:294,1,75,8|0,1:2|0:0,0:0:0:0:
218,250,123390,5,0,1:0:0:0:
266,307,123563,1,0,0:0:0:0:
207,353,123735,1,8,0:0:0:0:
345,314,123907,1,0,0:0:0:0:
345,314,124080,2,0,P|348:276|358:240,1,75
512,274,124425,2,0,P|508:311|498:347,1,75,8|0,1:2|0:0,0:0:0:0:
428,296,124769,5,0,1:0:0:0:
473,111,125114,1,8,0:0:0:0:
473,111,125287,1,0,0:0:0:0:
380,175,125459,1,0,0:0:0:0:
323,77,125632,1,0,0:0:0:0:
203,216,125804,2,0,P|207:253|217:289,1,75,8|0,1:2|0:0,0:0:0:0:
217,289,126149,5,0,1:0:0:0:
123,256,126321,1,0,0:0:0:0:
211,137,126494,1,8,0:0:0:0:
211,137,126838,1,0,0:0:0:0:
251,10,127011,1,0,0:0:0:0:
181,57,127183,1,8,1:2:0:0:
181,57,127356,1,0,0:0:0:0:
112,4,127528,6,0,P|75:8|39:18,1,75,0|0,1:0|0:0,0:0:0:0:
65,173,127873,2,0,P|69:136|79:100,1,75,8|0,1:2|0:0,0:0:0:0:
8,247,128218,1,0,1:0:0:0:
8,247,128390,1,0,1:0:0:0:
111,329,128563,1,8,1:2:0:0:
111,329,128735,1,0,1:0:0:0:
155,177,128907,5,0,1:0:0:0:
193,267,129080,1,0,1:0:0:0:
267,204,129252,1,8,1:2:0:0:
229,113,129425,1,0,1:0:0:0:
155,177,129597,5,0,1:0:0:0:
281,290,129769,1,0,1:0:0:0:
370,112,129942,1,8,1:2:0:0:
267,204,130114,1,0,1:0:0:0:
457,141,130287,5,0,1:2:0:0:
462,110,130373,1,0,1:2:0:0:
456,79,130459,1,0,1:2:0:0:
439,51,130545,1,0,1:2:0:0:
414,30,130632,1,8,1:2:0:0:
384,20,130718,1,0,1:2:0:0:
352,21,130804,1,0,1:2:0:0:
323,34,130890,1,0,1:2:0:0:
299,54,130976,1,0,1:2:0:0:
286,83,131063,1,0,1:2:0:0:
262,103,131149,1,0,1:2:0:0:
232,113,131235,1,0,1:2:0:0:
200,111,131321,1,8,1:2:0:0:
172,95,131408,1,0,1:2:0:0:
151,71,131494,1,0,1:2:0:0:
142,40,131580,1,0,1:2:0:0:
145,8,131666,5,0,0:0:0:0:
370,112,132011,1,2,0:0:0:0:
416,309,132356,1,2,0:0:0:0:
416,309,132528,1,0,0:0:0:0:
225,371,132700,1,8,0:0:0:0:
175,376,132787,1,0,0:0:0:0:
129,357,132873,1,0,0:0:0:0:
99,317,132959,1,0,0:0:0:0:
95,267,133045,6,0,P|206:288|313:322,1,225.000008583069,6|8,3:2|0:0,0:0:0:0:
371,179,133563,2,0,P|260:158|153:124,1,225.000008583069,2|0,0:0|3:0,0:0:0:0:
364,58,134080,2,0,P|410:27|465:31,1,112.500004291535,10|0,0:0|0:0,0:0:0:0:
507,100,134338,1,0,0:0:0:0:
507,100,134425,6,0,P|473:207|452:317,1,225.000008583069,2|8,3:2|0:0,0:0:0:0:
187,362,134942,1,2,0:0:0:0:
175,324,135029,1,0,0:0:0:0:
182,286,135115,1,0,0:0:0:0:
207,255,135201,1,0,0:0:0:0:
246,241,135287,1,0,3:0:0:0:
433,207,135459,2,0,P|447:261|452:317,1,112.500004291535,10|2,0:2|0:0,0:0:0:0:
389,357,135718,1,0,0:0:0:0:
389,357,135804,6,0,P|311:377|261:314,1,168.750006437302,2|0,3:2|0:0,0:0:0:0:
261,315,136149,1,8,0:0:0:0:
313,96,136321,2,0,P|258:81|202:76,1,112.500004291535,2|0,0:0|0:0,0:0:0:0:
70,170,136666,1,0,3:0:0:0:
47,0,136838,2,0,P|16:46|20:101,1,112.500004291535,10|2,0:0|0:0,0:0:0:0:
70,170,137097,1,0,0:0:0:0:
70,170,137183,5,2,3:2:0:0:
202,76,137356,1,0,0:0:0:0:
105,253,137528,1,8,0:0:0:0:
115,48,137700,1,2,0:0:0:0:
40,330,137873,2,0,P|95:335|150:349,1,112.500004291535,0|0,0:0|3:0,0:0:0:0:
404,217,138218,1,10,0:0:0:0:
192,278,138390,1,2,0:0:0:0:
478,272,138563,6,0,P|479:166|380:126,1,225.000008583069,2|8,3:2|0:0,0:0:0:0:
272,211,139080,2,0,P|271:317|370:357,1,225.000008583069,2|0,0:0|3:0,0:0:0:0:
404,217,139597,2,0,P|414:148|449:30,1,168.750006437302,10|0,0:0|0:0,0:0:0:0:
364,4,139942,5,2,3:2:0:0:
504,155,140114,1,2,0:0:0:0:
280,115,140287,1,8,0:0:0:0:
331,290,140459,2,0,P|275:294|220:309,1,112.500004291535,2|0,0:0|0:0,0:0:0:0:
167,237,140804,1,0,3:0:0:0:
280,115,140976,1,10,0:0:0:0:
101,24,141149,1,0,0:0:0:0:
66,264,141321,6,0,P|121:267|166:236,1,112.500004291535,2|2,3:2|0:0,0:0:0:0:
118,165,141666,1,10,0:0:0:0:
220,57,141838,1,0,0:0:0:0:
331,290,142011,1,0,0:0:0:0:
204,159,142183,5,2,3:2:0:0:
383,139,142356,1,10,0:0:0:0:
245,269,142528,2,0,P|235:313|234:357,1,89.9999972534181,2|0,0:0|3:0,0:0:0:0:
331,290,142873,5,0,0:0:0:0:
166,235,143045,1,10,0:0:0:0:
166,235,143218,1,2,0:0:0:0:
248,86,143390,1,2,0:0:0:0:
360,234,143563,1,2,3:2:0:0:
483,181,143735,1,10,0:0:0:0:
361,37,143907,1,2,0:0:0:0:
361,37,143994,1,0,0:0:0:0:
361,37,144080,6,0,P|323:105|247:85,1,168.750006437302,4|0,3:2|0:0,0:0:0:0:
248,86,144425,1,8,0:0:0:0:
360,234,144597,2,0,P|304:238|249:253,1,112.500004291535,2|0,0:0|0:0,0:0:0:0:
202,329,144942,1,0,3:0:0:0:
35,80,145114,6,0,P|140:78|180:177,1,225.000008583069,10|2,0:0|3:2,0:0:0:0:
111,351,145632,1,0,0:0:0:0:
111,351,145718,1,0,0:0:0:0:
111,351,145804,2,0,P|115:295|130:240,1,112.500004291535,10|2,0:0|0:3,0:0:0:0:
299,13,146149,2,0,P|294:98|274:179,1,168.750006437302,2|0,0:0|0:0,0:0:0:0:
262,261,146494,2,0,P|312:276|340:232,1,112.500004291535,10|0,0:0|0:0,0:0:0:0:
149,32,146838,6,0,P|73:11|34:79,1,168.750006437302,2|0,3:2|0:0,0:0:0:0:
34,79,147183,1,8,0:0:0:0:
163,196,147356,2,0,P|217:181|273:178,1,112.500004291535,2|0,0:0|0:0,0:0:0:0:
340,231,147700,1,0,3:0:0:0:
364,0,147873,6,0,P|462:39|460:145,1,225.000008583069,10|2,0:0|3:2,0:0:0:0:
452,366,148390,1,0,0:0:0:0:
452,366,148476,1,0,0:0:0:0:
452,366,148563,2,0,P|437:311|434:255,1,112.500004291535,10|2,0:0|0:3,0:0:0:0:
147,316,148907,2,0,P|231:320|312:340,1,168.750006437302,2|0,0:0|0:0,0:0:0:0:
335,256,149252,2,0,P|350:205|306:177,1,112.500004291535,10|0,0:0|0:0,0:0:0:0:
31,269,149597,6,0,P|70:336|146:315,1,168.750006437302,2|0,3:2|0:0,0:0:0:0:
146,315,149942,1,8,0:0:0:0:
68,142,150114,2,0,P|124:138|178:123,1,112.500004291535,2|0,0:0|0:0,0:0:0:0:
226,53,150459,1,0,3:0:0:0:
335,256,150632,6,0,P|433:217|431:111,1,225.000008583069,10|2,0:0|3:2,0:0:0:0:
317,18,151149,1,0,0:0:0:0:
317,18,151235,1,0,0:0:0:0:
317,18,151322,2,0,P|332:73|335:129,1,112.500004291535,10|2,0:0|0:3,0:0:0:0:
43,307,151666,2,0,P|47:222|67:141,1,168.750006437302,2|0,0:0|0:0,0:0:0:0:
152,149,152011,2,0,P|167:199|123:228,1,112.500004291535,10|2,0:0|0:0,0:0:0:0:
256,338,152356,6,0,P|331:359|371:291,1,168.750006437302,2|0,3:2|0:0,0:0:0:0:
371,291,152700,1,8,0:0:0:0:
487,273,152873,2,0,P|472:327|468:383,1,112.500004291535,2|0,0:0|0:0,0:0:0:0:
417,213,153218,1,0,3:0:0:0:
506,61,153390,2,0,P|426:68|385:-2,1,168.750006437302,10|0,0:0|0:0,0:0:0:0:
385,0,153735,6,0,P|394:36|398:73,1,75,2|0,3:2|0:0,0:0:0:0:
320,161,154080,2,0,P|311:125|307:88,1,75,2|0,3:2|0:0,0:0:0:0:
228,142,154425,1,0,3:0:0:0:
160,68,154597,1,0,3:0:0:0:
85,126,154769,1,0,3:0:0:0:
85,126,154942,1,2,0:3:0:0:
0,83,155114,6,0,P|13:145|17:195,1,97.4999955368044,6|0,3:2|0:0,0:0:0:0:
2,256,155373,1,0,0:0:0:0:
2,256,155459,1,8,0:0:0:0:
153,178,155632,1,2,0:0:0:0:
218,244,155804,2,0,P|229:290|206:332,1,97.4999955368044,2|2,0:0|3:2,0:0:0:0:
130,309,156063,1,0,0:0:0:0:
130,309,156149,2,0,P|81:315|34:326,1,97.4999955368044,10|0,0:0|0:0,0:0:0:0:
235,162,156494,6,0,P|297:175|347:179,1,97.4999955368044,2|0,3:2|0:0,0:0:0:0:
443,222,156838,1,8,0:0:0:0:
359,275,157011,1,2,0:0:0:0:
346,104,157183,1,2,0:0:0:0:
372,82,157269,1,0,0:0:0:0:
404,71,157356,1,2,3:2:0:0:
438,72,157442,1,0,0:0:0:0:
469,85,157528,1,8,0:0:0:0:
443,222,157700,1,2,0:0:0:0:
273,262,157873,5,2,3:2:0:0:
446,314,158045,1,0,0:0:0:0:
298,341,158218,1,8,0:0:0:0:
360,274,158390,1,2,0:0:0:0:
360,274,158476,1,0,0:0:0:0:
360,274,158563,1,2,0:0:0:0:
203,318,158735,1,0,3:0:0:0:
301,123,158907,2,0,P|253:112|205:106,1,97.4999955368044,8|2,0:0|0:0,0:0:0:0:
138,139,159166,1,0,0:0:0:0:
138,139,159252,5,2,3:2:0:0:
178,30,159425,1,0,0:0:0:0:
50,106,159597,2,0,P|39:152|62:194,1,97.4999955368044,10|0,0:0|0:0,0:0:0:0:
143,233,159856,1,0,0:0:0:0:
143,233,159942,2,0,P|191:222|239:216,1,97.4999955368044,2|0,0:0|3:0,0:0:0:0:
120,347,160287,2,0,P|72:336|24:330,1,97.4999955368044,10|0,0:0|0:0,0:0:0:0:
251,370,160632,6,0,P|320:376|367:323,1,146.249993305207,2|0,3:2|0:0,0:0:0:0:
367,323,160976,1,8,0:0:0:0:
323,121,161149,2,0,P|312:168|306:217,1,97.4999955368044,2|0,0:0|0:0,0:0:0:0:
306,217,161407,1,0,0:0:0:0:
332,239,161494,1,2,3:2:0:0:
366,241,161580,1,0,0:0:0:0:
395,224,161666,1,8,0:0:0:0:
323,121,161838,1,2,0:0:0:0:
170,295,162011,6,0,P|146:253|157:206,1,97.4999955368044,2|0,3:2|0:0,0:0:0:0:
220,155,162269,1,0,0:0:0:0:
220,155,162356,1,8,0:0:0:0:
81,46,162528,1,2,0:0:0:0:
133,131,162700,1,2,0:0:0:0:
243,58,162873,1,0,3:0:0:0:
243,58,162959,1,0,0:0:0:0:
243,58,163045,1,8,0:0:0:0:
317,129,163218,1,2,0:0:0:0:
390,24,163390,6,0,P|401:71|407:120,1,97.4999955368044,2|0,3:2|0:0,0:0:0:0:
383,197,163649,1,0,0:0:0:0:
383,197,163735,1,8,0:0:0:0:
494,322,163907,1,2,0:0:0:0:
468,345,163994,1,0,0:0:0:0:
435,354,164080,1,2,0:0:0:0:
401,349,164166,1,0,0:0:0:0:
372,330,164252,1,0,3:0:0:0:
265,259,164425,1,8,0:0:0:0:
195,357,164597,1,2,0:0:0:0:
128,203,164769,6,0,P|169:179|216:190,1,97.4999955368044,2|0,3:2|0:0,0:0:0:0:
265,259,165028,1,0,0:0:0:0:
265,259,165114,1,10,0:0:0:0:
195,357,165287,1,2,0:0:0:0:
372,330,165459,1,2,0:0:0:0:
273,355,165632,1,2,3:2:0:0:
446,364,165804,1,10,0:0:0:0:
361,196,165976,1,2,0:0:0:0:
361,196,166063,1,0,0:0:0:0:
361,196,166149,6,0,P|372:148|378:100,1,97.4999955368044,4|0,3:2|0:0,0:0:0:0:
454,160,166494,1,8,0:0:0:0:
369,22,166666,1,0,0:0:0:0:
335,14,166752,1,0,0:0:0:0:
301,20,166838,1,2,0:0:0:0:
273,40,166924,1,0,0:0:0:0:
256,70,167011,1,0,3:0:0:0:
252,104,167097,1,0,0:0:0:0:
262,136,167183,1,8,0:0:0:0:
196,251,167356,1,2,0:0:0:0:
95,178,167528,6,0,P|47:188|0:194,1,97.4999955368044,2|2,3:2|0:3,0:0:0:0:
111,276,167873,1,8,0:0:0:0:
183,143,168045,1,0,0:0:0:0:
23,68,168218,2,0,P|71:74|118:84,1,97.4999955368044,2|2,0:0|3:2,0:0:0:0:
183,143,168476,1,0,0:0:0:0:
183,143,168563,2,0,P|207:101|196:55,1,97.4999955368044,8|2,0:0|0:0,0:0:0:0:
124,0,168907,5,2,3:2:0:0:
292,89,169080,2,0,P|288:113|285:137,2,48.7499977684022,0|0|8,0:0|0:0|0:0,0:0:0:0:
383,165,169425,1,0,0:0:0:0:
414,176,169511,1,0,0:0:0:0:
448,175,169597,1,2,0:0:0:0:
478,159,169683,1,0,0:0:0:0:
498,131,169769,1,0,3:0:0:0:
484,28,169942,2,0,P|436:38|387:44,1,97.4999955368044,8|2,0:0|0:0,0:0:0:0:
305,1,170200,1,0,0:0:0:0:
305,1,170287,6,0,P|281:43|292:89,1,97.4999955368044,2|0,3:2|0:0,0:0:0:0:
160,323,170632,2,0,P|156:274|145:227,1,97.4999955368044,8|2,0:0|0:0,0:0:0:0:
145,227,170890,1,0,0:0:0:0:
125,198,170977,1,2,0:0:0:0:
116,164,171063,1,0,0:0:0:0:
120,130,171149,1,2,3:2:0:0:
136,100,171235,1,0,0:0:0:0:
161,76,171322,1,8,0:0:0:0:
256,163,171494,1,2,0:0:0:0:
256,163,171580,1,0,0:0:0:0:
256,163,171666,6,0,P|304:166|351:177,1,97.4999955368044,0|0,3:0|0:0,0:0:0:0:
405,263,172011,1,8,0:0:0:0:
320,315,172183,1,2,0:0:0:0:
488,366,172356,1,2,0:0:0:0:
487,218,172528,1,0,3:0:0:0:
487,218,172614,1,0,0:0:0:0:
487,218,172700,1,8,0:0:0:0:
437,129,172873,1,2,0:0:0:0:
512,41,173045,6,0,P|475:10|427:12,1,97.4999955368044,2|0,3:2|0:0,0:0:0:0:
368,60,173304,1,0,0:0:0:0:
368,60,173390,2,0,P|379:107|382:155,1,97.4999955368044,8|2,0:0|0:0,0:0:0:0:
417,337,173735,2,0,P|464:339|501:308,1,97.4999955368044,2|0,0:0|3:0,0:0:0:0:
438,265,173994,1,0,0:0:0:0:
438,265,174080,6,0,P|367:246|295:240,1,127.50000243187,8|2,0:0|0:0,0:0:0:0:
190,302,174425,5,2,1:2:0:0:
237,223,174597,1,0,0:0:0:0:
237,223,174769,1,0,0:0:0:0:
107,162,174942,5,2,1:2:0:0:
193,142,175114,1,2,0:0:0:0:
193,142,175287,1,0,0:0:0:0:
140,45,175459,5,0,1:0:0:0:
222,65,175632,1,0,0:0:0:0:
321,1,175804,6,0,P|295:3|270:9,1,44.999998626709,2|0,1:2|0:0,0:0:0:0:
222,65,176149,1,0,0:0:0:0:
294,105,176321,1,2,0:0:0:0:
229,207,176494,1,2,0:0:0:0:
