osu file format v14

[General]
AudioFilename: audio.mp3
AudioLeadIn: 0
PreviewTime: 653834
Countdown: 0
SampleSet: Soft
StackLeniency: 0.4
Mode: 0
LetterboxInBreaks: 0
WidescreenStoryboard: 1

[Editor]
Bookmarks: 87284,152739,196375,240012,305466,370921,414557,458193,545466,589102,632739,698193,741830,785466,850921,894557,938193,981830,1047284,1090921,1134557,1178193,1243648,1287284,1352739,1418237,1461874,1505510,1531876,1570965,1636419,1723692
DistanceSpacing: 0.7
BeatDivisor: 4
GridSize: 8
TimelineZoom: 2.4

[Metadata]
Title:Liquicity Yearmix 2016
TitleUnicode:Liquicity Yearmix 2016
Artist:Maduk
ArtistUnicode:Maduk
Creator:Strategas
Version:Marathon
Source:
Tags:ekgame _Kise niyuji Secretpipe Milan- NeilPerry GenDoNL Cheesecake DahplA pishifat nasobol90 M_a_r_v_o_l_l_o marvollo shmiklak Come[Back]Home cbh Dan Dakota Stood In The Dark NCT Golden Hour ft. Deuce & Charger Champion What I Need VIP Maduk Never Give Up Cartoon Here Voicians Survival League Smooth Oxygen Monrroe Stay (feat. Charlotte Haining) Dualistic Subsequent Sunrise Ella Edlan Shadow ft Emy Perez (Original Mix) Hugh Hardie Light it up Dodge Fuski Your Love (Mob Tactics Remix) Madface Long Way Piece of U Flux Pavilion Matthew Koma Emotional Draper Feint Take It Koven Qbig Sleepless (VIP) Mitekiss Final Hours GLXY Malaky Marquis Pola Bryson Whisper To Me Sammie Bella Indivision Vitro Faceless (ft. Moleman Pipistrelle) Pogo No Worries Hybrid Minds Rainer Grimm Do Right Thomas Hayes Futuristik Waterborne Miyoki Metrik Cadence Reija Lee Little Bit Johnny Stimson We Go Again Atlantic Connection Got Thinking (ft Veela) Fox Stevenson Flash
BeatmapID:1168018
BeatmapSetID:551444

[Difficulty]
HPDrainRate:4
CircleSize:3.9
OverallDifficulty:10
ApproachRate:9.5
SliderMultiplier:1.9
SliderTickRate:1

[Events]
//Background and Video events
0,0,"yearmix.jpg",0,0
//Break Periods
2,240202,259249
2,458383,479477
2,502020,512204
2,785486,787658
2,894747,904590
2,905656,915840
2,1088383,1090386
2,1178383,1194022
2,1220485,1221295
2,1241111,1243113
2,1284746,1286749
2,1295656,1297658
2,1358403,1360331
2,1505655,1515839
2,1614746,1634476
//Storyboard Layer 0 (Background)
//Storyboard Layer 1 (Fail)
//Storyboard Layer 2 (Pass)
//Storyboard Layer 3 (Foreground)
//Storyboard Sound Samples

[TimingPoints]
2,340.909090909091,4,2,25,5,1,0
10570,-133.333333333333,4,2,25,40,0,0
42274,-100,4,2,25,50,0,0
50712,-100,4,2,25,5,0,0
50797,-100,4,2,25,50,0,0
57274,-100,4,2,25,55,0,0
60002,-100,4,2,25,60,0,0
62729,-66.6666666666667,4,2,25,65,0,0
64263,-100,4,2,25,65,0,0
65456,-83.3333333333333,4,2,25,70,0,1
81820,-100,4,2,25,40,0,0
83183,-100,4,2,25,50,0,0
84547,-100,4,2,25,60,0,0
85229,-100,4,2,25,55,0,0
85911,-100,4,2,25,45,0,0
86252,-100,4,2,25,40,0,0
87274,-90.9090909090909,4,2,25,70,0,1
97842,-90.9090909090909,4,2,25,70,0,0
98183,-90.9090909090909,4,2,25,70,0,1
106365,-90.9090909090909,4,2,25,70,0,0
106706,-90.9090909090909,4,2,25,60,0,0
107047,-90.9090909090909,4,2,25,50,0,0
107388,-90.9090909090909,4,2,25,40,0,0
107729,-90.9090909090909,4,2,25,30,0,0
109092,-90.9090909090909,4,2,25,60,0,0
109433,-90.9090909090909,4,2,25,70,0,1
119661,-133.333333333333,4,2,25,70,0,1
119916,-133.333333333333,4,2,25,25,0,1
120002,-200,4,2,25,70,0,0
120257,-200,4,2,25,25,0,0
120342,-66.6666666666667,4,2,25,70,0,1
120683,-90.9090909090909,4,2,25,70,0,1
125456,-125,4,2,25,50,0,0
130229,-142.857142857143,4,2,25,50,0,0
130484,-142.857142857143,4,2,25,5,0,0
130570,-66.6666666666667,4,2,25,50,0,0
130825,-66.6666666666667,4,2,25,5,0,0
130911,-100,4,2,25,65,0,0
131592,-66.6666666666667,4,2,25,65,0,0
131848,-66.6666666666667,4,2,25,25,0,0
131933,-66.6666666666667,4,2,25,65,0,0
132274,-100,4,2,25,65,0,0
132956,-66.6666666666667,4,2,25,65,0,0
133638,-133.333333333333,4,2,25,65,0,0
133894,-133.333333333333,4,2,25,25,0,0
133979,-133.333333333333,4,2,25,65,0,0
134234,-133.333333333333,4,2,25,25,0,0
134320,-66.6666666666667,4,2,25,65,0,0
134575,-133.333333333333,4,2,25,25,0,0
134661,-100,4,2,25,65,0,0
135683,-66.6666666666667,4,2,25,65,0,0
136365,-100,4,2,25,65,0,0
137047,-66.6666666666667,4,2,25,65,0,0
137303,-66.6666666666667,4,2,25,25,0,0
137388,-50,4,2,25,65,0,0
137729,-66.6666666666667,4,2,25,65,0,0
138411,-50,4,2,25,65,0,0
139092,-133.333333333333,4,2,25,65,0,0
139348,-133.333333333333,4,2,25,25,0,0
139433,-133.333333333333,4,2,25,65,0,0
139689,-133.333333333333,4,2,25,25,0,0
139774,-66.6666666666667,4,2,25,65,0,0
140030,-133.333333333333,4,2,25,25,0,0
140115,-100,4,2,25,65,0,0
141138,-66.6666666666667,4,2,25,65,0,0
141820,-100,4,2,25,55,0,0
142502,-66.6666666666667,4,2,25,65,0,0
142757,-133.333333333333,4,2,25,25,0,0
142842,-100,4,2,25,65,0,0
143865,-66.6666666666667,4,2,25,65,0,0
144547,-133.333333333333,4,2,25,60,0,0
144803,-133.333333333333,4,2,25,25,0,0
144888,-133.333333333333,4,2,25,60,0,0
145144,-133.333333333333,4,2,25,25,0,0
145229,-66.6666666666667,4,2,25,65,0,0
145484,-133.333333333333,4,2,25,25,0,0
145570,-66.6666666666667,4,2,25,65,0,0
147274,-100,4,2,25,55,0,0
147956,-66.6666666666667,4,2,25,65,0,0
148979,-133.333333333333,4,2,25,60,0,0
149320,-66.6666666666667,4,2,25,65,0,0
151365,-133.333333333333,4,2,25,65,0,0
152729,-200,4,2,27,40,0,0
154774,-99.9999999999999,4,2,27,50,0,0
155456,-200,4,2,27,40,0,0
163638,-200,4,2,27,20,0,0
164320,-181.818181818182,4,2,27,25,0,0
165002,-166.666666666667,4,2,27,30,0,0
165683,-166.666666666667,4,2,27,35,0,0
166365,-142.857142857143,4,2,27,40,0,0
167047,-133.333333333333,4,2,27,45,0,0
167729,-125,4,2,27,50,0,0
168411,-117.647058823529,4,2,27,55,0,0
169092,-100,4,2,27,65,0,0
171820,-100,4,2,27,50,0,0
172331,-111.111111111111,4,2,27,40,0,0
172842,-125,4,2,27,30,0,0
173183,-142.857142857143,4,2,27,20,0,0
173524,-166.666666666667,4,2,27,10,0,0
173865,-100,4,2,27,50,0,0
174547,-83.3333333333333,4,2,27,70,0,1
184433,-200,4,2,27,70,0,0
184945,-100,4,2,27,70,0,0
185456,-83.3333333333333,4,2,27,70,0,0
196365,-76.9230769230769,4,2,25,70,0,1
218183,-76.9230769230769,4,2,25,60,0,0
261138,-133.333333333333,4,2,27,40,0,0
261820,-125,4,2,27,40,0,0
305456,-200,4,2,25,35,0,0
307502,-133.333333333333,4,2,25,35,0,0
308183,-200,4,2,25,35,0,0
312956,-133.333333333333,4,2,25,35,0,0
313638,-200,4,2,25,35,0,0
318411,-133.333333333333,4,2,25,35,0,0
319092,-200,4,2,25,35,0,0
323865,-133.333333333333,4,2,25,35,0,0
324547,-200,4,2,25,35,0,0
327274,-125,4,2,25,50,0,0
327445,-125,4,2,25,25,0,0
327615,-125,4,2,25,50,0,0
327786,-125,4,2,25,25,0,0
327956,-125,4,2,25,50,0,0
328127,-125,4,2,25,25,0,0
328297,-125,4,2,25,50,0,0
328468,-125,4,2,25,25,0,0
328638,-125,4,2,25,50,0,0
328809,-125,4,2,25,25,0,0
328979,-125,4,2,25,50,0,0
329150,-125,4,2,25,25,0,0
329320,-125,4,2,25,50,0,0
329491,-125,4,2,25,25,0,0
329661,-125,4,2,25,50,0,0
329832,-125,4,2,25,25,0,0
330002,-125,4,2,25,50,0,0
330173,-125,4,2,25,25,0,0
330342,-125,4,2,25,50,0,0
330513,-125,4,2,25,25,0,0
330683,-125,4,2,25,50,0,0
330854,-125,4,2,25,25,0,0
331024,-125,4,2,25,50,0,0
331195,-125,4,2,25,25,0,0
331365,-125,4,2,25,50,0,0
331536,-125,4,2,25,25,0,0
331706,-125,4,2,25,50,0,0
331877,-125,4,2,25,25,0,0
332047,-125,4,2,25,50,0,0
332218,-125,4,2,25,25,0,0
332388,-125,4,2,25,50,0,0
332900,-125,4,2,25,25,0,0
333070,-125,4,2,25,50,0,0
333241,-125,4,2,25,25,0,0
333411,-125,4,2,25,50,0,0
333582,-125,4,2,25,25,0,0
333752,-125,4,2,25,50,0,0
333923,-125,4,2,25,25,0,0
334092,-100,4,2,25,50,0,0
334263,-100,4,2,25,25,0,0
334433,-100,4,2,25,50,0,0
334604,-100,4,2,25,25,0,0
334774,-100,4,2,25,50,0,0
334945,-100,4,2,25,25,0,0
335115,-100,4,2,25,50,0,0
335456,-100,4,2,25,60,0,0
335627,-100,4,2,25,30,0,0
335797,-100,4,2,25,60,0,0
335968,-100,4,2,25,30,0,0
336138,-100,4,2,25,60,0,0
336309,-100,4,2,25,30,0,0
336479,-100,4,2,25,60,0,0
336650,-100,4,2,25,30,0,0
336820,-100,4,2,25,60,0,0
336991,-100,4,2,25,30,0,0
337161,-100,4,2,25,60,0,0
337332,-100,4,2,25,30,0,0
337502,-100,4,2,25,60,0,0
337673,-100,4,2,25,30,0,0
337842,-100,4,2,25,60,0,0
345002,-100,4,2,25,70,0,0
347729,-83.3333333333333,4,2,25,60,0,0
349092,-83.3333333333333,4,2,25,70,0,1
349433,-62.5,4,2,25,70,0,1
350456,-83.3333333333333,4,2,25,70,0,1
352161,-62.5,4,2,25,70,0,1
353183,-83.3333333333333,4,2,25,70,0,1
354888,-62.5,4,2,25,70,0,1
355911,-83.3333333333333,4,2,25,70,0,1
357615,-62.5,4,2,25,70,0,1
359831,-50,4,2,25,70,0,1
360002,-66.6666666666667,4,2,25,70,0,1
360342,-62.5,4,2,25,70,0,1
361365,-83.3333333333333,4,2,25,70,0,1
363070,-62.5,4,2,25,70,0,1
364092,-83.3333333333333,4,2,25,70,0,1
365797,-62.5,4,2,25,70,0,1
366820,-83.3333333333333,4,2,25,70,0,1
368183,-166.666666666667,4,2,25,70,0,1
370911,-100,4,2,27,60,0,0
413183,-100,4,2,27,50,0,0
414547,-111.111111111111,4,2,27,60,0,0
455456,-111.111111111111,4,2,27,55,0,0
456649,-111.111111111111,4,2,27,50,0,0
457842,-133.333333333333,4,2,27,40,0,0
480002,-166.666666666667,4,2,27,20,0,0
485456,-166.666666666667,4,2,27,20,0,0
512729,-125,4,2,27,22,0,0
513411,-125,4,2,27,30,0,0
515456,-125,4,2,27,40,0,0
518183,-125,4,2,27,50,0,0
523638,-71.4285714285714,4,2,27,60,0,1
523979,-100,4,2,27,60,0,1
545456,-100,4,2,27,60,0,0
632729,-100,4,2,25,60,0,0
635627,-76.9230769230769,4,2,25,70,0,0
637842,-133.333333333333,4,2,25,70,0,0
638354,-100,4,2,25,60,0,0
641081,-76.9230769230769,4,2,25,70,0,0
643638,-100,4,2,25,70,0,0
653865,-200,4,2,25,70,0,0
654036,-100,4,2,25,70,0,0
654206,-66.6666666666667,4,2,25,70,0,0
654377,-50,4,2,25,70,0,0
654547,-83.3333333333333,4,2,25,70,0,1
665286,-50,4,2,25,70,0,1
665456,-83.3333333333333,4,2,25,70,0,1
673638,-100,4,2,25,70,0,0
698183,-90.9090909090909,4,2,25,70,0,1
699206,-66.6666666666667,4,2,25,80,0,1
699547,-90.9090909090909,4,2,25,70,0,1
704661,-66.6666666666667,4,2,25,80,0,1
705002,-90.9090909090909,4,2,25,70,0,1
710115,-66.6666666666667,4,2,25,80,0,1
710456,-90.9090909090909,4,2,25,70,0,1
715570,-66.6666666666667,4,2,25,80,0,1
715911,-90.9090909090909,4,2,25,70,0,0
737388,-50,4,2,25,70,0,0
737899,-66.6666666666667,4,2,25,70,0,0
738411,-90.9090909090909,4,2,25,70,0,0
739092,-100,4,2,25,55,0,0
740456,-133.333333333333,4,2,25,40,0,0
741820,-125,4,2,27,55,0,0
751365,-125,4,2,0,30,0,0
751536,-125,4,2,27,55,0,0
752729,-100,4,2,27,60,0,0
760911,-125,4,2,27,55,0,0
763638,-100,4,2,27,60,0,0
768070,-125,4,2,27,55,0,0
769092,-100,4,2,27,60,0,0
788183,-133.333333333333,4,2,25,35,0,0
796365,-133.333333333333,4,2,25,40,0,0
807274,-100,4,2,25,60,0,0
829092,-83.3333333333333,4,2,25,70,0,1
848183,-100,4,2,25,60,0,0
848865,-100,4,2,25,50,0,0
849547,-100,4,2,25,40,0,0
850911,-100,4,2,25,60,0,0
872729,-100,4,2,25,70,0,1
894547,-100,4,2,25,70,0,0
905115,-250,4,2,27,30,0,0
916365,-133.333333333333,4,2,27,55,0,0
937842,-100,4,2,25,40,0,0
938183,-111.111111111111,4,2,27,40,0,0
960002,-90.9090909090909,4,2,27,45,0,0
970570,-71.4285714285714,4,2,27,60,0,0
971252,-90.9090909090909,4,2,27,45,0,0
981820,-111.111111111111,4,2,27,55,0,0
1064320,-166.666666666667,4,2,27,55,0,0
1064661,-111.111111111111,4,2,27,55,0,0
1090911,-125,4,2,25,40,0,0
1112729,-100,4,2,25,65,0,0
1134547,-100,4,2,25,60,0,0
1156365,-100,4,2,25,65,0,1
1175456,-100,4,2,25,55,0,0
1194547,-111.111111111111,4,2,27,25,0,0
1195399,-111.111111111111,4,2,27,30,0,0
1196763,-111.111111111111,4,2,27,35,0,0
1200002,-111.111111111111,4,2,27,55,0,0
1240911,-111.111111111111,4,2,25,30,0,0
1243638,-100,4,2,27,55,0,0
1298183,-100,4,2,25,55,0,0
1306706,-100,4,2,25,45,0,0
1307047,-100,4,2,25,35,0,0
1307388,-100,4,2,25,25,0,0
1307899,-200,4,2,25,45,0,0
1309092,-83.3333333333333,4,2,25,70,0,1
1330911,-83.3333333333333,4,2,25,65,0,0
1354113,340.909090909091,4,2,25,35,1,0
1354113,-133.333333333333,4,2,25,35,0,0
1360931,-200,4,2,25,35,0,0
1361101,-200,4,2,25,5,0,0
1363658,-200,4,2,25,35,0,0
1365022,-133.333333333333,4,2,25,35,0,0
1374056,-200,4,2,25,35,0,0
1374567,-76.9230769230769,4,2,25,45,0,0
1375249,-100,4,2,25,45,0,0
1376101,-76.9230769230769,4,2,25,45,0,0
1376442,-100,4,2,25,45,0,0
1378828,-76.9230769230769,4,2,25,45,0,0
1380022,-100,4,2,25,50,0,0
1381556,-76.9230769230769,4,2,25,50,0,0
1381897,-100,4,2,25,50,0,0
1384283,-76.9230769230769,4,2,25,50,0,0
1385476,-100,4,2,25,55,0,0
1388544,-66.6666666666667,4,2,25,55,0,0
1388885,-100,4,2,25,55,0,0
1389226,-66.6666666666667,4,2,25,55,0,0
1389567,-100,4,2,25,55,0,0
1389908,-66.6666666666667,4,2,25,55,0,0
1390249,-100,4,2,25,55,0,0
1390590,-66.6666666666667,4,2,25,55,0,0
1390931,-100,4,2,25,55,0,0
1395703,-333.333333333333,4,2,25,55,0,0
1396044,-71.4285714285714,4,2,25,55,0,0
1396385,-83.3333333333333,4,2,25,60,0,1
1405505,-83.3333333333333,4,2,25,40,0,1
1406783,-83.3333333333333,4,2,25,60,0,1
1408828,-66.6666666666667,4,2,25,80,0,1
1409169,-83.3333333333333,4,2,25,60,0,1
1414283,-66.6666666666667,4,2,25,60,0,1
1414624,-83.3333333333333,4,2,25,60,0,1
1416840,-100,4,2,25,52,0,0
1418183,340.909090909091,4,2,25,65,1,1
1418183,-90.9090909090909,4,2,25,65,0,1
1440001,-100,4,2,25,60,0,0
1459092,-133.333333333333,4,2,25,30,0,0
1459433,-117.647058823529,4,2,25,40,0,0
1459773,-105.263157894737,4,2,25,45,0,0
1460455,-166.666666666667,4,2,25,50,0,0
1461819,-100,4,2,25,60,0,0
1483637,-90.9090909090909,4,2,25,65,0,1
1505455,-100,4,2,25,60,0,0
1516364,-133.333333333333,4,2,25,35,0,0
1521819,-117.647058823529,4,2,25,45,0,0
1527273,-100,4,2,27,60,0,0
1549092,-90.9090909090909,4,2,27,65,0,1
1568183,-100,4,2,27,50,0,0
1570569,-100,4,2,25,60,0,0
1570910,-100,4,2,27,60,0,0
1591364,-100,4,2,25,65,0,0
1592728,-100,4,2,25,70,0,0
1636364,-125,4,2,25,35,0,0
1651364,-200,4,2,25,35,0,0
1652728,-125,4,2,25,35,0,0
1658183,-100,4,2,25,45,0,0
1669092,-90.9090909090909,4,2,25,50,0,0
1675910,-83.3333333333333,4,2,25,60,0,0
1680001,-76.9230769230769,4,2,25,65,0,0
1701819,-90.9090909090909,4,2,25,60,0,0

[Colours]
Combo1 : 252,242,69
Combo2 : 0,91,0
Combo3 : 0,121,242
Combo4 : 255,0,0
Combo5 : 254,94,65
Combo6 : 108,0,217
Combo7 : 255,72,255

[HitObjects]
256,192,8183,12,0,10570,0:0:0:0:
181,122,10911,6,0,P|266:105|341:129,2,142.500005435944,2|0|0,0:0|0:0|0:0,0:0:0:0:
181,122,11933,6,0,L|168:211,1,71.2500027179719
171,192,12274,2,0,L|161:263,1,71.2500027179719,2|0,0:0|0:0,0:0:0:0:
161,262,12615,2,0,L|148:351,1,71.2500027179719
150,332,12956,2,0,B|188:350|188:350|319:335,1,142.500005435944,2|0,0:0|0:0,0:0:0:0:
288,338,13638,6,0,P|276:266|297:184,1,142.500005435944,2|0,0:0|0:0,0:0:0:0:
289,198,14320,2,0,P|359:210|429:195,1,142.500005435944,2|0,0:0|0:0,0:0:0:0:
429,195,15002,6,0,P|417:123|438:41,1,142.500005435944,2|0,0:0|0:0,0:0:0:0:
431,55,15683,2,0,P|361:40|291:52,1,142.500005435944,2|0,0:0|0:0,0:0:0:0:
143,123,16365,5,2,0:0:0:0:
143,123,16706,1,0,0:0:0:0:
143,261,17047,5,2,0:0:0:0:
143,261,17388,1,0,0:0:0:0:
282,193,17729,6,0,L|211:192,1,71.2500027179719,2|0,0:0|0:0,0:0:0:0:
74,192,18070,1,2,0:0:0:0:
2,190,18411,6,0,L|73:191,1,71.2500027179719,2|0,0:0|0:0,0:0:0:0:
210,191,18752,1,2,0:0:0:0:
18,287,19092,5,2,0:0:0:0:
2,190,19263,1,0,0:0:0:0:
83,358,19433,2,0,P|51:378|9:384,1,71.2500027179719,2|0,0:0|0:0,0:0:0:0:
115,265,19774,5,2,0:0:0:0:
83,358,19945,1,0,0:0:0:0:
96,169,20115,2,0,P|137:170|171:186,1,71.2500027179719,2|0,0:0|0:0,0:0:0:0:
211,267,20456,5,2,0:0:0:0:
261,183,20627,1,0,0:0:0:0:
277,338,20797,1,2,0:0:0:0:
277,338,20967,1,0,0:0:0:0:
328,253,21138,5,2,0:0:0:0:
373,340,21308,1,0,0:0:0:0:
389,178,21479,1,2,0:0:0:0:
389,178,21649,1,0,0:0:0:0:
211,267,21820,5,4,1:0:0:0:
211,267,22161,1,0,0:0:0:0:
117,289,22502,5,0,0:0:0:0:
154,203,22672,1,0,0:0:0:0:
211,267,22842,1,0,0:0:0:0:
59,210,23013,2,0,P|97:125|228:141,1,213.750008153916,2|0,0:0|0:0,0:0:0:0:
154,203,23695,1,2,0:0:0:0:
154,203,24036,5,0,0:0:0:0:
296,154,24206,2,0,P|278:184|251:207,1,71.2500027179719
279,58,24547,6,0,L|439:48,1,142.500005435944,2|0,0:0|0:0,0:0:0:0:
295,153,25058,2,0,L|438:145,1,142.500005435944,2|0,0:0|0:0,0:0:0:0:
311,248,25570,2,0,B|447:239|447:239|390:336|390:336|194:346,1,427.500016307831,2|0,0:0|0:0,0:0:0:0:
148,255,26763,2,0,L|220:251,2,71.2500027179719,2|0|0,0:0|0:0|0:0,0:0:0:0:
116,348,27274,1,2,0:0:0:0:
71,85,27786,5,0,0:0:0:0:
71,85,27956,2,0,P|108:75|154:80,1,71.2500027179719,2|0,0:0|0:0,0:0:0:0:
229,126,28297,1,0,0:0:0:0:
229,126,28467,2,0,B|266:154|319:140|319:140|378:124|379:167|451:138|451:138|406:207|434:259,1,356.25001358986,2|0,0:0|0:0,0:0:0:0:
466,351,29490,1,0,0:0:0:0:
372,333,29661,1,2,0:0:0:0:
372,333,30002,86,0,P|303:323|230:348,1,142.500005435944,2|0,0:0|0:0,0:0:0:0:
314,206,30513,2,0,P|245:218|188:260,1,142.500005435944,2|0,0:0|0:0,0:0:0:0:
215,98,31024,2,0,B|134:126|101:200|101:200|83:164|75:117|126:54,1,285.000010871888,2|0,0:0|0:0,0:0:0:0:
289,35,32047,6,0,P|334:30|380:48,1,71.2500027179719,2|0,0:0|0:0,0:0:0:0:
410,119,32388,2,0,P|455:124|501:106,1,71.2500027179719,2|0,0:0|0:0,0:0:0:0:
215,98,32729,5,6,0:0:0:0:
213,117,33070,1,2,0:0:0:0:
211,136,33411,1,2,0:0:0:0:
305,210,33752,5,2,0:0:0:0:
303,229,34092,1,2,0:0:0:0:
301,248,34433,1,2,0:0:0:0:
299,267,34774,1,2,0:0:0:0:
297,286,35115,1,2,0:0:0:0:
350,151,35456,5,2,0:0:0:0:
331,149,35797,1,2,0:0:0:0:
312,147,36138,1,2,0:0:0:0:
238,241,36479,5,2,0:0:0:0:
219,239,36820,1,2,0:0:0:0:
200,237,37161,1,2,0:0:0:0:
181,235,37502,1,2,0:0:0:0:
162,233,37842,1,2,0:0:0:0:
341,305,38183,6,0,L|349:348,3,35.625001358986,2|0|0|0,3:2|0:0|0:0|0:0,0:0:0:0:
408,257,38524,2,0,L|426:296,3,35.625001358986,2|0|0|0,0:0|0:0|0:0|0:0,0:0:0:0:
456,190,38865,2,0,L|484:223,3,35.625001358986,2|0|0|0,0:0|0:0|0:0|0:0,0:0:0:0:
483,111,39206,2,0,L|519:135,3,35.625001358986,2|0|0|0,0:0|0:0|0:0|0:0,0:0:0:0:
371,106,39547,6,0,L|363:141,1,35.625001358986,2|0,0:0|0:0,0:0:0:0:
332,257,39717,2,0,L|345:204,1,35.625001358986,2|0,0:0|0:0,0:0:0:0:
281,161,39888,2,0,L|268:108,3,35.625001358986,2|0|0|0,0:0|0:0|0:0|0:0,0:0:0:0:
150,297,40229,6,0,L|158:262,1,35.625001358986,2|0,0:0|0:0,0:0:0:0:
191,148,40399,2,0,L|183:183,1,35.625001358986
101,201,40570,2,0,L|92:166,3,35.625001358986,2|0|0|0,0:0|0:0|0:0|0:0,0:0:0:0:
95,357,40911,6,0,P|127:376|182:373,1,71.2500027179719,2|0,3:2|0:0,0:0:0:0:
332,311,41252,1,0,0:0:0:0:
408,371,41422,1,0,0:0:0:0:
421,347,41507,1,0,0:0:0:0:
427,321,41592,1,2,0:0:0:0:
426,295,41678,1,0,0:0:0:0:
419,269,41763,1,0,0:0:0:0:
268,384,41933,1,2,0:0:0:0:
257,250,42104,1,0,0:0:0:0:
257,250,42189,1,0,0:0:0:0:
257,250,42274,6,0,L|158:235,1,95,2|0,3:2|0:0,0:0:0:0:
62,126,42615,1,0,0:0:0:0:
63,116,42700,1,0,0:0:0:0:
64,107,42786,1,0,0:0:0:0:
65,97,42871,1,0,0:0:0:0:
67,88,42956,2,0,L|76:18,1,47.5,2|0,0:0|0:0,0:0:0:0:
184,53,43127,2,0,L|177:100,1,47.5
167,197,43297,1,0,0:0:0:0:
165,206,43382,1,0,0:0:0:0:
164,215,43467,1,0,0:0:0:0:
163,225,43553,1,0,0:0:0:0:
162,235,43638,1,4,1:0:0:0:
404,305,43979,5,8,0:0:0:0:
274,314,44149,1,0,0:0:0:0:
335,237,44320,2,0,L|325:132,1,95,2|0,0:0|3:0,0:0:0:0:
316,46,44661,1,8,0:0:0:0:
316,46,45002,6,0,P|264:37|213:52,1,95,0|0,3:2|0:0,0:0:0:0:
404,85,45342,2,0,P|451:83|495:100,1,95,10|0,0:0|0:0,0:0:0:0:
323,142,45683,2,0,P|276:148|235:172,1,95,2|0,0:0|3:0,0:0:0:0:
411,183,46024,2,0,P|455:197|491:228,1,95,10|0,0:0|0:0,0:0:0:0:
337,382,46365,6,0,P|319:312|416:282,1,190,2|8,3:2|0:0,0:0:0:0:
227,384,46877,2,0,P|225:290|275:211,1,190,2|0,0:0|3:0,0:0:0:0:
123,330,47388,2,0,P|126:282|142:238,1,95,8|0,0:0|0:0,0:0:0:0:
228,127,47729,5,2,3:2:0:0:
228,127,48070,2,0,P|179:121|113:137,1,95,8|0,0:0|0:0,0:0:0:0:
303,66,48411,2,0,P|352:60|418:76,1,95,2|0,0:0|3:0,0:0:0:0:
221,11,48752,2,0,P|172:5|106:21,1,95,8|0,0:0|0:0,0:0:0:0:
53,178,49092,5,2,3:2:0:0:
33,28,49433,1,8,0:0:0:0:
53,178,49604,2,0,P|125:155|237:192,2,190,2|0|2,0:0|3:0|0:0,0:0:0:0:
202,67,50456,6,0,P|267:60|343:112,1,142.5,2|0,3:2|0:0,0:0:0:0:
188,48,50797,2,0,P|273:40|373:122,1,190,8|2,0:0|0:0,0:0:0:0:
373,192,51308,1,0,3:0:0:0:
412,7,51479,1,8,0:0:0:0:
412,7,51820,6,0,P|486:68|537:161,1,190,2|8,3:2|0:0,0:0:0:0:
371,95,52331,2,0,P|408:123|434:162,1,95,0|2,0:0|0:0,0:0:0:0:
307,355,52672,1,0,3:0:0:0:
368,276,52842,2,0,P|362:230|333:194,1,95,8|0,0:0|0:0,0:0:0:0:
89,125,53183,5,2,3:2:0:0:
89,125,53524,2,0,B|74:173|74:173|94:324,1,190,8|2,0:0|0:0,0:0:0:0:
195,383,54036,1,0,3:0:0:0:
173,192,54206,2,0,L|184:286,1,95,8|0,0:0|0:0,0:0:0:0:
195,383,54547,5,2,3:2:0:0:
273,326,54717,1,0,3:0:0:0:
173,192,54888,5,8,0:0:0:0:
184,286,55058,1,0,3:0:0:0:
262,229,55229,1,2,3:2:0:0:
173,192,55399,1,0,3:0:0:0:
195,384,55570,5,8,0:0:0:0:
273,326,55740,1,0,3:0:0:0:
184,286,55911,1,2,3:2:0:0:
195,384,56081,1,0,3:0:0:0:
262,229,56252,5,8,0:0:0:0:
184,286,56422,1,0,3:0:0:0:
273,326,56592,1,2,3:0:0:0:
262,229,56763,1,0,3:0:0:0:
195,384,56933,5,8,0:0:0:0:
273,326,57104,1,0,3:0:0:0:
107,344,57274,5,6,0:0:0:0:
146,195,57445,1,0,3:0:0:0:
351,384,57615,5,8,0:0:0:0:
195,384,57786,1,0,3:0:0:0:
262,229,57956,1,2,3:2:0:0:
351,384,58127,1,0,3:0:0:0:
107,344,58297,5,8,0:0:0:0:
146,195,58467,1,0,3:0:0:0:
273,326,58638,1,2,3:2:0:0:
107,344,58808,1,0,3:0:0:0:
326,154,58979,5,8,0:0:0:0:
273,326,59149,1,0,3:0:0:0:
146,195,59320,1,2,3:2:0:0:
326,154,59490,1,0,3:0:0:0:
196,384,59661,5,8,0:0:0:0:
71,256,59831,1,0,3:0:0:0:
387,230,60002,5,6,0:0:0:0:
184,106,60172,1,0,3:0:0:0:
196,384,60342,5,8,0:0:0:0:
387,230,60513,1,0,3:0:0:0:
184,106,60683,1,2,3:2:0:0:
107,345,60854,1,0,3:0:0:0:
484,235,61024,5,8,0:0:0:0:
279,88,61195,1,0,3:0:0:0:
280,338,61365,1,2,3:2:0:0:
441,149,61536,1,0,3:0:0:0:
106,164,61706,5,8,0:0:0:0:
280,338,61877,1,0,3:0:0:0:
374,77,62047,1,2,3:2:0:0:
106,164,62217,1,0,3:0:0:0:
512,222,62388,5,8,0:0:0:0:
304,4,62558,1,0,3:0:0:0:
190,384,62729,5,2,3:2:0:0:
404,192,62899,5,0,3:0:0:0:
404,192,62984,1,2,0:0:0:0:
404,192,63070,2,0,L|330:188,1,71.2500027179719,8|0,3:2|0:0,0:0:0:0:
99,136,63240,1,0,3:0:0:0:
99,136,63325,1,2,0:0:0:0:
99,136,63411,2,0,L|173:140,1,71.2500027179719,2|0,3:2|0:0,0:0:0:0:
446,94,63581,5,0,3:0:0:0:
446,94,63666,1,2,0:0:0:0:
446,94,63752,2,0,L|372:90,1,71.2500027179719,8|0,3:2|0:0,0:0:0:0:
65,35,63922,1,0,3:0:0:0:
65,35,64007,1,2,0:0:0:0:
65,35,64092,2,0,L|139:39,1,71.2500027179719,2|0,3:2|0:0,0:0:0:0:
265,196,64263,5,2,3:2:0:0:
103,231,64433,1,10,0:0:0:0:
207,336,64604,6,0,L|196:274,1,47.5,8|0,3:0|0:0,0:0:0:0:
170,140,64774,1,8,0:0:0:0:
363,364,64945,6,0,L|349:302,1,47.5,8|0,3:0|0:0,0:0:0:0:
287,39,65115,1,8,0:0:0:0:
103,231,65286,1,0,3:0:0:0:
103,231,65371,1,0,3:0:0:0:
103,231,65456,6,0,P|67:184|136:33,1,227.999993041992,6|8,3:2|1:0,0:0:0:0:
230,44,65967,1,0,0:0:0:0:
212,239,66138,2,0,P|204:183|169:139,1,113.999996520996,2|0,0:0|3:0,0:0:0:0:
60,330,66479,2,0,P|67:274|102:230,1,113.999996520996,8|0,1:0|0:0,0:0:0:0:
323,225,66820,5,0,3:0:0:0:
236,349,66990,1,2,0:0:0:0:
283,118,67161,2,0,P|351:117|396:140,1,113.999996520996,8|0,1:0|0:0,0:0:0:0:
348,336,67502,1,2,0:0:0:0:
213,206,67672,1,0,3:0:0:0:
418,245,67842,2,0,P|463:221|498:163,1,113.999996520996,8|0,1:0|0:0,0:0:0:0:
346,21,68183,6,0,L|463:30,1,113.999996520996,2|0,3:2|0:0,0:0:0:0:
279,129,68524,2,0,L|392:137,1,113.999996520996,8|0,1:0|0:0,0:0:0:0:
212,237,68865,2,0,L|325:245,1,113.999996520996,2|0,0:0|3:0,0:0:0:0:
145,345,69206,2,0,L|258:353,1,113.999996520996,8|0,1:0|0:0,0:0:0:0:
423,367,69547,5,0,3:0:0:0:
325,245,69717,1,2,0:0:0:0:
145,345,69888,2,0,P|92:325|55:281,1,113.999996520996,8|0,1:0|0:0,0:0:0:0:
144,119,70229,1,2,0:0:0:0:
155,232,70399,1,0,3:0:0:0:
243,69,70570,2,0,P|206:26|154:7,1,113.999996520996,8|0,1:0|0:0,0:0:0:0:
349,35,70911,6,0,P|299:61|243:68,1,113.999996520996,2|0,3:2|0:0,0:0:0:0:
37,85,71252,2,0,P|87:111|144:119,1,113.999996520996,8|0,1:0|0:0,0:0:0:0:
376,144,71592,2,0,P|325:169|261:176,1,113.999996520996,2|0,0:0|3:0,0:0:0:0:
5,194,71933,2,0,P|55:219|112:226,1,113.999996520996,8|2,1:0|0:0,0:0:0:0:
294,67,72274,5,0,3:0:0:0:
143,119,72445,1,2,0:0:0:0:
375,255,72615,2,0,B|387:200|387:200|376:144,1,113.999996520996,8|0,1:0|0:0,0:0:0:0:
194,19,72956,1,2,0:0:0:0:
400,34,73127,1,0,3:0:0:0:
284,321,73297,1,10,0:1:0:0:
284,321,73467,1,2,0:0:0:0:
486,280,73638,5,2,3:2:0:0:
486,280,73808,1,0,0:0:0:0:
378,253,73979,1,8,1:0:0:0:
378,253,74149,1,0,0:0:0:0:
458,175,74320,1,2,0:0:0:0:
458,175,74490,1,0,3:0:0:0:
412,364,74661,1,8,1:0:0:0:
412,364,74831,1,0,0:0:0:0:
251,187,75002,5,0,3:0:0:0:
277,376,75172,1,2,0:0:0:0:
356,297,75342,1,8,1:0:0:0:
356,297,75513,1,2,0:0:0:0:
198,302,75683,2,0,L|70:308,1,113.999996520996,2|0,0:0|0:0,0:0:0:0:
32,213,75939,1,0,3:0:0:0:
23,198,76024,2,0,L|80:195,1,56.9999982604981,8|0,1:0|0:0,0:0:0:0:
249,187,76195,2,0,L|192:190,1,56.9999982604981,2|0,3:2|0:0,0:0:0:0:
20,82,76365,6,0,L|259:71,1,227.999993041992,2|8,3:2|1:0,0:0:0:0:
345,127,76877,1,0,0:0:0:0:
312,295,77047,2,0,L|199:301,1,113.999996520996,2|0,0:0|3:0,0:0:0:0:
248,186,77388,2,0,L|135:192,1,113.999996520996,8|0,1:0|0:0,0:0:0:0:
312,295,77729,5,0,3:0:0:0:
345,127,77899,1,2,0:0:0:0:
136,79,78070,2,0,B|127:136|127:136|137:214,1,113.999996520996,8|0,1:0|0:0,0:0:0:0:
41,20,78411,5,2,0:0:0:0:
20,180,78581,1,0,3:0:0:0:
231,21,78752,5,8,1:0:0:0:
252,181,78922,1,2,0:0:0:0:
512,111,79092,6,0,P|428:66|318:90,1,227.999993041992,2|8,3:2|1:0,0:0:0:0:
283,288,79604,1,0,0:0:0:0:
166,109,79774,1,2,0:0:0:0:
130,280,79945,1,0,3:0:0:0:
354,200,80115,2,0,P|381:235|390:317,1,113.999996520996,8|0,1:0|0:0,0:0:0:0:
203,365,80456,5,0,3:0:0:0:
269,130,80627,1,2,0:0:0:0:
354,200,80797,2,0,L|495:192,1,113.999996520996,8|0,1:0|0:0,0:0:0:0:
366,81,81138,1,2,0:0:0:0:
392,302,81308,1,0,3:0:0:0:
464,33,81479,2,0,P|408:44|366:81,1,113.999996520996,8|8,1:0|0:3,0:0:0:0:
454,184,81734,1,8,0:3:0:0:
468,193,81820,6,0,L|457:146,1,47.5,2|0,0:0|0:0,0:0:0:0:
246,59,81990,2,0,L|257:106,1,47.5,2|0,0:0|0:0,0:0:0:0:
284,216,82161,1,10,0:0:0:0:
284,216,82331,2,0,L|237:226,1,47.5,2|0,0:0|0:0,0:0:0:0:
45,105,82502,2,0,L|92:94,1,47.5,2|0,0:0|0:0,0:0:0:0:
133,252,82672,2,0,L|86:263,1,47.5,2|0,0:0|0:0,0:0:0:0:
199,70,82842,1,8,0:0:0:0:
199,70,83013,2,0,L|250:57,1,47.5,8|8,0:3|0:3,0:0:0:0:
372,20,83183,6,0,L|281:47,1,95,2|2,0:0|0:0,0:0:0:0:
283,215,83439,1,0,0:0:0:0:
305,210,83524,2,0,L|354:198,1,47.5,2|0,0:0|0:0,0:0:0:0:
477,105,83695,2,0,L|431:117,1,47.5,2|0,3:0|0:0,0:0:0:0:
436,271,83865,2,0,L|482:259,1,47.5,2|0,3:0|0:0,0:0:0:0:
372,20,84036,2,0,L|325:31,1,47.5,2|0,3:0|0:0,0:0:0:0:
237,227,84206,2,0,L|283:215,1,47.5,2|0,3:0|0:0,0:0:0:0:
133,95,84377,2,0,L|86:106,1,47.5,2|0,3:0|0:0,0:0:0:0:
0,279,84547,5,10,3:0:0:0:
19,322,84632,1,8,3:0:0:0:
53,354,84717,1,8,3:0:0:0:
97,371,84803,1,8,3:0:0:0:
144,371,84888,1,10,3:0:0:0:
187,352,84973,1,8,3:0:0:0:
220,318,85058,1,8,3:0:0:0:
238,274,85144,1,8,3:0:0:0:
237,227,85229,5,4,3:0:0:0:
269,211,85314,1,4,3:0:0:0:
304,209,85399,1,4,3:0:0:0:
337,221,85484,1,4,3:0:0:0:
364,244,85570,1,12,3:0:0:0:
396,259,85655,1,4,3:0:0:0:
431,261,85740,1,4,3:0:0:0:
464,249,85825,1,4,3:0:0:0:
491,226,85911,5,2,0:3:0:0:
492,249,85996,1,2,0:3:0:0:
494,273,86081,1,2,0:3:0:0:
495,297,86166,1,2,0:3:0:0:
497,320,86252,6,0,L|501:374,3,47.5,2|0|0|0,3:0|3:0|3:0|3:0,0:0:0:0:
420,179,86592,2,0,L|416:131,3,47.5,2|0|0|0,3:0|3:0|3:0|3:0,0:0:0:0:
364,244,86933,6,0,L|316:247,1,47.5,8|4,0:3|0:3,0:0:0:0:
258,189,87104,2,0,L|210:185,1,47.5,8|4,0:3|0:3,0:0:0:0:
361,41,87274,6,0,P|410:25|460:35,1,104.500003189087,6|0,0:0|0:0,0:0:0:0:
257,19,87615,2,0,P|206:8|157:24,1,104.500003189087,8|0,1:0|0:0,0:0:0:0:
416,131,87956,1,2,0:0:0:0:
212,114,88127,1,0,3:0:0:0:
329,294,88297,6,0,B|350:264|341:219|341:219|335:192|314:173|314:173|299:126|330:71,1,209.000006378174,8|0,1:0|0:0,0:0:0:0:
416,131,88808,1,0,3:0:0:0:
241,244,88979,2,0,P|190:248|131:215,1,104.500003189087,8|0,1:0|0:0,0:0:0:0:
138,59,89320,1,2,0:0:0:0:
260,139,89490,2,0,P|233:147|205:143,1,52.2500015945435,2|0,3:2|0:0,0:0:0:0:
54,127,89661,1,8,1:0:0:0:
138,59,89831,1,0,0:0:0:0:
86,318,90002,5,0,3:0:0:0:
142,226,90172,1,0,0:0:0:0:
300,322,90342,1,8,1:0:0:0:
249,228,90513,1,0,0:0:0:0:
194,320,90683,1,2,0:0:0:0:
198,134,90854,1,0,3:0:0:0:
413,163,91024,6,0,B|370:130|301:156|301:156|296:178|284:206|249:228,1,209.000006378174,8|2,1:0|0:0,0:0:0:0:
94,124,91536,1,0,3:0:0:0:
268,55,91706,2,0,P|319:41|371:39,1,104.500003189087,8|0,1:0|0:0,0:0:0:0:
503,104,92047,1,2,0:0:0:0:
430,280,92217,1,0,3:0:0:0:
469,2,92388,1,8,1:0:0:0:
512,213,92558,1,0,0:0:0:0:
94,124,92729,5,4,0:1:0:0:
94,124,93070,2,0,L|79:245,1,104.500003189087,8|0,1:0|0:0,0:0:0:0:
202,124,93411,2,0,L|202:246,1,104.500003189087,2|0,0:0|3:0,0:0:0:0:
309,124,93752,2,0,L|324:245,1,104.500003189087,8|0,1:0|0:0,0:0:0:0:
338,333,94092,5,2,0:0:0:0:
511,367,94263,2,0,P|512:334|502:311,1,52.2500015945435,0|0,3:0|0:0,0:0:0:0:
422,139,94433,1,8,1:0:0:0:
508,207,94604,1,0,0:0:0:0:
241,292,94774,2,0,P|190:295|110:282,1,104.500003189087,2|0,0:0|3:0,0:0:0:0:
219,184,95115,2,0,P|272:182|323:171,1,104.500003189087,8|0,1:0|0:0,0:0:0:0:
486,58,95456,5,0,3:0:0:0:
486,58,95797,2,0,L|501:179,1,104.500003189087,8|0,1:0|0:0,0:0:0:0:
378,58,96138,2,0,L|378:180,1,104.500003189087,2|0,0:0|3:0,0:0:0:0:
271,58,96479,2,0,L|256:179,1,104.500003189087,8|0,1:0|0:0,0:0:0:0:
242,268,96820,5,2,0:0:0:0:
98,167,96990,2,0,L|190:164,1,52.2500015945435,0|0,3:0|0:0,0:0:0:0:
258,161,97161,1,8,1:0:0:0:
242,268,97331,1,0,0:0:0:0:
198,71,97502,1,2,0:0:0:0:
364,165,97672,1,0,3:0:0:0:
363,173,97757,1,0,3:0:0:0:
362,181,97842,1,8,1:0:0:0:
37,261,98183,6,0,B|89:281|89:281|241:267,1,209.000006378174,4|8,0:0|1:0,0:0:0:0:
106,174,98695,1,0,0:0:0:0:
36,376,98865,1,2,0:0:0:0:
241,267,99036,1,0,3:0:0:0:
0,155,99206,6,0,P|61:76|161:81,1,209.000006378174,8|2,1:0|0:0,0:0:0:0:
241,267,99717,1,0,3:0:0:0:
38,258,99888,1,8,1:0:0:0:
106,174,100058,1,0,0:0:0:0:
173,351,100229,1,2,0:0:0:0:
0,155,100399,1,0,3:0:0:0:
309,183,100570,1,8,1:0:0:0:
211,136,100740,1,0,0:0:0:0:
374,98,100911,6,0,P|408:137|415:189,1,104.500003189087,0|0,3:0|0:0,0:0:0:0:
211,135,101252,2,0,P|177:96|171:45,1,104.500003189087,8|0,1:0|0:0,0:0:0:0:
358,280,101592,2,0,P|318:313|267:320,1,104.500003189087,2|0,0:0|3:0,0:0:0:0:
0,209,101933,6,0,P|101:196|192:245,1,209.000006378174,8|2,1:0|0:0,0:0:0:0:
182,383,102445,1,0,3:0:0:0:
281,188,102615,2,0,P|382:174|473:223,1,209.000006378174,8|2,1:0|0:0,0:0:0:0:
463,353,103127,1,0,3:0:0:0:
342,132,103297,2,0,P|395:131|446:155,1,104.500003189087,8|0,1:0|0:0,0:0:0:0:
335,328,103638,5,4,3:2:0:0:
308,327,103723,1,0,0:0:0:0:
284,319,103808,1,0,0:0:0:0:
263,304,103894,1,0,0:0:0:0:
230,269,103979,5,8,1:0:0:0:
203,269,104064,1,0,0:0:0:0:
179,277,104149,1,0,0:0:0:0:
158,292,104234,1,0,0:0:0:0:
132,330,104320,6,0,P|104:327|77:312,1,52.2500015945435,2|0,0:0|0:0,0:0:0:0:
71,173,104490,2,0,P|97:175|121:187,1,52.2500015945435,0|0,3:0|0:0,0:0:0:0:
263,304,104661,5,8,1:0:0:0:
132,330,104831,1,0,0:0:0:0:
348,357,105002,5,0,0:0:0:0:
0,374,105172,1,0,3:0:0:0:
332,223,105342,1,8,1:0:0:0:
71,173,105513,1,2,0:0:0:0:
71,173,105598,1,2,0:0:0:0:
71,173,105683,1,2,0:0:0:0:
263,304,105854,1,2,3:2:0:0:
262,312,105939,1,2,0:0:0:0:
261,320,106024,1,8,1:0:0:0:
282,128,106195,1,0,0:0:0:0:
148,255,106365,5,2,0:0:0:0:
146,267,106450,1,8,0:3:0:0:
144,280,106536,1,8,0:3:0:0:
143,293,106621,1,8,0:3:0:0:
181,328,106706,5,2,0:0:0:0:
193,330,106791,1,8,0:3:0:0:
206,332,106877,1,8,0:3:0:0:
219,333,106962,1,8,0:3:0:0:
263,304,107047,5,2,0:0:0:0:
265,292,107132,1,8,0:3:0:0:
267,279,107217,1,8,0:3:0:0:
268,266,107303,1,8,0:3:0:0:
229,231,107388,5,2,0:0:0:0:
217,229,107473,1,8,0:3:0:0:
204,227,107558,1,8,0:3:0:0:
191,226,107644,1,8,0:3:0:0:
148,255,107729,6,0,L|86:249,1,52.2500015945435,4|4,0:3|0:3,0:0:0:0:
89,132,107899,2,0,L|142:138,1,52.2500015945435,4|4,0:3|0:3,0:0:0:0:
298,170,108070,5,4,0:3:0:0:
310,175,108155,1,4,0:3:0:0:
323,178,108240,1,4,0:3:0:0:
336,175,108325,1,4,0:3:0:0:
380,146,108411,6,0,P|409:145|442:152,1,52.2500015945435,4|4,0:3|0:3,0:0:0:0:
437,265,108581,2,0,P|408:266|375:259,1,52.2500015945435,4|4,0:3|0:3,0:0:0:0:
246,167,108752,6,0,P|275:166|308:173,1,52.2500015945435,4|4,0:3|0:3,0:0:0:0:
303,286,108922,2,0,P|274:287|241:280,1,52.2500015945435,4|4,0:3|0:3,0:0:0:0:
164,228,109092,5,12,3:0:0:0:
164,228,109433,2,0,B|141:172|147:128|147:128|198:89|196:23,1,209.000006378174,8|2,1:0|0:0,0:0:0:0:
88,38,109945,5,0,3:0:0:0:
255,169,110115,2,0,B|311:192|354:185|354:185|394:135|460:137,1,209.000006378174,8|2,1:0|0:0,0:0:0:0:
314,75,110627,5,0,3:0:0:0:
308,323,110797,2,0,B|359:325|398:274|398:274|442:268|498:291,1,209.000006378174,8|2,1:0|0:0,0:0:0:0:
440,384,111308,1,0,3:0:0:0:
308,218,111479,2,0,P|350:182|431:171,1,104.500003189087,8|0,1:0|0:0,0:0:0:0:
308,323,111820,6,0,B|257:335|257:335|190:318,1,104.500003189087,0|0,3:0|0:0,0:0:0:0:
84,146,112161,2,0,B|135:134|135:134|202:151,1,104.500003189087,8|0,1:0|0:0,0:0:0:0:
256,227,112502,1,2,0:0:0:0:
15,227,112672,1,0,3:0:0:0:
147,31,112842,1,8,1:0:0:0:
289,125,113013,6,0,P|392:148|494:124,1,209.000006378174,2|0,0:0|3:0,0:0:0:0:
254,23,113524,1,8,1:0:0:0:
185,146,113695,1,0,0:0:0:0:
289,125,113865,1,2,0:0:0:0:
94,94,114036,1,0,3:0:0:0:
256,225,114206,2,0,P|308:228|363:202,1,104.500003189087,8|0,1:0|0:0,0:0:0:0:
426,27,114547,5,0,3:0:0:0:
289,125,114717,1,0,0:0:0:0:
508,178,114888,1,8,1:0:0:0:
276,19,115058,2,0,P|221:39|191:78,1,104.500003189087,0|2,0:0|0:0,0:0:0:0:
306,283,115399,2,0,P|310:246|305:210,1,52.2500015945435,0|0,3:0|0:0,3:0:0:0:
289,125,115570,1,8,1:0:0:0:
205,249,115740,1,0,0:0:0:0:
432,284,115911,5,2,0:0:0:0:
340,120,116081,2,0,P|302:121|267:131,1,52.2500015945435,0|0,3:0|0:0,0:0:0:0:
184,157,116252,1,8,1:0:0:0:
330,308,116422,1,0,0:0:0:0:
340,120,116592,1,2,0:0:0:0:
175,342,116763,2,0,P|212:342|247:333,1,52.2500015945435,0|0,3:0|0:0,0:0:0:0:
330,308,116933,1,8,1:0:0:0:
121,246,117104,1,0,0:0:0:0:
340,120,117274,6,0,P|367:164|383:213,1,104.500003189087,0|0,3:0|0:0,0:0:0:0:
398,384,117615,1,8,1:0:0:0:
193,172,117786,2,0,P|240:195|279:229,1,104.500003189087,0|2,0:0|0:0,0:0:0:0:
398,384,118127,1,0,3:0:0:0:
177,279,118297,1,8,1:0:0:0:
383,213,118467,1,0,0:0:0:0:
221,376,118638,6,0,P|171:383|100:360,1,104.500003189087,2|0,0:0|3:0,0:0:0:0:
131,180,118979,2,0,P|178:171|252:196,1,104.500003189087,8|0,1:0|0:0,0:0:0:0:
23,324,119320,1,2,0:0:0:0:
170,65,119490,1,0,3:0:0:0:
388,274,119661,6,0,L|281:276,1,106.875004076958,8|0,1:0|0:0,0:0:0:0:
310,351,120002,6,0,L|381:349,1,71.25,0|0,3:0|0:0,0:0:0:0:
497,247,120342,6,0,B|445:194|359:179|325:202|325:202|337:237|390:276,1,285.000010871888,8|2,1:0|0:0,0:0:0:0:
292,105,120854,6,0,P|259:124|238:154,1,52.2500015945435,0|0,3:0|0:0,0:0:0:0:
228,240,121024,1,8,1:0:0:0:
326,201,121195,1,0,0:0:0:0:
326,201,121365,1,2,0:0:0:0:
151,168,121536,6,0,P|130:199|125:236,1,52.2500015945435,0|0,3:0|0:0,0:0:0:0:
154,316,121706,1,8,1:0:0:0:
228,240,121877,1,0,0:0:0:0:
228,240,122047,1,2,0:0:0:0:
26,246,122217,6,0,P|34:271|52:290,1,52.2500015945435,0|0,3:0|0:0,0:0:0:0:
154,316,122388,1,8,1:0:0:0:
126,213,122558,1,0,0:0:0:0:
246,370,122729,6,0,L|376:354,1,104.500003189087,0|0,3:0|0:0,0:0:0:0:
437,239,123070,2,0,L|334:252,1,104.500003189087,8|0,1:0|0:0,0:0:0:0:
227,261,123411,1,2,0:0:0:0:
454,344,123581,1,0,3:0:0:0:
411,132,123752,1,8,1:0:0:0:
140,92,123922,6,0,P|150:193|227:261,1,209.000006378174,2|0,0:0|3:0,0:0:0:0:
229,30,124433,1,8,1:0:0:0:
140,92,124604,1,0,0:0:0:0:
140,92,124774,1,2,0:0:0:0:
51,35,124945,1,0,3:0:0:0:
140,92,125115,1,8,1:0:0:0:
229,30,125286,1,0,0:0:0:0:
142,199,125456,5,0,3:0:0:0:
314,194,126138,1,0,3:0:0:0:
142,199,126820,1,0,3:0:0:0:
314,194,127502,1,0,3:0:0:0:
209,233,128183,6,0,L|161:249,3,38,4|4|4|4,3:0|0:3|0:3|0:3,0:0:0:0:
209,149,128524,2,0,L|161:133,3,38,0|4|4|4,3:0|0:3|0:3|0:3,0:0:0:0:
278,192,128865,6,0,L|315:205,1,38,8|8,3:0|0:3,0:0:0:0:
278,301,129036,2,0,L|315:289,1,38,8|8,0:3|0:3,0:0:0:0:
398,198,129206,6,0,L|434:210,1,38,8|8,3:0|0:3,0:0:0:0:
398,306,129377,2,0,L|434:293,1,38,8|8,0:3|0:3,0:0:0:0:
512,259,129547,5,0,3:0:0:0:
512,259,129632,1,2,0:0:0:0:
512,259,129717,1,2,0:0:0:0:
205,248,129888,5,0,3:0:0:0:
205,248,129973,1,2,0:0:0:0:
205,248,130058,1,2,0:0:0:0:
365,101,130229,6,0,B|369:35|369:35|354:5,1,99.7499969558717,8|0,0:0|0:0,0:0:0:0:
286,104,130570,6,0,B|281:160|315:198|315:198|322:125|385:86,1,213.750008153916
411,158,130911,6,0,P|389:202|431:277,1,126.666666666667,0|2,3:0|0:0,0:0:0:0:
410,384,131252,2,0,P|437:328|418:269,1,126.666666666667,0|2,3:0|0:0,0:0:0:0:
348,320,131592,6,0,B|308:305|274:324|274:324|236:338|192:313|192:313|209:289|244:293,1,213.750008153916,8|0,1:0|0:0,0:0:0:0:
130,276,131933,2,0,P|254:223|348:319,1,285.000010871888,0|2,3:0|0:0,0:0:0:0:
175,384,132445,6,0,P|151:383|127:375,1,47.5,2|0,0:0|0:0,0:0:0:0:
41,251,132615,2,0,P|88:253|129:276,1,95,0|0,3:0|0:0,0:0:0:0:
0,164,132956,6,0,P|133:167|241:257,1,285.000010871888,8|2,1:0|0:0,0:0:0:0:
369,292,133467,1,0,3:0:0:0:
369,292,133638,6,0,L|359:171,1,106.875004076958,2|0,3:2|0:0,0:0:0:0:
379,147,133979,2,0,L|387:253,1,106.875004076958,2|0,0:0|0:0,0:0:0:0:
405,214,134320,6,0,B|390:75|390:75|380:148,1,213.750008153916,8|0,1:0|0:0,0:0:0:0:
347,330,134661,5,0,3:0:0:0:
285,249,134831,1,0,0:0:0:0:
253,361,135002,1,2,0:0:0:0:
142,271,135172,2,0,L|189:282,1,47.5,2|0,3:2|0:0,0:0:0:0:
347,330,135342,6,0,L|356:369,2,23.75,2|0|0,0:0|0:0|0:0,0:0:0:0:
253,361,135513,2,0,L|244:400,2,23.75,2|0|0,0:0|0:0|0:0,0:0:0:0:
285,249,135683,6,0,P|335:229|430:271,1,142.500005435944,8|0,1:0|0:0,0:0:0:0:
451,370,136024,1,0,0:0:0:0:
512,209,136195,1,0,0:0:0:0:
285,249,136365,6,0,B|295:202|295:202|284:173|284:173|295:119,1,126.666666666667,0|2,3:0|0:0,0:0:0:0:
386,110,136706,2,0,B|376:156|376:156|387:185|387:185|377:232,1,126.666666666667,0|2,0:0|0:0,0:0:0:0:
359,316,137047,6,0,B|438:339|511:313|511:313|453:311|407:281,1,213.750008153916,8|0,1:0|0:0,0:0:0:0:
284,248,137388,6,0,B|211:226|144:250|144:250|197:252|239:280,1,190,0|0,3:0|0:0,0:0:0:0:
359,316,137729,1,2,0:0:0:0:
364,179,137899,6,0,P|334:159|260:138,1,71.2500027179719,2|0,0:0|0:0,0:0:0:0:
201,135,138070,1,0,3:0:0:0:
284,248,138240,1,0,0:0:0:0:
112,90,138411,6,0,B|35:87|-22:128|-22:128|18:163,1,190,8|0,1:0|0:0,0:0:0:0:
201,135,138752,1,2,0:0:0:0:
149,298,138922,1,0,3:0:0:0:
149,298,139092,6,0,L|263:282,1,106.875004076958,0|0,3:0|0:0,0:0:0:0:
245,274,139433,2,0,L|139:288,1,106.875004076958,0|0,3:0|0:0,0:0:0:0:
14,348,139774,6,0,B|87:374|162:344|162:344|139:321|139:286,1,213.750008153916,8|0,1:0|0:0,0:0:0:0:
165,181,140115,5,0,3:0:0:0:
245,274,140286,1,0,0:0:0:0:
289,157,140456,1,2,0:0:0:0:
388,251,140627,2,0,P|364:252|342:246,1,47.5,2|0,0:0|0:0,0:0:0:0:
71,175,140797,2,0,P|118:171|164:180,1,95,0|0,3:0|0:0,0:0:0:0:
429,148,141138,6,0,P|358:143|288:156,1,142.500005435944,8|0,1:0|0:0,0:0:0:0:
164,180,141820,6,0,L|172:243,1,47.5,0|2,3:0|0:0,0:0:0:0:
184,312,141990,1,2,0:0:0:0:
89,136,142161,6,0,B|81:172|81:172|93:261,1,126.666666666667,2|2,0:0|0:0,0:0:0:0:
286,325,142502,6,0,B|219:372|134:331|134:331|183:312,1,213.750008153916,8|0,1:0|0:0,0:0:0:0:
286,325,142842,6,0,P|379:337|470:284,1,190,0|2,3:0|0:0,0:0:0:0:
512,177,143354,2,0,P|491:172|444:183,1,47.5,2|0,0:0|0:0,0:0:0:0:
317,248,143524,2,0,P|364:258|410:229,1,95,0|0,3:0|0:0,0:0:0:0:
286,325,143865,6,0,B|160:359|77:282|77:282|118:299|154:280,1,285.000010871888,8|2,1:0|0:0,0:0:0:0:
127,98,144377,1,0,3:0:0:0:
127,98,144547,6,0,P|114:149|115:203,1,106.875004076958,0|0,3:0|0:0,0:0:0:0:
111,95,144888,2,0,P|98:146|99:200,1,106.875004076958,2|0,0:0|0:0,0:0:0:0:
288,102,145229,6,0,P|201:48|111:95,1,213.750008153916,8|0,1:0|0:0,0:0:0:0:
6,234,145570,5,0,3:0:0:0:
198,149,145740,1,0,0:0:0:0:
11,101,145911,1,2,0:0:0:0:
85,302,146081,2,0,L|175:298,1,71.2500027179719,0|0,3:0|0:0,0:0:0:0:
239,242,146252,6,0,L|274:245,2,35.625001358986,2|0|0,0:0|0:0|0:0,0:0:0:0:
198,149,146422,2,0,L|163:146,2,35.625001358986,2|0|0,0:0|0:0|0:0,0:0:0:0:
262,71,146592,6,0,B|293:61|293:61|408:75,1,142.500005435944,8|0,1:0|0:0,0:0:0:0:
503,87,146933,1,0,0:0:0:0:
441,169,147104,1,0,0:0:0:0:
501,249,147274,6,0,B|493:300|493:300|502:323|502:323|493:373,1,126.666666666667,0|2,3:0|0:0,0:0:0:0:
403,384,147615,2,0,B|411:333|411:333|402:310|402:310|411:260,1,126.666666666667,0|2,0:0|0:0,0:0:0:0:
441,169,147956,6,0,B|368:158|368:158|308:175|308:175|230:163,1,213.750008153916,8|0,1:0|0:0,0:0:0:0:
164,70,148297,2,0,B|203:58|203:58|304:71,1,142.500005435944,0|0,3:0|0:0,0:0:0:0:
512,96,148638,1,2,0:0:0:0:
379,251,148808,1,2,0:0:0:0:
304,71,148979,6,0,P|366:69|413:80,1,106.875004076958,0|0,3:0|0:0,0:0:0:0:
417,91,149320,6,0,B|426:125|426:125|415:251,1,142.500005435944,8|0,1:0|0:0,0:0:0:0:
215,225,149661,2,0,L|224:136,1,71.2500027179719,2|0,0:0|0:0,0:0:0:0:
322,168,149831,2,0,L|313:257,1,71.2500027179719,2|0,3:2|0:0,0:0:0:0:
253,319,150002,5,0,3:0:0:0:
253,319,150342,1,0,3:0:0:0:
283,74,150683,5,8,1:0:0:0:
322,168,150854,1,0,0:0:0:0:
361,8,151024,1,0,3:0:0:0:
248,236,151195,1,0,0:0:0:0:
211,77,151365,6,0,L|282:73,1,71.2500027179719,2|0,0:0|0:0,0:0:0:0:
248,236,151706,2,0,L|176:239,1,71.2500027179719,2|0,3:2|0:0,0:0:0:0:
111,79,152047,5,8,1:0:0:0:
424,79,152388,1,0,0:0:0:0:
378,149,152729,6,0,P|424:162|482:135,1,95,2|0,0:0|0:0,0:0:0:0:
300,182,153240,2,0,P|329:218|374:231,1,95,2|0,0:0|0:0,0:0:0:0:
217,169,153752,2,0,P|221:215|251:251,1,95,2|0,0:0|0:0,0:0:0:0:
157,111,154263,2,0,P|134:151|139:197,1,95,2|0,0:0|0:0,0:0:0:0:
251,251,154774,6,0,B|285:229|326:240|326:240|362:215|400:218,1,142.5,2|0,0:0|0:0,0:0:0:0:
340,147,155115,2,0,B|306:169|265:158|265:158|229:183|206:181,1,142.5
251,251,155456,6,0,P|205:264|147:237,1,95,2|0,0:0|0:0,0:0:0:0:
117,180,155967,2,0,P|162:167|207:182,1,95
251,251,156479,2,0,P|297:264|355:237,1,95
384,180,156990,2,0,P|339:166|294:181,1,95,2|0,0:0|0:0,0:0:0:0:
251,251,157502,2,0,P|227:262|199:263,1,47.5,2|0,0:0|0:0,0:0:0:0:
306,75,157842,1,0,0:0:0:0:
251,251,158183,6,0,P|205:264|147:237,1,95,2|0,0:0|0:0,0:0:0:0:
208,92,158695,2,0,P|221:137|207:182,1,95,2|0,0:0|0:0,0:0:0:0:
164,24,159206,2,0,P|210:11|268:38,1,95,2|0,0:0|0:0,0:0:0:0:
207,181,159717,2,0,P|193:136|208:91,1,95,2|0,0:0|0:0,0:0:0:0:
253,25,160229,2,0,B|281:26|281:26|293:45,1,47.5,2|0,0:0|0:0,0:0:0:0:
206,182,160570,1,0,0:0:0:0:
253,25,160911,6,0,B|281:27|281:27|324:93,1,95,2|0,0:0|0:0,0:0:0:0:
206,182,161422,2,0,B|178:180|178:180|135:114,1,95,2|0,0:0|0:0,0:0:0:0:
317,83,161933,2,0,B|345:85|345:85|388:151,1,95,2|0,0:0|0:0,0:0:0:0:
270,240,162445,2,0,B|242:238|242:238|199:172,1,95,2|0,0:0|0:0,0:0:0:0:
381,141,162956,2,0,B|409:142|409:142|421:161,1,47.5,2|0,0:0|0:0,0:0:0:0:
483,251,163297,1,0,0:0:0:0:
334,325,163638,6,0,P|322:322|310:320,3,23.75,2|0|0|0,0:0|0:0|0:0|0:0,0:0:0:0:
410,350,163979,2,0,P|422:347|434:345,3,23.75,2|0|0|0,0:0|0:0|0:0|0:0,0:0:0:0:
318,237,164320,6,0,P|310:228|299:220,3,26.1250007972718,2|0|0|0,0:0|0:0|0:0|0:0,0:0:0:0:
426,262,164661,2,0,P|434:253|445:245,3,26.1250007972718,2|0|0|0,0:0|0:0|0:0|0:0,0:0:0:0:
303,143,165002,6,0,P|297:129|288:118,3,28.4999991302491
441,168,165342,2,0,P|447:154|456:143,3,28.4999991302491
352,12,165683,5,2,3:2:0:0:
378,23,165768,1,0,3:2:0:0:
399,42,165854,2,0,P|408:53|414:67,1,28.4999991302491,2|0,3:2|3:2,3:2:0:0:
359,135,166024,1,10,3:2:0:0:
331,144,166109,1,0,3:2:0:0:
303,143,166195,2,0,P|289:140|276:134,1,28.4999991302491,2|0,3:2|3:2,3:2:0:0:
168,92,166365,6,0,P|142:90|120:97,3,33.2499989852906,2|0|0|0,0:0|0:0|0:0|0:0,0:0:0:0:
64,149,166706,2,0,P|38:151|16:144,3,33.2499989852906,2|0|0|0,0:0|0:0|0:0|0:0,0:0:0:0:
136,214,167047,6,0,P|140:237|131:267,3,35.625001358986,2|0|0|0,0:0|0:0|0:0|0:0,0:0:0:0:
77,323,167388,2,0,P|73:346|82:376,3,35.625001358986,2|0|0|0,0:0|0:0|0:0|0:0,0:0:0:0:
162,263,167729,6,0,P|190:261|220:267,3,38,2|0|0|0,0:0|0:0|0:0|0:0,0:0:0:0:
296,301,168070,2,0,P|324:303|354:297,3,38,2|0|0|0,0:0|0:0|0:0|0:0,0:0:0:0:
252,200,168411,6,0,P|250:172|256:138,3,40.375000770092,2|0|0|0,0:0|0:0|0:0|0:0,0:0:0:0:
303,69,168752,2,0,P|305:41|299:7,3,40.375000770092,2|0|0|0,0:0|0:0|0:0|0:0,0:0:0:0:
251,159,169092,6,0,P|223:161|181:149,1,47.5,2|0,0:0|0:0,0:0:0:0:
303,69,169263,2,0,P|331:67|373:79,1,47.5
241,179,169433,2,0,P|213:181|171:169,1,47.5
120,89,169604,6,0,P|148:87|190:99,1,47.5,2|0,0:0|0:0,0:0:0:0:
231,199,169774,2,0,P|203:201|161:189,1,47.5
110,69,169945,2,0,P|138:67|180:79,1,47.5
221,219,170115,6,0,P|249:221|291:209,1,47.5,2|0,0:0|0:0,0:0:0:0:
350,70,170286,2,0,P|326:66|303:69,1,47.5
211,239,170456,2,0,P|183:241|141:229,1,47.5
52,47,170627,6,0,P|80:45|122:57,1,47.5,2|0,0:0|0:0,0:0:0:0:
201,259,170797,2,0,P|173:261|131:249,1,47.5
42,27,170967,2,0,P|70:25|112:37,1,47.5
191,279,171138,6,0,P|219:281|261:269,1,47.5,2|0,0:0|0:0,0:0:0:0:
406,47,171308,2,0,P|378:45|336:57,1,47.5
181,299,171479,2,0,P|209:301|251:289,1,47.5
416,27,171649,2,0,P|388:25|346:37,1,47.5
286,71,171820,6,0,L|254:69,10,23.75,2|0|0|0|0|0|0|0|0|0|0,0:0|0:0|0:0|0:0|0:0|0:0|0:0|0:0|0:0|0:0|0:0,0:0:0:0:
213,133,172331,6,0,L|197:118,10,21.3749993476868,2|0|0|0|0|0|0|0|0|0|0,0:0|0:0|0:0|0:0|0:0|0:0|0:0|0:0|0:0|0:0|0:0,0:0:0:0:
119,130,172842,6,0,L|121:97,6,19,2|0|0|0|0|0|0,0:0|0:0|0:0|0:0|0:0|0:0|0:0,0:0:0:0:
60,59,173183,6,0,L|47:82,6,16.6249994926453,2|0|0|0|0|0|0,0:0|0:0|0:0|0:0|0:0|0:0|0:0,0:0:0:0:
140,31,173524,6,0,L|149:15,6,14.2499995651245,2|0|0|0|0|0|0,0:0|0:0|0:0|0:0|0:0|0:0|0:0,0:0:0:0:
119,130,173865,5,8,0:0:0:0:
366,167,174036,2,0,L|354:212,1,47.5,2|0,3:2|0:0,0:0:0:0:
281,83,174206,2,0,L|232:97,1,47.5,8|8,0:3|0:3,0:0:0:0:
397,49,174377,1,4,0:3:0:0:
323,329,174547,6,0,P|256:340|191:320,1,113.999996520996,6|0,0:0|0:0,0:0:0:0:
108,224,174888,1,8,0:0:0:0:
221,126,175058,1,0,0:0:0:0:
221,126,175144,1,0,0:0:0:0:
221,126,175229,1,0,0:0:0:0:
211,330,175399,1,2,0:0:0:0:
323,329,175570,2,0,P|256:340|191:320,1,113.999996520996,8|0,0:0|0:0,0:0:0:0:
116,168,175911,6,0,L|100:284,1,113.999996520996,2|0,0:0|0:0,0:0:0:0:
268,264,176252,2,0,B|284:232|316:216|316:216|292:188|288:140|328:104,1,170.999994781494,8|0,0:0|0:0,0:0:0:0:
370,165,176592,2,0,B|320:165|292:186|292:186|248:148|212:154,1,170.999994781494
116,168,176933,2,0,L|104:248,2,75.9999976806641,8|2|0,0:0|0:0|0:0,0:0:0:0:
136,40,177274,6,0,P|173:19|272:39,1,113.999996520996,2|0,0:0|0:0,0:0:0:0:
370,165,177615,1,8,0:0:0:0:
148,320,177786,1,0,0:0:0:0:
128,285,177871,1,0,0:0:0:0:
115,247,177956,1,0,0:0:0:0:
112,207,178041,1,0,0:0:0:0:
116,168,178127,2,0,P|124:136|152:96,1,56.9999982604981,2|0,0:0|0:0,0:0:0:0:
242,21,178297,2,0,B|260:76|260:76|228:132|228:132|236:204,1,170.999994781494,10|0,0:0|0:0,0:0:0:0:
260,308,178638,6,0,B|316:324|316:324|380:304,1,113.999996520996,2|0,0:0|0:0,0:0:0:0:
370,165,178979,1,8,0:0:0:0:
238,337,179149,2,0,B|294:353|294:353|358:333,1,113.999996520996,2|0,0:0|0:0,0:0:0:0:
392,136,179490,1,0,0:0:0:0:
455,368,179661,1,10,0:0:0:0:
216,366,179831,1,2,0:0:0:0:
414,107,180002,6,0,P|441:149|415:223,1,113.999996520996,2|0,0:0|0:0,0:0:0:0:
347,336,180342,1,8,0:0:0:0:
291,160,180513,1,0,0:0:0:0:
330,162,180598,1,0,0:0:0:0:
370,165,180683,1,0,0:0:0:0:
260,308,180854,1,2,0:0:0:0:
414,107,181024,2,0,P|441:149|415:223,1,113.999996520996,10|0,0:0|0:0,0:0:0:0:
347,336,181365,6,0,B|294:353|294:353|238:337,1,113.999996520996,2|0,0:0|0:0,0:0:0:0:
214,47,181706,2,0,B|267:30|267:30|323:46,1,113.999996520996,10|0,0:0|0:0,0:0:0:0:
237,337,182047,2,0,B|183:321|183:321|146:276,1,113.999996520996,2|0,0:0|0:0,0:0:0:0:
323,46,182388,2,0,B|376:61|376:61|413:106,1,113.999996520996,10|0,0:0|0:0,0:0:0:0:
146,276,182729,6,0,B|131:141,1,113.999996520996,2|0,0:0|0:0,0:0:0:0:
413,106,183070,2,0,B|428:241,1,113.999996520996,10|0,0:0|0:0,0:0:0:0:
285,260,183411,1,0,0:0:0:0:
280,221,183496,1,0,0:0:0:0:
276,181,183581,1,0,0:0:0:0:
344,306,183752,2,0,P|302:333|228:307,1,113.999996520996,8|0,0:0|0:0,0:0:0:0:
217,136,184092,6,0,P|259:109|333:135,1,113.999996520996,2|0,0:0|0:0,0:0:0:0:
454,206,184433,6,0,L|475:107,1,95,10|2,0:0|0:0,0:0:0:0:
454,206,184945,6,0,L|442:260,1,47.5,8|8,0:3|0:3,0:0:0:0:
473,113,185115,1,4,0:3:0:0:
344,306,185286,1,0,3:0:0:0:
217,136,185456,6,0,P|259:109|333:135,1,113.999996520996,6|0,0:0|0:0,0:0:0:0:
220,216,185797,2,0,P|171:205|137:134,1,113.999996520996,8|0,0:0|0:0,0:0:0:0:
473,113,186308,1,2,0:0:0:0:
220,216,186479,2,0,P|171:205|137:134,1,113.999996520996,8|0,0:0|0:0,0:0:0:0:
297,72,186820,6,0,P|270:120|217:136,1,113.999996520996,2|0,0:0|0:0,0:0:0:0:
68,94,187161,2,0,B|67:129|48:157|48:157|67:192|67:192|50:226|66:260,1,170.999994781494,8|0,0:0|0:0,0:0:0:0:
140,227,187502,2,0,P|148:187|137:155,1,56.9999982604981,2|0,0:0|0:0,0:0:0:0:
63,254,187672,1,2,0:0:0:0:
292,276,187842,1,8,0:0:0:0:
68,94,188013,1,0,0:0:0:0:
297,72,188183,6,0,L|413:88,1,113.999996520996,2|0,0:0|0:0,0:0:0:0:
292,276,188524,1,8,0:0:0:0:
217,61,188695,1,0,0:0:0:0:
257,67,188780,1,0,0:0:0:0:
297,72,188865,1,0,0:0:0:0:
292,276,189036,1,2,0:0:0:0:
409,87,189206,2,0,L|297:72,1,113.999996520996,8|0,0:0|0:0,0:0:0:0:
144,171,189547,6,0,B|197:188|197:188|253:172,1,113.999996520996,2|0,0:0|0:0,0:0:0:0:
409,87,189888,1,8,0:0:0:0:
144,171,190058,2,0,B|127:224|127:224|143:280,2,113.999996520996,2|0|0,0:0|0:0|0:0,0:0:0:0:
409,87,190570,1,8,0:0:0:0:
289,222,190740,1,2,0:0:0:0:
184,56,190911,6,0,P|249:38|316:51,1,113.999996520996,2|0,0:0|0:0,0:0:0:0:
409,87,191252,1,8,0:0:0:0:
289,222,191422,1,0,0:0:0:0:
289,222,191507,1,0,0:0:0:0:
289,222,191592,1,0,0:0:0:0:
294,43,191763,1,2,0:0:0:0:
184,56,191933,2,0,P|249:38|316:51,1,113.999996520996,8|0,0:0|0:0,0:0:0:0:
409,87,192274,6,0,L|393:203,1,113.999996520996,2|0,0:0|0:0,0:0:0:0:
103,297,192615,2,0,L|119:181,1,113.999996520996,10|0,0:0|0:0,0:0:0:0:
393,199,192956,2,0,L|299:269,1,113.999996520996,2|0,0:0|0:0,0:0:0:0:
118,184,193297,2,0,L|211:113,1,113.999996520996,10|0,0:0|0:0,0:0:0:0:
401,253,193638,5,2,3:2:0:0:
418,230,193723,1,0,3:0:0:0:
424,202,193808,1,0,3:0:0:0:
417,175,193894,1,0,3:0:0:0:
399,153,193979,1,8,3:2:0:0:
374,141,194064,1,0,3:0:0:0:
345,141,194149,1,0,3:0:0:0:
320,153,194234,1,0,3:0:0:0:
302,175,194320,5,0,3:0:0:0:
270,198,194405,1,0,3:0:0:0:
231,204,194490,1,4,3:0:0:0:
194,190,194575,1,0,3:0:0:0:
169,159,194661,1,8,3:2:0:0:
162,121,194746,1,0,3:0:0:0:
174,83,194831,1,0,3:0:0:0:
204,57,194916,1,0,3:0:0:0:
242,48,195002,5,0,3:0:0:0:
385,221,195172,1,0,3:0:0:0:
163,258,195342,5,10,0:0:0:0:
242,48,195512,1,0,3:0:0:0:
385,221,195683,6,0,P|354:214|321:222,1,56.9999982604981,0|0,3:0|0:0,0:0:0:0:
163,258,195854,6,0,P|132:265|99:257,1,56.9999982604981,0|0,3:0|0:0,0:0:0:0:
154,101,196024,5,0,3:0:0:0:
204,126,196109,1,0,3:0:0:0:
233,175,196195,2,0,P|251:206|277:228,1,56.9999982604981,10|0,0:0|0:0,0:0:0:0:
385,221,196365,6,0,P|298:236|233:175,1,185.249991519928,4|0,0:0|0:0,0:0:0:0:
327,145,196706,1,8,1:0:0:0:
463,226,196877,2,0,L|487:95,1,123.499994346619,2|0,0:0|0:0,0:0:0:0:
401,287,197217,1,2,3:2:0:0:
335,17,197388,2,0,L|357:165,1,123.499994346619,8|2,1:0|0:0,0:0:0:0:
463,226,197729,5,0,0:0:0:0:
236,124,197899,1,2,3:2:0:0:
268,305,198070,2,0,P|296:251|292:184,1,123.499994346619,8|2,1:0|0:0,0:0:0:0:
188,354,198411,1,0,0:0:0:0:
369,290,198581,1,2,3:2:0:0:
173,233,198752,1,8,1:0:0:0:
321,372,198922,1,2,3:2:0:0:
321,372,199007,1,0,3:0:0:0:
321,372,199092,1,8,3:0:0:0:
293,189,199263,5,2,0:0:0:0:
102,287,199433,2,0,P|178:312|237:292,1,123.499994346619,8|2,1:0|0:0,0:0:0:0:
41,213,199774,1,0,0:0:0:0:
26,352,199945,1,2,3:2:0:0:
138,187,200115,2,0,B|145:157|122:122|122:122|86:121|57:141,1,123.499994346619,8|2,1:0|0:0,0:0:0:0:
318,165,200456,6,0,B|309:135|271:116|271:116|239:133|224:165,1,123.499994346619,0|2,0:0|3:2,0:0:0:0:
387,356,200797,1,8,1:0:0:0:
188,283,200967,2,0,B|233:271|233:271|317:286,2,123.499994346619,2|0|2,0:0|0:0|3:2,0:0:0:0:
470,338,201479,1,8,3:1:0:0:
470,338,201564,1,0,3:0:0:0:
470,338,201649,1,2,3:2:0:0:
384,161,201820,6,0,P|369:227|404:294,1,123.499994346619,0|2,3:0|0:0,0:0:0:0:
458,37,202161,1,8,1:0:0:0:
245,83,202331,2,0,B|287:68|323:87|323:87|346:91|368:81,2,123.499994346619,2|0|2,0:0|0:0|3:2,0:0:0:0:
263,308,202842,2,0,P|294:251|273:175,1,123.499994346619,8|2,1:0|0:0,0:0:0:0:
186,348,203183,5,0,0:0:0:0:
367,287,203354,1,2,3:2:0:0:
85,222,203524,2,0,L|207:238,2,123.499994346619,8|2|0,1:0|0:0|0:0,0:0:0:0:
248,144,204036,1,2,3:2:0:0:
366,344,204206,2,0,B|347:299|347:299|368:195,1,123.499994346619,8|2,1:0|3:2,0:0:0:0:
375,197,204462,1,0,3:0:0:0:
382,167,204547,6,0,L|368:83,1,61.7499971733095,8|0,3:0|0:0,0:0:0:0:
312,18,204717,2,0,L|293:94,1,61.7499971733095,2|0,0:0|0:0,0:0:0:0:
275,198,204888,2,0,P|222:169|143:180,1,123.499994346619,8|2,1:0|0:0,0:0:0:0:
133,188,205144,1,0,0:0:0:0:
112,211,205229,2,0,L|125:296,2,61.7499971733095,0|0|2,0:0|0:0|3:2,0:0:0:0:
291,314,205570,2,0,P|230:344|169:327,1,123.499994346619,8|2,1:0|0:0,0:0:0:0:
364,269,205911,6,0,P|421:289|481:274,1,123.499994346619,0|0,0:0|3:0,0:0:0:0:
258,105,206252,1,8,1:0:0:0:
192,239,206422,2,0,L|36:227,1,123.499994346619,2|0,0:0|0:0,0:0:0:0:
32,205,206678,1,8,1:0:0:0:
15,165,206763,2,0,P|20:123|40:89,1,61.7499971733095,2|0,3:2|0:0,0:0:0:0:
56,73,206933,1,8,1:0:0:0:
268,190,207104,1,8,1:0:0:0:
279,202,207189,1,8,1:0:0:0:
285,217,207274,6,0,P|281:271|199:213,1,185.249991519928,0|0,3:0|0:0,0:0:0:0:
196,165,207615,1,8,1:0:0:0:
358,206,207786,2,0,P|359:276|316:340,2,123.499994346619,2|0|2,0:0|0:0|3:2,0:0:0:0:
162,77,208297,2,0,B|207:90|207:90|243:78|243:78|298:93,2,123.499994346619,8|2|0,1:0|0:0|0:0,0:0:0:0:
312,21,208808,5,2,3:2:0:0:
409,237,208979,2,0,P|379:188|399:105,1,123.499994346619,8|2,1:0|0:0,0:0:0:0:
481,291,209320,1,0,0:0:0:0:
272,259,209490,1,2,3:2:0:0:
492,153,209661,1,8,1:0:0:0:
403,342,209831,1,2,3:2:0:0:
367,351,209916,1,0,3:0:0:0:
331,363,210002,5,8,3:0:0:0:
182,319,210172,2,0,P|159:269|201:187,2,123.499994346619,2|8|2,0:0|1:0|0:0,0:0:0:0:
234,125,210683,2,0,L|224:51,1,61.7499971733095
314,170,210854,2,0,L|324:100,1,61.7499971733095,2|0,3:2|0:0,0:0:0:0:
415,264,211024,6,0,L|394:131,2,123.499994346619,8|2|0,1:0|0:0|0:0,0:0:0:0:
449,68,211536,1,2,3:2:0:0:
324,248,211706,2,0,L|201:262,1,123.499994346619,8|2,1:0|0:0,0:0:0:0:
15,308,212047,2,0,L|145:318,1,123.499994346619,0|2,0:0|3:2,0:0:0:0:
406,332,212388,1,8,3:1:0:0:
369,334,212473,1,0,3:0:0:0:
332,342,212558,1,2,3:2:0:0:
470,382,212729,6,0,P|484:313|397:252,1,185.249991519928,0|0,3:0|0:0,0:0:0:0:
324,248,213070,2,0,P|298:207|322:126,1,123.499994346619,8|2,1:0|0:0,0:0:0:0:
337,110,213325,1,0,0:0:0:0:
367,88,213411,1,0,0:0:0:0:
420,181,213581,1,2,3:2:0:0:
242,317,213752,6,0,P|178:329|110:300,2,123.499994346619,8|2|0,1:0|0:0|0:0,0:0:0:0:
72,245,214263,1,2,3:2:0:0:
181,111,214433,2,0,B|308:134|308:134|262:115|253:71,1,185.249991519928,8|0,1:0|0:0,0:0:0:0:
205,34,214774,1,0,0:0:0:0:
382,101,214945,1,2,3:2:0:0:
219,341,215115,1,8,1:0:0:0:
175,259,215286,6,0,P|164:234|163:196,2,61.7499971733095,2|0|8,3:2|3:0|3:0,0:0:0:0:
80,171,215627,1,2,0:0:0:0:
367,213,215797,2,0,B|306:198|306:198|239:220,1,123.499994346619,8|2,1:0|0:0,0:0:0:0:
403,288,216138,1,0,0:0:0:0:
458,143,216308,1,2,3:2:0:0:
220,97,216479,2,0,B|284:109|284:109|351:85,1,123.499994346619,8|2,1:0|0:0,0:0:0:0:
146,59,216820,5,0,0:0:0:0:
226,265,216990,1,2,3:2:0:0:
124,35,217161,2,0,L|138:170,1,123.499994346619,8|2,1:0|0:0,0:0:0:0:
106,353,217502,1,0,0:0:0:0:
42,223,217672,1,0,3:0:0:0:
300,251,217843,1,8,3:1:0:0:
263,258,217928,1,0,3:0:0:0:
226,265,218013,1,2,3:2:0:0:
417,333,218183,5,6,0:0:0:0:
290,87,218695,1,2,0:0:0:0:
226,278,219036,2,0,L|306:272,1,61.7499971733095,0|0,3:0|0:0,0:0:0:0:
393,198,219206,2,0,B|348:204|348:204|304:189|304:189|247:196,1,123.499994346619,8|0,1:0|0:0,0:0:0:0:
55,280,219547,5,2,0:0:0:0:
167,347,219717,1,0,3:0:0:0:
106,113,219888,1,8,1:0:0:0:
88,213,220058,1,0,0:0:0:0:
213,143,220229,1,2,0:0:0:0:
44,65,220399,1,0,3:0:0:0:
190,262,220570,1,8,1:0:0:0:
279,96,220740,6,0,L|259:38,2,61.7499971733095,0|0|4,3:0|3:0|3:0,0:0:0:0:
369,34,221081,1,0,0:0:0:0:
311,173,221252,2,0,P|283:241|303:310,1,123.499994346619,8|0,1:0|0:0,0:0:0:0:
512,117,221592,2,0,P|443:106|372:144,1,123.499994346619,2|0,0:0|3:0,0:0:0:0:
373,340,221933,6,0,P|431:352|504:330,2,123.499994346619,8|0|2,1:0|0:0|0:0,0:0:0:0:
311,173,222445,1,0,3:0:0:0:
106,323,222615,1,8,1:0:0:0:
46,256,222786,2,0,L|25:122,1,123.499994346619,0|2,0:0|0:0,0:0:0:0:
106,323,223127,1,0,3:0:0:0:
225,178,223297,1,8,1:0:0:0:
225,178,223382,1,0,3:0:0:0:
225,178,223467,1,0,3:0:0:0:
280,254,223638,6,0,P|208:267|141:237,1,123.499994346619,0|0,3:0|0:0,0:0:0:0:
370,158,223979,1,8,1:0:0:0:
394,369,224149,2,0,P|357:314|388:225,2,123.499994346619,0|2|0,0:0|0:0|3:0,0:0:0:0:
456,118,224661,2,0,L|475:256,1,123.499994346619,8|0,1:0|0:0,0:0:0:0:
480,35,225002,5,2,0:0:0:0:
283,102,225172,1,0,3:0:0:0:
372,158,225342,1,8,1:0:0:0:
225,47,225513,2,0,B|201:95|201:95|220:168,2,123.499994346619,0|2|0,0:0|0:0|3:0,0:0:0:0:
306,263,226024,1,8,1:0:0:0:
68,261,226195,1,0,3:0:0:0:
68,261,226280,1,0,3:0:0:0:
68,261,226365,6,0,P|116:234|207:257,1,123.499994346619,4|0,3:0|0:0,0:0:0:0:
427,335,226706,2,0,L|285:347,1,123.499994346619,8|0,1:0|0:0,0:0:0:0:
502,238,227047,2,0,L|364:223,1,123.499994346619,2|0,0:0|3:0,0:0:0:0:
141,183,227388,1,8,1:0:0:0:
290,129,227558,1,2,0:0:0:0:
178,255,227729,6,0,B|131:274|91:249|91:249|59:255,1,123.499994346619,2|0,0:0|3:0,0:0:0:0:
305,347,228070,1,8,1:0:0:0:
266,213,228240,1,0,0:0:0:0:
119,307,228411,2,0,P|187:332|253:293,1,123.499994346619,2|0,0:0|3:0,0:0:0:0:
379,221,228752,2,0,P|311:196|245:235,1,123.499994346619,8|0,3:1|3:0,0:0:0:0:
461,348,229092,6,0,L|475:125,1,185.249991519928,0|0,3:0|0:0,0:0:0:0:
474,140,229433,1,8,1:0:0:0:
294,208,229604,1,2,0:0:0:0:
271,48,229774,1,2,0:0:0:0:
356,130,229945,1,2,3:2:0:0:
163,253,230115,2,0,B|153:202|153:202|186:112,1,123.499994346619,8|0,1:0|0:0,0:0:0:0:
233,342,230456,6,0,B|192:335|171:357|171:357|136:352|120:320,1,123.499994346619,2|0,0:0|3:0,0:0:0:0:
30,133,230797,1,8,1:0:0:0:
162,86,230967,1,0,0:0:0:0:
106,195,231138,1,2,0:0:0:0:
73,52,231308,1,0,3:0:0:0:
240,210,231479,1,8,1:0:0:0:
169,307,231649,1,0,3:0:0:0:
169,307,231734,1,0,3:0:0:0:
169,307,231820,5,8,3:0:0:0:
172,146,231990,1,0,0:0:0:0:
432,256,232161,2,0,B|403:263|381:245|381:245|339:266|297:242,1,123.499994346619,8|0,1:0|0:0,0:0:0:0:
154,225,232502,1,2,0:0:0:0:
259,134,232672,1,0,3:0:0:0:
247,353,232842,6,0,L|235:208,2,123.499994346619,8|0|2,1:0|0:0|0:0,0:0:0:0:
324,260,233354,1,0,3:0:0:0:
170,87,233524,1,8,1:0:0:0:
30,193,233695,2,0,P|107:203|130:153,1,123.499994346619,0|2,0:0|0:0,0:0:0:0:
324,260,234036,2,0,P|263:229|206:272,1,123.499994346619,2|8,3:2|3:1,0:0:0:0:
198,283,234291,1,0,3:0:0:0:
183,317,234377,1,0,3:0:0:0:
450,338,234547,6,0,P|469:248|404:169,1,185.249991519928,4|0,3:0|0:0,0:0:0:0:
348,138,234888,2,0,L|210:149,1,123.499994346619,8|2,1:0|0:0,0:0:0:0:
187,143,235144,1,0,0:0:0:0:
151,131,235229,1,2,0:0:0:0:
281,56,235399,1,0,3:0:0:0:
198,233,235570,2,0,L|43:211,1,123.499994346619,8|0,1:0|0:0,0:0:0:0:
249,325,235911,5,2,0:0:0:0:
295,205,236081,1,0,3:0:0:0:
94,319,236252,1,8,1:0:0:0:
184,362,236422,1,0,0:0:0:0:
170,219,236592,1,2,0:0:0:0:
330,346,236763,2,0,L|317:286,1,61.7499971733095,0|0,3:0|0:0,0:0:0:0:
361,219,236933,1,8,1:0:0:0:
283,52,237104,1,0,3:0:0:0:
283,52,237189,1,0,3:0:0:0:
283,52,237274,6,0,B|282:101|247:127|247:127|217:172|254:234,1,185.249991519928,8|0,3:0|0:0,0:0:0:0:
296,278,237615,2,0,P|249:261|154:280,1,123.499994346619,8|0,1:0|0:0,0:0:0:0:
343,351,237956,1,2,0:0:0:0:
404,212,238127,1,0,3:0:0:0:
110,349,238297,2,0,L|87:227,1,123.499994346619,8|2,1:0|0:0,0:0:0:0:
162,57,238638,6,0,L|139:185,2,123.499994346619,2|0|8,0:0|3:0|1:0,0:0:0:0:
225,233,239149,1,0,0:0:0:0:
394,166,239320,2,0,B|340:149|340:149|258:182,1,123.499994346619,2|0,0:0|3:0,0:0:0:0:
108,225,239661,2,0,B|162:208|162:208|244:241,1,123.499994346619,8|0,3:1|3:0,0:0:0:0:
390,320,240002,5,4,0:1:0:0:
106,89,259774,5,2,0:0:0:0:
117,96,259945,1,0,0:0:0:0:
124,191,260115,1,2,0:0:0:0:
142,195,260286,1,0,0:0:0:0:
194,288,260456,1,2,0:0:0:0:
211,286,260627,1,0,0:0:0:0:
310,343,260797,1,2,0:0:0:0:
326,329,260967,1,0,0:0:0:0:
439,360,261138,5,8,0:0:0:0:
407,251,261479,1,8,0:0:0:0:
439,360,261820,6,0,P|494:328|512:287,1,76,4|0,3:0|0:0,0:0:0:0:
302,263,262161,1,8,0:0:0:0:
407,251,262331,1,0,0:0:0:0:
198,234,262502,2,0,P|198:297|224:333,1,76,2|0,0:0|3:0,0:0:0:0:
344,165,262842,1,8,0:0:0:0:
302,263,263013,1,0,3:0:0:0:
420,96,263183,6,0,P|364:64|320:69,1,76,4|0,3:0|0:0,0:0:0:0:
407,251,263524,1,8,0:0:0:0:
266,12,263695,2,0,B|228:99|293:96|251:178,1,152,2|0,0:0|3:0,0:0:0:0:
353,63,264206,1,8,0:0:0:0:
171,125,264377,1,2,0:0:0:0:
171,125,264462,1,2,0:0:0:0:
171,125,264547,6,0,P|133:123|91:111,1,76,4|0,3:0|0:0,0:0:0:0:
259,159,264888,1,0,0:0:0:0:
426,200,265058,2,0,P|389:209|351:211,1,76,0|2,0:0|0:0,0:0:0:0:
493,117,265399,1,0,3:0:0:0:
259,159,265570,2,0,B|221:246|286:243|244:325,1,152,8|12,0:0|3:0,0:0:0:0:
351,211,266081,5,0,0:0:0:0:
175,364,266252,2,0,P|161:308|176:258,1,76,8|0,0:0|0:0,0:0:0:0:
351,211,266592,1,2,0:0:0:0:
259,159,266763,1,0,3:0:0:0:
444,265,266933,2,0,P|448:286|450:312,3,38,8|0|2|0,0:0|0:0|0:0|0:0,0:0:0:0:
437,318,267274,6,0,P|392:363|348:371,1,76,4|0,3:0|0:0,0:0:0:0:
376,160,267615,1,8,0:0:0:0:
339,260,267785,1,0,0:0:0:0:
373,51,267956,2,0,P|434:66|463:101,1,76,2|0,0:0|3:0,0:0:0:0:
270,177,268296,1,8,0:0:0:0:
376,160,268467,1,0,3:0:0:0:
185,234,268638,6,0,P|167:172|183:130,1,76,4|0,3:0|0:0,0:0:0:0:
339,260,268978,1,8,0:0:0:0:
141,65,269149,2,0,B|234:49|215:111|305:90,1,152,2|0,0:0|3:0,0:0:0:0:
169,162,269660,1,8,0:0:0:0:
365,44,269831,1,2,0:0:0:0:
365,44,269916,1,2,0:0:0:0:
365,44,270002,6,0,P|380:97|372:136,1,76,4|0,3:0|0:0,0:0:0:0:
169,162,270342,1,8,0:0:0:0:
311,270,270513,2,0,P|339:222|341:182,1,76,0|2,0:0|0:0,0:0:0:0:
83,127,270854,1,0,3:0:0:0:
238,36,271024,2,0,P|277:74|290:112,1,76,8|0,0:0|0:0,0:0:0:0:
23,197,271365,5,4,3:0:0:0:
190,248,271536,2,0,P|238:221|260:187,1,76,0|8,0:0|0:0,0:0:0:0:
169,162,271877,1,0,0:0:0:0:
157,336,272047,1,2,0:0:0:0:
262,323,272217,1,0,3:0:0:0:
367,309,272388,1,8,0:0:0:0:
374,300,272473,1,0,0:0:0:0:
382,291,272558,1,2,0:0:0:0:
390,283,272644,1,0,0:0:0:0:
397,274,272729,6,0,P|409:218|399:162,1,114,4|0,3:0|0:0,0:0:0:0:
391,159,273070,1,8,0:0:0:0:
287,182,273240,1,0,0:0:0:0:
214,56,273411,1,2,0:0:0:0:
318,79,273581,1,0,3:0:0:0:
185,211,273752,5,8,0:0:0:0:
185,211,273922,1,0,3:0:0:0:
109,32,274092,1,4,3:0:0:0:
109,32,274262,1,0,0:0:0:0:
0,199,274433,1,8,0:0:0:0:
0,199,274604,2,0,P|30:192|96:184,1,76,0|2,0:0|0:0,0:0:0:0:
157,118,274945,1,0,3:0:0:0:
71,282,275115,2,0,L|83:322,3,38,8|0|2|0,0:0|0:0|0:0|0:0,0:0:0:0:
78,336,275456,6,0,P|122:351|199:333,1,114,4|0,3:0|0:0,0:0:0:0:
193,331,275797,1,8,0:0:0:0:
412,318,275967,2,0,P|338:322|282:274,1,152,2|0,0:0|3:0,0:0:0:0:
117,210,276479,2,0,P|189:194|231:133,1,152,8|4,0:0|3:0,0:0:0:0:
468,106,276990,5,0,0:0:0:0:
362,87,277161,2,0,P|331:52|326:-5,1,76,8|0,0:0|0:0,0:0:0:0:
231,132,277502,1,2,0:0:0:0:
145,73,277672,2,0,P|145:18|166:-17,1,76,0|8,3:0|0:0,0:0:0:0:
231,133,278013,1,2,0:0:0:0:
231,133,278098,1,2,0:0:0:0:
231,133,278183,6,0,P|246:180|222:263,1,114,4|0,3:0|0:0,0:0:0:0:
226,249,278524,1,8,0:0:0:0:
330,232,278694,1,0,0:0:0:0:
393,347,278865,1,2,0:0:0:0:
289,330,279035,1,0,3:0:0:0:
440,212,279206,5,8,0:0:0:0:
440,212,279376,1,0,3:0:0:0:
500,370,279546,1,4,3:0:0:0:
500,370,279716,1,0,0:0:0:0:
492,127,279887,1,8,0:0:0:0:
492,127,280058,2,0,P|462:120|396:112,1,76,0|2,0:0|0:0,0:0:0:0:
330,232,280399,1,0,3:0:0:0:
322,74,280569,2,0,L|310:114,3,38,8|0|2|0,0:0|0:0|0:0|0:0,0:0:0:0:
315,128,280910,6,0,P|271:143|194:125,1,114,4|0,3:0|0:0,0:0:0:0:
200,123,281251,1,8,0:0:0:0:
30,0,281422,2,0,P|86:47|90:121,1,152,2|0,0:0|3:0,0:0:0:0:
60,330,281933,2,0,P|73:258|136:218,1,152,8|4,0:0|3:0,0:0:0:0:
315,128,282444,5,0,0:0:0:0:
247,210,282615,2,0,P|231:283|236:305,1,76,8|0,0:0|0:0,0:0:0:0:
421,143,282956,1,2,3:2:0:0:
356,227,283126,1,0,3:0:0:0:
315,128,283296,1,8,0:0:0:0:
460,235,283467,1,2,3:2:0:0:
460,235,283552,1,2,0:0:0:0:
459,234,283638,6,0,P|479:267|484:304,1,76,4|0,3:2|0:0,0:0:0:0:
332,221,283979,1,8,0:0:0:0:
376,381,284149,2,0,P|391:346|390:309,1,76,2|0,0:0|0:0,0:0:0:0:
219,204,284490,1,0,3:0:0:0:
239,379,284661,2,0,P|269:356|287:323,1,76,8|0,0:0|0:0,0:0:0:0:
107,185,285002,5,0,3:0:0:0:
190,297,285172,1,2,0:0:0:0:
313,232,285342,1,8,0:0:0:0:
230,119,285513,1,2,0:0:0:0:
107,185,285683,2,0,P|53:153|39:53,1,152,2|8,0:0|0:0,0:0:0:0:
47,60,286109,2,0,P|50:40|56:19,2,38,2|0|2,0:0|0:0|0:0,0:0:0:0:
75,15,286365,6,0,L|163:3,1,76,0|0,3:0|3:0,0:0:0:0:
373,52,286706,1,8,0:0:0:0:
281,105,286877,2,0,L|206:95,1,76,2|0,0:0|0:0,0:0:0:0:
0,150,287217,1,0,3:0:0:0:
89,203,287388,2,0,L|165:193,1,76,8|0,0:0|3:0,0:0:0:0:
404,236,287729,5,4,3:0:0:0:
281,105,287899,1,2,0:0:0:0:
443,24,288070,2,0,P|453:60|448:102,1,76,8|2,0:0|0:0,0:0:0:0:
286,287,288411,2,0,P|282:249|292:212,1,76,2|0,0:0|3:0,0:0:0:0:
497,356,288752,1,8,0:0:0:0:
486,360,288837,1,2,0:0:0:0:
476,365,288922,1,2,0:0:0:0:
466,371,289007,1,2,0:0:0:0:
454,375,289092,6,0,L|366:361,1,76,4|0,3:2|0:0,0:0:0:0:
473,211,289433,1,8,0:0:0:0:
295,244,289604,2,0,L|370:232,1,76,2|0,0:0|0:0,0:0:0:0:
319,57,289945,1,2,3:2:0:0:
497,90,290115,2,0,L|422:78,1,76,8|0,0:0|3:0,0:0:0:0:
319,57,290456,5,0,3:0:0:0:
319,57,290627,1,2,0:0:0:0:
297,257,290797,1,8,0:0:0:0:
297,257,290967,1,2,0:0:0:0:
98,111,291138,2,0,P|178:137|249:86,1,152,2|8,0:0|0:0,0:0:0:0:
224,95,291564,2,0,L|221:56,2,38,2|0|2,0:0|0:0|0:0,0:0:0:0:
210,41,291820,6,0,P|172:35|129:10,1,76,4|0,3:0|0:0,0:0:0:0:
319,57,292161,1,8,0:0:0:0:
319,163,292331,2,0,P|295:220|275:237,1,76,2|0,0:0|0:0,0:0:0:0:
319,57,292672,1,0,3:0:0:0:
423,76,292842,2,0,P|480:100|497:120,1,76,8|0,0:0|3:0,0:0:0:0:
319,57,293184,5,4,3:0:0:0:
427,169,293354,1,2,0:0:0:0:
285,229,293524,2,0,P|294:192|318:162,1,76,8|2,0:0|0:0,0:0:0:0:
177,33,293865,2,0,P|200:62|210:99,1,76,2|0,0:0|3:0,0:0:0:0:
94,217,294207,1,8,0:0:0:0:
105,221,294292,1,2,0:0:0:0:
115,226,294377,1,2,0:0:0:0:
125,232,294462,1,2,0:0:0:0:
137,236,294547,6,0,B|206:199|208:257|301:223,1,152,4|8,3:2|0:0,0:0:0:0:
442,269,295058,2,0,P|404:270|372:289,1,76,2|0,0:0|0:0,0:0:0:0:
276,335,295399,1,0,3:0:0:0:
379,182,295570,2,0,P|382:144|373:107,1,76,10|0,0:0|3:0,0:0:0:0:
273,70,295911,5,0,3:0:0:0:
136,180,296081,2,0,P|173:172|203:150,1,76,2|8,0:0|0:0,0:0:0:0:
273,70,296422,1,2,0:0:0:0:
276,227,296592,2,0,P|295:259|324:283,1,76,2|0,0:0|3:0,0:0:0:0:
431,278,296933,1,8,0:0:0:0:
239,354,297104,1,0,3:0:0:0:
239,354,297189,1,0,3:0:0:0:
239,354,297274,6,0,B|166:380|163:327|92:357,1,152,4|8,3:0|0:0,0:0:0:0:
162,185,297786,2,0,P|182:216|189:253,1,76,2|0,0:0|0:0,0:0:0:0:
83,259,298127,1,0,3:0:0:0:
238,105,298297,2,0,P|207:84|170:77,1,76,8|0,0:0|3:0,0:0:0:0:
162,185,298639,5,0,3:0:0:0:
263,215,298809,2,0,P|299:207|329:184,1,76,2|8,0:0|0:0,0:0:0:0:
162,185,299149,1,2,0:0:0:0:
158,291,299320,2,0,P|165:327|188:357,1,76,2|0,0:0|3:0,0:0:0:0:
162,185,299661,1,8,0:0:0:0:
303,330,299832,1,2,0:0:0:0:
303,330,299917,1,2,0:0:0:0:
303,330,300002,6,0,P|348:346|421:312,1,114,4|0,3:2|0:0,0:0:0:0:
416,315,300342,1,8,0:0:0:0:
367,171,300513,1,2,0:0:0:0:
512,120,300683,2,0,L|503:196,1,76,0|0,0:0|3:0,0:0:0:0:
430,51,301024,2,0,P|378:30|288:82,1,152,8|4,0:0|3:0,0:0:0:0:
102,50,301536,5,2,0:0:0:0:
197,95,301706,2,0,P|205:30|191:-7,1,76,8|2,0:0|0:0,0:0:0:0:
44,137,302047,2,0,P|121:175|117:264,1,152,2|8,0:0|0:0,0:0:0:0:
121,251,302473,2,0,L|66:248,2,38,2|0|2,0:0|0:0|0:0,0:0:0:0:
67,256,302729,6,0,P|17:306|19:391,1,152,4|8,3:0|0:0,0:0:0:0:
238,277,303240,2,0,P|238:202|186:149,1,152,2|0,0:0|3:0,0:0:0:0:
107,347,303752,5,8,0:0:0:0:
341,289,303922,1,0,3:0:0:0:
75,156,305456,6,0,B|164:100|183:189|273:142,1,190,2|2,0:0|0:0,0:0:0:0:
257,149,306820,1,2,0:0:0:0:
257,149,307502,6,0,P|266:97|256:62,1,71.2500027179719,2|0,0:0|0:0,0:0:0:0:
113,68,307842,2,0,P|156:98|192:103,1,71.2500027179719
265,333,308183,6,0,P|246:183|258:144,1,190,2|2,0:0|0:0,0:0:0:0:
256,148,309206,2,0,B|187:106|110:142|110:142|149:165,1,190
142,160,310229,1,2,0:0:0:0:
149,159,310570,1,0,0:0:0:0:
453,293,310911,6,0,B|364:237|345:326|255:279,1,190,2|2,0:0|0:0,0:0:0:0:
271,286,312274,1,2,0:0:0:0:
271,286,312956,6,0,P|261:322|272:366,1,71.2500027179719,2|0,0:0|0:0,0:0:0:0:
420,347,313297,2,0,P|382:344|345:318,1,71.2500027179719
262,101,313638,6,0,P|281:251|269:290,1,190,2|2,0:0|0:0,0:0:0:0:
270,285,314661,2,0,B|204:257|204:257|71:291,1,190
89,286,315683,1,2,0:0:0:0:
81,292,316024,1,0,0:0:0:0:
242,69,316365,6,0,B|246:32|246:32|156:74|222:169,1,190,2|2,0:0|0:0,0:0:0:0:
214,157,317729,1,2,0:0:0:0:
214,157,318411,6,0,P|150:156|133:150,1,71.2500027179719,2|0,0:0|0:0,0:0:0:0:
163,7,318752,2,0,P|189:65|190:83,1,71.2500027179719
222,341,319092,6,0,P|203:191|215:152,1,190,2|2,0:0|0:0,0:0:0:0:
213,156,320115,2,0,P|236:247|221:340,1,190
220,340,321138,1,2,0:0:0:0:
213,348,321479,1,0,0:0:0:0:
355,62,321820,6,0,B|351:25|351:25|441:67|375:162,1,190,2|2,0:0|0:0,0:0:0:0:
383,151,323183,1,2,0:0:0:0:
383,151,323865,6,0,P|364:200|365:227,1,71.2500027179719,2|0,0:0|0:0,0:0:0:0:
509,241,324206,2,0,P|460:219|442:199,1,71.2500027179719
348,71,324547,6,0,B|401:29|401:29|381:162,1,190,2|2,0:0|0:0,0:0:0:0:
336,245,325570,1,0,0:0:0:0:
382,150,325911,1,2,0:0:0:0:
336,245,326252,5,0,0:0:0:0:
382,150,326592,1,2,0:0:0:0:
283,161,326933,1,0,0:0:0:0:
336,245,327274,6,0,L|332:339,1,76,2|0,3:0|0:0,0:0:0:0:
240,232,327615,2,0,L|244:326,1,76,0|0,3:0|0:0,0:0:0:0:
132,236,327956,2,0,L|144:329,1,76,0|0,3:0|0:0,0:0:0:0:
29,282,328297,2,0,L|49:373,1,76,0|0,3:0|0:0,0:0:0:0:
317,138,328638,6,0,L|313:232,1,76,0|0,3:0|0:0,0:0:0:0:
221,125,328979,2,0,L|225:219,1,76,0|0,3:0|0:0,0:0:0:0:
113,129,329320,2,0,L|125:222,1,76,0|0,3:0|0:0,0:0:0:0:
10,175,329661,2,0,L|30:266,1,76,0|0,3:0|0:0,0:0:0:0:
218,50,330002,6,0,P|213:100|231:143,1,76,0|0,3:0|0:0,0:0:0:0:
287,188,330342,1,0,3:0:0:0:
203,229,330513,1,0,0:0:0:0:
220,124,330683,6,0,P|225:74|207:31,1,76,0|0,3:0|0:0,0:0:0:0:
132,12,331024,1,0,3:0:0:0:
75,84,331195,1,0,0:0:0:0:
218,50,331365,6,0,P|226:86|220:124,1,76,0|0,3:0|0:0,0:0:0:0:
157,283,331706,2,0,P|148:246|154:208,1,76,0|0,3:0|0:0,0:0:0:0:
312,242,332047,2,0,P|271:245|225:258,1,76,0|0,3:0|0:0,0:0:0:0:
61,265,332388,1,0,3:0:0:0:
157,283,332558,1,0,0:0:0:0:
404,209,332729,6,0,L|400:115,1,76,0|0,3:0|0:0,0:0:0:0:
308,222,333070,2,0,L|312:128,1,76,0|0,3:0|0:0,0:0:0:0:
200,218,333411,2,0,L|212:125,1,76,0|0,3:0|0:0,0:0:0:0:
97,172,333752,2,0,L|117:81,1,76,0|0,3:0|0:0,0:0:0:0:
401,112,334092,6,0,L|397:18,1,95,0|0,3:0|0:0,0:0:0:0:
302,120,334433,2,0,L|299:25,1,95,0|0,3:0|0:0,0:0:0:0:
190,137,334774,2,0,L|187:35,1,95,0|0,3:0|0:0,0:0:0:0:
51,38,335115,1,0,3:0:0:0:
40,131,335286,1,0,0:0:0:0:
47,306,335456,6,0,P|93:355|135:362,1,95,0|0,3:0|0:0,0:0:0:0:
214,235,335797,2,0,P|148:250|121:283,1,95,0|0,3:0|0:0,0:0:0:0:
202,322,336138,2,0,P|248:371|290:378,1,95,0|0,3:0|0:0,0:0:0:0:
369,251,336479,1,0,3:0:0:0:
282,284,336649,1,0,3:0:0:0:
419,341,336820,6,0,L|526:358,1,95,0|0,3:0|0:0,0:0:0:0:
369,251,337161,2,0,L|481:246,1,95,0|0,3:0|0:0,0:0:0:0:
290,175,337502,2,0,L|400:154,1,95,0|0,3:0|0:0,0:0:0:0:
393,34,337842,1,0,3:0:0:0:
279,15,338013,1,2,0:0:0:0:
111,160,338183,6,0,P|110:236|121:263,1,95,0|0,3:0|0:0,0:0:0:0:
243,330,338524,2,0,P|309:292|327:269,1,95,0|0,3:0|0:0,0:0:0:0:
307,139,338865,2,0,P|241:100|212:96,1,95,0|0,3:0|0:0,0:0:0:0:
46,79,339206,1,0,3:0:0:0:
157,9,339377,1,0,0:0:0:0:
138,216,339547,6,0,L|145:103,1,95,0|0,3:0|0:0,0:0:0:0:
75,373,339888,2,0,L|82:260,1,95,0|0,3:0|0:0,0:0:0:0:
201,275,340229,2,0,L|208:388,1,95,0|0,3:0|0:0,0:0:0:0:
138,118,340570,2,0,L|145:231,1,95,0|0,3:0|0:0,0:0:0:0:
273,227,340911,5,0,3:0:0:0:
367,206,341081,1,0,0:0:0:0:
232,139,341252,5,0,3:0:0:0:
138,118,341422,1,0,0:0:0:0:
232,139,341592,6,0,L|239:31,1,95,0|0,3:0|0:0,0:0:0:0:
273,227,341933,2,0,L|280:335,1,95,0|0,3:0|0:0,0:0:0:0:
138,118,342274,2,0,L|145:10,1,95,0|0,3:0|0:0,0:0:0:0:
367,206,342615,2,0,L|374:314,1,95,0|0,3:0|0:0,0:0:0:0:
232,139,342956,6,0,L|239:31,1,95,0|0,3:0|0:0,0:0:0:0:
273,227,343297,2,0,L|280:335,1,95,0|0,3:0|0:0,0:0:0:0:
171,248,343638,5,0,3:0:0:0:
72,236,343808,1,0,3:0:0:0:
180,333,343979,5,0,3:0:0:0:
279,321,344149,1,0,3:0:0:0:
171,231,344320,5,0,3:0:0:0:
72,219,344490,1,0,3:0:0:0:
182,349,344661,5,0,3:0:0:0:
281,337,344831,1,0,3:0:0:0:
376,98,345002,5,0,3:0:0:0:
379,321,345172,1,0,3:0:0:0:
278,114,345342,5,0,3:0:0:0:
281,337,345513,1,0,3:0:0:0:
180,125,345683,5,0,3:0:0:0:
182,349,345854,1,0,3:0:0:0:
81,142,346024,5,0,3:0:0:0:
84,365,346195,1,0,3:0:0:0:
249,180,346365,5,0,3:0:0:0:
262,155,346450,1,0,3:0:0:0:
267,127,346536,1,0,3:0:0:0:
262,99,346621,1,0,3:0:0:0:
193,126,346706,5,0,3:0:0:0:
179,150,346791,1,0,3:0:0:0:
174,178,346877,1,0,3:0:0:0:
179,206,346962,1,0,3:0:0:0:
231,256,347047,5,0,3:0:0:0:
257,258,347132,1,0,3:0:0:0:
285,250,347217,1,0,3:0:0:0:
309,234,347303,1,0,3:0:0:0:
353,175,347388,5,0,3:0:0:0:
363,149,347473,1,0,3:0:0:0:
366,121,347558,1,0,3:0:0:0:
358,94,347644,1,0,3:0:0:0:
298,52,347729,6,0,B|285:75|285:75|286:130,1,56.9999982604981,0|0,3:0|0:0,0:0:0:0:
405,267,347899,1,2,0:0:0:0:
204,62,348070,6,0,B|196:87|196:87|206:141,1,56.9999982604981,0|0,3:0|0:0,0:0:0:0:
339,305,348240,1,2,0:0:0:0:
114,86,348411,6,0,B|110:112|110:112|129:163,1,56.9999982604981,0|0,3:0|0:0,0:0:0:0:
268,336,348581,1,2,0:0:0:0:
32,145,348752,6,0,B|33:171|33:171|60:218,1,56.9999982604981,0|0,3:0|0:0,0:0:0:0:
195,373,348922,1,2,0:0:0:0:
291,145,349092,6,0,P|229:123|254:221,1,170.999994781494,4|0,0:0|0:0,0:0:0:0:
286,230,349433,6,0,B|357:223|373:158|373:158|415:223|501:214,1,228,8|0,1:0|0:0,0:0:0:0:
486,216,349774,1,2,0:0:0:0:
156,301,349945,2,0,B|192:287|192:287|250:306,1,76,0|0,3:0|0:0,0:0:0:0:
388,318,350115,2,0,B|350:340|350:340|375:148,1,228,8|0,1:0|0:0,0:0:0:0:
370,53,350456,6,0,B|325:40|325:40|254:74,1,113.999996520996,0|0,3:0|0:0,0:0:0:0:
88,174,350797,2,0,B|138:164|165:129|165:129|218:173|218:173|261:160|327:186,1,227.999993041992,8|2,1:0|0:0,0:0:0:0:
478,199,351308,5,0,3:0:0:0:
254,251,351479,1,8,1:0:0:0:
491,196,351649,5,0,3:0:0:0:
238,254,351820,2,0,P|185:298|254:352,1,170.999994781494,4|0,3:1|0:0,0:0:0:0:
326,310,352161,6,0,B|360:255|336:202|336:202|325:187|325:187|308:140|337:77,1,228,8|0,1:0|0:0,0:0:0:0:
360,19,352502,1,2,0:0:0:0:
44,137,352672,2,0,P|91:138|137:150,1,76,0|0,3:0|0:0,0:0:0:0:
330,93,352842,2,0,B|282:108|162:73|162:73|193:93|204:139,1,228,8|0,1:0|0:0,0:0:0:0:
204,224,353183,6,0,P|205:286|196:367,1,113.999996520996,0|0,3:0|0:0,0:0:0:0:
44,137,353524,2,0,P|42:105|47:67,1,56.9999982604981,8|0,1:0|0:0,0:0:0:0:
98,10,353695,1,0,0:0:0:0:
196,116,353865,1,2,0:0:0:0:
71,252,354036,5,0,3:0:0:0:
336,208,354206,1,8,1:0:0:0:
56,255,354377,5,0,3:0:0:0:
350,208,354547,2,0,B|297:177|297:177|334:316,1,170.999994781494,4|0,3:2|0:0,0:0:0:0:
461,376,354888,6,0,B|414:372|389:333|389:333|334:373|334:373|304:352|219:355,1,228,8|0,1:0|0:0,0:0:0:0:
181,342,355229,1,2,0:0:0:0:
464,290,355399,2,0,P|468:246|445:196,1,76,0|0,3:0|0:0,0:0:0:0:
333,19,355570,2,0,B|310:66|310:66|308:101|308:101|337:158|337:158|341:198|341:198|322:261,1,228,8|0,1:0|0:0,0:0:0:0:
255,295,355911,6,0,B|234:244|234:244|265:180,1,113.999996520996,0|0,3:0|0:0,0:0:0:0:
463,99,356252,2,0,B|509:104|504:41|504:41|473:10|397:24|384:105,1,227.999993041992,8|2,1:0|0:0,0:0:0:0:
375,235,356763,5,0,3:0:0:0:
118,153,356933,1,8,1:0:0:0:
391,237,357104,5,0,3:0:0:0:
103,150,357274,2,0,B|58:178|58:178|64:252|64:252|119:280,1,170.999994781494,0|0,3:0|0:0,0:0:0:0:
333,319,357615,6,0,B|260:331|192:266|192:266|194:309|163:335,1,228,8|0,1:0|0:0,0:0:0:0:
113,384,357956,1,2,0:0:0:0:
185,179,358127,2,0,P|190:131|176:93,1,76,0|0,3:0|0:0,0:0:0:0:
91,60,358297,2,0,B|145:53|178:99|178:99|229:116|279:84|279:84|263:42,1,228,8|0,1:0|0:0,0:0:0:0:
22,3,358638,6,0,P|2:75|58:142,1,152,0|0,3:0|0:0,0:0:0:0:
365,14,358979,2,0,P|385:86|329:153,1,152,8|0,1:0|0:0,0:0:0:0:
200,354,359320,6,0,P|215:309|204:258,1,76,2|0,0:0|0:0,0:0:0:0:
137,43,359490,1,0,3:0:0:0:
321,284,359661,1,8,1:0:0:0:
37,181,359831,6,0,B|61:174|86:184|86:184|63:198|38:190,1,95,0|0,3:0|0:0,0:0:0:0:
28,268,360002,6,0,B|101:280|145:233|145:233|177:281|244:287,1,213.750008153916,4|0,3:2|0:0,0:0:0:0:
269,210,360342,6,0,P|218:196|282:85,1,228,8|0,1:0|0:0,0:0:0:0:
360,94,360683,1,2,0:0:0:0:
407,352,360854,2,0,B|397:315|397:315|418:268,1,76,0|0,3:0|0:0,0:0:0:0:
486,200,361024,2,0,B|359:138|382:254|248:202,1,228,8|0,1:0|0:0,0:0:0:0:
92,154,361365,6,0,P|154:147|217:184,1,113.999996520996,0|0,3:0|0:0,0:0:0:0:
295,323,361706,2,0,B|271:342|258:370|258:370|222:275|273:202,1,227.999993041992,8|2,1:0|0:0,0:0:0:0:
406,60,362217,5,0,3:0:0:0:
167,103,362388,1,8,1:0:0:0:
418,58,362558,5,0,3:0:0:0:
155,106,362729,2,0,P|142:191|145:310,1,170.999994781494,0|0,3:0|0:0,0:0:0:0:
199,345,363070,6,0,B|239:366|254:324|230:288|140:297|36:355,1,228,8|0,1:0|0:0,0:0:0:0:
36,352,363411,1,2,0:0:0:0:
309,365,363581,2,0,P|312:311|290:269,1,76,0|0,3:0|0:0,0:0:0:0:
228,75,363752,2,0,B|283:32|283:32|249:223,1,228,8|0,1:0|0:0,0:0:0:0:
191,253,364092,6,0,B|143:243|143:243|67:282,1,113.999996520996,0|0,3:0|0:0,0:0:0:0:
252,358,364433,2,0,L|348:369,1,56.9999982604981,8|0,1:0|0:0,0:0:0:0:
415,363,364604,1,0,0:0:0:0:
494,199,364774,1,0,0:0:0:0:
328,55,364945,5,0,3:0:0:0:
372,279,365115,1,8,1:0:0:0:
313,53,365286,5,0,3:0:0:0:
386,277,365456,2,0,B|407:222|364:165|364:165|375:199|363:231,1,170.999994781494,4|0,3:2|0:0,0:0:0:0:
308,343,365797,6,0,B|273:370|273:370|478:365,1,228,8|0,1:0|0:0,0:0:0:0:
476,365,366138,1,2,0:0:0:0:
289,195,366308,2,0,B|257:188|257:188|202:211,1,76,0|0,3:0|0:0,0:0:0:0:
105,289,366479,2,0,B|141:328|141:328|156:279|137:238|137:238|118:197|152:130,1,228,8|0,1:0|0:0,0:0:0:0:
138,46,366820,6,0,P|57:51|26:84,1,113.999996520996,0|0,3:0|0:0,0:0:0:0:
140,158,367161,2,0,B|208:146|247:157|247:157|256:163|256:163|297:174|382:161,1,227.999993041992,8|2,1:0|0:0,0:0:0:0:
282,78,367672,5,0,3:0:0:0:
216,241,367842,1,8,1:0:0:0:
286,67,368013,5,0,3:0:0:0:
216,252,368183,2,0,L|205:367,1,113.999996520996,4|2,3:2|0:0,0:0:0:0:
149,100,368695,2,0,L|138:215,1,113.999996520996,0|0,3:0|0:0,0:0:0:0:
73,11,369206,2,0,L|65:84,1,56.9999982604981,0|0,3:0|0:0,0:0:0:0:
205,365,369547,6,0,L|215:251,1,113.999996520996,0|2,3:0|0:0,0:0:0:0:
111,196,370058,2,0,L|28:192,1,56.9999982604981,0|0,3:0|0:0,0:0:0:0:
188,144,370399,5,0,0:0:0:0:
255,84,370570,1,0,3:0:0:0:
255,222,370740,1,0,3:0:0:0:
102,117,370911,6,0,P|168:56|255:84,1,190,6|8,0:0|0:0,0:0:0:0:
329,154,371422,1,0,0:0:0:0:
351,55,371592,1,2,0:0:0:0:
255,222,371763,1,0,3:0:0:0:
504,165,371933,2,0,P|471:132|424:124,1,95,8|0,0:0|0:0,0:0:0:0:
333,286,372274,5,0,3:0:0:0:
254,87,372445,1,0,3:0:0:0:
333,286,372615,1,8,0:0:0:0:
428,235,372786,1,2,0:0:0:0:
428,235,372871,1,0,1:0:0:0:
428,235,372956,1,2,0:0:0:0:
389,370,373127,1,0,3:0:0:0:
336,184,373297,2,0,P|374:147|423:130,1,95,10|0,0:0|0:0,0:0:0:0:
245,230,373638,6,0,B|150:226|150:226|150:220|150:220|49:217,1,190,2|8,3:2|0:0,0:0:0:0:
96,321,374149,1,0,0:0:0:0:
209,128,374320,1,2,0:0:0:0:
60,217,374490,1,0,3:0:0:0:
245,230,374661,1,8,0:0:0:0:
254,36,374831,1,2,0:0:0:0:
245,230,375002,5,0,3:0:0:0:
254,36,375172,1,0,3:0:0:0:
245,230,375342,2,0,B|293:242|293:242|358:227,1,95,10|0,0:0|0:0,0:0:0:0:
434,201,375683,1,2,0:0:0:0:
294,140,375854,1,0,3:0:0:0:
293,344,376024,2,0,L|398:321,1,95,10|0,0:0|0:0,0:0:0:0:
196,318,376365,6,0,P|136:331|47:244,1,190,6|8,0:0|0:0,0:0:0:0:
79,154,376877,1,0,0:0:0:0:
146,230,377047,1,2,0:0:0:0:
12,374,377217,1,0,3:0:0:0:
79,154,377388,2,0,P|126:130|195:138,1,95,8|0,0:0|0:0,0:0:0:0:
230,288,377729,5,0,3:0:0:0:
48,250,377899,1,0,3:0:0:0:
230,288,378070,1,8,0:0:0:0:
146,230,378240,1,2,0:0:0:0:
144,244,378325,1,0,1:0:0:0:
142,258,378411,1,2,0:0:0:0:
140,272,378495,1,0,1:0:0:0:
138,286,378581,1,0,3:0:0:0:
237,186,378752,1,10,0:0:0:0:
237,186,379092,6,0,P|349:187|416:242,2,190,2|8|2,3:2|0:0|0:0,0:0:0:0:
146,286,379945,1,0,3:0:0:0:
312,331,380115,1,8,0:0:0:0:
136,184,380286,1,2,0:0:0:0:
79,363,380456,5,0,3:0:0:0:
136,184,380627,1,0,3:0:0:0:
79,363,380797,2,0,B|150:372|150:372|204:358|204:358|266:368,1,190,10|2,0:0|0:0,0:0:0:0:
512,290,381308,2,0,B|451:280|451:280|397:294|397:294|326:285,1,190,2|0,3:2|0:0,0:0:0:0:
138,271,381820,6,0,B|118:162|157:189|135:67,1,190,6|8,0:0|0:0,0:0:0:0:
41,129,382331,1,0,0:0:0:0:
233,219,382502,2,0,P|283:227|349:217,1,95,2|0,0:0|3:0,0:0:0:0:
316,33,382842,2,0,P|270:25|223:29,1,95,8|0,0:0|0:0,0:0:0:0:
138,271,383183,5,0,3:0:0:0:
141,82,383354,1,0,3:0:0:0:
138,271,383524,2,0,L|139:156,1,95,8|0,0:0|0:0,0:0:0:0:
37,222,383865,1,2,0:0:0:0:
240,226,384036,1,0,3:0:0:0:
141,82,384206,1,10,0:0:0:0:
141,82,384547,6,0,B|240:105|230:57|362:88,1,190,2|8,3:2|0:0,0:0:0:0:
382,168,385058,1,0,0:0:0:0:
281,178,385229,1,2,0:0:0:0:
431,79,385399,1,0,3:0:0:0:
432,258,385570,1,8,0:0:0:0:
325,80,385740,1,2,0:0:0:0:
482,169,385911,5,0,3:0:0:0:
331,265,386081,1,0,3:0:0:0:
482,169,386252,1,8,0:0:0:0:
432,258,386422,1,2,0:0:0:0:
432,258,386507,1,0,1:0:0:0:
432,258,386592,1,2,0:0:0:0:
431,79,386763,1,0,3:0:0:0:
257,196,386933,2,0,L|148:187,1,95,8|0,0:0|0:0,0:0:0:0:
352,204,387274,6,0,L|163:188,1,190,6|8,0:0|0:0,0:0:0:0:
62,178,387786,1,0,0:0:0:0:
104,270,387956,1,2,0:0:0:0:
121,95,388127,1,0,3:0:0:0:
4,261,388297,1,8,0:0:0:0:
104,270,388467,1,0,0:0:0:0:
20,86,388638,5,0,3:0:0:0:
52,352,388808,1,0,3:0:0:0:
269,272,388979,2,0,B|285:228|257:182|257:182|216:202|163:188,1,190,8|2,0:0|0:0,0:0:0:0:
223,362,389490,1,0,3:0:0:0:
206,92,389661,1,10,0:0:0:0:
206,92,390002,6,0,P|318:93|385:148,2,190,2|8|2,3:2|0:0|0:0,0:0:0:0:
332,229,390854,1,0,3:0:0:0:
396,21,391024,1,8,0:0:0:0:
432,221,391195,1,2,0:0:0:0:
232,237,391365,5,0,3:0:0:0:
432,221,391536,1,0,3:0:0:0:
232,237,391706,1,10,0:0:0:0:
298,326,391877,1,2,0:0:0:0:
298,326,391962,1,0,1:0:0:0:
298,326,392047,1,2,0:0:0:0:
278,144,392217,1,0,3:0:0:0:
132,239,392388,1,8,0:0:0:0:
332,229,392558,1,8,0:0:0:0:
77,59,392729,6,0,B|35:73|35:73|32:226,1,190,6|8,3:2|0:0,0:0:0:0:
132,239,393240,2,0,L|133:144,1,95
234,153,393581,2,0,L|233:248,1,95,0|8,3:0|0:0,0:0:0:0:
334,257,393922,1,0,0:0:0:0:
132,239,394092,5,0,3:0:0:0:
334,257,394263,1,0,3:0:0:0:
132,239,394433,1,8,0:0:0:0:
184,337,394604,1,2,0:0:0:0:
184,337,394689,1,0,1:0:0:0:
184,337,394774,2,0,L|179:385,1,47.5,2|0,0:0|0:0,0:0:0:0:
72,375,394945,2,0,L|77:327,1,47.5,2|0,3:2|0:0,0:0:0:0:
132,239,395115,1,10,0:0:0:0:
78,320,395286,1,0,0:0:0:0:
29,110,395456,6,0,B|43:68|43:68|188:65,1,190,2|8,3:2|0:0,0:0:0:0:
290,64,395967,1,0,0:0:0:0:
240,151,396138,1,2,0:0:0:0:
188,65,396308,1,0,3:0:0:0:
341,152,396479,1,8,0:0:0:0:
190,238,396649,1,2,0:0:0:0:
395,293,396820,5,0,3:0:0:0:
190,238,396990,1,0,3:0:0:0:
395,293,397161,2,0,B|437:279|437:279|440:134,1,190,8|2,0:0|0:0,0:0:0:0:
290,64,397672,1,0,3:0:0:0:
297,319,397842,1,10,0:0:0:0:
395,293,398013,1,0,0:0:0:0:
224,140,398183,6,0,B|118:116|141:175|35:143,1,190,2|8,3:2|0:0,0:0:0:0:
37,143,398695,1,0,0:0:0:0:
88,51,398865,1,2,0:0:0:0:
174,238,399036,1,0,3:0:0:0:
280,53,399206,2,0,P|236:37|189:33,1,95,8|0,0:0|0:0,0:0:0:0:
319,149,399547,5,0,3:0:0:0:
367,0,399717,1,0,3:0:0:0:
319,149,399888,1,8,0:0:0:0:
411,101,400058,1,2,0:0:0:0:
411,101,400144,1,0,1:0:0:0:
411,101,400229,1,2,0:0:0:0:
281,53,400399,1,0,3:0:0:0:
465,13,400570,1,10,0:0:0:0:
465,13,400911,6,0,P|506:64|473:183,2,190,2|8|2,3:2|0:0|0:0,0:0:0:0:
411,101,401763,1,0,3:0:0:0:
242,26,401933,1,8,0:0:0:0:
127,251,402104,1,2,0:0:0:0:
309,102,402274,5,0,3:0:0:0:
58,176,402445,1,0,3:0:0:0:
225,285,402615,2,0,B|220:222|220:222|186:170|186:170|181:106,1,190,10|2,0:0|0:0,0:0:0:0:
136,346,403127,2,0,L|127:251,1,95,2|2,3:2|0:0,0:0:0:0:
234,384,403467,1,8,0:0:0:0:
416,339,403638,6,0,L|425:132,1,190,2|8,3:2|0:0,0:0:0:0:
318,286,404149,2,0,L|322:191,1,95,0|2,0:0|0:0,0:0:0:0:
220,233,404490,1,0,3:0:0:0:
313,384,404661,1,8,0:0:0:0:
229,332,404831,1,0,0:0:0:0:
322,191,405002,5,0,3:0:0:0:
138,290,405172,1,0,3:0:0:0:
322,191,405342,1,8,0:0:0:0:
318,286,405513,1,2,0:0:0:0:
318,286,405598,1,0,1:0:0:0:
318,286,405683,2,0,B|365:279|365:279|412:239,1,95,2|0,0:0|3:0,0:0:0:0:
243,129,406024,1,10,0:0:0:0:
226,228,406195,1,0,0:0:0:0:
296,38,406365,6,0,B|196:5|212:64|103:36,1,190,2|8,3:2|0:0,0:0:0:0:
34,121,406877,2,0,B|27:162|27:162|42:185|42:185|27:321,1,190,0|0,0:0|3:0,0:0:0:0:
197,306,407388,1,8,0:0:0:0:
133,138,407558,1,2,0:0:0:0:
113,363,407729,5,0,3:0:0:0:
281,250,407899,1,2,3:2:0:0:
113,363,408070,1,8,0:0:0:0:
105,262,408240,1,0,0:0:0:0:
287,352,408411,1,2,0:0:0:0:
190,206,408581,1,0,3:0:0:0:
22,320,408752,1,10,0:0:0:0:
15,218,408922,1,0,0:0:0:0:
197,306,409092,6,0,B|258:263|258:263|386:270,1,190,2|8,3:2|0:0,0:0:0:0:
413,176,409604,2,0,L|224:167,1,190,0|0,0:0|3:0,0:0:0:0:
512,186,410115,1,8,0:0:0:0:
471,93,410286,1,0,0:0:0:0:
454,269,410456,5,0,3:0:0:0:
471,93,410627,1,0,3:0:0:0:
454,269,410797,1,8,0:0:0:0:
413,176,410967,1,0,0:0:0:0:
354,258,411138,1,2,0:0:0:0:
512,186,411308,1,0,3:0:0:0:
313,164,411479,1,10,0:0:0:0:
313,164,411820,6,0,B|274:132|219:141|219:141|176:177|103:157,2,190,6|8|2,3:2|0:0|0:0,0:0:0:0:
249,242,412672,1,0,3:0:0:0:
153,62,412842,1,8,0:0:0:0:
134,163,413013,1,2,0:0:0:0:
313,164,413183,5,0,3:0:0:0:
330,303,413354,1,0,3:0:0:0:
201,241,413524,1,8,0:0:0:0:
138,322,413695,1,0,0:0:0:0:
71,242,413865,1,2,0:0:0:0:
39,339,414036,1,2,3:2:0:0:
138,322,414206,1,8,0:3:0:0:
201,241,414377,1,8,0:3:0:0:
148,156,414547,6,0,B|184:136|220:140|220:140|272:166|344:152,1,170.999994781494,0|8,3:0|0:0,0:0:0:0:
130,76,415059,1,0,1:0:0:0:
109,78,415144,1,0,0:0:0:0:
87,80,415229,1,2,1:2:0:0:
202,228,415399,1,0,3:0:0:0:
288,69,415570,2,0,L|379:61,1,85.4999973907472,8|0,0:0|0:0,0:0:0:0:
484,140,415911,6,0,L|274:160,1,170.999994781494,0|8,3:0|0:0,0:0:0:0:
252,258,416422,1,0,1:0:0:0:
231,262,416507,1,0,0:0:0:0:
210,265,416592,1,2,1:2:0:0:
189,268,416677,1,0,0:0:0:0:
168,271,416762,1,0,3:0:0:0:
82,164,416933,2,0,P|75:221|88:288,1,85.4999973907472,8|0,0:0|0:0,0:0:0:0:
4,123,417274,6,0,L|214:143,1,170.999994781494,0|8,3:0|0:0,0:0:0:0:
299,11,417786,2,0,L|250:16,1,42.7499986953736,0|0,1:0|0:0,0:0:0:0:
289,90,417956,2,0,L|240:95,1,42.7499986953736,2|0,1:2|0:0,0:0:0:0:
371,52,418127,1,0,3:0:0:0:
365,220,418297,2,0,L|352:115,1,85.4999973907472,8|0,0:0|0:0,0:0:0:0:
464,266,418638,6,0,P|388:321|283:289,1,170.999994781494,0|8,3:0|0:0,0:0:0:0:
267,180,419149,1,0,1:0:0:0:
264,158,419234,1,0,0:0:0:0:
261,137,419319,1,2,1:2:0:0:
186,288,419490,1,0,3:0:0:0:
62,188,419661,2,0,P|117:177|179:185,1,85.4999973907472,8|0,0:0|0:0,0:0:0:0:
41,302,420002,6,0,P|38:243|24:117,1,170.999994781494,0|8,3:0|0:0,0:0:0:0:
209,130,420513,1,0,1:0:0:0:
209,130,420598,1,0,0:0:0:0:
209,130,420683,1,2,1:2:0:0:
58,58,420854,1,0,3:0:0:0:
262,65,421024,1,8,0:0:0:0:
157,192,421195,1,0,0:0:0:0:
271,56,421365,6,0,P|213:56|169:61,1,85.4999973907472,0|0,3:0|0:0,0:0:0:0:
148,206,421706,2,0,P|206:206|250:201,1,85.4999973907472,8|0,0:0|1:0,0:0:0:0:
240,200,421962,1,0,0:0:0:0:
247,195,422047,1,0,1:0:0:0:
140,112,422217,1,0,3:0:0:0:
276,310,422388,2,0,P|334:310|378:315,1,85.4999973907472,8|0,0:0|0:0,0:0:0:0:
491,376,422729,6,0,L|469:190,1,170.999994781494,0|8,3:0|0:0,0:0:0:0:
270,102,423241,1,0,1:0:0:0:
270,102,423326,1,0,0:0:0:0:
270,102,423411,1,2,1:2:0:0:
381,229,423581,1,0,3:0:0:0:
471,52,423752,1,8,0:0:0:0:
270,102,423922,2,0,L|336:101,1,42.7499986953736
463,64,424092,6,0,L|282:67,1,170.999994781494,0|8,3:0|0:0,0:0:0:0:
164,128,424604,1,0,1:0:0:0:
168,144,424689,1,0,0:0:0:0:
172,161,424774,1,2,1:2:0:0:
292,161,424945,1,0,3:0:0:0:
62,109,425115,1,8,0:0:0:0:
205,57,425286,1,0,0:0:0:0:
220,240,425456,6,0,P|179:247|135:240,1,85.4999973907472,0|0,3:0|0:0,0:0:0:0:
232,69,425797,1,8,0:0:0:0:
312,194,425967,1,0,1:0:0:0:
320,213,426052,1,0,0:0:0:0:
323,234,426137,1,2,1:2:0:0:
320,255,426222,1,0,0:0:0:0:
311,274,426307,1,0,3:0:0:0:
210,349,426479,2,0,P|208:288|217:242,1,85.4999973907472,8|0,0:0|0:0,0:0:0:0:
313,108,426820,6,0,P|315:169|306:215,1,85.4999973907472,0|0,3:0|0:0,0:0:0:0:
223,43,427161,1,8,0:0:0:0:
226,199,427331,1,0,1:0:0:0:
207,207,427416,1,0,0:0:0:0:
186,210,427501,1,0,1:0:0:0:
165,207,427586,1,0,0:0:0:0:
146,198,427671,1,0,3:0:0:0:
54,100,427842,2,0,P|104:94|148:99,1,85.4999973907472,8|0,0:0|0:0,0:0:0:0:
17,15,428183,6,0,L|37:184,1,170.999994781494,0|8,3:0|0:0,0:0:0:0:
131,320,428695,1,0,1:0:0:0:
152,322,428780,1,0,0:0:0:0:
173,324,428865,1,2,1:2:0:0:
58,231,429036,1,0,3:0:0:0:
196,327,429206,2,0,P|239:309|265:268,1,85.4999973907472,8|0,0:0|0:0,0:0:0:0:
281,236,429462,1,0,0:0:0:0:
290,192,429547,6,0,L|298:365,1,170.999994781494,0|8,3:0|0:0,0:0:0:0:
398,132,430058,1,0,1:0:0:0:
396,153,430144,1,0,0:0:0:0:
395,174,430229,1,2,1:2:0:0:
394,196,430314,1,0,0:0:0:0:
393,217,430399,1,0,3:0:0:0:
324,71,430570,1,8,0:0:0:0:
485,110,430741,1,0,0:0:0:0:
470,300,430911,6,0,P|420:301|375:305,1,85.4999973907472,0|0,3:0|0:0,0:0:0:0:
158,238,431252,2,0,P|208:239|253:243,1,85.4999973907472,8|0,0:0|1:0,0:0:0:0:
250,245,431507,1,0,0:0:0:0:
257,251,431592,1,2,1:2:0:0:
202,382,431763,1,0,3:0:0:0:
89,287,431933,2,0,P|82:210|102:175,1,85.4999973907472,8|0,0:0|0:0,0:0:0:0:
42,83,432274,6,0,P|98:67|152:58,1,85.4999973907472,0|0,3:0|0:0,0:0:0:0:
352,55,432615,1,8,0:0:0:0:
190,141,432786,1,0,1:0:0:0:
211,140,432871,1,0,0:0:0:0:
232,139,432956,1,2,1:2:0:0:
254,138,433041,1,0,0:0:0:0:
275,137,433126,1,0,3:0:0:0:
352,55,433297,1,8,0:0:0:0:
131,59,433467,2,0,L|197:46,1,42.7499986953736
361,50,433638,5,0,3:0:0:0:
101,206,433808,1,0,3:0:0:0:
294,217,433979,1,8,0:0:0:0:
167,132,434149,1,0,1:0:0:0:
171,152,434234,1,0,0:0:0:0:
176,173,434319,1,2,1:2:0:0:
181,194,434404,1,0,0:0:0:0:
186,215,434489,1,0,3:0:0:0:
244,60,434661,5,8,0:0:0:0:
95,201,434831,1,0,0:0:0:0:
264,200,435002,1,2,0:0:0:0:
131,59,435172,5,0,3:0:0:0:
128,288,435342,1,8,0:0:0:0:
278,190,435513,2,0,P|305:180|328:174,1,42.7499986953736,0|0,1:0|0:0,0:0:0:0:
205,138,435683,1,0,1:0:0:0:
185,136,435769,1,0,0:0:0:0:
166,135,435854,1,0,3:0:0:0:
441,99,436024,1,8,0:0:0:0:
128,288,436365,5,0,0:0:0:0:
296,143,439092,6,0,B|260:123|224:127|224:127|172:153|100:139,1,170.999994781494,0|8,3:0|0:0,0:0:0:0:
248,218,439604,1,0,1:0:0:0:
269,220,439689,1,0,0:0:0:0:
291,222,439774,1,2,1:2:0:0:
163,46,439944,1,0,3:0:0:0:
155,231,440115,2,0,L|246:239,1,85.4999973907472,8|0,0:0|0:0,0:0:0:0:
106,321,440456,6,0,P|61:268|93:145,1,170.999994781494,0|8,3:0|0:0,0:0:0:0:
220,238,440967,1,0,1:0:0:0:
241,239,441052,1,0,0:0:0:0:
262,241,441137,1,2,1:2:0:0:
129,127,441308,1,0,3:0:0:0:
340,196,441478,2,0,P|347:253|334:320,1,85.4999973907472,8|0,0:0|0:0,0:0:0:0:
423,141,441820,6,0,L|213:161,1,170.999994781494,0|8,3:0|0:0,0:0:0:0:
158,3,442331,2,0,L|207:8,1,42.7499986953736,0|0,1:0|0:0,0:0:0:0:
168,82,442501,2,0,L|217:87,1,42.7499986953736,0|0,1:0|0:0,0:0:0:0:
86,44,442672,1,0,3:0:0:0:
284,41,442842,2,0,P|350:38|410:43,1,85.4999973907472,8|0,0:0|0:0,0:0:0:0:
512,137,443183,6,0,P|427:143|334:139,1,170.999994781494,0|8,3:0|0:0,0:0:0:0:
192,218,443694,1,0,1:0:0:0:
170,215,443779,1,0,0:0:0:0:
149,212,443864,1,2,1:2:0:0:
86,44,444035,1,0,3:0:0:0:
266,169,444206,2,0,P|277:224|269:286,1,85.4999973907472,8|0,0:0|0:0,0:0:0:0:
341,139,444547,6,0,P|282:136|156:122,1,170.999994781494,0|8,3:0|0:0,0:0:0:0:
341,49,445058,1,0,1:0:0:0:
341,49,445143,1,0,0:0:0:0:
341,49,445228,1,2,1:2:0:0:
356,226,445399,1,0,3:0:0:0:
170,215,445570,2,0,P|217:211|258:220,1,85.4999973907472,8|0,0:0|0:0,0:0:0:0:
400,323,445911,6,0,P|353:327|312:318,1,85.4999973907472,0|0,3:0|0:0,0:0:0:0:
69,256,446251,2,0,P|69:198|74:154,1,85.4999973907472,8|0,0:0|1:0,0:0:0:0:
75,164,446507,1,0,0:0:0:0:
80,157,446592,1,2,1:2:0:0:
197,23,446762,1,0,3:0:0:0:
339,216,446933,2,0,P|281:216|237:221,1,85.4999973907472,8|0,0:0|0:0,0:0:0:0:
202,102,447274,6,0,L|388:124,1,170.999994781494,0|8,0:0|0:0,3:0:0:0:
280,19,447786,1,0,1:0:0:0:
280,19,447871,1,0,0:0:0:0:
280,19,447956,1,2,1:2:0:0:
188,215,448127,1,0,3:0:0:0:
371,122,448297,1,8,0:0:0:0:
202,102,448467,1,0,0:0:0:0:
400,208,448638,6,0,P|399:122|388:31,1,170.999994781494,0|8,3:0|0:0,0:0:0:0:
302,246,449149,1,0,1:0:0:0:
298,262,449234,1,0,0:0:0:0:
294,279,449319,1,2,1:2:0:0:
277,117,449490,1,0,3:0:0:0:
120,182,449661,2,0,P|161:176|203:187,1,85.4999973907472,8|0,0:0|0:0,0:0:0:0:
87,276,450002,6,0,P|88:190|99:99,1,170.999994781494,0|8,3:0|0:0,0:0:0:0:
348,72,450512,1,0,1:0:0:0:
356,91,450597,1,0,0:0:0:0:
359,112,450682,1,0,1:0:0:0:
356,133,450769,1,0,0:0:0:0:
347,152,450854,1,0,3:0:0:0:
253,285,451024,2,0,P|251:224|260:178,1,85.4999973907472,8|0,0:0|0:0,0:0:0:0:
337,344,451365,6,0,P|279:377|161:334,1,170.999994781494,0|8,3:0|0:0,0:0:0:0:
348,251,451877,1,0,1:0:0:0:
369,252,451962,1,0,0:0:0:0:
390,253,452047,1,2,1:2:0:0:
226,186,452217,1,0,3:0:0:0:
348,72,452388,2,0,P|280:67|240:71,1,85.4999973907472,8|0,0:0|0:0,0:0:0:0:
99,148,452729,6,0,L|276:147,1,170.999994781494,0|8,3:0|0:0,0:0:0:0:
348,260,453240,2,0,L|344:204,1,42.7499986953736,0|0,1:0|0:0,0:0:0:0:
433,276,453411,2,0,L|429:220,1,42.7499986953736,0|0,1:0|0:0,0:0:0:0:
396,151,453581,1,0,3:0:0:0:
258,239,453752,2,0,P|207:237|164:240,1,85.4999973907472,8|0,0:0|0:0,0:0:0:0:
41,316,454092,6,0,P|128:323|211:317,1,170.999994781494,0|8,3:0|0:0,0:0:0:0:
90,194,454604,1,0,1:0:0:0:
92,215,454689,1,0,0:0:0:0:
93,236,454774,1,2,1:2:0:0:
215,102,454944,1,0,3:0:0:0:
342,238,455115,2,0,P|286:244|248:236,1,85.4999973907472,8|0,0:0|0:0,0:0:0:0:
419,98,455456,5,0,3:0:0:0:
315,384,455627,1,0,3:0:0:0:
289,157,455797,1,8,0:0:0:0:
466,307,455967,1,0,1:0:0:0:
444,303,456052,1,0,0:0:0:0:
423,302,456138,1,0,1:0:0:0:
402,304,456222,1,0,0:0:0:0:
381,307,456307,1,0,3:0:0:0:
490,189,456479,1,8,0:0:0:0:
284,273,456649,5,0,1:0:0:0:
262,276,456734,1,0,0:0:0:0:
241,277,456819,1,2,1:2:0:0:
320,143,456990,1,0,3:0:0:0:
134,340,457161,1,8,0:0:0:0:
180,199,457332,5,0,1:0:0:0:
158,195,457417,1,0,0:0:0:0:
137,194,457502,1,0,1:0:0:0:
116,196,457587,1,0,0:0:0:0:
95,199,457672,1,0,3:0:0:0:
215,382,457842,1,8,0:0:0:0:
215,382,458183,5,0,0:0:0:0:
380,181,480002,6,0,B|294:184|259:267|259:267|116:266|135:174|135:174|215:211|148:345|148:345|80:306|-1:347,1,683.999979125977,2|0,0:0|0:0,0:0:0:0:
31,189,482388,1,2,0:0:0:0:
31,189,482729,6,0,B|60:134|37:78|37:78|95:110|162:74,1,227.999993041992,2|0,0:0|0:0,0:0:0:0:
198,192,483752,2,0,P|283:83|145:81,1,341.999989562989,2|0,0:0|0:0,0:0:0:0:
74,314,485115,1,2,0:0:0:0:
74,314,485456,6,0,B|108:341|165:349|199:317|225:281|225:281|252:368|357:378|400:309|400:309|430:295|477:314,1,455.999986083985,2|0,0:0|0:0,0:0:0:0:
312,200,487161,1,0,0:0:0:0:
312,200,487331,2,0,L|319:257,1,56.9999982604981
391,144,487672,2,0,L|384:87,1,56.9999982604981
234,59,488013,5,0,0:0:0:0:
233,69,488354,1,0,0:0:0:0:
232,79,488695,2,0,P|310:116|388:85,1,170.999994781494
107,99,490911,6,0,B|162:59|272:39|272:39|229:146|242:244|345:204|345:204|358:73|186:128|134:181,1,683.999979125977,2|0,0:0|0:0,0:0:0:0:
344,204,493297,1,2,0:0:0:0:
344,204,493638,6,0,P|320:273|170:274,1,227.999993041992,2|0,0:0|0:0,0:0:0:0:
20,366,494661,2,0,P|44:297|194:296,1,227.999993041992,2|2,0:0|0:0,0:0:0:0:
33,65,495683,5,2,0:0:0:0:
119,363,496024,1,2,0:0:0:0:
358,162,496365,2,0,B|360:118|364:77|364:77|241:87|229:235|344:278|386:243|413:223|413:223|367:295|354:368|354:368|273:348|275:304|275:304|317:322|363:336|413:333|468:304,1,854.999973907471,2|0,0:0|0:0,0:0:0:0:
466,327,499092,6,0,B|340:386|187:280|187:280|15:271|13:359|13:359|93:389|135:230|71:132,1,797.999975646973,2|0,0:0|0:0,0:0:0:0:
72,133,501820,5,2,0:0:0:0:
172,197,512729,6,0,P|255:187|303:251,1,152,2|0,0:0|0:0,0:0:0:0:
285,314,513240,1,0,0:0:0:0:
222,262,513411,1,2,0:0:0:0:
298,232,513581,1,0,0:0:0:0:
208,344,513752,2,0,P|172:328|147:296,1,76
61,196,514092,6,0,L|68:271,1,76,2|0,0:0|0:0,0:0:0:0:
150,300,514433,2,0,L|135:145,1,152,0|2,0:0|0:0,0:0:0:0:
61,196,514945,1,0,0:0:0:0:
135,148,515115,2,0,L|127:72,1,76
52,80,515456,6,0,L|127:72,1,76,2|0,0:0|0:0,0:0:0:0:
209,67,515797,1,0,0:0:0:0:
267,139,515967,1,0,0:0:0:0:
267,139,516053,1,0,0:0:0:0:
267,139,516138,2,0,L|265:227,1,76,2|0,0:0|0:0,0:0:0:0:
264,297,516479,1,0,0:0:0:0:
209,358,516649,1,0,0:0:0:0:
209,358,516734,1,0,0:0:0:0:
209,358,516820,6,0,B|243:376|243:376|294:377,2,76,2|0|0,0:0|0:0|0:0,0:0:0:0:
349,330,517331,1,0,0:0:0:0:
349,330,517416,1,0,0:0:0:0:
349,330,517502,1,2,0:0:0:0:
264,297,517672,1,0,0:0:0:0:
411,273,517842,2,0,B|429:307|429:307|430:345,1,76
512,350,518183,6,0,L|510:286,2,38,2|0|0,0:0|0:0|0:0,0:0:0:0:
509,230,518524,1,0,0:0:0:0:
437,191,518695,1,0,0:0:0:0:
430,189,518780,1,0,0:0:0:0:
423,187,518865,1,2,0:0:0:0:
416,185,518950,1,0,0:0:0:0:
409,183,519036,1,0,0:0:0:0:
505,148,519206,1,0,0:0:0:0:
425,79,519377,2,0,L|387:71,1,38
361,86,519547,6,0,L|434:104,1,76,2|0,0:0|0:0,0:0:0:0:
298,142,519888,1,0,0:0:0:0:
247,50,520058,2,0,L|283:58,1,38
361,86,520229,1,2,0:0:0:0:
178,136,520399,2,0,L|215:128,1,38
361,86,520570,1,0,0:0:0:0:
337,246,520740,5,0,0:0:0:0:
335,254,521081,1,0,0:0:0:0:
209,252,521422,2,0,P|267:294|332:261,1,152
61,91,522274,5,0,0:0:0:0:
56,81,522615,1,0,0:0:0:0:
51,71,522956,1,0,0:0:0:0:
326,239,523297,2,0,P|290:202|204:211,1,114,8|0,0:0|0:0,0:0:0:0:
221,204,523638,6,0,P|266:129|459:138,1,265.999991882324,4|8,0:1|0:0,0:0:0:0:
503,223,524149,5,0,1:0:0:0:
470,208,524234,1,2,0:0:0:0:
446,182,524320,1,0,1:0:0:0:
432,150,524405,1,2,0:0:0:0:
430,114,524490,1,0,3:0:0:0:
451,304,524661,2,0,P|406:319|341:300,1,95,8|0,0:0|0:0,0:0:0:0:
223,202,525002,5,0,3:0:0:0:
265,324,525172,1,0,0:0:0:0:
300,142,525342,1,8,0:0:0:0:
134,163,525513,1,0,1:0:0:0:
126,198,525598,1,2,0:0:0:0:
131,233,525683,1,0,1:0:0:0:
148,264,525769,1,2,0:0:0:0:
175,286,525854,1,0,3:0:0:0:
211,103,526024,1,8,0:0:0:0:
134,163,526195,1,0,0:0:0:0:
394,130,526365,6,0,L|299:141,1,95,0|0,3:0|0:0,0:0:0:0:
134,163,526706,1,8,0:0:0:0:
205,55,526877,2,0,L|210:102,1,47.5,0|2,1:0|0:0,0:0:0:0:
228,245,527047,2,0,L|223:198,1,47.5,0|2,1:0|0:0,0:0:0:0:
299,141,527217,1,0,3:0:0:0:
314,292,527388,1,8,0:0:0:0:
451,209,527558,1,0,0:0:0:0:
134,163,527729,5,2,3:2:0:0:
210,102,527899,1,0,0:0:0:0:
360,217,528070,5,10,0:0:0:0:
299,141,528240,1,0,0:0:0:0:
147,259,528411,5,2,0:0:0:0:
223,198,528581,1,0,3:0:0:0:
360,336,528752,5,10,0:0:0:0:
284,275,528922,1,0,0:0:0:0:
448,123,529092,6,0,B|475:173|475:173|460:308,1,190,0|8,3:0|0:0,0:0:0:0:
359,336,529604,1,0,1:0:0:0:
363,300,529689,1,2,0:0:0:0:
367,265,529774,1,0,1:0:0:0:
371,229,529859,1,2,0:0:0:0:
375,194,529945,1,0,3:0:0:0:
318,30,530115,2,0,L|308:125,1,95,8|0,0:0|0:0,0:0:0:0:
127,31,530456,6,0,P|173:25|218:42,1,95,0|0,3:0|0:0,0:0:0:0:
152,212,530797,2,0,P|146:166|163:122,1,95,8|0,0:0|1:0,0:0:0:0:
163,121,531053,1,2,0:0:0:0:
163,121,531138,1,0,1:0:0:0:
266,126,531308,1,0,3:0:0:0:
187,303,531479,2,0,P|141:309|97:293,1,95,8|0,0:0|0:0,0:0:0:0:
363,287,531820,6,0,L|358:381,1,95,0|0,3:0|0:0,0:0:0:0:
296,217,532161,1,8,0:0:0:0:
448,237,532331,1,0,1:0:0:0:
448,237,532416,1,2,0:0:0:0:
448,237,532502,2,0,L|524:241,1,47.5,0|2,1:0|0:0,0:0:0:0:
375,160,532672,1,0,3:0:0:0:
358,381,532842,1,8,0:0:0:0:
363,287,533013,1,0,0:0:0:0:
90,355,533183,5,2,3:2:0:0:
183,333,533354,1,0,0:0:0:0:
298,216,533524,5,10,0:0:0:0:
205,238,533695,1,0,0:0:0:0:
58,178,533865,5,2,0:0:0:0:
151,156,534036,1,0,3:0:0:0:
276,43,534206,5,10,0:0:0:0:
183,65,534377,1,0,0:0:0:0:
298,216,534547,6,0,B|399:241|372:170|481:209,1,190,0|8,3:0|0:0,0:0:0:0:
336,124,535058,1,0,1:0:0:0:
369,109,535144,1,2,0:0:0:0:
404,101,535229,1,0,1:0:0:0:
439,100,535314,1,2,0:0:0:0:
474,105,535399,1,0,3:0:0:0:
430,295,535570,2,0,P|366:316|299:312,1,95,8|0,0:0|0:0,0:0:0:0:
132,301,535911,5,0,3:0:0:0:
191,223,536081,1,0,0:0:0:0:
202,370,536252,1,8,0:0:0:0:
49,352,536422,1,0,1:0:0:0:
49,352,536507,1,2,0:0:0:0:
49,352,536592,1,0,1:0:0:0:
261,292,536763,1,0,3:0:0:0:
200,128,536933,2,0,L|190:222,1,95,8|0,0:0|0:0,0:0:0:0:
190,33,537274,6,0,B|201:126|201:126|191:221,1,190,0|8,3:0|0:0,0:0:0:0:
298,129,537786,1,0,1:0:0:0:
333,131,537871,1,2,0:0:0:0:
369,133,537956,1,0,1:0:0:0:
404,135,538041,1,2,0:0:0:0:
440,137,538127,1,0,3:0:0:0:
355,295,538297,2,0,L|260:291,1,95,8|0,0:0|0:0,0:0:0:0:
38,284,538638,5,2,3:2:0:0:
131,312,538808,1,0,0:0:0:0:
277,203,538979,5,10,0:0:0:0:
184,231,539149,1,0,0:0:0:0:
38,122,539320,5,2,0:0:0:0:
131,150,539490,1,0,3:0:0:0:
277,41,539661,5,10,0:0:0:0:
184,69,539831,1,0,0:0:0:0:
260,291,540002,6,0,B|311:314|311:314|381:309|433:247,1,190,0|8,3:0|0:0,0:0:0:0:
378,90,540513,1,0,1:0:0:0:
351,113,540598,1,2,0:0:0:0:
332,143,540683,1,0,1:0:0:0:
322,177,540769,1,2,0:0:0:0:
323,212,540854,1,0,3:0:0:0:
269,38,541024,2,0,P|222:42|184:69,1,95,8|0,0:0|0:0,0:0:0:0:
154,266,541365,6,0,L|147:154,1,95,0|0,3:0|0:0,0:0:0:0:
69,209,541621,1,0,0:0:0:0:
70,226,541706,1,8,0:0:0:0:
233,227,541877,1,0,1:0:0:0:
232,210,541962,1,2,0:0:0:0:
231,193,542047,1,0,1:0:0:0:
147,89,542217,1,0,3:0:0:0:
154,349,542388,1,8,0:0:0:0:
233,227,542558,1,0,0:0:0:0:
69,115,542729,5,8,3:0:0:0:
56,110,543070,6,0,P|151:89|277:114,1,190,8|0,0:0|1:0,0:0:0:0:
312,140,543496,1,2,0:0:0:0:
325,151,543581,1,0,3:0:0:0:
382,2,543752,2,0,P|340:24|308:60,1,95,8|0,0:0|0:0,0:0:0:0:
241,183,544092,5,0,3:0:0:0:
454,142,544263,6,0,L|408:151,1,47.5
241,183,544433,1,8,0:0:0:0:
452,340,544604,5,0,1:0:0:0:
452,317,544689,1,2,0:0:0:0:
451,293,544774,1,0,1:0:0:0:
450,269,544859,1,2,0:0:0:0:
450,246,544945,86,0,L|405:233,1,47.5,0|2,3:0|0:0,0:0:0:0:
241,183,545115,1,8,0:0:0:0:
241,183,545456,21,4,0:1:0:0:
241,183,545797,6,0,L|227:53,1,95,8|2,0:0|0:0,0:0:0:0:
230,78,546053,1,0,0:0:0:0:
229,68,546138,1,2,0:0:0:0:
327,239,546308,1,0,3:0:0:0:
144,212,546479,2,0,L|130:82,1,95,8|0,0:0|0:0,0:0:0:0:
327,239,546820,6,0,B|332:147|332:147|343:132|343:132|350:26,1,190,0|8,3:0|0:0,0:0:0:0:
246,94,547331,1,2,0:0:0:0:
246,83,547416,1,0,0:0:0:0:
247,73,547502,1,2,0:0:0:0:
247,63,547587,1,0,0:0:0:0:
248,53,547673,1,0,3:0:0:0:
448,128,547842,2,0,L|453:33,1,95,8|0,0:0|0:0,0:0:0:0:
449,230,548183,6,0,L|454:324,1,95,0|0,3:0|0:0,0:0:0:0:
362,179,548524,1,8,0:0:0:0:
311,267,548695,1,2,0:0:0:0:
312,277,548781,1,0,0:0:0:0:
312,287,548866,1,2,0:0:0:0:
313,297,548950,1,0,0:0:0:0:
313,308,549037,1,0,3:0:0:0:
217,206,549206,2,0,L|212:300,1,95,8|0,0:0|0:0,0:0:0:0:
12,229,549547,6,0,L|7:323,1,95,0|0,3:0|0:0,0:0:0:0:
95,170,549888,1,8,0:0:0:0:
107,271,550058,1,2,0:0:0:0:
106,281,550144,1,0,0:0:0:0:
106,291,550229,1,2,0:0:0:0:
105,301,550315,1,0,0:0:0:0:
105,312,550400,1,0,3:0:0:0:
217,206,550570,2,0,L|212:300,1,95,8|0,0:0|0:0,0:0:0:0:
439,212,550911,6,0,L|449:9,1,190,0|8,3:0|0:0,0:0:0:0:
344,126,551422,1,2,0:0:0:0:
344,115,551507,1,0,0:0:0:0:
345,105,551593,1,2,0:0:0:0:
345,95,551678,1,0,0:0:0:0:
346,85,551764,1,0,3:0:0:0:
163,132,551933,2,0,L|158:38,1,95,8|0,0:0|0:0,0:0:0:0:
256,269,552274,6,0,L|256:174,1,95,0|0,3:0|0:0,0:0:0:0:
62,213,552615,2,0,L|51:10,1,190,8|2,0:0|0:0,0:0:0:0:
157,258,553127,1,0,3:0:0:0:
357,167,553297,2,0,L|362:73,1,95,8|0,0:0|0:0,0:0:0:0:
456,171,553638,6,0,B|460:245|460:245|449:286|449:286|454:369,1,190,0|8,3:0|0:0,0:0:0:0:
357,216,554149,1,2,0:0:0:0:
358,226,554235,1,0,0:0:0:0:
358,236,554320,1,2,0:0:0:0:
248,134,554490,1,0,3:0:0:0:
60,208,554661,2,0,L|55:302,1,95,8|0,0:0|0:0,0:0:0:0:
156,176,555002,6,0,L|151:270,1,95,0|0,3:0|0:0,0:0:0:0:
66,106,555342,1,8,0:0:0:0:
256,220,555513,1,2,0:0:0:0:
256,232,555599,1,0,0:0:0:0:
256,244,555683,1,2,0:0:0:0:
256,118,555854,1,0,3:0:0:0:
256,336,556024,5,8,0:0:0:0:
256,348,556110,1,0,3:0:0:0:
256,16,556280,1,0,3:0:0:0:
256,4,556365,1,0,3:0:0:0:
117,206,556706,6,0,L|103:76,1,95,8|2,0:0|0:0,0:0:0:0:
106,101,556962,1,0,0:0:0:0:
105,91,557047,1,2,0:0:0:0:
214,235,557217,1,0,3:0:0:0:
396,127,557388,2,0,L|401:33,1,95,8|0,0:0|0:0,0:0:0:0:
491,234,557729,6,0,L|501:31,2,190,0|8|2,3:0|0:0|0:0,0:0:0:0:
401,25,558581,1,0,3:0:0:0:
390,221,558752,2,0,L|395:127,1,95,8|0,0:0|0:0,0:0:0:0:
122,133,559092,6,0,B|118:207|118:207|129:248|129:248|124:331,1,190,0|8,3:0|0:0,0:0:0:0:
27,260,559604,2,0,L|22:354,1,95,0|2,0:0|0:0,0:0:0:0:
226,267,559945,2,0,L|221:361,1,95,0|8,3:0|0:0,0:0:0:0:
310,209,560286,1,0,0:0:0:0:
156,194,560456,5,0,3:0:0:0:
318,310,560626,1,2,0:0:0:0:
319,320,560712,1,0,0:0:0:0:
319,330,560797,1,8,0:0:0:0:
410,213,560967,1,2,0:0:0:0:
411,223,561053,1,0,0:0:0:0:
411,233,561138,2,0,L|415:314,1,47.5,2|0,0:0|0:0,0:0:0:0:
510,302,561308,2,0,L|514:383,1,47.5,2|0,3:2|0:0,0:0:0:0:
419,382,561479,1,8,0:0:0:0:
102,248,561820,6,0,B|97:156|97:156|86:141|86:141|79:35,1,190,0|8,3:0|0:0,0:0:0:0:
184,102,562331,1,2,0:0:0:0:
184,92,562416,1,0,0:0:0:0:
183,82,562502,1,2,0:0:0:0:
227,193,562672,1,0,3:0:0:0:
438,137,562842,2,0,L|443:43,1,95,8|0,0:0|0:0,0:0:0:0:
324,220,563183,6,0,B|329:128|329:128|340:113|340:113|347:7,2,190,0|8|2,3:0|0:0|0:0,0:0:0:0:
244,70,564036,1,0,3:0:0:0:
421,261,564206,2,0,L|426:167,1,95,8|0,0:0|0:0,0:0:0:0:
179,173,564547,6,0,B|175:247|175:247|186:288|186:288|181:371,1,190,0|8,3:0|0:0,0:0:0:0:
85,301,565058,1,2,0:0:0:0:
84,311,565144,1,0,0:0:0:0:
84,321,565229,1,2,0:0:0:0:
83,331,565315,1,0,0:0:0:0:
83,342,565400,1,0,3:0:0:0:
291,251,565570,2,0,L|296:345,1,95,8|0,0:0|0:0,0:0:0:0:
389,180,565911,6,0,L|394:274,1,95,0|0,3:0|0:0,0:0:0:0:
291,251,566252,6,0,L|225:380,1,142.5,8|0,0:0|0:0,0:0:0:0:
207,243,566592,6,0,L|85:322,1,142.5,0|0,3:0|0:0,0:0:0:0:
144,189,566933,6,0,L|-1:196,1,142.5,8|0,0:0|0:0,0:0:0:0:
117,112,567274,5,4,0:1:0:0:
116,111,567615,6,0,B|182:106|182:106|234:123|234:123|303:118,1,190,8|2,0:0|0:0,0:0:0:0:
246,20,568127,1,0,3:0:0:0:
404,110,568297,2,0,L|498:103,1,95,8|0,0:0|0:0,0:0:0:0:
287,260,568638,6,0,L|497:275,1,190,0|8,3:0|0:0,0:0:0:0:
337,365,569149,1,2,0:0:0:0:
348,366,569234,1,0,0:0:0:0:
360,367,569319,1,2,0:0:0:0:
372,368,569404,1,0,0:0:0:0:
384,369,569489,1,0,3:0:0:0:
409,154,569661,2,0,L|503:147,1,95,8|0,0:0|0:0,0:0:0:0:
203,128,570002,6,0,B|111:121|111:121|96:110|96:110|-9:101,1,190,0|8,3:0|0:0,0:0:0:0:
215,28,570513,1,2,0:0:0:0:
204,27,570598,1,0,0:0:0:0:
192,26,570683,1,2,0:0:0:0:
180,25,570768,1,0,0:0:0:0:
168,24,570853,1,0,3:0:0:0:
213,238,571024,2,0,L|119:245,1,95,8|0,0:0|0:0,0:0:0:0:
248,337,571365,6,0,L|154:344,1,95,0|0,3:0|0:0,0:0:0:0:
308,231,571706,2,0,L|214:238,1,95,8|2,0:0|0:0,0:0:0:0:
201,239,571962,1,0,0:0:0:0:
189,240,572047,1,2,0:0:0:0:
348,328,572217,1,0,3:0:0:0:
153,344,572388,2,0,L|59:351,1,95,8|0,0:0|0:0,0:0:0:0:
308,231,572729,6,0,L|518:246,1,190,0|8,3:0|0:0,0:0:0:0:
374,339,573240,1,2,0:0:0:0:
385,340,573325,1,0,0:0:0:0:
397,341,573410,1,2,0:0:0:0:
273,329,573581,1,0,3:0:0:0:
397,341,573752,2,0,L|491:348,1,95,8|0,0:0|0:0,0:0:0:0:
311,135,574092,6,0,L|521:119,2,190,0|8|2,3:0|0:0|0:0,0:0:0:0:
488,20,574945,1,0,3:0:0:0:
294,34,575115,2,0,L|388:27,1,95,8|0,0:0|0:0,0:0:0:0:
211,277,575456,6,0,B|119:283|119:283|104:294|104:294|-1:303,1,190,0|8,3:0|0:0,0:0:0:0:
67,197,575968,1,2,0:0:0:0:
56,198,576053,1,0,0:0:0:0:
44,199,576138,1,2,0:0:0:0:
32,200,576223,1,0,0:0:0:0:
20,201,576308,1,0,3:0:0:0:
250,374,576479,2,0,L|156:381,1,95,8|0,0:0|0:0,0:0:0:0:
243,147,576820,6,0,L|149:140,1,95,0|0,3:0|0:0,0:0:0:0:
273,50,577161,2,0,L|179:43,1,95,8|2,0:0|0:0,0:0:0:0:
167,41,577416,1,0,0:0:0:0:
155,40,577501,1,2,0:0:0:0:
143,39,577586,1,0,0:0:0:0:
131,38,577671,1,0,3:0:0:0:
336,192,577842,5,8,0:0:0:0:
348,192,577927,1,0,3:0:0:0:
176,192,578098,1,0,3:0:0:0:
164,192,578183,1,0,3:0:0:0:
164,192,578524,6,0,B|230:191|230:191|280:212|280:212|350:212,1,190,8|2,0:0|0:0,0:0:0:0:
500,212,579036,1,0,3:0:0:0:
389,306,579206,2,0,L|483:313,1,95,8|0,0:0|0:0,0:0:0:0:
303,110,579547,6,0,B|395:104|395:104|410:93|410:93|515:84,1,190,0|8,3:0|0:0,0:0:0:0:
336,7,580058,1,2,0:0:0:0:
348,6,580143,1,0,0:0:0:0:
360,5,580228,1,2,0:0:0:0:
458,190,580399,1,0,3:0:0:0:
208,117,580570,2,0,L|302:110,1,95,8|0,0:0|0:0,0:0:0:0:
191,253,580911,6,0,L|-19:269,2,190,0|8|2,3:0|0:0|0:0,0:0:0:0:
342,237,581763,1,0,3:0:0:0:
158,358,581933,2,0,L|64:365,1,95,8|0,0:0|0:0,0:0:0:0:
157,156,582274,6,0,L|63:149,1,95,0|0,3:0|0:0,0:0:0:0:
259,165,582615,1,8,0:0:0:0:
150,49,582786,1,2,0:0:0:0:
139,48,582871,1,0,0:0:0:0:
127,47,582956,1,2,0:0:0:0:
115,46,583041,1,0,0:0:0:0:
103,45,583126,1,0,3:0:0:0:
140,253,583297,2,0,L|46:260,1,95,8|0,0:0|0:0,0:0:0:0:
319,255,583638,6,0,L|413:262,1,95,0|0,3:0|0:0,0:0:0:0:
319,129,583979,2,0,L|413:122,1,95,8|2,0:0|0:0,0:0:0:0:
413,262,584320,2,0,L|507:269,1,95,2|0,0:0|3:0,0:0:0:0:
413,121,584661,2,0,L|507:114,1,95,8|0,0:0|0:0,0:0:0:0:
263,36,585002,6,0,B|355:30|355:30|370:19|370:19|475:10,2,190,0|8|2,3:0|0:0|0:0,0:0:0:0:
413,121,585854,1,0,3:0:0:0:
219,141,586024,2,0,L|313:134,1,95,8|0,0:0|0:0,0:0:0:0:
212,327,586365,6,0,L|2:343,1,190,0|8,3:0|0:0,0:0:0:0:
134,232,586877,1,2,0:0:0:0:
123,233,586962,1,0,0:0:0:0:
111,234,587047,1,2,0:0:0:0:
234,222,587217,1,0,3:0:0:0:
142,131,587388,5,8,3:2:0:0:
131,130,587473,1,0,3:0:0:0:
119,129,587558,1,0,3:0:0:0:
107,128,587643,1,0,3:0:0:0:
95,127,587729,5,8,0:3:0:0:
97,103,587814,1,8,0:3:0:0:
99,79,587899,1,8,0:3:0:0:
101,56,587984,1,8,0:3:0:0:
103,32,588070,5,4,0:3:0:0:
133,13,588155,1,4,0:3:0:0:
168,7,588240,1,4,0:3:0:0:
202,13,588325,1,4,0:3:0:0:
233,31,588410,1,4,0:3:0:0:
263,49,588496,1,4,0:3:0:0:
298,55,588581,1,4,0:3:0:0:
332,49,588666,1,4,0:3:0:0:
363,31,588752,5,2,0:3:0:0:
360,78,588837,1,2,0:3:0:0:
379,121,588922,1,2,0:3:0:0:
415,151,589007,1,2,0:3:0:0:
461,162,589092,1,4,0:0:0:0:
460,60,589263,5,0,3:0:0:0:
285,155,589433,1,8,0:0:0:0:
361,221,589604,1,0,0:0:0:0:
379,121,589774,1,2,0:0:0:0:
265,255,589945,1,0,3:0:0:0:
456,188,590115,1,8,0:0:0:0:
379,121,590286,1,0,0:0:0:0:
343,321,590456,5,0,3:0:0:0:
379,121,590627,1,0,3:0:0:0:
343,321,590797,1,8,0:0:0:0:
438,288,590967,1,0,0:0:0:0:
361,221,591138,1,2,0:0:0:0:
248,354,591308,1,0,3:0:0:0:
190,189,591479,1,8,0:0:0:0:
267,254,591649,1,0,0:0:0:0:
95,224,591820,5,0,3:0:0:0:
285,154,591990,1,0,3:0:0:0:
0,259,592161,5,8,0:0:0:0:
190,189,592331,1,0,0:0:0:0:
95,224,592502,5,2,0:0:0:0:
285,154,592672,1,0,3:0:0:0:
0,259,592842,5,8,0:0:0:0:
190,189,593012,1,0,0:0:0:0:
131,318,593183,5,0,3:0:0:0:
61,128,593353,1,0,3:0:0:0:
190,189,593524,1,8,0:0:0:0:
95,224,593695,1,0,0:0:0:0:
0,259,593865,1,2,0:0:0:0:
61,128,594036,5,0,3:0:0:0:
131,318,594206,1,8,0:0:0:0:
131,318,594547,5,0,3:0:0:0:
286,271,594717,1,0,3:0:0:0:
131,318,594888,1,8,0:0:0:0:
226,353,595058,1,0,0:0:0:0:
192,236,595229,1,2,0:0:0:0:
34,345,595399,1,0,3:0:0:0:
286,271,595570,1,8,0:0:0:0:
192,236,595740,1,0,0:0:0:0:
226,353,595911,5,0,3:0:0:0:
346,189,596081,1,0,3:0:0:0:
226,353,596252,1,8,0:0:0:0:
326,364,596422,1,0,0:0:0:0:
286,271,596592,1,2,0:0:0:0:
126,342,596763,1,0,3:0:0:0:
246,178,596933,1,8,0:0:0:0:
185,260,597104,1,0,0:0:0:0:
386,282,597274,5,0,3:0:0:0:
307,96,597445,1,0,3:0:0:0:
487,293,597615,5,8,0:0:0:0:
408,107,597786,1,0,0:0:0:0:
346,189,597956,5,2,0:0:0:0:
425,3,598127,1,0,3:0:0:0:
446,200,598297,5,8,0:0:0:0:
502,68,598468,1,0,0:0:0:0:
307,96,598638,5,0,3:0:0:0:
446,200,598808,1,0,3:0:0:0:
307,96,598979,1,8,0:0:0:0:
246,177,599149,1,0,0:0:0:0:
185,258,599320,1,2,0:0:0:0:
346,189,599490,1,0,3:0:0:0:
146,165,599661,1,8,0:0:0:0:
224,351,599831,1,0,0:0:0:0:
307,96,600002,5,0,3:0:0:0:
385,282,600172,1,0,3:0:0:0:
307,96,600342,1,8,0:0:0:0:
246,177,600513,1,0,0:0:0:0:
346,189,600683,1,2,0:0:0:0:
307,96,600854,1,0,3:0:0:0:
185,258,601024,1,8,0:0:0:0:
286,271,601195,1,0,0:0:0:0:
206,83,601365,5,0,3:0:0:0:
408,109,601536,1,0,3:0:0:0:
206,83,601706,1,8,0:0:0:0:
268,3,601877,1,0,0:0:0:0:
307,96,602047,1,2,0:0:0:0:
105,70,602217,1,0,3:0:0:0:
368,15,602388,1,8,0:0:0:0:
346,189,602558,1,0,0:0:0:0:
268,3,602729,5,0,3:0:0:0:
408,109,602899,1,0,3:0:0:0:
206,83,603070,5,8,0:0:0:0:
346,189,603240,1,0,0:0:0:0:
146,165,603411,5,2,0:0:0:0:
286,271,603581,1,0,3:0:0:0:
86,247,603752,5,8,0:0:0:0:
226,353,603922,1,0,0:0:0:0:
206,83,604092,5,0,3:0:0:0:
286,271,604263,1,0,3:0:0:0:
146,165,604433,1,8,0:0:0:0:
246,177,604604,1,0,0:0:0:0:
346,189,604774,1,2,0:0:0:0:
226,353,604945,5,0,3:0:0:0:
146,165,605115,1,8,0:0:0:0:
146,165,605456,5,0,3:0:0:0:
26,329,605627,1,0,3:0:0:0:
146,165,605797,1,8,0:0:0:0:
185,258,605967,1,0,0:0:0:0:
86,247,606138,1,2,0:0:0:0:
206,83,606308,1,0,3:0:0:0:
286,271,606479,1,8,0:0:0:0:
246,177,606649,1,0,0:0:0:0:
124,339,606820,5,0,3:0:0:0:
48,155,606990,1,0,3:0:0:0:
124,339,607161,1,8,0:0:0:0:
185,258,607331,1,0,0:0:0:0:
86,247,607502,1,2,0:0:0:0:
226,353,607672,1,0,3:0:0:0:
246,177,607842,1,8,0:0:0:0:
146,165,608013,1,0,0:0:0:0:
286,271,608183,5,0,3:0:0:0:
307,96,608354,1,0,3:0:0:0:
286,271,608524,1,8,0:0:0:0:
246,177,608695,1,2,0:0:0:0:
246,177,608780,1,2,0:0:0:0:
246,177,608865,1,2,0:0:0:0:
226,353,609036,1,0,3:0:0:0:
146,165,609206,1,8,0:0:0:0:
86,247,609377,1,2,0:0:0:0:
86,247,609462,1,2,0:0:0:0:
86,247,609547,5,2,3:2:0:0:
284,269,609717,1,0,3:0:0:0:
206,83,609888,1,8,0:0:0:0:
146,165,610058,1,2,0:0:0:0:
146,165,610144,1,2,0:0:0:0:
146,165,610229,5,2,3:2:0:0:
177,180,610314,1,0,3:2:0:0:
213,183,610399,1,0,3:2:0:0:
247,175,610484,1,0,3:2:0:0:
276,154,610569,1,8,3:2:0:0:
297,125,610655,1,0,3:2:0:0:
306,91,610740,1,0,3:2:0:0:
302,56,610825,1,0,3:2:0:0:
287,24,610910,5,0,3:0:0:0:
206,83,611081,1,0,3:0:0:0:
404,66,611252,1,8,0:0:0:0:
206,83,611422,2,0,B|169:79|133:96|133:96|144:150|144:150|133:229,1,190,0|0,0:0|3:0,0:0:0:0:
27,272,611848,1,0,3:0:0:0:
23,268,611933,2,0,L|37:174,1,95,8|0,0:0|0:0,0:0:0:0:
85,346,612274,5,0,3:0:0:0:
242,178,612445,1,0,3:0:0:0:
367,273,612615,2,0,B|303:264|303:264|257:283|257:283|175:267,1,190,8|2,0:0|0:0,0:0:0:0:
320,372,613127,1,0,3:0:0:0:
320,372,613212,1,0,3:0:0:0:
320,372,613297,2,0,L|414:384,1,95,8|0,0:0|0:0,0:0:0:0:
242,178,613638,5,0,3:0:0:0:
124,351,613808,1,0,3:0:0:0:
242,178,613979,1,8,0:0:0:0:
52,185,614149,2,0,B|48:222|65:258|65:258|119:247|119:247|198:258,1,190,0|0,0:0|3:0,0:0:0:0:
222,361,614575,1,0,3:0:0:0:
218,365,614661,2,0,L|124:351,1,95,8|0,0:0|0:0,0:0:0:0:
175,156,615002,5,0,3:0:0:0:
313,311,615172,1,0,3:0:0:0:
460,176,615342,2,0,B|396:167|396:167|350:186|350:186|276:172,1,190,8|2,0:0|0:0,0:0:0:0:
414,278,615854,1,0,3:0:0:0:
414,278,615939,1,0,3:0:0:0:
414,278,616024,2,0,L|508:288,1,95,8|0,0:0|0:0,0:0:0:0:
337,82,616365,5,0,3:0:0:0:
512,50,616536,1,0,3:0:0:0:
337,82,616706,1,8,0:0:0:0:
512,169,616877,2,0,P|416:162|334:205,1,190,0|0,0:0|3:0,0:0:0:0:
280,290,617303,1,0,3:0:0:0:
276,294,617388,2,0,P|228:306|153:285,1,95,8|0,0:0|0:0,0:0:0:0:
89,109,617729,5,0,3:0:0:0:
223,205,617899,1,0,3:0:0:0:
11,351,618070,2,0,B|-3:276|-3:276|15:230|15:230|6:166,1,190,8|2,0:0|0:0,0:0:0:0:
107,297,618581,1,0,3:0:0:0:
107,297,618666,1,0,3:0:0:0:
107,297,618752,1,8,0:0:0:0:
11,351,618922,1,0,0:0:0:0:
76,95,619092,6,0,B|120:77|120:77|185:102,2,95,2|0|8,3:2|3:0|0:0,0:0:0:0:
252,145,619604,2,0,B|300:163|300:163|460:143,1,190,2|0,0:0|3:0,0:0:0:0:
164,194,620115,2,0,B|146:242|146:242|166:402,1,190,10|0,0:0|3:0,0:0:0:0:
249,254,620627,5,0,3:0:0:0:
51,284,620797,1,8,0:0:0:0:
154,311,620967,1,2,0:0:0:0:
153,300,621053,1,0,0:0:0:0:
152,289,621138,1,2,0:0:0:0:
151,278,621223,1,0,0:0:0:0:
150,267,621308,2,0,L|147:194,2,47.5,0|0|8,3:0|3:0|0:0,0:0:0:0:
467,109,621820,5,0,3:0:0:0:
474,275,621990,1,0,3:0:0:0:
467,109,622161,1,8,0:0:0:0:
285,123,622331,2,0,B|281:160|298:196|298:196|352:185|352:185|412:194,1,190,0|0,0:0|3:0,0:0:0:0:
474,275,622757,1,0,3:0:0:0:
474,275,622842,1,8,0:0:0:0:
404,347,623013,1,0,0:0:0:0:
467,109,623183,5,0,3:0:0:0:
285,123,623354,1,0,3:0:0:0:
419,22,623524,2,0,B|345:37|345:37|299:18|299:18|235:27,1,190,8|2,0:0|0:0,0:0:0:0:
92,40,624036,1,0,2:0:0:0:
92,40,624121,1,0,2:0:0:0:
92,40,624206,1,8,0:0:0:0:
170,105,624377,1,0,0:0:0:0:
2,91,624547,5,0,3:0:0:0:
235,27,624717,1,0,3:0:0:0:
2,91,624888,1,8,0:0:0:0:
168,216,625058,2,0,P|59:210|12:272,1,190,0|0,0:0|3:0,0:0:0:0:
109,298,625484,1,0,3:0:0:0:
113,302,625570,2,0,P|161:317|228:299,1,95,8|0,0:0|0:0,0:0:0:0:
236,142,625911,5,0,3:0:0:0:
13,267,626081,1,0,3:0:0:0:
274,236,626252,1,8,0:0:0:0:
236,142,626422,1,2,0:0:0:0:
235,131,626508,1,0,0:0:0:0:
234,120,626593,1,2,0:0:0:0:
233,109,626678,1,0,0:0:0:0:
232,98,626763,5,0,3:0:0:0:
282,101,626848,1,0,3:0:0:0:
332,104,626933,1,8,0:0:0:0:
138,149,627104,1,0,0:0:0:0:
372,199,627274,5,0,3:0:0:0:
178,243,627445,1,0,3:0:0:0:
412,294,627615,1,8,0:0:0:0:
470,172,627786,1,0,0:0:0:0:
332,104,627956,2,0,P|284:148|269:203,1,95,2|0,0:0|3:0,0:0:0:0:
429,78,628297,1,8,0:0:0:0:
358,6,628467,1,0,0:0:0:0:
226,65,628638,6,0,P|178:70|126:57,1,95,0|0,3:0|3:0,0:0:0:0:
2,10,628979,1,8,0:0:0:0:
42,104,629149,1,0,0:0:0:0:
132,59,629320,2,0,P|180:54|232:67,1,95,2|0,0:0|3:0,0:0:0:0:
301,250,629661,1,8,0:0:0:0:
174,153,629831,1,0,0:0:0:0:
376,151,630002,5,0,3:0:0:0:
329,348,630172,1,0,3:0:0:0:
274,152,630342,1,8,0:0:0:0:
502,212,630513,1,2,0:0:0:0:
503,223,630599,1,0,0:0:0:0:
504,234,630684,1,2,0:0:0:0:
505,245,630769,1,0,0:0:0:0:
506,256,630854,5,0,3:0:0:0:
456,253,630939,1,0,3:0:0:0:
406,250,631024,1,8,0:0:0:0:
485,111,631195,1,0,3:0:0:0:
289,52,631365,5,2,3:2:0:0:
257,60,631450,1,0,3:0:0:0:
229,78,631535,1,2,3:2:0:0:
209,105,631620,1,0,3:0:0:0:
198,136,631705,1,10,3:2:0:0:
197,169,631791,1,0,3:0:0:0:
207,200,631876,1,2,3:2:0:0:
226,227,631961,1,0,3:0:0:0:
253,246,632046,1,2,3:2:0:0:
285,256,632132,1,0,3:0:0:0:
318,255,632217,5,2,3:2:0:0:
321,263,632303,1,2,3:2:0:0:
324,271,632388,2,0,L|338:326,1,47.5,10|0,3:2|3:0,0:0:0:0:
151,349,632558,2,0,L|162:302,1,47.5,2|0,3:2|3:0,0:0:0:0:
209,105,632729,5,4,0:0:0:0:
125,143,632899,6,0,P|178:110|245:111,1,95,2|0,0:0|0:0,0:0:0:0:
167,90,633155,2,0,P|126:111|97:148,1,95,2|0,0:0|0:0,0:0:0:0:
70,164,633411,2,0,P|99:108|157:76,1,95,2|0,0:0|0:0,0:0:0:0:
78,96,633666,2,0,P|53:135|45:182,1,95,2|0,0:0|0:0,0:0:0:0:
58,269,633922,1,2,0:0:0:0:
208,204,634092,5,2,0:0:0:0:
208,204,634433,1,2,0:0:0:0:
208,204,634774,5,2,0:0:0:0:
251,129,634945,1,0,0:0:0:0:
208,204,635115,1,2,0:0:0:0:
165,129,635286,1,0,0:0:0:0:
208,204,635456,1,2,0:0:0:0:
374,141,635627,6,0,L|251:129,1,123.499994346619,2|0,0:0|0:0,0:0:0:0:
330,215,635882,2,0,L|207:203,1,123.499994346619,2|0,0:0|0:0,0:0:0:0:
192,360,636138,2,0,L|314:371,1,123.499994346619,2|0,0:0|0:0,0:0:0:0:
236,286,636394,2,0,L|358:297,1,123.499994346619,2|0,0:0|0:0,0:0:0:0:
157,279,636649,1,2,0:0:0:0:
251,129,636820,5,2,0:0:0:0:
251,129,637161,1,2,0:0:0:0:
251,129,637502,5,2,0:0:0:0:
255,143,637587,1,0,0:0:0:0:
259,157,637672,1,2,0:0:0:0:
263,171,637757,1,0,0:0:0:0:
267,185,637842,2,0,L|276:221,2,35.625001358986,2|0|2,0:0|0:0|0:0,0:0:0:0:
349,193,638183,1,2,0:0:0:0:
433,231,638354,6,0,P|380:198|313:199,1,95,2|0,0:0|0:0,0:0:0:0:
390,178,638609,2,0,P|431:199|460:236,1,95,2|0,0:0|0:0,0:0:0:0:
488,252,638865,2,0,P|459:196|401:164,1,95,2|0,0:0|0:0,0:0:0:0:
479,184,639121,2,0,P|504:223|512:270,1,95,2|0,0:0|0:0,0:0:0:0:
500,357,639377,1,2,0:0:0:0:
353,286,639547,5,2,0:0:0:0:
353,286,639888,1,2,0:0:0:0:
353,286,640229,5,2,0:0:0:0:
315,204,640399,2,0,L|273:198,1,23.75,2|0,0:0|0:0,0:0:0:0:
406,214,640570,2,0,L|430:218,1,23.75,2|0,0:0|0:0,0:0:0:0:
401,360,640740,2,0,L|398:384,1,23.75,2|0,0:0|0:0,0:0:0:0:
353,286,640911,1,2,0:0:0:0:
186,348,641081,6,0,L|309:360,1,123.499994346619,2|0,0:0|0:0,0:0:0:0:
230,274,641337,2,0,L|353:286,1,123.499994346619,2|0,0:0|0:0,0:0:0:0:
368,129,641592,2,0,L|246:118,1,123.499994346619,2|0,0:0|0:0,0:0:0:0:
324,203,641848,2,0,L|202:192,1,123.499994346619,2|0,0:0|0:0,0:0:0:0:
403,210,642104,1,2,0:0:0:0:
308,359,642274,5,2,0:0:0:0:
308,359,642615,1,2,0:0:0:0:
308,359,642956,5,2,0:0:0:0:
228,300,643127,1,0,0:0:0:0:
308,359,643297,1,2,0:0:0:0:
388,301,643467,1,0,0:0:0:0:
227,207,643638,6,0,B|219:254|219:254|229:301,1,95,0|0,3:0|0:0,0:0:0:0:
211,209,643979,2,0,B|203:256|203:256|213:303,1,95,0|0,3:0|0:0,0:0:0:0:
195,211,644320,2,0,B|187:258|187:258|197:305,1,95,0|0,3:0|0:0,0:0:0:0:
179,213,644661,2,0,B|171:260|171:260|181:307,1,95,0|0,3:0|0:0,0:0:0:0:
284,207,645002,6,0,B|293:254|293:254|283:301,1,95,0|0,3:0|0:0,0:0:0:0:
300,209,645342,2,0,B|309:256|309:256|299:303,1,95,0|0,3:0|0:0,0:0:0:0:
316,211,645683,2,0,B|325:258|325:258|315:305,1,95,0|0,3:0|0:0,0:0:0:0:
332,213,646024,2,0,B|341:260|341:260|331:307,1,95,0|0,3:0|0:0,0:0:0:0:
113,136,646365,6,0,P|162:119|243:136,1,95,0|0,3:0|0:0,0:0:0:0:
47,218,646706,2,0,P|46:265|63:310,1,95,0|0,3:0|0:0,0:0:0:0:
107,121,647047,2,0,P|156:104|237:121,1,95,0|0,3:0|0:0,0:0:0:0:
28,219,647388,2,0,P|26:266|43:310,1,95,0|0,3:0|0:0,0:0:0:0:
198,105,647729,6,0,L|184:10,1,95,0|0,3:0|0:0,0:0:0:0:
265,175,648070,2,0,L|251:269,1,95,0|0,3:0|0:0,0:0:0:0:
338,111,648411,1,0,3:0:0:0:
334,87,648496,1,0,0:0:0:0:
331,63,648581,1,0,0:0:0:0:
328,40,648666,1,0,0:0:0:0:
324,16,648752,2,0,L|320:-20,4,23.75,0|0|0|0|0,3:0|0:0|0:0|0:0|0:0,0:0:0:0:
359,250,649092,5,0,3:0:0:0:
435,121,649263,1,0,3:0:0:0:
251,268,649433,1,0,3:0:0:0:
175,139,649604,1,0,3:0:0:0:
317,338,649774,5,0,3:0:0:0:
450,218,649945,1,0,3:0:0:0:
209,356,650115,1,0,3:0:0:0:
76,236,650286,1,0,3:0:0:0:
435,121,650456,5,0,3:0:0:0:
237,65,650627,1,0,3:0:0:0:
450,218,650797,1,0,3:0:0:0:
252,274,650967,1,0,3:0:0:0:
435,9,651138,5,0,3:0:0:0:
450,218,651308,1,0,3:0:0:0:
237,65,651479,1,0,3:0:0:0:
252,274,651649,1,0,3:0:0:0:
113,126,651820,5,0,3:0:0:0:
77,157,651905,1,0,3:0:0:0:
60,201,651990,1,0,3:0:0:0:
63,248,652075,1,0,3:0:0:0:
87,288,652161,1,0,3:0:0:0:
126,315,652246,1,0,3:0:0:0:
173,321,652331,1,0,3:0:0:0:
217,306,652416,1,0,3:0:0:0:
252,274,652502,1,0,3:0:0:0:
286,241,652587,1,0,3:0:0:0:
329,222,652672,1,0,3:0:0:0:
376,217,652757,1,0,3:0:0:0:
422,228,652842,1,0,3:0:0:0:
462,252,652928,1,0,3:0:0:0:
492,289,653013,1,0,3:0:0:0:
509,333,653098,1,0,3:0:0:0:
511,380,653183,1,8,3:0:0:0:
181,218,653524,6,0,P|170:222|161:229,1,23.75,8|8,0:3|0:3,0:0:0:0:
180,203,653609,2,0,P|169:207|160:214,1,23.75,8|8,0:3|0:3,0:0:0:0:
181,189,653695,1,8,0:0:0:0:
319,96,653865,6,0,L|276:101,1,23.75,2|0,0:0|0:0,0:0:0:0:
184,178,654036,6,0,L|231:171,1,47.5,2|0,0:0|0:0,0:0:0:0:
461,151,654206,6,0,L|390:160,1,71.2500027179719,8|0,0:3|0:0,0:0:0:0:
12,131,654377,6,0,L|107:119,1,95,4|0,0:3|0:0,0:0:0:0:
512,74,654547,5,12,3:0:0:0:
314,215,654717,1,2,0:0:0:0:
389,42,654888,1,8,1:0:0:0:
416,49,654973,2,0,P|386:79|292:88,1,113.999996520996,2|0,0:0|0:0,0:0:0:0:
107,119,655229,2,0,P|136:88|230:79,1,113.999996520996,2|0,0:0|3:0,0:0:0:0:
196,183,655484,1,2,0:0:0:0:
188,210,655570,1,8,1:0:0:0:
424,241,655740,2,0,P|427:213|425:185,1,56.9999982604981,2|0,0:0|0:0,0:0:0:0:
389,42,655911,5,0,3:0:0:0:
317,209,656081,1,2,0:0:0:0:
490,67,656252,1,8,1:0:0:0:
498,39,656337,2,0,P|435:27|365:59,1,113.999996520996,2|0,0:0|0:0,0:0:0:0:
183,101,656592,2,0,P|238:113|293:99,1,113.999996520996,2|0,0:0|3:0,0:0:0:0:
98,29,656848,1,2,0:0:0:0:
72,46,656933,2,0,P|69:74|71:102,1,56.9999982604981,8|0,1:0|0:0,0:0:0:0:
130,256,657104,2,0,P|126:228|129:200,1,56.9999982604981,2|0,0:0|0:0,0:0:0:0:
183,101,657274,5,0,3:0:0:0:
290,263,657445,2,0,P|352:281|424:257,1,113.999996520996,2|8,0:0|1:0,0:0:0:0:
359,99,657700,1,2,0:0:0:0:
358,112,657786,2,0,L|352:169,1,56.9999982604981
493,210,657956,2,0,L|499:153,1,56.9999982604981,2|0,0:0|0:0,0:0:0:0:
512,42,658127,1,0,3:0:0:0:
512,42,658212,1,2,0:0:0:0:
512,42,658297,1,8,1:0:0:0:
243,157,658467,2,0,B|187:173|187:173|112:154,1,113.999996520996,2|0,0:0|3:0,0:0:0:0:
188,56,658808,5,2,0:0:0:0:
200,294,658979,1,8,1:0:0:0:
200,294,659064,1,2,0:0:0:0:
200,294,659149,1,0,0:0:0:0:
55,239,659320,1,2,0:0:0:0:
299,238,659490,1,0,3:0:0:0:
312,311,659575,1,2,3:2:0:0:
325,384,659661,1,8,1:0:0:0:
410,292,659831,1,2,0:0:0:0:
218,182,660002,5,0,3:0:0:0:
392,177,660172,2,0,P|358:133|305:113,1,113.999996520996,2|8,0:0|1:0,0:0:0:0:
208,42,660428,1,2,0:0:0:0:
204,70,660513,1,0,0:0:0:0:
375,15,660683,1,2,0:0:0:0:
218,182,660854,2,0,P|182:181|142:164,1,56.9999982604981,0|2,3:0|0:0,0:0:0:0:
94,85,661024,1,8,1:0:0:0:
132,283,661195,1,2,0:0:0:0:
132,283,661280,1,0,0:0:0:0:
132,283,661365,1,0,3:0:0:0:
327,212,661536,6,0,B|385:202|385:202|453:217,1,113.999996520996,2|8,0:0|1:0,0:0:0:0:
493,318,661791,2,0,B|435:328|435:328|382:317,1,113.999996520996,2|0,0:0|0:0,0:0:0:0:
326,98,662047,2,0,B|384:88|384:88|438:100,1,113.999996520996,2|0,0:0|3:0,0:0:0:0:
465,205,662303,1,2,0:0:0:0:
438,213,662388,1,8,1:0:0:0:
192,21,662558,2,0,L|250:16,1,56.9999982604981,2|0,0:0|0:0,0:0:0:0:
488,0,662729,5,0,3:0:0:0:
465,205,662899,1,2,0:0:0:0:
359,95,663070,1,8,1:0:0:0:
326,98,663155,2,0,B|293:132|293:132|298:209,1,113.999996520996,2|0,0:0|0:0,0:0:0:0:
312,310,663411,1,2,0:0:0:0:
465,205,663581,1,0,3:0:0:0:
465,205,663666,1,2,0:0:0:0:
465,205,663752,1,8,1:0:0:0:
188,170,663922,1,2,0:0:0:0:
326,98,664092,5,0,3:0:0:0:
219,61,664263,1,0,0:0:0:0:
416,32,664433,1,8,0:0:0:0:
473,141,664604,1,2,0:0:0:0:
471,157,664689,1,0,0:0:0:0:
469,173,664774,1,2,0:0:0:0:
467,189,664859,1,0,0:0:0:0:
465,205,664945,1,2,3:2:0:0:
385,282,665115,1,2,0:0:0:0:
222,178,665286,6,0,B|253:193|285:178|285:178|312:168|351:175|351:175|319:183|293:220,1,190,8|0,1:0|3:0,0:0:0:0:
239,299,665627,5,2,0:0:0:0:
140,102,665797,1,8,1:0:0:0:
163,85,665882,2,0,B|205:73|205:73|297:80,1,113.999996520996,2|0,0:0|0:0,0:0:0:0:
494,41,666138,2,0,B|452:53|452:53|382:48,1,113.999996520996,2|0,0:0|3:0,0:0:0:0:
355,158,666394,1,2,0:0:0:0:
360,186,666479,1,8,1:0:0:0:
140,102,666649,1,2,0:0:0:0:
382,48,666820,5,0,3:0:0:0:
360,186,666990,2,0,P|321:199|226:176,1,113.999996520996,2|8,0:0|1:0,0:0:0:0:
29,105,667246,2,0,P|83:90|139:101,1,113.999996520996,2|0,0:0|0:0,0:0:0:0:
144,222,667502,2,0,P|105:235|10:212,1,113.999996520996,2|0,0:0|3:0,0:0:0:0:
145,80,667757,1,2,0:0:0:0:
139,101,667842,1,8,1:0:0:0:
66,348,668013,1,2,0:0:0:0:
237,305,668183,5,0,3:0:0:0:
33,225,668354,1,2,0:0:0:0:
236,158,668524,1,8,1:0:0:0:
247,161,668609,2,0,L|319:170,1,56.9999982604981,2|0,0:0|0:0,0:0:0:0:
303,314,668780,1,0,0:0:0:0:
293,312,668865,2,0,L|221:303,1,56.9999982604981,2|0,0:0|0:0,0:0:0:0:
135,293,669036,1,0,3:0:0:0:
135,293,669121,1,2,0:0:0:0:
135,293,669206,1,8,1:0:0:0:
244,48,669377,1,2,0:0:0:0:
398,109,669547,5,0,3:0:0:0:
343,264,669717,1,2,0:0:0:0:
445,215,669888,1,8,1:0:0:0:
473,224,669973,2,0,B|485:272|485:272|462:341,1,113.999996520996,2|0,0:0|0:0,0:0:0:0:
362,376,670229,1,2,0:0:0:0:
192,186,670399,1,0,3:0:0:0:
218,117,670484,1,2,3:2:0:0:
244,48,670570,1,8,1:0:0:0:
343,264,670740,2,0,L|277:271,1,56.9999982604981,2|0,0:0|0:0,0:0:0:0:
140,285,670911,5,0,3:0:0:0:
326,152,671081,1,2,0:0:0:0:
133,46,671252,1,8,1:0:0:0:
109,61,671337,2,0,B|97:96|97:96|109:186,1,113.999996520996,2|0,0:0|0:0,0:0:0:0:
140,285,671592,1,2,0:0:0:0:
218,117,671763,1,0,3:0:0:0:
218,117,671848,1,2,0:0:0:0:
218,117,671933,1,8,1:0:0:0:
0,199,672104,2,0,L|14:312,1,113.999996520996,2|0,0:0|3:0,0:0:0:0:
214,371,672445,6,0,P|254:353|352:365,1,113.999996520996,2|8,0:0|1:0,0:0:0:0:
512,369,672700,2,0,P|466:335|411:323,1,113.999996520996,2|0,0:0|0:0,0:0:0:0:
235,217,672956,2,0,P|291:226|339:257,1,113.999996520996,2|0,0:0|3:0,0:0:0:0:
465,225,673212,1,2,0:0:0:0:
438,233,673297,1,8,1:0:0:0:
297,110,673467,1,2,0:0:0:0:
151,257,673638,6,0,L|56:265,1,95,0|2,3:0|0:0,0:0:0:0:
51,169,673979,2,0,L|146:161,1,95,0|2,3:0|0:0,0:0:0:0:
386,214,674320,2,0,L|292:206,1,95,0|2,3:0|0:0,0:0:0:0:
297,110,674661,2,0,L|391:118,1,95,0|2,3:0|0:0,0:0:0:0:
435,299,675002,5,0,3:0:0:0:
482,214,675172,1,2,0:0:0:0:
495,376,675342,1,8,0:0:0:0:
338,285,675513,1,2,0:0:0:0:
322,287,675598,1,0,0:0:0:0:
306,289,675683,2,0,L|245:296,1,47.5,2|0,0:0|0:0,0:0:0:0:
186,230,675854,2,0,L|138:235,1,47.5,2|0,3:2|0:0,0:0:0:0:
82,314,676024,1,8,0:0:0:0:
155,378,676195,2,0,L|202:372,1,47.5,8|0,3:0|0:0,0:0:0:0:
408,351,676365,5,4,0:3:0:0:
408,351,676536,1,4,0:3:0:0:
345,17,676706,5,10,1:0:0:0:
300,146,676877,2,0,L|295:99,1,47.5
223,33,677047,1,2,0:0:0:0:
230,211,677217,1,0,3:0:0:0:
230,211,677303,1,2,0:0:0:0:
230,211,677388,1,8,1:0:0:0:
391,102,677558,2,0,L|516:113,1,95,2|0,0:0|3:0,0:0:0:0:
384,199,677899,5,2,0:0:0:0:
345,17,678070,1,8,1:0:0:0:
254,113,678240,2,0,L|259:160,1,47.5
287,181,678411,2,0,L|274:86,1,95,2|0,0:0|3:0,0:0:0:0:
193,37,678666,1,2,0:0:0:0:
170,45,678752,1,8,1:0:0:0:
173,202,678922,1,2,0:0:0:0:
372,119,679092,6,0,B|417:108|417:108|501:121,1,95,2|0,3:2|0:0,0:0:0:0:
290,274,679433,2,0,B|279:229|279:229|292:145,1,95,8|0,1:0|0:0,0:0:0:0:
443,345,679689,1,0,0:0:0:0:
437,354,679774,2,0,B|392:365|392:365|344:358,1,95,2|0,0:0|3:0,0:0:0:0:
509,201,680030,2,0,B|520:246|520:246|507:330,1,95,2|0,0:0|0:0,0:0:0:0:
465,115,680286,1,2,0:0:0:0:
202,227,680456,1,0,3:0:0:0:
286,180,680627,21,2,0:0:0:0:
282,282,680797,53,8,1:0:0:0:
279,172,680967,37,2,0:0:0:0:
274,290,681138,1,2,0:0:0:0:
292,188,681308,5,0,3:0:0:0:
291,232,681394,1,0,3:0:0:0:
290,274,681479,37,8,1:0:0:0:
360,119,681649,37,2,0:0:0:0:
202,227,681820,22,0,B|156:239|156:239|91:224,1,95,4|0,0:1|0:0,0:0:0:0:
51,49,682161,1,8,1:0:0:0:
198,123,682331,2,0,L|154:140,1,47.5
18,199,682502,1,2,0:0:0:0:
210,324,682672,1,0,3:0:0:0:
210,324,682757,1,2,0:0:0:0:
210,324,682842,1,8,1:0:0:0:
375,169,683013,2,0,B|329:159|329:159|283:171,1,95,2|0,0:0|3:0,0:0:0:0:
330,259,683354,5,2,0:0:0:0:
327,62,683524,1,8,1:0:0:0:
188,159,683695,2,0,L|182:111,1,47.5
83,41,683865,2,0,L|89:89,1,47.5,2|0,0:0|0:0,0:0:0:0:
103,229,684036,1,2,3:2:0:0:
103,229,684121,2,0,L|97:181,1,47.5,2|8,0:0|1:0,0:0:0:0:
176,63,684291,1,2,0:0:0:0:
176,63,684377,2,0,L|182:111,1,47.5,2|0,0:0|0:0,0:0:0:0:
201,254,684547,6,0,P|250:257|296:234,1,95,0|0,3:0|0:0,0:0:0:0:
397,84,684888,2,0,P|350:80|307:99,1,95,8|0,1:0|0:0,0:0:0:0:
491,117,685144,1,0,0:0:0:0:
491,117,685229,2,0,P|494:68|471:22,1,95,2|0,0:0|3:0,0:0:0:0:
416,178,685484,1,2,0:0:0:0:
421,203,685570,1,8,1:0:0:0:
344,0,685740,1,2,0:0:0:0:
236,164,685911,53,0,3:0:0:0:
112,128,686081,85,2,0:0:0:0:
206,49,686252,53,8,1:0:0:0:
240,168,686422,53,0,3:0:0:0:
108,124,686592,85,2,0:0:0:0:
243,173,686763,5,0,3:0:0:0:
210,45,686933,37,8,1:0:0:0:
247,177,687104,53,0,3:0:0:0:
428,78,687274,54,0,L|417:172,1,95,4|0,0:1|0:0,0:0:0:0:
385,366,687615,1,8,1:0:0:0:
350,272,687786,1,0,0:0:0:0:
350,272,687871,1,0,0:0:0:0:
350,272,687956,2,0,L|398:268,1,47.5,2|0,0:0|0:0,0:0:0:0:
464,168,688127,2,0,L|416:172,1,47.5,0|2,3:0|0:0,0:0:0:0:
288,183,688297,1,8,1:0:0:0:
492,258,688467,1,2,0:0:0:0:
486,70,688638,5,0,3:0:0:0:
464,168,688808,1,2,0:0:0:0:
402,20,688979,2,0,B|356:8|356:8|307:14,1,95,8|0,1:0|0:0,0:0:0:0:
344,154,689234,1,0,0:0:0:0:
344,154,689320,2,0,L|350:107,1,47.5,2|0,0:0|0:0,0:0:0:0:
234,76,689490,2,0,L|228:123,1,47.5,0|2,3:0|0:0,0:0:0:0:
266,214,689661,1,8,1:0:0:0:
344,154,689831,1,2,0:0:0:0:
309,301,690002,86,0,P|263:310|218:298,1,95,0|0,3:0|0:0,0:0:0:0:
35,139,690342,2,0,P|81:129|126:142,1,95,8|0,1:0|0:0,0:0:0:0:
73,303,690598,1,0,0:0:0:0:
73,303,690683,2,0,P|64:256|77:211,1,95,2|0,0:0|3:0,0:0:0:0:
195,195,690939,1,2,0:0:0:0:
195,195,691024,1,8,1:0:0:0:
149,345,691195,1,2,0:0:0:0:
279,148,691365,1,0,3:0:0:0:
195,195,691536,21,2,0:0:0:0:
199,93,691706,53,8,1:0:0:0:
202,203,691877,37,2,0:0:0:0:
207,85,692047,1,2,0:0:0:0:
189,187,692217,5,0,3:0:0:0:
190,143,692303,1,0,3:0:0:0:
191,101,692388,37,8,1:0:0:0:
121,256,692558,37,2,0:0:0:0:
455,156,692729,22,0,B|368:118|368:118|278:149,1,190,4|8,0:1|1:0,0:0:0:0:
481,63,693240,1,0,0:0:0:0:
481,63,693325,1,0,0:0:0:0:
481,63,693411,2,0,L|437:44,1,47.5,2|0,0:0|0:0,0:0:0:0:
256,55,693581,2,0,L|300:39,1,47.5,0|2,3:0|0:0,0:0:0:0:
365,222,693752,2,0,L|367:269,1,47.5,8|0,1:0|0:0,0:0:0:0:
368,367,693922,1,2,0:0:0:0:
374,211,694092,5,0,3:0:0:0:
376,372,694263,1,0,0:0:0:0:
453,156,694433,1,8,1:0:0:0:
455,317,694604,1,2,0:0:0:0:
294,155,694774,1,2,0:0:0:0:
296,316,694945,1,2,3:2:0:0:
296,316,695030,2,0,L|236:311,1,47.5,2|8,0:0|0:1,0:0:0:0:
170,216,695200,1,2,0:0:0:0:
170,216,695286,2,0,L|218:220,1,47.5,2|0,0:0|0:0,0:0:0:0:
253,53,695456,6,0,P|202:44|137:61,1,95,4|0,0:1|0:0,0:0:0:0:
0,280,695797,2,0,P|51:289|116:272,1,95,8|0,1:0|0:0,0:0:0:0:
45,144,696053,1,0,0:0:0:0:
45,144,696138,2,0,P|40:167|47:190,1,47.5,2|0,3:2|0:0,0:0:0:0:
158,368,696308,1,0,3:0:0:0:
158,368,696394,1,2,0:0:0:0:
158,368,696479,1,8,1:0:0:0:
324,119,696649,1,2,0:0:0:0:
383,314,696820,5,0,3:0:0:0:
40,261,697161,1,2,0:0:0:0:
410,220,697502,1,2,0:0:0:0:
67,167,697842,1,2,0:0:0:0:
451,122,698183,6,0,B|412:106|369:116|369:116|313:160|242:124,1,209.000006378174,4|8,0:1|1:0,0:0:0:0:
302,34,698695,1,0,0:0:0:0:
405,219,698865,1,2,0:0:0:0:
204,218,699036,1,0,3:0:0:0:
204,218,699121,1,0,3:0:0:0:
204,218,699206,6,0,B|138:212|97:243|97:243|129:142|63:178|101:59,1,285.000010871888,8|2,1:0|0:0,0:0:0:0:
0,198,699717,1,0,3:0:0:0:
245,316,699888,2,0,P|284:288|309:216,1,104.500003189087,8|0,1:0|0:0,0:0:0:0:
333,60,700229,2,0,P|292:91|271:139,1,104.500003189087,2|0,0:0|3:0,0:0:0:0:
372,163,700484,1,0,3:0:0:0:
375,158,700570,1,8,1:0:0:0:
434,47,700740,1,0,0:0:0:0:
438,249,700911,6,0,B|395:270|395:270|202:244,1,209.000006378174,2|8,3:2|1:0,0:0:0:0:
131,232,701422,1,0,0:0:0:0:
372,163,701592,1,2,0:0:0:0:
329,361,701763,1,0,3:0:0:0:
329,361,701848,1,0,3:0:0:0:
329,361,701933,6,0,B|249:352|249:352|225:358|225:358|204:349|204:349|116:340,1,209.000006378174,8|2,1:0|0:0,0:0:0:0:
9,253,702445,1,0,3:0:0:0:
237,248,702615,1,8,1:0:0:0:
226,359,702786,1,0,0:0:0:0:
77,173,702956,2,0,B|75:124|75:124|110:58,1,104.500003189087,2|0,0:0|3:0,0:0:0:0:
183,148,703212,1,0,3:0:0:0:
181,157,703297,1,8,1:0:0:0:
108,69,703467,1,0,0:0:0:0:
337,4,703638,6,0,B|353:43|343:86|343:86|299:142|335:213,1,209.000006378174,2|8,3:2|1:0,0:0:0:0:
424,153,704149,1,0,0:0:0:0:
241,49,704320,1,2,0:0:0:0:
224,229,704490,1,0,3:0:0:0:
224,229,704575,1,0,3:0:0:0:
224,229,704661,6,0,B|290:235|331:204|331:204|299:305|365:269|327:388,1,285.000010871888,8|2,1:0|0:0,0:0:0:0:
118,200,705172,1,0,3:0:0:0:
331,204,705342,1,8,1:0:0:0:
224,229,705513,1,0,0:0:0:0:
412,136,705683,2,0,P|435:190|427:245,1,104.500003189087,2|0,0:0|3:0,0:0:0:0:
330,213,705939,1,0,3:0:0:0:
331,204,706024,1,8,1:0:0:0:
361,315,706195,1,0,0:0:0:0:
269,116,706365,6,0,B|312:95|312:95|505:121,1,209.000006378174,2|8,3:2|1:0,0:0:0:0:
331,204,706877,1,0,0:0:0:0:
482,120,707047,1,2,0:0:0:0:
427,317,707217,1,0,3:0:0:0:
427,317,707303,1,0,3:0:0:0:
427,317,707388,6,0,B|347:308|347:308|323:314|323:314|302:305|302:305|214:296,1,209.000006378174,8|2,1:0|0:0,0:0:0:0:
74,282,707899,1,0,3:0:0:0:
331,204,708070,1,8,1:0:0:0:
323,314,708240,1,0,0:0:0:0:
315,100,708411,2,0,B|364:98|364:98|430:133,1,104.500003189087,2|0,0:0|3:0,0:0:0:0:
340,206,708667,1,0,3:0:0:0:
331,204,708752,1,8,1:0:0:0:
442,20,708922,1,0,0:0:0:0:
232,167,709092,6,0,B|193:183|150:173|150:173|94:129|23:165,1,209.000006378174,4|8,0:1|1:0,0:0:0:0:
186,69,709604,1,0,0:0:0:0:
83,255,709774,1,2,0:0:0:0:
232,167,709945,1,0,3:0:0:0:
232,167,710030,1,0,3:0:0:0:
232,167,710115,6,0,B|298:173|339:142|339:142|307:243|373:207|335:326,1,285.000010871888,8|2,1:0|0:0,0:0:0:0:
434,188,710627,1,0,3:0:0:0:
267,61,710797,2,0,P|214:52|122:67,1,104.500003189087,8|0,1:0|0:0,0:0:0:0:
5,140,711138,2,0,P|56:152|108:148,1,104.500003189087,2|0,0:0|3:0,0:0:0:0:
163,63,711394,1,0,3:0:0:0:
163,55,711479,1,8,1:0:0:0:
144,250,711649,1,0,0:0:0:0:
298,148,711820,6,0,B|341:127|341:127|500:148,1,209.000006378174,2|8,3:2|1:0,0:0:0:0:
512,255,712331,1,0,0:0:0:0:
475,36,712502,2,0,L|349:20,1,104.500003189087,2|0,0:0|3:0,0:0:0:0:
275,46,712757,1,0,3:0:0:0:
271,50,712842,6,0,B|191:41|191:41|167:47|167:47|146:38|146:38|58:29,1,209.000006378174,8|2,1:0|0:0,0:0:0:0:
149,280,713354,2,0,L|153:227,1,52.2500015945435,0|0,3:0|0:0,0:0:0:0:
168,47,713524,1,8,1:0:0:0:
100,133,713695,1,0,0:0:0:0:
218,142,713865,1,2,0:0:0:0:
65,28,714036,1,0,3:0:0:0:
65,28,714121,1,0,3:0:0:0:
65,28,714206,1,8,1:0:0:0:
100,133,714377,1,0,0:0:0:0:
368,40,714547,6,0,B|394:67|388:102|388:102|331:158|376:253,1,209.000006378174,0|8,3:0|1:0,0:0:0:0:
462,178,715058,1,0,0:0:0:0:
269,86,715229,1,2,0:0:0:0:
120,302,715399,1,0,3:0:0:0:
120,302,715484,1,0,3:0:0:0:
120,302,715570,6,0,B|223:335|187:269|288:301|288:301|258:258|279:188,1,285.000010871888,8|2,1:0|0:0,0:0:0:0:
332,0,716081,1,0,3:0:0:0:
477,228,716252,2,0,P|428:245|377:241,1,104.500003189087,8|0,1:0|0:0,0:0:0:0:
170,202,716592,2,0,P|121:184|69:189,1,104.500003189087,2|0,0:0|3:0,0:0:0:0:
163,212,716848,1,0,3:0:0:0:
170,202,716933,2,0,P|187:153|182:101,1,104.500003189087,8|0,1:0|0:0,0:0:0:0:
0,109,717274,5,0,3:0:0:0:
70,188,717445,1,0,0:0:0:0:
252,22,717615,5,8,1:0:0:0:
182,101,717786,1,0,0:0:0:0:
14,9,717956,2,0,P|-5:57|0:109,1,104.500003189087,2|0,0:0|3:0,0:0:0:0:
55,185,718212,1,0,3:0:0:0:
70,188,718297,6,0,B|150:196|150:196|171:205|171:205|195:199|195:199|275:208,1,209.000006378174,8|2,1:0|0:0,0:0:0:0:
473,233,718808,1,0,3:0:0:0:
213,310,718979,1,8,1:0:0:0:
276,208,719149,1,0,0:0:0:0:
370,263,719320,5,2,0:0:0:0:
367,279,719405,1,8,0:0:0:0:
334,319,719490,5,0,3:0:0:0:
331,335,719575,1,0,3:0:0:0:
298,375,719661,5,8,1:0:0:0:
170,211,719831,1,0,0:0:0:0:
473,233,720002,5,4,1:0:0:0:
473,233,720342,2,0,B|494:170|494:170|339:176,1,209.000006378174,8|2,1:0|0:0,0:0:0:0:
440,336,720854,1,0,3:0:0:0:
487,63,721024,6,0,B|406:64|406:64|383:56|383:56|361:64|361:64|281:65,1,209.000006378174,8|2,1:0|0:0,0:0:0:0:
74,67,721536,2,0,B|154:65|154:65|177:73|177:73|199:65|199:65|279:64,1,209.000006378174,0|0,3:0|0:0,0:0:0:0:
456,173,722047,2,0,L|351:175,1,104.500003189087,2|0,0:0|3:0,0:0:0:0:
247,177,722388,2,0,L|351:175,1,104.500003189087,8|0,1:0|0:0,0:0:0:0:
142,182,722729,5,8,3:0:0:0:
142,182,723070,2,0,B|149:160|149:160|47:155|47:155|92:246,1,209.000006378174,8|2,1:0|0:0,0:0:0:0:
134,326,723581,1,0,3:0:0:0:
247,117,723752,1,8,1:0:0:0:
234,291,723922,1,0,0:0:0:0:
142,182,724092,1,2,0:0:0:0:
34,361,724263,5,2,3:2:0:0:
287,384,724433,1,8,1:0:0:0:
234,291,724604,1,0,0:0:0:0:
377,232,724774,2,0,B|389:283|389:283|380:335,1,104.500003189087,2|0,0:0|3:0,0:0:0:0:
324,140,725115,2,0,B|375:128|375:128|426:137,1,104.500003189087,8|0,1:0|0:0,0:0:0:0:
176,200,725456,6,0,B|68:206|68:206|44:85,1,209.000006378174,0|8,3:0|1:0,0:0:0:0:
155,94,725967,1,0,0:0:0:0:
171,308,726138,1,2,0:0:0:0:
16,210,726308,2,0,L|88:204,1,52.2500015945435,0|0,3:0|0:0,0:0:0:0:
375,194,726479,6,0,B|276:230|276:230|176:200,1,209.000006378174,8|2,1:0|0:0,0:0:0:0:
468,92,726990,2,0,B|503:191|503:191|473:291,1,209.000006378174,2|0,3:2|0:0,0:0:0:0:
281,368,727502,2,0,B|263:318|263:318|278:268,1,104.500003189087,2|0,0:0|3:0,0:0:0:0:
377,271,727842,2,0,B|327:286|327:286|277:268,1,104.500003189087,8|0,1:0|0:0,0:0:0:0:
3,141,728183,6,0,B|120:175|90:98|220:146,1,209.000006378174,0|8,3:0|1:0,0:0:0:0:
149,237,728695,1,0,0:0:0:0:
56,44,728865,1,2,0:0:0:0:
308,171,729036,1,0,3:0:0:0:
55,284,729206,1,8,1:0:0:0:
250,76,729377,6,0,B|366:32|336:109|453:75,1,209.000006378174,2|0,0:0|3:0,0:0:0:0:
308,171,729888,2,0,P|296:221|312:276,1,104.500003189087,8|0,1:0|0:0,0:0:0:0:
402,220,730229,1,2,0:0:0:0:
250,70,730399,1,0,3:0:0:0:
258,269,730570,2,0,P|291:274|324:267,1,52.2500015945435,8|0,1:0|0:0,0:0:0:0:
454,222,730740,2,0,P|421:217|388:224,1,52.2500015945435,2|0,0:0|0:0,0:0:0:0:
173,332,730911,5,4,1:0:0:0:
184,192,731081,1,0,0:0:0:0:
391,359,731252,1,8,1:0:0:0:
402,219,731422,1,0,0:0:0:0:
258,269,731592,1,2,0:0:0:0:
269,129,731762,1,0,3:0:0:0:
460,171,731933,6,0,B|497:246|497:246|395:241|395:241|402:219,1,209.000006378174,8|2,1:0|0:0,0:0:0:0:
415,72,732445,2,0,B|458:42|458:42|501:73,2,104.500003189087,2|8|0,3:2|1:0|0:0,0:0:0:0:
310,66,732956,2,0,B|267:32|267:32|229:65,1,104.500003189087,2|0,0:0|3:0,0:0:0:0:
37,64,733297,2,0,B|80:34|80:34|123:65,1,104.500003189087,8|0,1:0|0:0,0:0:0:0:
10,270,733638,6,0,P|1:216|14:167,1,104.500003189087,0|0,3:0|0:0,0:0:0:0:
311,217,733979,2,0,P|209:239|107:222,1,209.000006378174,8|2,1:0|0:0,0:0:0:0:
37,64,734490,1,0,3:0:0:0:
201,138,734661,6,0,B|245:254|168:224|202:341,1,209.000006378174,8|2,1:0|0:0,0:0:0:0:
502,290,735172,2,0,B|385:256|415:333|299:289,1,209.000006378174,2|0,3:2|0:0,0:0:0:0:
355,90,735683,2,0,B|370:155|342:133|358:194,1,104.500003189087,2|0,0:0|3:0,0:0:0:0:
253,93,736024,2,0,B|318:78|296:106|356:90,1,104.500003189087,8|0,1:0|0:0,0:0:0:0:
75,120,736365,6,0,B|37:44|37:44|139:49|139:49|132:71,1,209.000006378174,8|8,3:0|1:0,0:0:0:0:
121,216,736877,1,0,0:0:0:0:
13,209,737047,1,2,0:0:0:0:
206,151,737217,1,0,3:0:0:0:
406,349,737388,6,0,B|346:320|285:358|285:358|231:341|205:287|205:287|137:339|37:294,1,380,8|2,1:0|0:0,0:0:0:0:
206,151,737899,6,0,B|249:137|292:157|292:157|308:118|348:106|348:106|396:147|467:116,1,285.000010871888,2|0,3:2|0:0,0:0:0:0:
254,35,738411,6,0,P|201:37|139:56,1,104.500003189087,2|0,0:0|3:0,0:0:0:0:
0,156,738752,2,0,P|50:142|102:141,1,104.500003189087,8|0,1:0|0:0,0:0:0:0:
239,243,739092,5,0,3:0:0:0:
206,151,739263,1,0,0:0:0:0:
191,326,739433,2,0,P|233:339|297:320,1,95,8|0,1:0|0:0,0:0:0:0:
311,165,739774,1,2,0:0:0:0:
110,277,739945,1,0,3:0:0:0:
367,285,740115,1,8,1:0:0:0:
206,151,740286,1,2,0:0:0:0:
191,326,740456,5,0,0:0:0:0:
239,243,740627,1,0,3:0:0:0:
110,277,740797,1,8,1:0:0:0:
109,373,740967,1,0,0:0:0:0:
199,334,741138,1,2,0:0:0:0:
199,334,741223,1,8,0:0:0:0:
199,334,741308,1,0,3:0:0:0:
26,324,741479,1,8,1:0:0:0:
109,373,741649,1,0,3:0:0:0:
112,182,741820,6,0,L|292:150,1,152,4|8,0:0|0:0,0:0:0:0:
115,286,742331,1,2,0:0:0:0:
161,277,742416,1,0,0:0:0:0:
208,269,742501,1,2,0:0:0:0:
255,261,742586,1,0,0:0:0:0:
302,252,742671,1,0,3:0:0:0:
369,104,742842,2,0,L|369:214,1,76,8|0,0:0|0:0,0:0:0:0:
363,361,743183,5,0,3:0:0:0:
369,180,743354,1,2,0:0:0:0:
449,335,743524,1,10,0:0:0:0:
452,219,743695,1,2,0:0:0:0:
281,327,743865,1,2,0:0:0:0:
284,211,744036,1,0,3:0:0:0:
197,357,744206,1,10,0:0:0:0:
203,176,744377,1,2,0:0:0:0:
80,279,744547,6,0,L|155:264,1,76,0|0,3:0|0:0,0:0:0:0:
239,75,744888,1,8,0:0:0:0:
98,177,745058,1,2,0:0:0:0:
98,177,745399,1,0,3:0:0:0:
320,130,745570,1,8,0:0:0:0:
320,130,745911,5,0,3:0:0:0:
75,65,746081,2,0,L|149:79,1,76,2|8,0:0|0:0,0:0:0:0:
386,60,746422,1,2,0:0:0:0:
183,213,746592,2,0,L|257:198,1,76,2|0,0:0|3:0,0:0:0:0:
490,167,746933,2,0,L|416:153,1,76,8|0,0:0|0:0,0:0:0:0:
107,137,747274,6,0,L|276:110,1,152,0|8,3:0|0:0,0:0:0:0:
105,34,747785,1,2,0:0:0:0:
152,25,747870,1,0,0:0:0:0:
199,17,747955,1,2,0:0:0:0:
246,9,748040,1,0,0:0:0:0:
292,0,748127,1,2,3:2:0:0:
411,81,748297,2,0,L|413:-13,1,76,8|0,0:0|0:0,0:0:0:0:
303,186,748638,5,0,3:0:0:0:
499,146,748809,1,2,0:0:0:0:
393,281,748979,1,8,0:0:0:0:
402,167,749150,1,2,0:0:0:0:
211,138,749320,5,2,0:0:0:0:
220,252,749491,1,0,3:0:0:0:
114,117,749661,2,0,L|127:74,1,38,10|0,0:0|0:0,0:0:0:0:
310,157,749831,2,0,L|299:193,1,38,2|0,0:0|0:0,0:0:0:0:
64,223,750002,6,0,L|157:203,1,76,4|0,3:0|0:0,0:0:0:0:
311,293,750343,1,8,0:0:0:0:
53,314,750513,2,0,L|203:281,1,152,2|0,0:0|3:0,0:0:0:0:
420,312,751024,1,8,0:0:0:0:
420,312,751365,5,8,0:0:0:0:
223,362,751536,1,2,0:0:0:0:
414,209,751706,1,8,0:0:0:0:
414,209,752047,2,0,P|368:227|339:253,1,76,2|0,0:0|3:0,0:0:0:0:
210,125,752388,2,0,P|240:147|276:159,1,76,8|0,0:0|0:0,0:0:0:0:
275,299,752729,6,0,B|265:269|241:246|241:246|166:268|170:357,1,190,4|8,0:0|0:0,0:0:0:0:
345,372,753240,1,2,0:0:0:0:
391,383,753325,1,2,0:0:0:0:
438,377,753411,1,2,0:0:0:0:
479,353,753496,1,2,0:0:0:0:
507,315,753581,1,2,3:2:0:0:
396,161,753752,2,0,P|388:207|396:254,1,95,10|2,0:0|0:0,0:0:0:0:
498,113,754092,5,2,3:2:0:0:
296,129,754263,1,2,0:0:0:0:
404,26,754433,1,10,0:0:0:0:
396,161,754604,1,2,0:0:0:0:
210,218,754774,1,2,0:0:0:0:
202,83,754945,1,2,3:2:0:0:
67,155,755115,2,0,L|114:160,1,47.5,10|2,0:0|0:0,0:0:0:0:
210,218,755286,2,0,L|257:212,1,47.5,2|2,0:0|0:0,0:0:0:0:
116,261,755456,6,0,B|80:280|64:305|64:305|93:366|184:349,1,190,2|10,3:2|0:0,0:0:0:0:
408,277,755967,1,2,0:0:0:0:
360,268,756053,1,2,0:0:0:0:
314,280,756138,1,2,0:0:0:0:
277,310,756223,1,2,0:0:0:0:
258,353,756308,1,2,3:2:0:0:
488,348,756479,2,0,P|512:292|504:224,1,95,10|2,0:0|0:0,0:0:0:0:
366,89,756820,5,2,3:2:0:0:
511,167,756990,2,0,L|411:167,1,95,2|10,0:0|0:0,0:0:0:0:
294,20,757331,1,2,0:0:0:0:
294,20,757416,1,2,0:0:0:0:
294,20,757502,2,0,P|270:76|278:144,1,95,2|2,0:0|3:2,0:0:0:0:
184,134,757757,1,2,0:0:0:0:
184,134,757842,2,0,L|177:88,1,47.5,10|2,0:0|0:0,0:0:0:0:
267,202,758013,2,0,L|260:248,1,47.5,2|2,0:0|0:0,0:0:0:0:
134,248,758183,6,0,B|152:242|163:234|163:234|91:170|21:227,1,190,2|10,3:2|0:0,0:0:0:0:
125,352,758695,1,2,0:0:0:0:
172,346,758780,1,2,0:0:0:0:
219,341,758865,1,2,0:0:0:0:
266,336,758950,1,2,0:0:0:0:
313,331,759035,1,2,3:2:0:0:
488,244,759206,2,0,L|393:232,1,95,8|2,0:0|0:0,0:0:0:0:
292,78,759547,5,2,3:2:0:0:
302,250,759718,1,2,0:0:0:0:
398,139,759888,1,10,0:0:0:0:
247,166,760059,1,2,0:0:0:0:
236,0,760229,1,2,0:0:0:0:
387,27,760399,1,2,3:2:0:0:
182,82,760570,2,0,L|131:75,1,47.5,10|2,0:0|0:0,0:0:0:0:
247,166,760740,2,0,L|298:159,1,47.5,2|2,0:0|0:0,0:0:0:0:
182,253,760911,6,0,L|11:242,1,152,4|8,0:0|0:0,0:0:0:0:
96,340,761422,1,0,0:0:0:0:
96,340,761763,1,0,3:0:0:0:
76,160,761933,2,0,L|151:164,1,76,8|0,0:0|0:0,0:0:0:0:
321,322,762275,5,0,3:0:0:0:
183,256,762445,2,0,L|258:251,1,76,2|8,0:0|0:0,0:0:0:0:
415,359,762786,1,2,0:0:0:0:
395,168,762956,2,0,P|369:202|348:249,1,76,2|0,0:0|3:0,0:0:0:0:
512,335,763297,2,0,P|494:301|471:271,1,76,8|0,0:0|0:0,0:0:0:0:
290,148,763638,5,4,0:0:0:0:
462,78,763808,2,0,P|420:73|368:66,1,95,2|8,0:0|0:0,0:0:0:0:
162,48,764149,2,0,P|211:43|257:36,1,95,2|0,0:0|0:0,0:0:0:0:
256,36,764405,1,0,0:0:0:0:
256,36,764490,1,2,3:2:0:0:
468,174,764661,2,0,P|425:168|373:161,1,95,10|0,0:0|0:0,0:0:0:0:
168,151,765002,6,0,P|217:146|262:138,1,95,2|0,3:2|0:0,0:0:0:0:
471,271,765342,1,8,0:0:0:0:
301,230,765513,1,0,0:0:0:0:
301,230,765598,1,0,0:0:0:0:
301,230,765683,2,0,P|293:281|304:325,1,95,2|0,0:0|3:0,0:0:0:0:
373,161,766024,1,10,0:0:0:0:
206,291,766195,1,0,0:0:0:0:
400,349,766365,5,2,3:2:0:0:
400,349,766536,1,0,0:0:0:0:
302,322,766706,1,8,0:0:0:0:
206,291,766877,1,0,0:0:0:0:
206,291,767217,5,2,3:2:0:0:
373,161,767388,1,8,0:0:0:0:
373,161,767729,5,2,3:2:0:0:
287,226,767899,1,2,0:0:0:0:
333,60,768070,2,0,P|371:53|425:48,1,76,8|0,0:0|0:0,0:0:0:0:
234,119,768411,1,2,0:0:0:0:
234,119,768496,1,0,0:0:0:0:
234,119,768581,1,0,3:0:0:0:
373,161,768752,1,8,0:0:0:0:
177,253,768922,1,0,0:0:0:0:
69,62,769092,5,2,3:2:0:0:
234,118,769263,2,0,P|187:128|140:136,1,95,2|8,0:0|0:0,0:0:0:0:
276,25,769604,2,0,P|325:30|371:37,1,95,2|0,0:0|0:0,0:0:0:0:
370,37,769860,1,0,0:0:0:0:
370,37,769945,1,2,3:2:0:0:
258,220,770115,2,0,P|211:230|164:238,1,95,10|0,0:0|0:0,0:0:0:0:
333,151,770456,6,0,P|382:156|428:163,1,95,2|0,3:2|0:0,0:0:0:0:
469,268,770797,1,8,0:0:0:0:
360,352,770968,1,0,0:0:0:0:
360,352,771053,1,0,0:0:0:0:
360,352,771138,2,0,P|368:301|357:257,1,95,2|0,0:0|3:0,0:0:0:0:
164,237,771479,1,8,0:0:0:0:
333,151,771650,1,0,0:0:0:0:
255,354,771820,5,2,3:2:0:0:
255,354,771991,1,0,0:0:0:0:
271,251,772161,1,8,0:0:0:0:
232,153,772332,1,0,0:0:0:0:
232,153,772672,5,2,3:2:0:0:
255,354,772843,1,8,0:0:0:0:
255,354,773183,5,2,3:2:0:0:
271,251,773354,1,0,0:0:0:0:
228,61,773524,2,0,P|218:107|232:153,1,95,8|0,0:0|0:0,0:0:0:0:
324,103,773866,1,2,0:0:0:0:
324,103,773951,1,0,0:0:0:0:
324,103,774036,1,0,3:0:0:0:
115,119,774207,1,8,0:0:0:0:
324,103,774377,1,0,0:0:0:0:
153,236,774547,5,4,0:0:0:0:
228,61,774717,2,0,P|241:106|231:152,1,95,2|8,0:0|0:0,0:0:0:0:
99,338,775058,1,2,0:0:0:0:
145,349,775143,1,2,0:0:0:0:
192,343,775229,1,2,0:0:0:0:
233,319,775314,1,2,0:0:0:0:
261,281,775399,1,2,3:2:0:0:
117,150,775570,2,0,P|124:197|152:235,1,95,10|2,0:0|0:0,0:0:0:0:
374,46,775910,5,2,3:2:0:0:
231,152,776081,2,0,L|324:137,1,95,2|10,0:0|0:0,0:0:0:0:
374,46,776422,1,2,0:0:0:0:
285,234,776592,1,2,0:0:0:0:
470,89,776763,1,2,3:2:0:0:
264,13,776933,2,0,L|276:78,1,47.5,10|2,0:0|0:0,0:0:0:0:
374,46,777104,2,0,L|362:111,1,47.5,2|2,0:0|0:0,0:0:0:0:
470,89,777274,6,0,B|506:108|522:133|522:133|493:194|402:177,1,190,2|10,3:2|0:0,0:0:0:0:
203,213,777786,1,2,0:0:0:0:
249,202,777871,1,2,0:0:0:0:
296,208,777957,1,2,0:0:0:0:
337,232,778042,1,2,0:0:0:0:
365,270,778127,1,0,3:2:0:0:
251,384,778297,2,0,P|246:337|263:292,1,95,10|2,0:0|0:0,0:0:0:0:
419,179,778638,5,2,3:2:0:0:
346,368,778808,2,0,L|443:349,1,95,2|10,0:0|0:0,0:0:0:0:
203,213,779149,1,2,0:0:0:0:
249,202,779234,1,2,0:0:0:0:
296,208,779320,1,2,0:0:0:0:
337,232,779405,1,2,0:0:0:0:
365,270,779490,1,2,3:2:0:0:
251,384,779661,2,0,P|249:340|239:310,1,47.5,10|2,0:0|0:0,0:0:0:0:
120,268,779831,2,0,P|139:282|155:299,1,47.5,2|2,0:0|0:0,0:0:0:0:
148,384,780002,5,2,3:2:0:0:
51,201,780172,2,0,P|23:256|30:311,1,95,2|10,0:0|0:0,0:0:0:0:
53,72,780513,1,2,0:0:0:0:
85,108,780598,1,2,0:0:0:0:
125,132,780684,1,2,0:0:0:0:
173,137,780769,1,2,0:0:0:0:
219,124,780854,1,2,3:2:0:0:
373,14,781024,2,0,P|326:19|287:45,1,95,8|2,0:0|0:0,0:0:0:0:
261,267,781365,5,2,3:2:0:0:
352,216,781536,2,0,L|358:121,1,95,2|10,0:0|0:0,0:0:0:0:
261,267,781877,1,2,0:0:0:0:
443,178,782047,1,2,0:0:0:0:
286,45,782218,1,2,3:2:0:0:
261,267,782388,2,0,L|277:321,1,47.5,10|2,0:0|0:0,0:0:0:0:
352,216,782558,2,0,L|342:277,1,47.5,2|2,0:0|0:0,0:0:0:0:
443,178,782729,5,4,0:0:0:0:
443,178,782899,1,0,0:0:0:0:
358,115,783070,1,8,0:0:0:0:
259,150,783240,1,0,0:0:0:0:
259,150,783581,5,2,3:2:0:0:
443,178,783752,1,8,0:0:0:0:
443,178,784263,5,2,0:0:0:0:
229,66,784774,1,2,0:0:0:0:
107,275,785286,1,2,0:0:0:0:
308,25,788183,6,0,L|304:97,1,71.2500027179719,2|0,0:0|0:0,0:0:0:0:
299,203,788524,1,0,0:0:0:0:
299,203,788695,1,2,0:0:0:0:
299,203,788865,2,0,P|264:204|227:207,1,71.2500027179719
67,229,789206,2,0,P|127:220|166:263,1,106.875004076958,2|0,0:0|0:0,0:0:0:0:
181,276,789547,6,0,P|234:288|266:282,1,71.2500027179719,0|2,0:0|0:0,0:0:0:0:
342,148,789888,2,0,P|305:187|294:218,1,71.2500027179719
397,339,790229,2,0,P|398:285|391:233,1,106.875004076958,2|0,0:0|0:0,0:0:0:0:
391,233,790570,1,2,0:0:0:0:
342,148,790740,1,2,0:0:0:0:
342,148,790825,1,2,0:0:0:0:
342,147,790911,6,0,P|271:151|201:139,1,142.500005435944,2|0,0:0|0:0,0:0:0:0:
49,206,791422,2,0,P|115:187|168:231,1,142.500005435944,2|0,0:0|0:0,0:0:0:0:
307,329,791933,2,0,P|265:272|248:204,1,142.500005435944,2|0,0:0|0:0,0:0:0:0:
339,5,792445,5,2,0:0:0:0:
339,5,792615,2,0,P|334:73|344:158,1,142.500005435944,2|0,0:0|0:0,0:0:0:0:
431,268,793127,2,0,P|362:286|306:328,1,142.500005435944,2|0,0:0|0:0,0:0:0:0:
132,153,793638,6,0,P|201:151|247:203,1,142.500005435944,2|0,0:0|0:0,0:0:0:0:
164,301,794149,1,2,0:0:0:0:
164,301,794320,2,0,P|163:265|167:230,1,71.2500027179719
266,98,794661,2,0,P|261:142|241:220,1,106.875004076958,2|0,0:0|0:0,0:0:0:0:
246,202,795002,5,0,0:0:0:0:
340,146,795172,2,0,P|376:143|411:149,1,71.2500027179719,2|2,0:0|0:0,0:0:0:0:
467,293,795513,1,2,0:0:0:0:
467,293,795683,2,0,L|475:223,2,71.2500027179719,2|0|2,0:0|0:0|0:0,0:0:0:0:
246,202,796365,6,0,P|175:205|106:188,1,142.500005435944,10|8,0:0|0:0,0:0:0:0:
164,301,796877,2,0,P|238:300|310:284,1,142.500005435944,2|0,0:0|0:0,0:0:0:0:
469,167,797388,2,0,P|402:151|347:192,1,142.500005435944,10|8,0:0|0:0,0:0:0:0:
158,80,797899,5,2,0:0:0:0:
158,80,798070,2,0,P|202:71|290:112,1,142.500005435944,10|8,0:0|0:0,0:0:0:0:
491,71,798581,2,0,P|429:46|388:98,1,142.500005435944,2|2,0:0|0:0,0:0:0:0:
346,192,799092,6,0,P|294:211|239:199,1,106.875004076958,10|0,0:0|0:0,0:0:0:0:
213,185,799433,2,0,P|177:193|135:195,1,71.2500027179719,10|0,0:0|0:0,0:0:0:0:
14,141,799774,1,8,0:0:0:0:
14,141,799945,1,0,0:0:0:0:
14,141,800115,2,0,P|32:182|45:250,1,106.875004076958,8|0,0:0|0:0,0:0:0:0:
47,278,800456,6,0,P|89:283|131:275,1,71.2500027179719,8|0,0:0|0:0,0:0:0:0:
213,185,800797,1,8,0:0:0:0:
213,185,800967,1,0,0:0:0:0:
213,185,801138,2,0,P|209:225|211:259,2,71.2500027179719,8|0|8,0:0|0:0|0:0,0:0:0:0:
296,55,801820,6,0,P|345:78|443:78,1,142.500005435944,8|8,0:0|0:0,0:0:0:0:
346,231,802331,2,0,P|275:229|209:256,1,142.500005435944,2|2,0:0|0:0,0:0:0:0:
73,129,802842,2,0,P|208:224|44:241,1,427.500016307831,8|8,0:0|0:0,0:0:0:0:
0,67,804206,2,0,L|-1:25,3,35.625001358986,8|8|8|8,0:3|0:0|0:0|0:0,0:0:0:0:
184,157,806592,5,8,0:0:0:0:
198,134,806678,1,8,0:0:0:0:
206,108,806763,2,0,P|206:85|206:56,1,35.625001358986,0|8,3:0|0:0,0:0:0:0:
89,142,806933,5,4,0:3:0:0:
95,195,807019,1,4,0:3:0:0:
128,236,807104,1,8,0:3:0:0:
369,157,807274,6,0,B|332:152|305:165|305:165|246:149|246:149|215:164|184:157,1,190,4|8,0:0|0:0,0:0:0:0:
207,342,807786,2,0,P|298:330|349:253,1,190,2|0,0:0|3:0,0:0:0:0:
117,191,808297,2,0,B|82:190|58:172|58:172|118:174|184:156,1,190,10|0,0:0|3:0,0:0:0:0:
347,65,808808,5,2,0:0:0:0:
347,65,808979,2,0,B|339:129|339:129|355:193|355:193|347:265,1,190,10|0,0:0|0:0,0:0:0:0:
235,343,809490,1,0,3:0:0:0:
24,187,809661,2,0,P|70:180|116:191,1,95,10|0,0:0|0:0,0:0:0:0:
348,252,810002,6,0,B|316:204|308:166|308:166|300:204|268:252,1,190,2|8,3:2|0:0,0:0:0:0:
67,107,810513,2,0,P|147:99|213:187,1,190,2|0,0:0|3:0,0:0:0:0:
404,178,811024,2,0,B|378:124|375:88|375:88|320:74|275:91,1,190,8|0,0:0|3:0,0:0:0:0:
83,273,811536,5,2,0:0:0:0:
83,273,811706,2,0,B|188:290|160:232|267:251,1,190,10|0,0:0|0:0,0:0:0:0:
451,332,812217,1,0,3:0:0:0:
382,123,812388,2,0,P|341:101|293:99,1,95,10|0,0:0|0:0,0:0:0:0:
121,195,812729,6,0,B|182:160|245:166|245:166|266:181|315:178,1,190,2|8,3:2|0:0,0:0:0:0:
453,64,813240,2,0,P|364:41|293:99,1,190,2|0,0:0|3:0,0:0:0:0:
77,119,813752,2,0,B|129:86|209:80|209:80|177:69|164:57,1,190,10|0,0:0|3:0,0:0:0:0:
121,195,814263,5,2,0:0:0:0:
121,195,814433,2,0,B|118:249|161:275|161:275|206:248|201:195,1,190,8|2,0:0|0:0,0:0:0:0:
74,21,814945,1,0,3:0:0:0:
44,232,815115,2,0,P|62:291|85:321,1,95,8|0,0:0|0:0,0:0:0:0:
331,202,815456,6,0,P|305:154|199:208,1,190,2|8,3:2|0:0,0:0:0:0:
314,286,815967,2,0,B|348:295|376:278|376:278|406:290|435:294|435:294|464:285|500:291,1,190,2|0,0:0|3:0,0:0:0:0:
423,77,816479,2,0,B|450:111|459:149|429:208|429:208|412:190|404:166,1,190,10|0,0:0|3:0,0:0:0:0:
236,106,816990,5,2,0:0:0:0:
236,105,817161,2,0,P|285:95|328:85,1,95,10|0,0:0|0:0,0:0:0:0:
215,215,817502,2,0,P|261:223|309:228,1,95,2|0,0:0|3:0,0:0:0:0:
146,302,817842,2,0,P|187:325|230:346,1,95,8|0,0:0|0:0,0:0:0:0:
129,106,818183,6,0,B|93:72|81:25|81:25|47:60|44:116,1,190,4|8,0:0|0:0,0:0:0:0:
215,215,818695,2,0,P|143:190|50:247,1,190,2|0,0:0|3:0,0:0:0:0:
318,74,819206,2,0,B|286:178|350:162|319:259,1,190,8|0,0:0|3:0,0:0:0:0:
165,373,819717,5,2,0:0:0:0:
165,373,819888,2,0,P|147:317|225:211,1,190,10|0,0:0|0:0,0:0:0:0:
421,118,820399,1,2,3:2:0:0:
213,26,820570,2,0,P|165:29|118:23,1,95,10|0,0:0|0:0,0:0:0:0:
214,215,820911,6,0,B|233:118|198:131|214:24,1,190,2|8,3:2|0:0,0:0:0:0:
421,118,821422,2,0,B|428:186|417:260|417:260|403:224|394:218,1,190,2|0,0:0|3:0,0:0:0:0:
81,225,821933,2,0,P|117:171|216:237,1,190,10|0,0:0|3:0,0:0:0:0:
395,218,822445,5,2,0:0:0:0:
215,31,822615,2,0,P|192:122|214:214,1,190,10|0,0:0|0:0,0:0:0:0:
421,118,823127,1,2,3:2:0:0:
148,74,823297,2,0,P|90:73|43:78,1,95,10|0,0:0|0:0,0:0:0:0:
148,267,823638,6,0,B|168:262|195:260|195:260|108:245|32:288,1,190,4|8,0:0|0:0,0:0:0:0:
321,318,824149,2,0,P|291:226|306:130,1,190,2|0,0:0|3:0,0:0:0:0:
437,315,824661,2,0,B|440:242|385:189|385:189|379:213|388:237,1,190,10|0,0:0|3:0,0:0:0:0:
174,149,825172,5,2,0:0:0:0:
174,149,825342,2,0,P|240:84|304:162,1,190,10|0,0:0|0:0,0:0:0:0:
148,267,825854,1,2,3:2:0:0:
54,105,826024,2,0,P|44:56|46:11,1,95,10|0,0:0|0:0,0:0:0:0:
101,186,826365,6,0,B|83:195|56:231|55:265|55:265|14:230|1:169,1,190,2|8,3:2|0:0,0:0:0:0:
147,267,826877,2,0,P|194:183|149:106,1,190,2|0,0:0|3:0,0:0:0:0:
283,228,827388,1,10,0:0:0:0:
321,53,827558,2,0,P|328:99|328:147,1,95,2|0,0:0|0:0,0:0:0:0:
155,288,828411,5,8,0:0:0:0:
128,263,828496,1,8,0:0:0:0:
109,232,828581,2,0,P|101:210|101:182,1,47.5,0|8,3:0|0:0,0:0:0:0:
171,59,828752,5,4,0:3:0:0:
195,98,828837,1,4,0:3:0:0:
229,130,828922,1,8,0:3:0:0:
458,177,829092,6,0,P|405:142|295:239,1,227.999993041992,4|8,0:0|0:0,0:0:0:0:
171,59,829604,2,0,B|208:67|228:68|228:68|164:122|54:110,1,227.999993041992,0|0,0:0|3:0,0:0:0:0:
93,342,830115,2,0,P|107:288|108:231,1,113.999996520996,10|0,0:0|0:0,0:0:0:0:
0,3,830456,5,0,3:0:0:0:
1,202,830627,1,2,0:0:0:0:
296,105,830797,2,0,B|287:44|263:-2|263:-2|227:51|171:59,1,227.999993041992,10|0,0:0|0:0,0:0:0:0:
294,231,831308,1,0,3:0:0:0:
294,231,831394,1,0,0:0:0:0:
294,231,831479,2,0,P|357:233|413:243,1,113.999996520996,8|0,0:0|0:0,0:0:0:0:
253,351,831820,6,0,P|180:279|92:346,1,227.999993041992,2|8,3:2|0:0,0:0:0:0:
204,191,832331,2,0,B|230:198|261:190|261:190|190:138|86:186,1,227.999993041992,2|2,0:0|3:2,0:0:0:0:
328,278,832842,2,0,P|371:206|298:84,1,227.999993041992,10|2,0:0|3:2,0:0:0:0:
98,180,833354,5,2,0:0:0:0:
328,278,833524,2,0,P|384:284|439:270,1,113.999996520996,10|2,0:0|0:0,0:0:0:0:
260,190,833865,1,2,0:0:0:0:
297,370,834036,1,2,3:2:0:0:
512,154,834206,2,0,P|458:147|396:164,1,113.999996520996,10|0,0:0|0:0,0:0:0:0:
220,30,834547,6,0,B|326:45|326:93|326:45|438:29,1,227.999993041992,6|8,0:0|0:0,0:0:0:0:
260,190,835058,2,0,P|202:198|133:191,1,113.999996520996,2|2,0:0|0:0,0:0:0:0:
97,33,835399,1,2,3:2:0:0:
97,33,835484,1,2,0:0:0:0:
97,33,835570,2,0,P|112:113|49:249,1,227.999993041992,8|0,0:0|3:0,0:0:0:0:
235,321,836081,5,2,0:0:0:0:
235,321,836252,2,0,B|104:275|147:373|4:346,1,227.999993041992,10|0,0:0|0:0,0:0:0:0:
146,193,836763,1,0,3:0:0:0:
360,277,836933,2,0,P|425:284|473:277,1,113.999996520996,10|2,0:0|0:0,0:0:0:0:
274,49,837274,6,0,B|342:18|384:36|384:36|379:95|416:143,1,227.999993041992,2|10,3:2|0:0,0:0:0:0:
226,221,837786,2,0,P|320:182|359:277,1,227.999993041992,2|2,0:0|3:2,0:0:0:0:
146,193,838297,2,0,B|147:163|164:140|164:140|188:203|171:313,1,227.999993041992,10|0,0:0|3:0,0:0:0:0:
358,277,838808,5,2,0:0:0:0:
146,193,838979,2,0,P|77:194|16:202,1,113.999996520996,10|0,0:0|0:0,0:0:0:0:
254,229,839320,1,2,0:0:0:0:
83,97,839490,1,0,3:0:0:0:
302,148,839661,2,0,P|371:147|432:139,1,113.999996520996,10|0,0:0|0:0,0:0:0:0:
214,12,840002,6,0,P|228:120|145:192,1,227.999993041992,6|8,0:0|0:0,0:0:0:0:
257,327,840513,2,0,B|324:307|359:277|359:277|394:307|461:327,1,227.999993041992,0|0,0:0|3:0,0:0:0:0:
479,87,841024,2,0,P|468:151|467:208,1,113.999996520996,10|0,0:0|0:0,0:0:0:0:
302,148,841365,5,4,0:0:0:0:
479,87,841536,1,2,0:0:0:0:
275,241,841706,2,0,B|234:230|211:195|207:159|207:159|153:191|97:161,1,227.999993041992,10|0,0:0|0:0,0:0:0:0:
132,317,842217,1,0,3:0:0:0:
156,85,842388,2,0,P|98:64|43:81,1,113.999996520996,8|0,0:0|0:0,0:0:0:0:
275,241,842729,5,4,0:0:0:0:
255,46,842899,1,2,0:0:0:0:
98,161,843070,1,8,0:0:0:0:
286,241,843240,5,2,0:0:0:0:
283,45,843411,1,2,0:0:0:0:
116,146,843581,1,0,3:0:0:0:
298,241,843752,5,10,0:0:0:0:
312,45,843922,1,2,0:0:0:0:
136,131,844092,1,0,3:0:0:0:
309,239,844263,5,2,0:0:0:0:
340,46,844433,1,10,0:0:0:0:
157,116,844604,1,2,0:0:0:0:
379,151,844774,5,2,3:2:0:0:
229,29,844945,1,2,3:2:0:0:
309,239,845115,2,0,P|318:304|309:351,1,113.999996520996,8|2,0:0|0:0,0:0:0:0:
0,298,845456,6,0,B|116:242|97:354|215:296,1,227.999993041992,4|8,0:0|0:0,0:0:0:0:
275,140,845967,2,0,P|177:114|158:214,1,227.999993041992,0|0,0:0|3:0,0:0:0:0:
419,221,846479,2,0,P|357:222|296:245,1,113.999996520996,10|0,0:0|0:0,0:0:0:0:
159,83,846820,5,0,3:0:0:0:
215,295,846990,1,0,3:0:0:0:
314,60,847161,1,8,3:1:0:0:
99,270,847331,1,0,3:0:0:0:
271,83,847502,5,0,3:0:0:0:
215,295,847672,1,0,3:0:0:0:
116,60,847842,1,8,3:1:0:0:
331,270,848013,1,0,3:0:0:0:
372,111,848183,5,8,3:0:0:0:
418,119,848269,1,0,3:0:0:0:
452,151,848354,1,0,3:0:0:0:
466,195,848439,1,0,3:0:0:0:
454,241,848524,1,8,3:1:0:0:
421,274,848609,1,0,3:0:0:0:
375,284,848695,1,0,3:0:0:0:
331,270,848780,1,0,3:0:0:0:
300,234,848865,5,0,3:0:0:0:
291,187,848950,1,0,3:0:0:0:
259,153,849036,1,8,3:0:0:0:
215,139,849121,1,0,3:0:0:0:
169,151,849206,1,8,3:1:0:0:
136,184,849291,1,0,3:0:0:0:
126,230,849377,1,0,3:0:0:0:
140,274,849462,1,0,3:0:0:0:
176,305,849547,6,0,P|222:319|281:318,1,95,10|2,0:0|0:0,0:0:0:0:
392,63,849888,2,0,P|346:49|287:50,1,95,10|2,0:0|0:0,0:0:0:0:
5,120,850229,5,2,0:0:0:0:
38,155,850314,1,2,0:0:0:0:
85,167,850399,1,2,0:0:0:0:
299,48,850570,5,2,0:0:0:0:
266,13,850655,1,2,0:0:0:0:
219,1,850740,1,2,0:0:0:0:
82,81,850911,6,0,L|249:91,1,142.5,4|0,0:0|0:0,0:0:0:0:
216,97,851252,1,8,1:0:0:0:
306,253,851422,1,0,0:0:0:0:
306,253,851507,1,0,0:0:0:0:
306,253,851592,2,0,L|211:247,1,95,2|0,0:0|3:0,0:0:0:0:
441,178,851933,1,8,1:0:0:0:
312,56,852104,1,0,0:0:0:0:
441,178,852274,6,0,P|450:232|420:289,1,95,2|0,3:2|0:0,0:0:0:0:
215,346,852615,1,8,1:0:0:0:
215,346,852786,2,0,P|206:292|236:235,1,95,0|2,0:0|0:0,0:0:0:0:
312,56,853127,1,0,3:0:0:0:
312,56,853297,2,0,P|258:65|201:35,1,95,8|0,1:0|0:0,0:0:0:0:
37,39,853638,6,0,B|65:78|65:78|46:210,1,142.5,2|0,3:2|0:0,0:0:0:0:
44,272,853979,2,0,L|59:179,1,95,8|0,1:0|0:0,0:0:0:0:
59,178,854234,1,0,0:0:0:0:
59,178,854320,1,2,0:0:0:0:
279,319,854490,1,0,3:0:0:0:
157,330,854661,2,0,L|172:237,1,95,8|0,1:0|0:0,0:0:0:0:
198,80,855002,5,2,3:2:0:0:
198,80,855172,1,0,0:0:0:0:
279,319,855342,1,8,1:0:0:0:
406,162,855513,1,0,0:0:0:0:
406,162,855683,1,2,0:0:0:0:
279,319,855854,1,0,3:0:0:0:
314,107,856024,2,0,P|341:59|400:35,1,95,8|0,1:0|0:0,0:0:0:0:
423,260,856365,6,0,P|397:312|259:298,1,190,2|8,3:2|1:0,0:0:0:0:
205,212,856877,1,0,0:0:0:0:
205,212,856962,1,0,0:0:0:0:
205,212,857047,2,0,L|190:305,1,95,2|0,0:0|3:0,0:0:0:0:
55,133,857388,2,0,L|40:40,1,95,8|0,1:0|0:0,0:0:0:0:
78,269,857729,6,0,P|50:316|-8:340,1,95,0|0,3:0|0:0,0:0:0:0:
170,116,858070,1,8,1:0:0:0:
170,116,858240,2,0,P|197:68|256:44,1,95,0|2,0:0|0:0,0:0:0:0:
438,84,858581,1,0,3:0:0:0:
263,139,858752,1,8,1:0:0:0:
425,223,858922,1,0,0:0:0:0:
274,321,859092,6,0,B|243:182|243:182|266:133,1,190,2|8,3:2|1:0,0:0:0:0:
425,223,859604,1,0,0:0:0:0:
407,226,859689,1,0,0:0:0:0:
390,230,859774,1,2,0:0:0:0:
158,279,859945,1,0,3:0:0:0:
377,324,860115,2,0,L|469:304,1,95,8|0,1:0|0:0,0:0:0:0:
158,279,860456,6,0,L|65:259,1,95,0|0,3:0|0:0,0:0:0:0:
36,38,860797,1,8,1:0:0:0:
190,94,860967,2,0,P|199:148|169:205,1,95,2|2,0:0|0:0,0:0:0:0:
37,344,861308,1,0,3:0:0:0:
103,134,861479,1,8,1:0:0:0:
158,279,861649,1,0,0:0:0:0:
277,54,861820,6,0,P|329:80|315:218,1,190,4|8,0:1|1:0,0:0:0:0:
249,329,862331,1,0,0:0:0:0:
249,329,862416,1,0,0:0:0:0:
249,329,862502,2,0,P|293:342|339:333,1,95,2|0,0:0|3:0,0:0:0:0:
455,136,862842,2,0,L|435:43,1,95,8|0,1:0|0:0,0:0:0:0:
485,274,863183,5,2,3:2:0:0:
485,274,863354,1,0,0:0:0:0:
186,185,863524,1,8,1:0:0:0:
277,54,863695,1,2,0:0:0:0:
277,54,863865,1,2,0:0:0:0:
322,179,864036,1,0,3:0:0:0:
48,304,864206,2,0,P|35:260|44:214,1,95,8|0,1:0|0:0,0:0:0:0:
162,24,864547,6,0,B|182:68|182:68|160:169,1,142.5,2|0,3:2|0:0,0:0:0:0:
186,185,864888,2,0,L|206:278,1,95,8|0,1:0|0:0,0:0:0:0:
322,179,865229,1,2,0:0:0:0:
68,87,865399,1,0,3:0:0:0:
68,87,865484,1,0,0:0:0:0:
68,87,865570,1,8,1:0:0:0:
277,54,865740,1,2,0:0:0:0:
277,54,865911,6,0,L|370:74,1,95,2|0,3:2|0:0,0:0:0:0:
322,179,866252,1,8,1:0:0:0:
322,179,866422,2,0,L|415:199,1,95,2|2,0:0|0:0,0:0:0:0:
367,304,866763,1,0,3:0:0:0:
367,304,866933,2,0,L|460:324,1,95,8|0,1:0|0:0,0:0:0:0:
243,275,867274,6,0,L|86:240,1,142.5,2|0,3:2|0:0,0:0:0:0:
111,251,867615,1,8,1:0:0:0:
192,82,867786,1,0,0:0:0:0:
192,82,867871,1,0,0:0:0:0:
192,82,867956,2,0,P|205:126|196:172,1,95,2|0,0:0|3:0,0:0:0:0:
26,329,868297,1,8,1:0:0:0:
109,132,868467,1,2,0:0:0:0:
243,275,868638,5,2,3:2:0:0:
326,78,868808,1,0,0:0:0:0:
326,78,868979,1,8,1:0:0:0:
350,359,869149,1,2,0:0:0:0:
433,162,869320,1,2,0:0:0:0:
433,162,869490,1,0,3:0:0:0:
243,275,869661,2,0,P|199:288|153:279,1,95,8|0,1:0|0:0,0:0:0:0:
34,167,870002,6,0,B|66:28|66:28|88:78,1,190,0|8,3:0|0:0,0:0:0:0:
271,65,870513,2,0,L|161:40,1,95,0|2,0:0|0:0,0:0:0:0:
186,51,870854,1,0,3:0:0:0:
363,86,871024,2,0,L|455:107,1,95,8|0,0:0|0:0,0:0:0:0:
243,275,871365,5,2,3:2:0:0:
427,232,871536,1,2,3:2:0:0:
150,296,871706,1,8,0:0:0:0:
335,254,871877,1,2,3:2:0:0:
57,317,872047,5,0,3:0:0:0:
46,270,872132,1,0,3:0:0:0:
35,223,872217,1,8,3:2:0:0:
23,175,872303,1,0,3:0:0:0:
11,127,872388,1,8,3:1:0:0:
59,156,872473,1,0,3:0:0:0:
115,151,872558,1,4,3:0:0:0:
158,116,872644,1,0,3:0:0:0:
174,62,872729,6,0,P|218:49|264:58,1,95,4|0,1:0|0:0,0:0:0:0:
397,164,873070,2,0,P|458:159|414:61,1,190,8|0,1:0|3:0,0:0:0:0:
253,156,873581,2,0,P|226:211|333:222,1,190,8|0,1:0|3:0,0:0:0:0:
474,310,874092,6,0,L|361:325,1,95,8|0,1:0|0:0,0:0:0:0:
159,350,874433,1,0,3:0:0:0:
119,35,874604,2,0,L|134:148,1,95,8|2,1:0|0:0,0:0:0:0:
151,358,874945,1,0,3:0:0:0:
371,330,875115,2,0,L|466:317,1,95,8|0,1:0|3:0,0:0:0:0:
308,198,875456,6,0,P|297:242|266:277,1,95,4|0,3:2|0:0,0:0:0:0:
223,56,875797,2,0,L|411:81,1,190,8|0,1:0|3:0,0:0:0:0:
419,91,876308,2,0,L|231:66,1,190,8|0,1:0|3:0,0:0:0:0:
41,37,876820,5,8,1:0:0:0:
41,37,876990,1,0,0:0:0:0:
66,226,877161,1,0,3:0:0:0:
167,145,877331,1,8,1:0:0:0:
167,145,877502,1,0,0:0:0:0:
191,333,877672,1,0,3:0:0:0:
444,279,877842,1,8,1:0:0:0:
161,240,878013,1,2,3:2:0:0:
444,279,878183,6,0,P|456:323|447:369,1,95,2|0,3:2|0:0,0:0:0:0:
262,189,878524,2,0,B|304:53|304:53|349:22,1,190,8|0,1:0|3:0,0:0:0:0:
351,33,879036,2,0,B|312:61|312:61|270:197,1,190,8|0,1:0|3:0,0:0:0:0:
222,353,879547,6,0,L|194:262,1,95,8|0,1:0|0:0,0:0:0:0:
130,57,879888,1,0,3:0:0:0:
130,57,880058,2,0,L|102:147,1,95,8|2,1:0|0:0,0:0:0:0:
38,353,880399,1,2,3:2:0:0:
230,345,880570,2,0,L|202:254,1,95,8|0,1:0|3:0,0:0:0:0:
243,40,880911,6,0,P|294:59|328:113,1,95,4|0,3:2|0:0,0:0:0:0:
389,235,881252,2,0,P|385:176|512:120,1,190,8|0,1:0|3:0,0:0:0:0:
459,298,881763,2,0,P|410:330|297:248,1,190,8|0,1:0|3:0,0:0:0:0:
243,40,882274,5,8,1:0:0:0:
243,40,882445,1,2,0:0:0:0:
29,118,882615,1,0,3:0:0:0:
203,264,882786,1,8,1:0:0:0:
203,264,882956,1,2,0:0:0:0:
29,118,883127,1,2,3:2:0:0:
298,163,883297,2,0,P|339:198|353:261,1,95,8|0,1:0|3:0,0:0:0:0:
74,342,883638,6,0,L|101:234,1,95,4|0,3:2|0:0,0:0:0:0:
155,30,883979,2,0,B|292:66|292:66|248:84,1,190,8|0,1:0|3:0,0:0:0:0:
165,155,884490,2,0,B|27:118|27:118|71:100,1,190,8|0,1:0|3:0,0:0:0:0:
381,39,885002,6,0,P|435:49|472:174,1,190,8|0,1:0|3:0,0:0:0:0:
378,241,885513,2,0,P|388:295|513:332,1,190,8|0,1:0|3:0,0:0:0:0:
257,248,886024,1,8,1:0:0:0:
469,172,886195,1,0,3:0:0:0:
257,248,886365,6,0,P|227:285|220:331,1,95,0|0,3:0|0:0,0:0:0:0:
35,149,886706,2,0,L|81:333,1,190,8|0,1:0|3:0,0:0:0:0:
73,341,887217,2,0,L|26:156,1,190,8|0,1:0|3:0,0:0:0:0:
136,35,887729,5,8,1:0:0:0:
136,35,887899,1,2,0:0:0:0:
182,219,888070,1,0,3:0:0:0:
297,97,888240,1,8,1:0:0:0:
297,97,888411,1,2,0:0:0:0:
343,281,888581,1,2,3:2:0:0:
458,159,888752,1,8,1:0:0:0:
504,343,888922,1,2,3:2:0:0:
343,281,889092,6,0,P|299:299|270:335,1,95,4|0,3:2|0:0,0:0:0:0:
458,159,889433,2,0,P|415:78|324:74,1,190,8|0,1:0|3:0,0:0:0:0:
184,133,889945,2,0,P|93:128|50:48,1,190,8|0,1:0|3:0,0:0:0:0:
216,229,890456,6,0,L|31:276,1,190,8|0,1:0|3:0,0:0:0:0:
25,287,890967,2,0,L|210:240,1,190,8|0,1:0|3:0,0:0:0:0:
391,190,891479,1,8,1:0:0:0:
340,373,891649,1,0,3:0:0:0:
216,229,891820,6,0,P|234:185|270:156,1,95,4|0,0:0|0:0,0:0:0:0:
507,89,892161,2,0,L|322:42,1,190,8|0,1:0|3:0,0:0:0:0:
314,50,892672,2,0,L|499:97,1,190,8|0,1:0|3:0,0:0:0:0:
216,229,893183,5,0,3:0:0:0:
490,200,893354,1,2,0:0:0:0:
490,200,893524,1,8,1:0:0:0:
115,196,893695,1,2,0:0:0:0:
389,225,893865,1,2,0:0:0:0:
389,225,894036,1,0,3:0:0:0:
10,229,894206,1,8,1:0:0:0:
276,297,894377,2,0,P|254:254|215:228,1,95,2|0,0:0|0:0,0:0:0:0:
256,296,905115,6,0,L|256:348,1,38
256,349,905371,1,0,0:0:0:0:
256,364,905456,1,2,0:0:0:0:
78,32,916365,6,0,P|61:66|69:113,1,71.2500027179719,0|0,3:0|0:0,0:0:0:0:
70,110,916621,2,0,L|127:117,1,35.625001358986,2|8,0:0|0:0,0:0:0:0:
184,125,916791,1,2,0:0:0:0:
196,127,916877,1,2,0:0:0:0:
62,201,917047,2,0,L|147:190,1,71.2500027179719,2|0,0:0|3:0,0:0:0:0:
9,271,917388,2,0,L|79:280,1,71.2500027179719,8|0,0:0|0:0,0:0:0:0:
284,287,917729,6,0,L|156:301,1,106.875004076958,0|0,3:0|0:0,0:0:0:0:
162,300,918070,1,10,0:0:0:0:
217,213,918240,1,2,0:0:0:0:
224,200,918326,2,0,P|225:164|208:133,1,71.2500027179719,2|2,0:0|0:0,0:0:0:0:
196,127,918581,1,0,3:0:0:0:
317,69,918752,2,0,L|215:57,1,71.2500027179719,8|0,0:0|0:0,0:0:0:0:
352,320,919092,6,0,P|369:286|361:239,1,71.2500027179719,0|0,3:0|0:0,0:0:0:0:
360,240,919348,2,0,L|417:232,1,35.625001358986,2|8,0:0|0:0,0:0:0:0:
476,221,919518,1,2,0:0:0:0:
488,219,919604,1,2,0:0:0:0:
350,146,919774,2,0,L|442:158,1,71.2500027179719,2|0,0:0|3:0,0:0:0:0:
217,213,920115,2,0,L|287:203,1,71.2500027179719,8|0,0:0|0:0,0:0:0:0:
141,5,920456,6,0,P|114:75|141:160,1,142.500005435944,0|8,3:0|0:0,0:0:0:0:
261,31,920967,1,2,0:0:0:0:
246,29,921053,2,0,P|199:59|193:97,1,71.2500027179719,2|2,0:0|0:0,0:0:0:0:
195,86,921308,1,0,3:0:0:0:
348,139,921479,2,0,P|313:125|289:130,1,35.625001358986,10|2,0:0|0:0,0:0:0:0:
241,160,921649,1,2,0:0:0:0:
367,300,921820,6,0,P|404:307|447:287,1,71.2500027179719,0|0,3:0|0:0,0:0:0:0:
444,287,922076,2,0,L|436:229,1,35.625001358986,2|8,0:0|0:0,0:0:0:0:
429,173,922246,1,2,0:0:0:0:
428,161,922332,1,2,0:0:0:0:
283,333,922502,2,0,L|293:235,1,71.2500027179719,2|0,0:0|3:0,0:0:0:0:
209,384,922842,2,0,L|199:286,1,71.2500027179719,8|8,0:0|0:3,0:0:0:0:
200,298,923098,1,8,0:3:0:0:
198,283,923183,6,0,L|193:235,3,35.625001358986,8|8|8|8,3:0|0:3|0:3|0:3,0:0:0:0:
186,165,923524,1,10,0:0:0:0:
120,284,923695,1,2,0:0:0:0:
107,289,923780,2,0,P|42:272|29:247,1,71.2500027179719,2|2,0:0|0:0,0:0:0:0:
35,259,924036,1,0,3:0:0:0:
51,110,924206,2,0,L|41:192,1,71.2500027179719,8|0,0:0|0:0,0:0:0:0:
266,173,924547,6,0,P|232:156|185:164,1,71.2500027179719,0|0,3:0|0:0,0:0:0:0:
186,165,924803,2,0,L|178:107,1,35.625001358986,2|8,0:0|0:0,0:0:0:0:
167,49,924973,1,2,0:0:0:0:
165,37,925059,1,2,0:0:0:0:
316,108,925229,2,0,L|325:15,1,71.2500027179719,2|0,0:0|3:0,0:0:0:0:
272,243,925570,2,0,L|265:172,1,71.2500027179719,8|0,0:0|0:0,0:0:0:0:
403,366,925911,6,0,P|400:296|349:250,1,142.500005435944,0|8,3:0|0:0,0:0:0:0:
186,264,926422,1,2,0:0:0:0:
199,271,926508,2,0,P|234:272|265:255,1,71.2500027179719,2|2,0:0|0:0,0:0:0:0:
272,243,926763,1,0,3:0:0:0:
194,89,926933,2,0,P|180:123|185:148,1,35.625001358986,10|2,0:0|0:0,0:0:0:0:
214,195,927103,1,2,0:0:0:0:
349,107,927274,6,0,P|350:71|333:40,1,71.2500027179719,0|0,3:0|0:0,0:0:0:0:
322,31,927530,2,0,L|379:23,1,35.625001358986,2|8,0:0|0:0,0:0:0:0:
436,16,927700,1,2,0:0:0:0:
448,14,927786,1,2,0:0:0:0:
305,181,927956,2,0,L|394:192,1,71.2500027179719,2|0,0:0|3:0,0:0:0:0:
164,149,928297,2,0,L|234:140,1,71.2500027179719,8|0,0:0|0:0,0:0:0:0:
446,260,928638,6,0,L|316:276,1,106.875004076958,0|0,3:0|0:0,0:0:0:0:
325,275,928979,1,10,0:0:0:0:
396,374,929149,1,2,0:0:0:0:
383,381,929235,2,0,P|347:382|316:365,1,71.2500027179719,2|2,0:0|0:0,0:0:0:0:
310,353,929490,1,0,3:0:0:0:
383,188,929661,2,0,L|283:177,1,71.2500027179719,8|0,0:0|0:0,0:0:0:0:
126,337,930002,6,0,P|114:303|119:268,1,71.2500027179719,0|0,3:0|0:0,0:0:0:0:
126,255,930257,2,0,L|183:247,1,35.625001358986,2|8,0:0|0:0,0:0:0:0:
240,240,930428,1,2,0:0:0:0:
252,239,930514,1,2,0:0:0:0:
60,163,930683,2,0,L|146:176,1,71.2500027179719,2|0,0:0|3:0,0:0:0:0:
7,92,931024,2,0,L|77:81,1,71.2500027179719,8|0,0:0|0:0,0:0:0:0:
329,51,931365,6,0,P|276:6|207:13,1,142.500005435944,0|8,3:0|0:0,0:0:0:0:
230,173,931877,1,2,0:0:0:0:
242,165,931963,2,0,P|260:135|261:99,1,71.2500027179719,2|2,0:0|0:0,0:0:0:0:
254,88,932218,1,0,3:0:0:0:
217,259,932388,2,0,P|264:252|276:243,1,35.625001358986,10|2,0:0|0:0,0:0:0:0:
320,202,932558,1,2,0:0:0:0:
180,115,932729,6,0,P|144:114|113:131,1,71.2500027179719,2|0,3:2|0:0,0:0:0:0:
104,142,932984,2,0,L|96:85,1,35.625001358986,2|8,0:0|0:0,0:0:0:0:
89,28,933155,1,2,0:0:0:0:
87,16,933241,1,2,0:0:0:0:
13,210,933411,2,0,L|25:123,1,71.2500027179719,2|0,0:0|3:0,0:0:0:0:
88,329,933752,2,0,L|76:242,1,71.2500027179719,8|8,0:0|0:3,0:0:0:0:
90,251,934007,1,8,0:3:0:0:
102,244,934092,6,0,L|95:187,3,35.625001358986,8|8|8|8,3:0|0:3|0:3|0:3,0:0:0:0:
179,211,934433,1,10,0:0:0:0:
304,303,934604,1,2,0:0:0:0:
292,310,934689,2,0,P|256:308|226:290,1,71.2500027179719,2|2,0:0|0:0,0:0:0:0:
219,278,934945,1,0,3:0:0:0:
386,277,935115,2,0,L|376:374,1,71.2500027179719,8|0,0:0|0:0,0:0:0:0:
395,200,935456,6,0,P|426:183|461:184,1,71.2500027179719,0|0,3:0|0:0,0:0:0:0:
474,189,935712,2,0,L|482:132,1,35.625001358986,2|8,0:0|0:0,0:0:0:0:
489,75,935882,1,2,0:0:0:0:
491,63,935968,1,2,0:0:0:0:
350,134,936138,2,0,L|341:43,1,71.2500027179719,2|0,0:0|3:0,0:0:0:0:
387,270,936479,2,0,L|396:179,1,71.2500027179719,8|0,0:0|0:0,0:0:0:0:
261,4,936820,6,0,P|208:47|220:138,1,142.500005435944,0|8,3:0|0:0,0:0:0:0:
369,110,937331,1,2,0:0:0:0:
361,97,937417,2,0,P|330:78|295:77,1,71.2500027179719,2|2,0:0|0:0,0:0:0:0:
284,85,937672,5,0,3:0:0:0:
256,228,937842,2,0,L|261:148,2,47.5,8|4|4,0:0|0:3|0:3,0:0:0:0:
256,228,938183,6,0,P|212:260|172:262,1,85.4999973907472,0|0,3:0|0:0,0:0:0:0:
56,140,938524,1,8,0:0:0:0:
56,140,938609,1,0,0:0:0:0:
56,140,938695,1,0,0:0:0:0:
92,323,938865,1,2,0:0:0:0:
177,192,939036,1,0,3:0:0:0:
258,339,939206,2,0,P|308:329|340:301,1,85.4999973907472,8|0,0:0|0:0,0:0:0:0:
263,123,939547,5,0,3:0:0:0:
270,251,939717,1,0,0:0:0:0:
335,75,939888,2,0,P|256:37|188:79,1,170.999994781494,8|2,0:0|0:0,0:0:0:0:
270,251,940399,1,0,3:0:0:0:
397,174,940570,2,0,P|440:138|448:93,1,85.4999973907472,8|0,0:0|0:0,0:0:0:0:
270,251,940911,6,0,L|173:270,1,85.4999973907472,0|0,3:0|0:0,0:0:0:0:
112,128,941252,1,10,0:0:0:0:
186,267,941422,1,2,0:0:0:0:
40,168,941592,2,0,P|32:104|56:64,1,85.4999973907472,2|0,0:0|3:0,0:0:0:0:
264,128,941933,1,10,0:0:0:0:
186,267,942104,1,2,0:0:0:0:
328,176,942274,6,0,P|336:96|312:64,1,85.4999973907472,0|0,3:0|0:0,0:0:0:0:
186,267,942615,2,0,P|178:347|201:379,1,85.4999973907472,8|0,0:0|0:0,0:0:0:0:
163,178,942956,1,2,0:0:0:0:
252,313,943127,1,0,3:0:0:0:
328,176,943297,1,8,0:0:0:0:
209,240,943467,2,0,L|161:268,1,42.7499986953736
59,319,943638,5,2,3:2:0:0:
110,178,943808,1,2,0:0:0:0:
195,341,943979,1,8,0:0:0:0:
214,149,944149,1,0,0:0:0:0:
276,336,944320,2,0,P|229:351|185:335,1,85.4999973907472,0|0,0:0|3:0,0:0:0:0:
396,273,944661,2,0,L|429:366,1,85.4999973907472,8|0,0:0|0:0,0:0:0:0:
308,180,945002,5,0,3:0:0:0:
230,262,945172,1,0,0:0:0:0:
418,180,945342,2,0,P|388:103|276:77,1,170.999994781494,8|2,0:0|0:0,0:0:0:0:
308,180,945854,1,0,3:0:0:0:
477,105,946024,2,0,P|513:33|501:-2,1,85.4999973907472,8|0,0:0|0:0,0:0:0:0:
424,253,946365,6,0,L|421:355,1,85.4999973907472,0|0,3:0|0:0,0:0:0:0:
308,180,946706,1,8,0:0:0:0:
430,154,946877,1,0,0:0:0:0:
329,273,947047,2,0,P|272:268|220:230,1,85.4999973907472
94,156,947388,5,10,0:0:0:0:
110,327,947558,1,2,0:0:0:0:
177,183,947729,2,0,P|176:133|153:83,1,85.4999973907472,0|2,3:0|0:0,0:0:0:0:
143,79,947984,1,2,0:0:0:0:
120,66,948070,1,10,0:0:0:0:
17,212,948240,5,2,0:0:0:0:
128,272,948411,2,0,P|175:284|235:273,1,85.4999973907472,2|0,0:0|3:0,0:0:0:0:
261,50,948752,1,8,0:0:0:0:
299,246,948922,1,0,0:0:0:0:
299,246,949007,1,0,0:0:0:0:
299,246,949092,5,0,3:0:0:0:
159,141,949263,1,2,0:0:0:0:
363,151,949433,1,10,0:0:0:0:
210,206,949604,1,2,0:0:0:0:
434,201,949774,2,0,P|450:148|436:106,1,85.4999973907472,2|0,0:0|3:0,0:0:0:0:
223,315,950115,2,0,P|295:353|322:349,1,85.4999973907472,8|0,0:0|0:0,0:0:0:0:
145,216,950456,5,0,3:0:0:0:
302,232,950627,1,0,0:0:0:0:
145,216,950797,2,8,P|75:189|32:75,1,170.999994781494,8|2,0:0|0:0,0:0:0:0:
226,124,951308,1,0,3:0:0:0:
161,301,951479,1,8,0:0:0:0:
285,219,951649,1,0,0:0:0:0:
75,285,951820,6,0,P|94:354|125:386,1,85.4999973907472,0|0,3:0|0:0,0:0:0:0:
285,219,952161,1,10,0:0:0:0:
143,146,952331,1,2,0:0:0:0:
339,150,952502,2,0,L|445:152,1,85.4999973907472,2|0,0:0|3:0,0:0:0:0:
143,146,952842,1,10,0:0:0:0:
285,219,953012,1,2,0:0:0:0:
85,220,953183,6,0,L|-36:222,1,85.4999973907472,0|0,3:0|0:0,0:0:0:0:
206,355,953524,2,0,P|255:351|304:324,1,85.4999973907472,8|0,0:0|0:0,0:0:0:0:
177,189,953865,1,2,0:0:0:0:
133,346,954036,1,0,3:0:0:0:
115,123,954206,2,0,P|208:105|258:140,1,128.249996086121,8|0,0:0|0:0,0:0:0:0:
265,163,954547,5,2,3:2:0:0:
87,195,954717,1,2,0:0:0:0:
274,240,954888,1,10,0:0:0:0:
84,285,955058,1,2,0:0:0:0:
314,311,955229,2,0,P|359:238|358:212,1,85.4999973907472,2|0,0:0|3:0,0:0:0:0:
171,347,955570,2,0,P|200:376|239:386,1,42.7499986953736,8|0,0:0|0:0,0:0:0:0:
266,202,955740,2,0,P|241:179|203:173,1,42.7499986953736,2|2,0:3|0:3,0:3:0:0:
91,260,955911,6,0,B|118:261|118:261|148:272|181:255|181:255|209:262,1,85.4999973907472,0|0,3:0|0:0,0:0:0:0:
277,93,956252,1,8,0:0:0:0:
144,180,956422,1,0,0:0:0:0:
163,44,956592,1,2,0:0:0:0:
50,197,956763,1,0,3:0:0:0:
40,3,956933,2,0,P|1:65|-1:105,1,85.4999973907472,8|0,0:0|0:0,0:0:0:0:
91,307,957274,6,0,P|29:311|-17:288,1,85.4999973907472,0|0,3:0|0:0,0:0:0:0:
205,218,957615,1,8,0:0:0:0:
196,344,957786,1,0,0:0:0:0:
393,315,957956,2,0,P|333:323|296:312,1,85.4999973907472,2|0,0:0|3:0,0:0:0:0:
242,150,958297,5,10,0:0:0:0:
350,211,958467,1,2,0:0:0:0:
144,200,958638,2,0,P|144:128|156:104,1,85.4999973907472,0|2,3:0|0:0,0:0:0:0:
176,80,958894,1,2,0:0:0:0:
216,68,958979,1,8,0:0:0:0:
374,77,959149,1,0,0:0:0:0:
208,218,959320,1,2,0:0:0:0:
358,224,959490,1,0,3:0:0:0:
199,332,959661,1,8,0:0:0:0:
419,314,959831,1,2,0:0:0:0:
439,279,959916,1,2,0:0:0:0:
445,241,960002,6,0,P|434:182|377:135,1,104.500003189087,0|0,3:0|0:0,0:0:0:0:
163,127,960342,1,10,0:0:0:0:
322,74,960513,1,2,0:0:0:0:
186,211,960683,2,0,P|117:203|77:163,1,104.500003189087,2|0,0:0|3:0,0:0:0:0:
359,269,961024,2,0,P|406:324|421:380,1,104.500003189087,8|0,0:0|0:0,0:0:0:0:
253,158,961365,5,0,3:0:0:0:
225,334,961536,1,0,0:0:0:0:
392,165,961706,2,0,P|360:93|288:63,1,156.750004783631,8|0,0:0|0:0,0:0:0:0:
303,199,962004,2,0,P|298:138|252:162,1,130.625003986359,0|0,0:0|3:0,0:0:0:0:
225,334,962388,2,0,B|285:348|274:323|352:336,1,104.500003189087,8|0,0:0|0:0,0:0:0:0:
143,283,962729,6,0,P|132:344|141:386,1,104.500003189087,0|0,3:0|0:0,0:0:0:0:
171,159,963070,1,10,0:0:0:0:
225,334,963240,1,2,0:0:0:0:
293,169,963411,2,0,P|304:108|294:65,1,104.500003189087
225,334,963752,1,8,0:0:0:0:
171,159,963922,1,0,0:0:0:0:
290,271,964092,6,0,P|314:343|304:390,1,104.500003189087,0|0,3:0|0:0,0:0:0:0:
171,159,964433,2,0,P|148:62|173:-10,1,156.750004783631,8|0,0:0|0:0,0:0:0:0:
243,136,964732,2,0,P|220:71|247:10,1,130.625003986359,0|0,0:0|3:0,0:0:0:0:
311,209,965115,1,8,0:0:0:0:
167,297,965286,1,0,0:0:0:0:
371,289,965456,6,0,L|256:306,1,104.500003189087,0|0,3:0|0:0,0:0:0:0:
167,297,965797,1,8,0:0:0:0:
311,209,965967,2,0,P|312:129|297:95,1,104.500003189087,0|2,0:0|0:0,0:0:0:0:
140,212,966308,1,0,3:0:0:0:
276,347,966479,2,0,L|431:338,1,104.500003189087,8|0,0:0|0:0,0:0:0:0:
227,230,966820,1,0,3:0:0:0:
132,365,966990,1,0,0:0:0:0:
54,213,967161,6,0,P|44:127|71:51,1,156.750004783631,8|0,0:0|0:0,0:0:0:0:
127,194,967459,2,0,P|117:148|155:66,1,130.625003986359,0|0,0:0|3:0,0:0:0:0:
185,284,967842,2,0,L|71:315,1,104.500003189087,8|0,0:0|0:0,0:0:0:0:
327,130,968183,6,0,P|306:199|315:243,1,104.500003189087,0|0,3:0|0:0,0:0:0:0:
425,301,968524,1,8,0:0:0:0:
419,119,968695,2,0,P|390:63|319:35,1,104.500003189087,0|2,0:0|0:0,0:0:0:0:
229,196,969036,1,0,3:0:0:0:
428,219,969206,2,0,P|502:164|479:33,1,209.000006378174,8|0,0:0|3:0,0:0:0:0:
356,41,969717,5,2,0:0:0:0:
356,41,969803,1,2,0:0:0:0:
356,41,969888,1,8,0:0:0:0:
279,203,970058,2,0,P|242:252|110:215,1,209.000006378174,0|0,0:0|3:0,0:0:0:0:
356,41,970570,2,0,L|359:230,1,132.999995941162,8|0,0:0|0:0,0:0:0:0:
339,247,970825,1,0,0:0:0:0:
278,203,970911,6,0,L|277:49,1,132.999995941162,0|0,3:0|0:0,0:0:0:0:
339,247,971252,1,8,0:0:0:0:
116,176,971422,2,0,P|219:121|253:123,1,104.500003189087,0|2,0:0|0:0,0:0:0:0:
339,247,971763,1,0,3:0:0:0:
127,275,971933,2,0,P|35:219|23:115,1,209.000006378174,8|0,0:0|3:0,0:0:0:0:
203,122,972445,1,0,0:0:0:0:
344,145,972615,2,0,P|399:125|350:69,1,156.750004783631,8|0,0:0|0:0,0:0:0:0:
307,210,972913,2,0,P|370:222|445:190,1,130.625003986359,0|0,0:0|3:0,0:0:0:0:
203,122,973297,2,0,B|214:183|186:171|205:242,1,104.500003189087,8|0,0:0|0:0,0:0:0:0:
236,384,973638,6,0,P|266:337|262:276,1,104.500003189087,0|0,3:0|0:0,0:0:0:0:
131,156,973979,1,8,0:0:0:0:
307,210,974149,2,0,P|346:258|348:323,1,104.500003189087
92,345,974490,1,0,3:0:0:0:
266,289,974661,1,8,0:0:0:0:
131,156,974831,1,0,0:0:0:0:
92,345,975002,6,0,B|144:380|144:380|196:385,1,104.500003189087,0|0,3:0|0:0,0:0:0:0:
376,197,975342,2,0,P|305:219|261:303,1,156.750004783631,8|0,0:0|0:0,0:0:0:0:
391,278,975641,2,0,P|350:280|386:341,1,130.625003986359,0|0,0:0|3:0,0:0:0:0:
478,168,976024,2,0,P|486:132|471:65,1,104.500003189087,8|0,0:0|0:0,0:0:0:0:
228,211,976365,6,0,L|336:231,1,104.500003189087
325,47,976706,1,8,0:0:0:0:
228,211,976877,2,0,P|220:247|235:314,1,104.500003189087
251,83,977217,1,0,3:0:0:0:
342,272,977388,2,0,P|406:300|482:306,1,104.500003189087,8|0,0:0|0:0,0:0:0:0:
415,177,977729,5,0,3:0:0:0:
228,211,977899,1,0,0:0:0:0:
415,177,978070,2,0,P|430:102|408:22,1,156.750004783631,8|0,0:0|0:0,0:0:0:0:
336,165,978368,2,0,P|355:111|321:34,1,130.625003986359,0|0,0:0|3:0,0:0:0:0:
132,240,978752,2,0,P|113:294|132:359,1,104.500003189087,8|0,0:0|0:0,0:0:0:0:
342,293,979092,5,0,3:0:0:0:
192,298,979263,1,2,0:0:0:0:
438,364,979433,1,8,0:0:0:0:
378,219,979604,1,2,0:0:0:0:
292,354,979774,1,2,0:0:0:0:
493,208,979945,1,0,3:0:0:0:
253,201,980114,1,8,0:0:0:0:
253,201,980286,1,2,0:0:0:0:
256,192,980456,12,0,981649,0:0:0:0:
184,153,981820,6,0,L|191:44,1,85.4999973907472,4|0,0:0|0:0,0:0:0:0:
178,238,982161,1,8,0:0:0:0:
253,201,982331,1,2,0:0:0:0:
274,202,982416,1,0,0:0:0:0:
295,203,982501,1,2,0:0:0:0:
316,205,982586,1,0,0:0:0:0:
338,206,982671,1,2,3:2:0:0:
178,238,982842,2,8,L|69:231,1,85.4999973907472,8|2,0:0|0:0,0:0:0:0:
92,232,983098,1,0,0:0:0:0:
92,232,983183,1,2,0:0:0:0:
232,304,983354,5,0,3:0:0:0:
225,121,983524,1,8,0:0:0:0:
258,209,983695,1,2,0:0:0:0:
258,209,983780,1,0,0:0:0:0:
258,209,983865,1,2,0:0:0:0:
281,57,984036,1,2,3:2:0:0:
142,112,984206,1,8,0:0:0:0:
81,54,984377,1,2,0:0:0:0:
81,54,984462,1,0,0:0:0:0:
81,54,984547,6,0,B|58:90|58:90|66:232,1,170.999994781494,0|8,3:0|0:0,0:0:0:0:
78,310,985058,1,2,0:0:0:0:
78,310,985144,1,0,0:0:0:0:
78,310,985229,1,2,0:0:0:0:
142,112,985399,1,2,3:2:0:0:
232,331,985570,1,8,0:0:0:0:
162,284,985740,1,2,0:0:0:0:
162,284,985826,1,0,0:0:0:0:
162,284,985911,1,2,0:0:0:0:
308,296,986081,5,0,3:0:0:0:
203,207,986252,2,0,B|161:197|161:197|98:207,1,85.4999973907472,8|2,0:0|0:0,0:0:0:0:
104,210,986507,1,0,0:0:0:0:
90,219,986592,1,2,0:0:0:0:
74,222,986678,1,0,0:0:0:0:
57,221,986763,1,2,3:2:0:0:
232,129,986933,2,0,B|274:119|274:119|337:129,1,85.4999973907472,8|2,0:0|0:0,0:0:0:0:
315,125,987189,1,0,0:0:0:0:
323,133,987274,6,0,P|367:145|435:128,1,85.4999973907472,0|0,3:0|0:0,0:0:0:0:
283,207,987615,2,0,P|366:226|450:213,1,170.999994781494,8|2,0:0|0:0,0:0:0:0:
374,68,988127,5,2,3:2:0:0:
284,221,988297,2,0,P|366:239|450:226,1,170.999994781494,8|2,0:0|0:0,0:0:0:0:
374,82,988808,5,0,3:0:0:0:
284,235,988979,2,0,P|366:253|450:240,1,170.999994781494,8|2,0:0|0:0,0:0:0:0:
374,96,989490,5,2,3:2:0:0:
218,182,989661,1,8,0:0:0:0:
161,120,989831,1,2,0:0:0:0:
161,120,989916,1,0,0:0:0:0:
161,120,990002,6,0,B|116:111|116:111|85:130|85:130|-17:113,1,170.999994781494,2|8,3:2|0:0,0:0:0:0:
133,200,990513,1,2,0:0:0:0:
153,203,990598,1,0,0:0:0:0:
174,206,990683,1,2,0:0:0:0:
194,209,990768,1,0,0:0:0:0:
214,212,990853,1,2,3:2:0:0:
67,253,991024,5,8,0:0:0:0:
112,329,991195,1,2,0:0:0:0:
132,332,991280,1,0,0:0:0:0:
153,335,991365,1,2,0:0:0:0:
173,338,991450,1,2,0:0:0:0:
193,341,991535,1,2,3:2:0:0:
47,383,991706,5,8,0:0:0:0:
193,341,991877,1,2,0:0:0:0:
196,321,991962,1,0,0:0:0:0:
199,300,992047,1,2,0:0:0:0:
202,280,992132,1,0,0:0:0:0:
205,260,992217,1,2,3:2:0:0:
266,384,992388,1,8,0:0:0:0:
342,342,992558,1,2,0:0:0:0:
342,342,992644,1,0,0:0:0:0:
342,342,992729,6,0,L|462:356,1,85.4999973907472,0|0,3:0|0:0,0:0:0:0:
512,220,993070,2,0,L|392:206,1,85.4999973907472,8|2,0:0|0:0,0:0:0:0:
397,238,993325,1,0,0:0:0:0:
397,238,993411,2,0,B|354:246|354:246|303:230,1,85.4999973907472,2|2,0:0|3:2,0:0:0:0:
463,135,993752,2,0,B|420:127|420:127|369:143,1,85.4999973907472,8|2,0:0|0:0,0:0:0:0:
231,238,994092,6,0,B|274:246|274:246|325:230,1,85.4999973907472,2|0,0:0|3:0,0:0:0:0:
165,135,994433,2,0,B|208:127|208:127|259:143,1,85.4999973907472,8|2,0:0|0:0,0:0:0:0:
397,238,994774,6,0,B|354:246|354:246|303:230,1,85.4999973907472,2|2,0:0|3:2,0:0:0:0:
463,135,995115,2,0,B|420:127|420:127|369:143,1,85.4999973907472,8|2,0:0|0:0,0:0:0:0:
368,144,995371,1,0,0:0:0:0:
356,148,995456,6,0,B|315:120|315:120|189:132,1,170.999994781494,2|8,3:2|0:0,0:0:0:0:
203,216,995967,1,2,0:0:0:0:
223,214,996052,1,0,0:0:0:0:
244,213,996137,1,2,0:0:0:0:
264,211,996222,1,0,0:0:0:0:
284,209,996307,1,2,3:2:0:0:
142,274,996479,5,8,0:0:0:0:
204,332,996649,1,2,0:0:0:0:
224,330,996734,1,0,0:0:0:0:
245,329,996819,1,2,0:0:0:0:
265,327,996904,1,0,0:0:0:0:
285,326,996989,1,2,3:2:0:0:
136,382,997161,5,8,0:0:0:0:
63,338,997331,1,2,0:0:0:0:
61,318,997416,1,0,0:0:0:0:
60,297,997501,1,2,0:0:0:0:
58,277,997586,1,0,0:0:0:0:
57,257,997671,1,2,3:2:0:0:
204,332,997842,1,0,0:0:0:0:
227,251,998013,1,2,0:0:0:0:
227,251,998098,1,0,0:0:0:0:
227,251,998183,6,0,L|332:245,1,85.4999973907472,2|0,3:2|0:0,0:0:0:0:
451,307,998524,2,0,L|366:312,1,85.4999973907472,8|2,0:0|0:0,0:0:0:0:
366,312,998780,1,0,0:0:0:0:
366,312,998865,1,2,0:0:0:0:
497,237,999036,5,2,3:2:0:0:
389,147,999206,2,0,L|303:151,1,85.4999973907472,8|2,0:0|0:0,0:0:0:0:
304,152,999462,1,0,0:0:0:0:
304,152,999547,1,2,0:0:0:0:
457,96,999717,5,2,3:2:0:0:
347,10,999888,2,0,L|261:14,1,85.4999973907472,8|2,0:0|0:0,0:0:0:0:
262,15,1000144,1,0,0:0:0:0:
262,15,1000229,1,2,0:0:0:0:
108,69,1000399,5,0,3:0:0:0:
218,155,1000570,2,0,L|304:151,1,85.4999973907472,8|2,0:0|0:0,0:0:0:0:
311,158,1000826,1,0,0:0:0:0:
311,158,1000911,6,0,B|342:238|342:238|311:329,1,170.999994781494,2|8,3:2|0:0,0:0:0:0:
254,237,1001422,1,2,0:0:0:0:
254,237,1001507,1,0,0:0:0:0:
254,237,1001592,1,2,0:0:0:0:
419,239,1001763,1,2,3:2:0:0:
262,384,1001933,1,8,0:0:0:0:
215,313,1002104,1,2,0:0:0:0:
215,313,1002189,1,0,0:0:0:0:
215,313,1002274,1,2,0:0:0:0:
395,321,1002445,5,0,3:0:0:0:
309,165,1002615,1,8,0:0:0:0:
375,113,1002786,1,2,0:0:0:0:
390,144,1002871,1,0,0:0:0:0:
391,180,1002956,1,2,0:0:0:0:
377,212,1003041,1,2,0:0:0:0:
351,237,1003126,1,2,0:0:0:0:
318,248,1003212,1,2,0:0:0:0:
283,245,1003297,5,10,0:0:0:0:
234,224,1003382,1,2,0:0:0:0:
181,228,1003467,1,2,0:0:0:0:
137,257,1003552,1,2,0:0:0:0:
112,304,1003637,1,2,3:2:0:0:
217,329,1003808,1,0,0:0:0:0:
116,176,1003979,6,0,P|129:102|224:71,1,170.999994781494,8|2,0:0|0:0,0:0:0:0:
245,216,1004490,2,0,P|211:191|197:152,1,85.4999973907472,0|8,3:0|0:0,0:0:0:0:
328,229,1004831,2,0,P|311:267|277:293,1,85.4999973907472,2|2,0:0|0:0,0:0:0:0:
339,147,1005172,2,0,P|378:164|404:198,1,85.4999973907472,0|8,3:0|0:0,0:0:0:0:
278,294,1005513,1,2,0:0:0:0:
283,273,1005598,1,0,0:0:0:0:
294,255,1005683,1,2,0:0:0:0:
309,240,1005768,1,0,0:0:0:0:
328,229,1005853,1,2,3:2:0:0:
425,357,1006024,2,0,P|386:340|361:307,1,85.4999973907472,8|0,0:0|0:0,0:0:0:0:
404,198,1006365,5,0,3:0:0:0:
438,274,1006536,1,0,0:0:0:0:
328,229,1006706,2,0,B|291:212|291:212|227:226,1,85.4999973907472,8|2,0:0|0:0,0:0:0:0:
247,221,1006962,1,0,0:0:0:0:
247,221,1007047,1,2,0:0:0:0:
360,306,1007217,1,2,3:2:0:0:
247,221,1007388,2,0,B|210:204|210:204|146:218,1,85.4999973907472,8|2,0:0|0:0,0:0:0:0:
166,213,1007644,1,0,0:0:0:0:
166,213,1007729,1,2,0:0:0:0:
276,301,1007899,5,0,3:0:0:0:
166,213,1008070,2,0,B|129:196|129:196|65:210,1,85.4999973907472,8|2,0:0|0:0,0:0:0:0:
86,206,1008326,1,0,0:0:0:0:
86,206,1008411,1,2,0:0:0:0:
196,294,1008581,1,2,3:2:0:0:
86,206,1008752,2,0,B|49:189|49:189|-15:203,1,85.4999973907472,8|2,0:0|0:0,0:0:0:0:
2,203,1009008,1,0,0:0:0:0:
0,208,1009092,2,0,P|-5:162|15:95,1,85.4999973907472,2|0,3:2|0:0,0:0:0:0:
190,26,1009433,6,0,P|116:39|85:134,1,170.999994781494,8|2,0:0|0:0,0:0:0:0:
230,155,1009945,2,0,P|205:121|166:107,1,85.4999973907472,2|10,3:2|0:0,0:0:0:0:
243,238,1010285,2,0,P|281:221|307:187,1,85.4999973907472,2|2,0:0|0:0,0:0:0:0:
161,249,1010627,2,0,P|178:288|212:314,1,85.4999973907472,0|8,3:0|0:0,0:0:0:0:
308,188,1010967,1,2,0:0:0:0:
287,193,1011052,1,0,0:0:0:0:
269,204,1011137,1,2,0:0:0:0:
254,219,1011222,1,0,0:0:0:0:
243,238,1011307,1,2,3:2:0:0:
371,335,1011478,2,0,P|354:296|321:271,1,85.4999973907472,8|2,0:0|0:0,0:0:0:0:
161,249,1011820,5,2,3:2:0:0:
216,311,1011990,1,0,0:0:0:0:
188,169,1012161,1,8,0:0:0:0:
105,185,1012331,1,2,0:0:0:0:
105,185,1012416,1,0,0:0:0:0:
105,185,1012502,1,2,0:0:0:0:
134,329,1012672,5,2,3:2:0:0:
243,232,1012842,1,8,0:0:0:0:
315,308,1013013,1,2,0:0:0:0:
315,308,1013098,1,0,0:0:0:0:
315,308,1013184,1,2,0:0:0:0:
315,308,1013269,1,0,0:0:0:0:
315,308,1013354,6,0,L|386:308,1,42.7499986953736,2|2,3:2|0:0,0:0:0:0:
440,310,1013524,1,8,0:0:0:0:
510,253,1013695,1,2,0:0:0:0:
510,253,1013780,1,0,0:0:0:0:
510,253,1013866,1,2,0:0:0:0:
510,253,1013951,1,0,0:0:0:0:
510,253,1014036,6,0,L|510:182,1,42.7499986953736,2|2,3:2|0:0,0:0:0:0:
512,128,1014206,1,8,0:0:0:0:
377,181,1014377,1,2,0:0:0:0:
377,181,1014462,1,0,0:0:0:0:
377,181,1014547,2,0,P|333:187|282:171,1,85.4999973907472,2|0,3:2|0:0,0:0:0:0:
77,118,1014888,6,0,P|117:55|216:63,1,170.999994781494,8|2,2:0|2:0,2:0:0:0:
179,202,1015399,2,0,P|157:164|159:124,1,85.4999973907472,2|8,3:2|2:0,2:0:0:0:
251,247,1015740,2,0,P|219:275|178:285,1,85.4999973907472,2|2,2:0|2:0,2:0:0:0:
293,177,1016081,2,0,P|321:208|332:248,1,85.4999973907472,2|8,3:2|0:0,2:0:0:0:
178,285,1016422,1,2,2:0:0:0:
191,268,1016507,1,0,2:0:0:0:
210,257,1016592,1,2,2:0:0:0:
230,249,1016677,1,0,2:0:0:0:
251,247,1016762,1,2,3:2:0:0:
105,329,1016933,2,0,P|93:287|103:247,1,85.4999973907472,8|2,0:0|2:0,2:0:0:0:
270,114,1017274,6,0,L|165:120,1,85.4999973907472,0|0,3:0|0:0,0:0:0:0:
46,58,1017615,2,0,L|131:53,1,85.4999973907472,8|2,0:0|0:0,0:0:0:0:
131,53,1017871,1,0,0:0:0:0:
131,53,1017956,1,2,0:0:0:0:
0,128,1018127,5,2,3:2:0:0:
108,218,1018297,2,0,L|194:214,1,85.4999973907472,8|2,0:0|0:0,0:0:0:0:
193,213,1018553,1,0,0:0:0:0:
193,213,1018638,1,2,0:0:0:0:
40,269,1018808,5,0,3:0:0:0:
150,355,1018979,2,0,L|236:351,1,85.4999973907472,8|2,0:0|0:0,0:0:0:0:
235,350,1019235,1,0,0:0:0:0:
235,350,1019320,1,2,0:0:0:0:
389,296,1019490,5,2,3:2:0:0:
279,210,1019661,2,0,L|193:214,1,85.4999973907472,8|2,0:0|0:0,0:0:0:0:
189,209,1019917,1,0,0:0:0:0:
184,204,1020002,6,0,B|153:124|153:124|184:33,2,170.999994781494,2|8|2,3:2|0:0|0:0,0:0:0:0:
263,38,1020854,2,0,B|220:29|220:29|180:43,1,85.4999973907472,2|8,3:2|0:0,0:0:0:0:
184,204,1021195,2,0,B|224:218|224:218|266:209,1,85.4999973907472,2|2,0:0|0:0,0:0:0:0:
330,86,1021536,1,0,3:0:0:0:
108,84,1021706,1,8,0:0:0:0:
181,43,1021877,1,2,0:0:0:0:
201,41,1021962,1,0,0:0:0:0:
222,40,1022047,1,2,0:0:0:0:
242,38,1022132,1,0,0:0:0:0:
262,37,1022217,1,2,3:2:0:0:
416,86,1022388,2,0,L|298:85,1,85.4999973907472,8|2,0:0|0:0,0:0:0:0:
108,84,1022729,5,0,3:0:0:0:
219,123,1022899,1,0,0:0:0:0:
331,86,1023070,1,8,0:0:0:0:
219,123,1023240,1,2,0:0:0:0:
222,165,1023325,1,0,0:0:0:0:
225,208,1023410,1,2,0:0:0:0:
254,207,1023496,1,0,0:0:0:0:
282,206,1023581,1,2,3:2:0:0:
217,38,1023752,1,8,0:0:0:0:
108,84,1023922,2,0,L|111:140,2,42.7499986953736,2|0|2,0:0|0:0|0:0,0:0:0:0:
44,29,1024263,5,2,0:0:0:0:
0,100,1024433,5,2,0:0:0:0:
44,171,1024604,5,2,0:0:0:0:
0,242,1024774,5,2,0:0:0:0:
0,242,1025115,5,2,0:0:0:0:
0,242,1025456,6,0,L|7:333,1,85.4999973907472,0|0,3:0|0:0,0:0:0:0:
84,243,1025797,2,0,L|91:334,1,85.4999973907472,8|0,0:0|0:0,0:0:0:0:
168,244,1026138,2,0,L|175:335,1,85.4999973907472,2|0,0:0|3:0,0:0:0:0:
250,190,1026479,6,0,L|264:361,1,170.999994781494,8|2,0:0|0:0,0:0:0:0:
168,244,1026990,1,0,3:0:0:0:
333,137,1027161,6,0,L|346:307,1,170.999994781494,8|2,0:0|0:0,0:0:0:0:
250,190,1027672,1,0,3:0:0:0:
416,84,1027842,6,0,L|429:254,2,170.999994781494,8|0|8,0:0|3:0|0:0,0:0:0:0:
408,0,1028695,1,2,0:0:0:0:
408,0,1028781,1,0,0:0:0:0:
408,0,1028866,1,2,0:0:0:0:
507,174,1029036,1,2,3:2:0:0:
339,185,1029206,6,0,L|168:198,1,170.999994781494,8|2,0:0|0:0,0:0:0:0:
259,107,1029717,1,0,3:0:0:0:
176,283,1029888,6,0,L|346:269,1,170.999994781494,8|2,0:0|0:0,0:0:0:0:
256,361,1030399,1,0,3:0:0:0:
339,185,1030570,6,0,L|168:198,2,170.999994781494,8|0|8,0:0|3:0|0:0,0:0:0:0:
430,185,1031422,1,2,0:0:0:0:
430,185,1031507,1,0,0:0:0:0:
430,185,1031592,1,2,0:0:0:0:
262,276,1031763,1,2,3:2:0:0:
342,98,1031933,6,0,L|512:84,1,170.999994781494,8|2,0:0|0:0,0:0:0:0:
422,176,1032444,1,0,3:0:0:0:
171,111,1032615,6,0,L|341:97,1,170.999994781494,8|2,0:0|0:0,0:0:0:0:
251,189,1033126,1,0,3:0:0:0:
0,124,1033297,6,0,L|170:110,2,170.999994781494,8|0|8,0:0|3:0|0:0,0:0:0:0:
101,209,1034149,1,2,0:0:0:0:
101,209,1034234,1,0,0:0:0:0:
101,209,1034320,1,2,0:0:0:0:
79,35,1034490,1,2,3:2:0:0:
260,112,1034661,6,0,L|273:282,1,170.999994781494,8|2,0:0|0:0,0:0:0:0:
182,192,1035172,1,0,3:0:0:0:
357,273,1035342,6,0,L|343:102,1,170.999994781494,8|2,0:0|0:0,0:0:0:0:
435,193,1035854,1,0,3:0:0:0:
182,192,1036024,1,8,0:0:0:0:
271,206,1036195,1,0,0:0:0:0:
427,103,1036365,6,0,L|420:12,1,85.4999973907472,0|0,3:0|0:0,0:0:0:0:
343,102,1036706,2,0,L|336:11,1,85.4999973907472,8|0,0:0|0:0,0:0:0:0:
259,101,1037047,2,0,L|252:10,1,85.4999973907472,2|0,0:0|3:0,0:0:0:0:
175,100,1037388,1,8,0:0:0:0:
215,173,1037558,6,0,L|218:217,1,42.7499986953736,2|0,0:0|0:0,0:0:0:0:
175,100,1037729,2,0,L|172:56,1,42.7499986953736,2|0,0:0|0:0,0:0:0:0:
127,168,1037899,1,2,3:2:0:0:
259,101,1038070,1,8,0:0:0:0:
299,174,1038240,6,0,L|302:218,1,42.7499986953736,2|0,0:0|0:0,0:0:0:0:
259,101,1038411,2,0,L|256:57,1,42.7499986953736,2|0,0:0|0:0,0:0:0:0:
215,173,1038581,1,2,3:2:0:0:
343,102,1038752,1,8,0:0:0:0:
382,176,1038922,2,0,L|385:220,1,42.7499986953736,2|0,0:0|0:0,0:0:0:0:
342,290,1039092,6,0,B|305:302|305:302|147:277,1,170.999994781494,0|8,3:0|0:0,0:0:0:0:
214,208,1039604,6,0,L|217:164,1,42.7499986953736,2|0,0:0|0:0,0:0:0:0:
174,281,1039775,2,0,L|171:325,1,42.7499986953736,2|0,0:0|0:0,0:0:0:0:
126,213,1039945,1,2,3:2:0:0:
258,280,1040116,1,8,0:0:0:0:
302,208,1040286,6,0,L|299:164,1,42.7499986953736,2|0,0:0|0:0,0:0:0:0:
342,281,1040457,2,0,L|345:325,1,42.7499986953736,2|0,0:0|0:0,0:0:0:0:
390,213,1040627,1,2,3:2:0:0:
258,280,1040798,1,8,0:0:0:0:
389,212,1040967,6,0,L|387:170,1,42.7499986953736,2|0,0:0|0:0,0:0:0:0:
347,97,1041138,2,0,L|344:53,1,42.7499986953736,2|0,0:0|0:0,0:0:0:0:
299,165,1041308,1,2,3:2:0:0:
431,98,1041479,1,8,0:0:0:0:
469,174,1041649,2,0,L|471:216,1,42.7499986953736,2|0,0:0|0:0,0:0:0:0:
494,305,1041820,6,0,P|464:308|483:295,1,56.9999982604981,2|0,3:2|0:0,0:0:0:0:
280,291,1042161,6,0,L|269:190,1,85.4999973907472,8|2,0:0|0:0,0:0:0:0:
299,165,1042416,1,0,0:0:0:0:
299,165,1042502,2,0,L|293:108,1,42.7499986953736,2|0,0:0|0:0,0:0:0:0:
253,334,1042672,2,0,L|257:376,1,42.7499986953736,2|0,3:2|0:0,0:0:0:0:
354,228,1042842,1,8,0:0:0:0:
200,161,1043013,2,0,L|157:165,2,42.7499986953736,2|0|2,0:0|0:0|0:0,0:0:0:0:
368,82,1043354,5,0,3:0:0:0:
354,228,1043524,1,8,0:0:0:0:
299,165,1043695,1,2,0:0:0:0:
299,165,1043780,1,0,0:0:0:0:
299,165,1043865,1,2,0:0:0:0:
253,334,1044036,1,2,3:2:0:0:
354,228,1044206,1,0,0:0:0:0:
423,293,1044377,1,2,0:0:0:0:
423,293,1044462,1,0,0:0:0:0:
423,293,1044547,6,0,B|391:316|391:316|343:311,1,85.4999973907472,0|0,3:0|0:0,0:0:0:0:
179,291,1044888,1,8,0:0:0:0:
220,206,1045058,2,0,B|121:186|156:238|34:209,1,170.999994781494,2|2,0:0|3:2,0:0:0:0:
94,47,1045570,2,0,P|105:88|98:130,1,85.4999973907472,8|2,0:0|0:0,0:0:0:0:
97,130,1045825,1,0,0:0:0:0:
97,130,1047104,5,8,0:3:0:0:
97,130,1047189,1,4,3:0:0:0:
97,130,1047274,6,0,B|140:140|140:140|209:126,1,85.4999973907472,4|0,0:0|0:0,0:0:0:0:
337,91,1047615,2,0,B|294:81|294:81|254:90,1,85.4999973907472,8|2,0:0|0:0,0:0:0:0:
254,90,1047871,1,2,0:0:0:0:
254,90,1047956,1,2,0:0:0:0:
409,174,1048127,2,0,L|411:132,1,42.7499986953736,0|0,3:0|0:0,0:0:0:0:
254,186,1048297,2,0,B|252:234|252:234|266:263|266:263|260:314,1,128.249996086121,8|2,0:0|0:0,0:0:0:0:
263,320,1048638,6,0,L|356:329,1,85.4999973907472,0|0,3:0|0:0,0:0:0:0:
507,294,1048979,2,0,L|422:286,1,85.4999973907472,8|2,0:0|0:0,0:0:0:0:
420,274,1049234,1,2,0:0:0:0:
418,262,1049320,1,2,0:0:0:0:
416,250,1049405,1,2,0:0:0:0:
414,238,1049490,1,2,3:2:0:0:
426,371,1049661,1,8,0:0:0:0:
480,184,1049831,1,2,0:0:0:0:
478,172,1049916,1,2,0:0:0:0:
476,160,1050002,6,0,B|407:145|407:145|366:160|366:160|311:147,1,170.999994781494,0|8,3:0|0:0,0:0:0:0:
320,62,1050513,2,0,L|361:71,2,42.7499986953736,2|2|2,0:0|0:0|0:0,0:0:0:0:
414,238,1050854,1,0,3:0:0:0:
512,82,1051024,1,8,0:0:0:0:
440,39,1051195,1,0,0:0:0:0:
495,259,1051365,6,0,P|462:307|342:281,1,170.999994781494,0|8,3:0|0:0,0:0:0:0:
423,197,1051877,2,0,L|414:238,2,42.7499986953736,2|2|2,0:0|0:0|0:0,0:0:0:0:
361,71,1052217,1,0,3:0:0:0:
299,243,1052388,1,8,0:0:0:0:
239,184,1052558,1,2,0:0:0:0:
239,184,1052644,1,2,0:0:0:0:
239,184,1052729,6,0,P|186:151|94:196,1,170.999994781494,0|8,3:0|0:0,0:0:0:0:
97,279,1053240,1,2,0:0:0:0:
170,234,1053411,1,2,0:0:0:0:
23,238,1053581,1,2,3:2:0:0:
173,318,1053752,2,0,B|221:320|221:320|250:306|250:306|301:312,1,128.249996086121,8|2,0:0|0:0,0:0:0:0:
307,309,1054092,6,0,B|317:267|317:267|310:216,1,85.4999973907472,0|0,3:0|0:0,0:0:0:0:
258,69,1054433,2,0,B|248:111|248:111|255:162,1,85.4999973907472,8|2,0:0|0:0,0:0:0:0:
253,152,1054689,1,2,0:0:0:0:
253,152,1054774,1,2,0:0:0:0:
188,24,1054945,2,0,L|146:22,1,42.7499986953736,0|0,3:0|0:0,0:0:0:0:
62,16,1055115,1,8,0:0:0:0:
106,101,1055286,1,2,0:0:0:0:
106,101,1055371,1,2,0:0:0:0:
106,101,1055456,6,0,B|121:170|121:170|106:211|106:211|119:266,1,170.999994781494,2|8,3:2|0:0,0:0:0:0:
200,224,1055967,1,2,0:0:0:0:
200,224,1056053,1,2,0:0:0:0:
200,224,1056138,1,2,0:0:0:0:
37,157,1056308,1,2,3:2:0:0:
181,61,1056479,2,0,B|225:53|225:53|288:61,1,85.4999973907472,8|2,0:0|0:0,0:0:0:0:
275,61,1056734,1,2,0:0:0:0:
284,65,1056820,6,0,P|317:139|276:236,1,170.999994781494,2|8,3:2|0:0,0:0:0:0:
388,218,1057331,2,0,P|411:219|430:216,2,42.7499986953736,2|2|2,0:0|0:0|0:0,0:0:0:0:
360,20,1057672,1,2,3:2:0:0:
239,288,1057842,1,8,0:0:0:0:
179,227,1058013,1,2,0:0:0:0:
179,227,1058098,1,2,0:0:0:0:
179,227,1058183,6,0,L|-3:247,2,170.999994781494,2|8|2,3:2|0:0|0:0,0:0:0:0:
104,321,1059036,1,0,3:0:0:0:
88,151,1059206,1,8,0:0:0:0:
179,227,1059377,1,2,0:0:0:0:
179,227,1059462,1,2,0:0:0:0:
179,227,1059547,6,0,P|224:234|295:212,1,85.4999973907472,0|0,3:0|0:0,0:0:0:0:
405,166,1059888,2,0,P|363:159|321:166,1,85.4999973907472,8|2,0:0|0:0,0:0:0:0:
321,166,1060144,1,2,0:0:0:0:
321,166,1060229,1,2,0:0:0:0:
311,296,1060399,1,2,3:2:0:0:
479,207,1060570,1,8,0:0:0:0:
255,119,1060740,1,2,0:0:0:0:
255,119,1060825,1,2,0:0:0:0:
255,119,1060911,6,0,B|186:134|186:134|145:119|145:119|90:132,2,170.999994781494,2|8|2,3:2|0:0|0:0,0:0:0:0:
139,208,1061763,1,0,3:0:0:0:
191,46,1061933,2,0,L|301:19,1,85.4999973907472,8|0,0:0|0:0,0:0:0:0:
493,95,1062274,6,0,P|413:68|336:101,1,170.999994781494,0|8,3:0|0:0,0:0:0:0:
374,179,1062786,2,0,P|380:199|375:220,2,42.7499986953736,2|2|2,0:0|0:0|0:0,0:0:0:0:
314,278,1063127,1,0,3:0:0:0:
261,138,1063297,2,0,P|200:122|157:144,1,85.4999973907472,8|2,0:0|0:0,0:0:0:0:
173,132,1063553,1,2,0:0:0:0:
167,137,1063638,6,0,P|124:149|66:139,1,85.4999973907472,0|0,3:0|0:0,0:0:0:0:
22,219,1063979,6,0,L|21:261,1,42.7499986953736,10|0,0:0|0:0,0:0:0:0:
104,231,1064149,2,0,L|104:274,1,42.7499986953736,2|0,0:0|0:0,0:0:0:0:
17,372,1064320,6,0,L|18:344,1,28.4999991302491,2|0,0:0|0:0,0:0:0:0:
105,384,1064490,2,0,L|106:356,1,28.4999991302491,2|0,3:2|0:0,0:0:0:0:
179,313,1064661,5,8,0:0:0:0:
104,274,1064831,1,0,0:0:0:0:
291,216,1065002,6,0,P|336:220|384:269,1,85.4999973907472,0|0,3:0|0:0,0:0:0:0:
305,382,1065342,2,0,B|298:337|298:337|304:296,1,85.4999973907472,8|2,0:0|0:0,0:0:0:0:
303,297,1065598,1,2,0:0:0:0:
303,297,1065683,1,2,0:0:0:0:
387,344,1065854,1,0,3:0:0:0:
218,340,1066024,1,8,0:0:0:0:
291,216,1066195,1,2,0:0:0:0:
291,216,1066280,1,2,0:0:0:0:
291,216,1066365,6,0,B|306:147|306:147|291:106|291:106|304:51,2,170.999994781494,2|8|2,3:2|0:0|0:0,0:0:0:0:
379,100,1067217,1,0,3:0:0:0:
219,161,1067388,2,0,L|136:145,1,85.4999973907472,8|0,0:0|0:0,0:0:0:0:
280,103,1067729,6,0,P|299:186|236:243,1,170.999994781494,0|8,3:0|0:0,0:0:0:0:
219,161,1068240,1,2,0:0:0:0:
280,103,1068411,1,2,0:0:0:0:
244,242,1068581,1,0,3:0:0:0:
23,98,1068752,2,0,P|74:87|133:114,1,85.4999973907472,2|0,0:0|0:0,0:0:0:0:
149,122,1069007,1,2,0:0:0:0:
149,122,1069092,6,0,L|138:7,1,85.4999973907472,0|0,3:0|0:0,0:0:0:0:
67,169,1069433,1,8,0:0:0:0:
127,224,1069604,2,0,P|90:177|27:171,1,85.4999973907472,2|0,0:0|0:0,0:0:0:0:
47,249,1069945,1,0,3:0:0:0:
149,122,1070115,1,8,0:0:0:0:
72,84,1070286,1,0,0:0:0:0:
141,38,1070456,2,0,P|101:53|72:84,1,85.4999973907472,2|0,3:2|0:0,0:0:0:0:
149,122,1070797,5,8,0:0:0:0:
196,190,1070967,2,0,P|180:150|149:121,1,85.4999973907472,2|0,0:0|0:0,0:0:0:0:
74,217,1071308,2,0,P|91:205|112:199,1,42.7499986953736,2|0,3:2|0:0,0:0:0:0:
167,300,1071479,2,0,P|150:288|130:282,1,42.7499986953736,10|0,0:0|0:0,0:0:0:0:
59,332,1071649,1,2,0:0:0:0:
59,332,1071734,1,2,0:0:0:0:
59,332,1071820,6,0,P|131:323|214:388,1,170.999994781494,2|8,3:2|0:0,0:0:0:0:
271,322,1072331,1,2,0:0:0:0:
410,348,1072502,5,2,0:0:0:0:
271,322,1072672,1,2,3:2:0:0:
297,183,1072842,1,2,0:0:0:0:
436,209,1073013,1,2,0:0:0:0:
354,265,1073183,5,0,0:0:0:0:
297,183,1073354,1,0,0:0:0:0:
380,123,1073524,1,0,0:0:0:0:
312,78,1073695,2,0,P|352:93|381:125,1,85.4999973907472,2|0,0:0|0:0,0:0:0:0:
219,118,1074036,1,0,3:0:0:0:
439,36,1074206,1,8,0:0:0:0:
506,239,1074377,1,2,3:2:0:0:
471,224,1074462,1,2,0:0:0:0:
436,209,1074547,5,2,3:2:0:0:
503,144,1074717,1,0,0:0:0:0:
469,314,1074888,2,0,L|362:271,2,85.4999973907472,8|0|0,0:0|0:0|0:0,0:0:0:0:
332,343,1075399,1,0,3:0:0:0:
436,209,1075570,1,8,0:0:0:0:
469,314,1075740,1,0,0:0:0:0:
393,283,1075911,6,0,P|435:289|470:314,1,85.4999973907472,2|0,3:2|0:0,0:0:0:0:
332,343,1076252,1,8,0:0:0:0:
255,373,1076422,2,0,P|290:349|332:343,1,85.4999973907472,2|0,0:0|0:0,0:0:0:0:
278,268,1076763,2,0,P|266:251|260:230,1,42.7499986953736,2|0,3:2|0:0,0:0:0:0:
361,175,1076934,2,0,P|349:192|343:212,1,42.7499986953736,10|0,0:0|0:0,0:0:0:0:
393,283,1077104,1,2,0:0:0:0:
393,283,1077189,1,2,0:0:0:0:
393,283,1077275,6,0,P|384:211|449:128,1,170.999994781494,2|8,3:2|0:0,0:0:0:0:
407,56,1077786,2,0,P|413:98|438:133,1,85.4999973907472,2|0,0:0|0:0,0:0:0:0:
494,70,1078127,1,0,3:0:0:0:
306,48,1078297,1,8,0:0:0:0:
250,110,1078467,1,0,0:0:0:0:
23,31,1078638,6,0,P|106:24|172:76,1,170.999994781494,2|8,3:2|0:0,0:0:0:0:
127,225,1079149,2,0,P|120:141|172:75,1,170.999994781494,2|2,0:0|3:2,0:0:0:0:
270,217,1079661,2,0,B|219:224|219:224|190:217|190:217|141:224,1,128.249996086121,8|2,0:0|0:0,0:0:0:0:
127,225,1080002,6,0,B|95:271|108:354|108:354|114:318|134:288,1,170.999994781494,0|8,3:0|0:0,0:0:0:0:
195,349,1080513,2,0,P|160:324|118:318,1,85.4999973907472,2|0,0:0|0:0,0:0:0:0:
22,340,1080854,1,0,3:0:0:0:
255,288,1081024,2,0,B|296:293|296:293|352:328,1,85.4999973907472,8|0,0:0|0:0,0:0:0:0:
512,178,1081365,6,0,P|428:171|362:223,1,170.999994781494,2|8,3:2|0:0,0:0:0:0:
368,304,1081876,2,0,P|372:243|335:195,1,85.4999973907472,2|0,0:0|0:0,0:0:0:0:
181,256,1082217,2,0,P|169:239|163:218,1,42.7499986953736,2|0,3:2|0:0,0:0:0:0:
264,163,1082388,2,0,P|252:180|246:200,1,42.7499986953736,10|0,0:0|0:0,0:0:0:0:
296,271,1082558,1,2,0:0:0:0:
296,271,1082643,1,2,0:0:0:0:
296,271,1082729,6,0,P|287:199|352:116,1,170.999994781494,2|8,3:2|0:0,0:0:0:0:
491,167,1083240,2,0,P|419:176|336:111,1,170.999994781494,2|0,0:0|3:0,0:0:0:0:
162,38,1083752,2,0,P|101:33|53:70,1,85.4999973907472,8|0,0:0|0:0,0:0:0:0:
247,169,1084092,6,0,B|247:93|247:93|253:83|253:83|254:-18,1,170.999994781494,2|8,3:2|0:0,0:0:0:0:
336,3,1084604,2,0,P|287:11|242:-9,1,85.4999973907472,2|0,0:0|0:0,0:0:0:0:
162,38,1084945,1,0,3:0:0:0:
362,141,1085115,2,0,P|405:132|458:143,1,85.4999973907472,8|0,0:0|0:0,0:0:0:0:
442,143,1085371,1,2,0:0:0:0:
438,147,1085456,6,0,P|417:71|485:7,1,170.999994781494,2|10,3:2|0:0,0:0:0:0:
497,89,1085967,1,2,0:0:0:0:
331,152,1086138,1,0,0:0:0:0:
497,89,1086308,1,0,3:0:0:0:
292,58,1086479,1,8,0:0:0:0:
331,152,1086649,1,0,0:0:0:0:
249,148,1086820,6,0,P|298:140|343:160,1,85.4999973907472,2|0,3:2|0:0,0:0:0:0:
183,201,1087161,1,8,0:0:0:0:
169,120,1087331,2,0,P|165:162|182:200,1,85.4999973907472,2|0,0:0|0:0,0:0:0:0:
300,255,1087671,2,0,P|283:243|262:237,1,42.7499986953736,2|0,3:2|0:0,0:0:0:0:
207,338,1087842,2,0,P|224:326|244:320,1,42.7499986953736,10|0,0:0|0:0,0:0:0:0:
315,370,1088012,1,2,0:0:0:0:
315,370,1088097,1,2,0:0:0:0:
315,370,1088183,5,2,3:2:0:0:
38,41,1090911,5,6,0:0:0:0:
90,112,1091252,5,2,0:0:0:0:
86,132,1091422,1,2,0:0:0:0:
82,152,1091592,1,2,0:0:0:0:
78,172,1091763,1,2,0:0:0:0:
175,88,1091933,1,2,0:0:0:0:
171,68,1092104,1,2,0:0:0:0:
221,180,1092274,5,2,0:0:0:0:
217,200,1092445,1,2,0:0:0:0:
355,136,1092615,1,2,0:0:0:0:
367,151,1092786,1,2,0:0:0:0:
261,60,1092956,1,2,0:0:0:0:
257,40,1093127,1,2,0:0:0:0:
303,259,1093297,1,2,0:0:0:0:
307,279,1093467,1,2,0:0:0:0:
379,331,1093979,5,2,0:0:0:0:
399,327,1094149,1,2,0:0:0:0:
419,323,1094320,1,2,0:0:0:0:
439,319,1094490,1,2,0:0:0:0:
307,279,1094661,1,2,0:0:0:0:
287,275,1094831,1,2,0:0:0:0:
426,232,1095002,5,2,0:0:0:0:
446,228,1095172,1,2,0:0:0:0:
278,188,1095342,1,2,0:0:0:0:
258,184,1095513,1,2,0:0:0:0:
455,141,1095683,1,2,0:0:0:0:
475,137,1095854,1,2,0:0:0:0:
249,97,1096024,1,2,0:0:0:0:
229,93,1096195,1,2,0:0:0:0:
142,77,1096706,5,2,0:0:0:0:
122,81,1096877,1,2,0:0:0:0:
102,85,1097047,1,2,0:0:0:0:
82,89,1097217,1,2,0:0:0:0:
156,197,1097388,1,2,0:0:0:0:
160,177,1097558,1,2,0:0:0:0:
248,40,1097729,5,2,0:0:0:0:
263,53,1097899,1,2,0:0:0:0:
338,199,1098070,1,2,0:0:0:0:
319,205,1098240,1,2,0:0:0:0:
148,205,1098411,1,2,0:0:0:0:
152,185,1098581,1,2,0:0:0:0:
256,32,1098752,1,2,0:0:0:0:
271,45,1098922,1,2,0:0:0:0:
352,115,1099433,5,2,0:0:0:0:
356,95,1099604,1,2,0:0:0:0:
360,75,1099774,1,2,0:0:0:0:
364,55,1099945,1,2,0:0:0:0:
457,159,1100115,1,2,0:0:0:0:
438,165,1100286,1,2,0:0:0:0:
255,138,1100456,5,2,0:0:0:0:
236,132,1100627,1,2,0:0:0:0:
53,105,1100797,1,2,0:0:0:0:
34,111,1100967,1,2,0:0:0:0:
134,200,1101138,1,2,0:0:0:0:
148,213,1101308,1,2,0:0:0:0:
185,59,1101479,1,2,0:0:0:0:
189,40,1101649,1,2,0:0:0:0:
38,210,1101820,6,0,P|46:283|130:328,1,152,0|2,3:0|0:0,0:0:0:0:
192,330,1102502,2,0,L|343:324,1,152,0|2,3:0|0:0,0:0:0:0:
351,332,1103183,6,0,L|199:337,1,152,0|2,3:0|0:0,0:0:0:0:
98,334,1103865,2,0,P|37:291|29:217,1,152,0|2,3:0|0:0,0:0:0:0:
300,37,1104547,6,0,L|452:42,1,152,0|2,3:0|0:0,0:0:0:0:
489,123,1105229,2,0,P|430:167|423:240,1,152,0|2,3:0|0:0,0:0:0:0:
432,249,1105911,6,0,P|438:175|497:131,1,152,0|2,3:0|0:0,0:0:0:0:
444,34,1106592,2,0,L|292:29,1,152,0|2,3:0|0:0,0:0:0:0:
143,33,1107274,5,0,3:0:0:0:
10,66,1107615,1,0,3:0:0:0:
233,112,1107956,5,0,3:0:0:0:
100,145,1108297,1,0,3:0:0:0:
323,191,1108638,5,0,3:0:0:0:
190,224,1108979,1,0,3:0:0:0:
413,270,1109320,5,0,3:0:0:0:
280,303,1109661,1,0,3:0:0:0:
421,278,1110002,5,0,3:0:0:0:
288,311,1110172,1,0,3:0:0:0:
331,199,1110342,5,0,3:0:0:0:
198,232,1110513,1,0,3:0:0:0:
241,120,1110683,5,0,3:0:0:0:
108,153,1110854,1,0,3:0:0:0:
151,41,1111024,5,0,3:0:0:0:
18,74,1111195,1,0,3:0:0:0:
241,120,1111365,5,8,0:3:0:0:
278,119,1111450,1,8,0:3:0:0:
311,101,1111536,1,8,0:3:0:0:
333,70,1111621,1,8,0:3:0:0:
354,40,1111706,1,4,0:3:0:0:
387,22,1111791,1,4,0:3:0:0:
425,21,1111877,1,4,0:3:0:0:
461,34,1111962,1,4,0:3:0:0:
493,57,1112047,5,8,0:3:0:0:
488,113,1112132,1,8,0:3:0:0:
483,170,1112217,1,8,0:3:0:0:
478,227,1112303,1,8,0:3:0:0:
474,284,1112388,1,8,1:0:0:0:
482,292,1112729,5,0,3:0:0:0:
490,300,1113070,1,8,1:0:0:0:
357,333,1113240,1,2,0:0:0:0:
397,142,1113411,1,2,0:0:0:0:
365,341,1113581,1,2,3:2:0:0:
297,106,1113752,1,8,1:0:0:0:
373,349,1113922,1,2,0:0:0:0:
215,171,1114092,5,2,3:2:0:0:
195,174,1114263,1,2,0:0:0:0:
454,281,1114433,1,8,1:0:0:0:
474,284,1114604,1,2,0:0:0:0:
251,318,1114774,1,2,0:0:0:0:
231,315,1114945,1,0,3:2:0:0:
397,142,1115115,1,8,1:0:0:0:
365,341,1115286,1,2,0:0:0:0:
215,171,1115456,5,0,3:2:0:0:
223,179,1115797,1,8,1:0:0:0:
354,28,1115967,1,2,0:0:0:0:
341,227,1116138,1,2,0:0:0:0:
233,55,1116308,1,0,3:2:0:0:
417,139,1116479,1,8,1:0:0:0:
231,187,1116649,1,2,0:0:0:0:
417,139,1116820,5,2,3:2:0:0:
420,159,1116990,1,2,0:0:0:0:
231,315,1117161,1,8,1:0:0:0:
246,302,1117331,1,2,0:0:0:0:
475,341,1117502,1,2,0:0:0:0:
456,334,1117672,1,2,3:2:0:0:
316,129,1117842,1,8,1:0:0:0:
365,341,1118013,1,2,0:0:0:0:
324,121,1118183,5,0,3:2:0:0:
332,113,1118524,1,8,1:0:0:0:
349,235,1118695,1,2,0:0:0:0:
340,105,1118865,1,2,0:0:0:0:
231,315,1119036,1,2,3:2:0:0:
485,247,1119206,1,8,1:0:0:0:
223,307,1119377,1,2,0:0:0:0:
485,247,1119547,5,2,3:2:0:0:
478,228,1119717,1,2,0:0:0:0:
348,97,1119888,1,8,1:0:0:0:
329,104,1120058,1,2,0:0:0:0:
215,299,1120229,1,2,0:0:0:0:
222,318,1120399,1,2,3:2:0:0:
475,341,1120570,1,8,1:0:0:0:
372,192,1120740,1,2,0:0:0:0:
122,345,1120911,5,2,3:2:0:0:
114,337,1121252,1,8,1:0:0:0:
310,269,1121422,1,2,0:0:0:0:
87,238,1121592,1,2,0:0:0:0:
318,277,1121763,1,2,3:2:0:0:
104,38,1121933,1,8,1:0:0:0:
206,201,1122104,1,2,0:0:0:0:
282,48,1122274,5,2,3:2:0:0:
275,29,1122445,1,2,0:0:0:0:
206,201,1122615,1,8,1:0:0:0:
213,220,1122786,1,2,0:0:0:0:
372,192,1122956,1,2,0:0:0:0:
379,173,1123127,1,2,3:2:0:0:
112,46,1123297,1,8,1:0:0:0:
280,148,1123467,1,2,0:0:0:0:
23,343,1123638,5,2,3:2:0:0:
31,335,1123979,1,8,1:0:0:0:
222,318,1124149,1,2,0:0:0:0:
39,327,1124320,1,2,0:0:0:0:
15,78,1124490,1,2,3:2:0:0:
214,310,1124661,1,8,1:0:0:0:
102,130,1124831,1,2,0:0:0:0:
124,280,1125002,5,2,3:2:0:0:
131,261,1125172,1,2,0:0:0:0:
195,89,1125342,1,8,1:0:0:0:
202,108,1125513,1,2,0:0:0:0:
294,356,1125683,1,2,0:0:0:0:
301,337,1125854,1,2,3:2:0:0:
412,43,1126024,1,8,1:0:0:0:
431,312,1126195,1,2,0:0:0:0:
404,35,1126365,5,2,3:2:0:0:
396,27,1126706,1,8,1:0:0:0:
297,226,1126877,1,2,0:0:0:0:
299,65,1127047,1,2,0:0:0:0:
201,269,1127217,1,2,3:2:0:0:
381,131,1127388,1,8,1:0:0:0:
127,35,1127558,1,2,0:0:0:0:
208,289,1127729,5,2,3:2:0:0:
201,269,1127899,1,2,0:0:0:0:
127,35,1128070,1,8,1:0:0:0:
120,55,1128240,1,2,0:0:0:0:
112,332,1128411,1,2,0:0:0:0:
105,312,1128581,1,2,3:2:0:0:
31,78,1128752,1,8,1:0:0:0:
304,246,1128922,1,2,0:0:0:0:
212,79,1129092,5,2,3:2:0:0:
220,87,1129433,1,8,1:0:0:0:
449,52,1129604,1,2,0:0:0:0:
228,95,1129774,1,2,0:0:0:0:
473,152,1129945,1,2,3:2:0:0:
201,269,1130115,1,8,1:0:0:0:
449,252,1130286,1,2,0:0:0:0:
333,56,1130456,5,2,3:2:0:0:
340,36,1130627,1,2,0:0:0:0:
265,314,1130797,1,8,1:0:0:0:
258,334,1130967,1,2,0:0:0:0:
386,186,1131138,1,2,0:0:0:0:
406,193,1131308,1,2,3:2:0:0:
183,153,1131479,1,8,1:0:0:0:
426,200,1131649,1,2,0:0:0:0:
112,332,1131820,5,2,3:2:0:0:
264,190,1131990,2,0,P|268:131|141:75,1,190,8|0,1:0|3:0,0:0:0:0:
174,247,1132502,2,0,P|205:281|250:296,1,95,8|0,1:0|3:0,0:0:0:0:
472,285,1132842,2,0,L|463:175,1,95,8|0,1:0|3:0,0:0:0:0:
451,36,1133183,5,8,0:0:0:0:
370,299,1133354,1,8,0:0:0:0:
332,63,1133524,1,8,1:0:0:0:
378,307,1133695,1,0,3:0:0:0:
212,89,1133865,1,0,3:0:0:0:
204,97,1133950,1,0,3:0:0:0:
196,105,1134036,6,0,P|203:131|213:149,1,47.5,8|0,1:0|0:0,0:0:0:0:
386,315,1134206,1,8,1:0:0:0:
459,261,1134547,5,4,3:1:0:0:
459,261,1134632,1,0,0:0:0:0:
459,261,1134717,1,0,0:0:0:0:
455,108,1134888,1,8,1:0:0:0:
455,108,1135058,2,0,L|393:111,1,47.5
306,123,1135229,1,0,3:0:0:0:
306,123,1135399,2,0,L|244:126,1,47.5
157,138,1135570,1,8,1:0:0:0:
157,138,1135740,2,0,L|95:141,1,47.5
7,152,1135911,6,0,B|23:200|23:200|58:229,1,95,0|0,3:0|0:0,0:0:0:0:
221,223,1136252,1,8,1:0:0:0:
221,223,1136422,2,0,L|283:220,1,47.5
370,208,1136593,1,0,3:0:0:0:
370,208,1136763,2,0,L|341:263,1,47.5,0|0,0:0|0:0,0:0:0:0:
308,344,1136934,1,8,1:0:0:0:
308,344,1137104,2,0,L|274:291,1,47.5
221,223,1137274,6,0,B|209:175|209:175|219:99,1,95,0|0,3:0|0:0,0:0:0:0:
316,19,1137615,1,8,1:0:0:0:
316,19,1137786,2,0,L|327:80,1,47.5
344,166,1137957,1,0,3:0:0:0:
344,166,1138127,2,0,L|355:227,1,47.5
372,313,1138298,1,8,1:0:0:0:
372,313,1138467,2,0,L|383:374,1,47.5
467,191,1138638,6,0,P|398:149|327:180,1,142.5,0|0,3:0|0:0,0:0:0:0:
334,172,1138979,2,0,B|283:176|283:176|229:148,1,95,8|0,1:0|0:0,0:0:0:0:
236,151,1139234,1,0,0:0:0:0:
228,146,1139320,1,0,3:0:0:0:
309,81,1139490,1,0,0:0:0:0:
309,81,1139575,1,0,0:0:0:0:
309,81,1139661,1,8,1:0:0:0:
277,276,1139831,1,0,0:0:0:0:
277,276,1139916,1,0,0:0:0:0:
277,276,1140002,6,0,B|235:303|197:286|197:286|152:239|80:268,1,190,4|8,3:2|1:0,0:0:0:0:
21,168,1140513,2,0,L|69:164,1,47.5
169,158,1140683,1,0,3:0:0:0:
169,158,1140854,2,0,L|216:153,1,47.5
316,147,1141024,1,8,1:0:0:0:
316,147,1141195,2,0,L|363:142,1,47.5
463,136,1141365,6,0,L|368:143,1,95,0|0,3:0|0:0,0:0:0:0:
216,153,1141706,1,8,1:0:0:0:
216,153,1141877,2,0,L|236:109,1,47.5
282,20,1142047,1,0,3:0:0:0:
282,20,1142217,2,0,L|309:59,1,47.5
365,144,1142387,1,8,1:0:0:0:
365,144,1142558,2,0,L|317:148,1,47.5
216,153,1142729,6,0,B|203:202|203:202|226:305,1,142.5,4|0,3:2|0:0,0:0:0:0:
229,297,1143070,2,0,P|282:310|349:288,1,95,8|0,1:0|0:0,0:0:0:0:
331,297,1143325,1,0,0:0:0:0:
340,290,1143411,1,0,3:0:0:0:
317,147,1143581,1,0,0:0:0:0:
317,147,1143666,1,0,0:0:0:0:
317,147,1143752,1,8,1:0:0:0:
169,231,1143922,1,0,0:0:0:0:
169,231,1144007,1,0,0:0:0:0:
169,231,1144092,6,0,B|122:217|122:217|76:231,1,95,0|0,3:0|0:0,0:0:0:0:
229,297,1144433,1,8,1:0:0:0:
266,201,1144604,2,0,L|286:157,1,47.5
332,68,1144774,1,0,3:0:0:0:
332,68,1144944,2,0,L|359:107,1,47.5
415,192,1145114,1,8,1:0:0:0:
415,192,1145285,2,0,L|367:196,1,47.5
266,201,1145456,6,0,B|221:199|221:199|160:177,1,95,0|0,3:0|0:0,0:0:0:0:
164,177,1145712,1,0,0:0:0:0:
154,173,1145797,2,0,B|109:175|109:175|48:197,1,95,8|0,1:0|0:0,0:0:0:0:
55,200,1146053,1,0,0:0:0:0:
51,210,1146138,2,0,B|53:255|53:255|75:316,1,95,0|0,3:0|0:0,0:0:0:0:
78,309,1146394,1,0,0:0:0:0:
88,313,1146479,2,0,B|133:311|133:311|194:289,1,95,8|0,1:0|0:0,0:0:0:0:
189,288,1146734,1,0,0:0:0:0:
198,282,1146820,5,0,3:0:0:0:
277,345,1146990,1,0,0:0:0:0:
382,194,1147161,1,8,1:0:0:0:
382,194,1147331,2,0,L|307:181,1,47.5
236,166,1147502,1,0,3:0:0:0:
236,166,1147672,2,0,L|161:153,1,47.5
90,138,1147843,1,8,1:0:0:0:
90,138,1148013,2,0,L|15:125,1,47.5
137,45,1148183,6,0,P|185:45|230:61,1,95,0|0,3:0|0:0,0:0:0:0:
474,209,1148524,2,0,P|426:208|381:193,1,95,8|0,1:0|0:0,0:0:0:0:
376,184,1148780,1,0,0:0:0:0:
372,175,1148865,1,0,3:0:0:0:
451,117,1149036,1,0,0:0:0:0:
451,117,1149121,1,0,0:0:0:0:
451,117,1149206,1,8,1:0:0:0:
423,302,1149377,1,0,0:0:0:0:
423,302,1149462,1,0,0:0:0:0:
423,302,1149547,6,0,L|326:293,1,95,0|0,3:0|0:0,0:0:0:0:
318,292,1149803,1,0,0:0:0:0:
308,292,1149888,2,0,L|213:283,1,95,8|0,1:0|0:0,0:0:0:0:
204,284,1150144,1,0,0:0:0:0:
194,284,1150229,2,0,L|99:275,1,95,0|0,3:0|0:0,0:0:0:0:
92,268,1150484,1,0,0:0:0:0:
92,258,1150569,2,0,L|100:163,1,95,8|0,1:0|0:0,0:0:0:0:
103,153,1150825,1,0,0:0:0:0:
105,143,1150911,6,0,B|201:84|202:184|316:117,1,190,4|8,3:2|1:0,0:0:0:0:
247,46,1151422,1,0,0:0:0:0:
247,46,1151507,1,0,0:0:0:0:
247,46,1151592,1,0,3:0:0:0:
169,232,1151763,1,0,0:0:0:0:
169,232,1151848,1,0,0:0:0:0:
169,232,1151933,1,8,1:0:0:0:
287,131,1152104,2,0,L|350:130,1,47.5
422,132,1152274,6,0,B|376:148|376:148|333:129,1,95,0|0,3:0|0:0,0:0:0:0:
247,46,1152615,1,8,1:0:0:0:
178,185,1152786,2,0,L|166:245,1,47.5
145,331,1152956,1,0,3:0:0:0:
145,331,1153127,2,0,L|205:343,1,47.5
291,364,1153297,1,8,1:0:0:0:
291,364,1153467,2,0,L|303:304,1,47.5
360,208,1153638,6,0,B|271:188|271:188|256:200|256:200|159:181,1,190,4|8,3:2|1:0,0:0:0:0:
232,98,1154149,1,0,0:0:0:0:
232,98,1154234,1,0,0:0:0:0:
232,98,1154320,1,0,3:0:0:0:
178,185,1154490,2,0,L|116:174,1,47.5
33,155,1154661,1,8,1:0:0:0:
45,340,1154831,1,0,0:0:0:0:
45,340,1154916,1,0,0:0:0:0:
44,339,1155002,6,0,P|65:297|66:249,1,95,0|0,3:0|0:0,0:0:0:0:
22,55,1155342,1,8,1:0:0:0:
178,185,1155513,1,0,0:0:0:0:
335,57,1155683,2,0,B|378:37|378:37|447:45,1,95,0|0,3:0|0:0,0:0:0:0:
434,150,1155939,1,0,3:0:0:0:
414,146,1156024,1,8,1:0:0:0:
262,129,1156195,1,0,3:0:0:0:
294,298,1156365,5,4,3:2:0:0:
337,337,1156450,1,0,3:0:0:0:
395,346,1156535,1,0,3:0:0:0:
448,322,1156620,1,0,3:0:0:0:
479,272,1156705,1,8,1:0:0:0:
225,224,1156877,1,2,0:0:0:0:
381,246,1157047,1,2,3:2:0:0:
294,298,1157217,1,2,0:0:0:0:
326,70,1157387,1,8,1:0:0:0:
312,171,1157558,1,2,0:0:0:0:
166,57,1157729,5,2,3:2:0:0:
152,158,1157900,1,2,0:0:0:0:
326,70,1158070,1,8,1:0:0:0:
312,171,1158241,1,2,0:0:0:0:
166,57,1158411,1,2,3:2:0:0:
152,158,1158582,1,2,0:0:0:0:
326,70,1158752,1,8,1:0:0:0:
312,171,1158923,1,2,0:0:0:0:
73,95,1159092,5,2,3:2:0:0:
166,57,1159263,1,2,0:0:0:0:
126,256,1159433,1,8,1:0:0:0:
33,218,1159604,1,2,0:0:0:0:
379,231,1159774,1,2,3:2:0:0:
286,269,1159945,1,2,0:0:0:0:
326,70,1160115,1,8,1:0:0:0:
419,108,1160286,1,2,0:0:0:0:
156,148,1160456,6,0,B|150:100|150:100|172:39,1,95,0|0,3:0|0:0,0:0:0:0:
295,177,1160797,2,0,B|301:225|301:225|279:286,1,95,8|0,1:0|0:0,0:0:0:0:
281,278,1161053,1,0,0:0:0:0:
276,286,1161138,1,0,3:0:0:0:
295,177,1161308,2,0,L|345:163,1,47.5
438,136,1161479,1,8,1:0:0:0:
512,317,1161649,1,0,0:0:0:0:
512,317,1161734,1,0,0:0:0:0:
512,317,1161820,6,0,B|457:359|457:359|301:361,1,190,4|8,3:2|1:0,0:0:0:0:
273,261,1162331,2,0,L|321:260,1,47.5
422,258,1162502,1,0,3:0:0:0:
370,171,1162672,1,0,0:0:0:0:
370,171,1162757,1,0,0:0:0:0:
370,171,1162842,1,8,1:0:0:0:
273,261,1163013,2,0,L|225:262,1,47.5
125,269,1163183,5,0,3:0:0:0:
173,91,1163354,1,0,0:0:0:0:
181,354,1163524,1,8,1:0:0:0:
42,321,1163695,1,0,0:0:0:0:
42,321,1163780,1,0,0:0:0:0:
42,321,1163865,1,0,3:0:0:0:
125,269,1164036,2,0,P|121:240|110:209,1,47.5
83,134,1164206,1,8,1:0:0:0:
173,91,1164377,1,0,0:0:0:0:
173,91,1164462,1,0,0:0:0:0:
173,91,1164547,5,0,3:0:0:0:
125,269,1164717,1,0,0:0:0:0:
0,71,1164888,2,0,B|41:40|41:40|87:33,1,95,8|0,1:0|0:0,0:0:0:0:
84,33,1165144,1,0,0:0:0:0:
84,33,1165229,1,0,3:0:0:0:
83,134,1165399,1,0,0:0:0:0:
83,134,1165484,1,0,0:0:0:0:
83,134,1165570,1,8,1:0:0:0:
173,91,1165740,1,0,0:0:0:0:
173,91,1165825,1,0,0:0:0:0:
173,91,1165911,6,0,P|226:83|287:115,1,95,0|0,3:0|0:0,0:0:0:0:
143,216,1166252,1,8,1:0:0:0:
264,96,1166422,1,0,0:0:0:0:
292,94,1166507,1,0,0:0:0:0:
319,103,1166592,1,0,3:0:0:0:
265,306,1166763,1,0,0:0:0:0:
260,249,1166848,1,0,3:0:0:0:
279,195,1166933,1,8,1:0:0:0:
346,369,1167104,1,0,3:0:0:0:
160,257,1167274,6,0,P|55:246|0:312,1,190,4|8,3:1|1:0,0:0:0:0:
98,338,1167786,1,2,0:0:0:0:
58,140,1167956,1,2,3:2:0:0:
2,302,1168127,1,2,0:0:0:0:
92,44,1168297,1,8,1:0:0:0:
148,206,1168468,1,2,0:0:0:0:
454,140,1168638,5,2,3:2:0:0:
510,302,1168809,1,2,0:0:0:0:
420,44,1168979,1,8,1:0:0:0:
364,206,1169150,1,2,0:0:0:0:
92,44,1169320,1,2,3:2:0:0:
36,206,1169490,1,2,0:0:0:0:
92,44,1169661,1,8,1:0:0:0:
148,206,1169831,1,2,0:0:0:0:
328,36,1170002,6,0,B|376:28|376:28|420:43,1,95,0|0,3:0|0:0,0:0:0:0:
360,210,1170342,2,0,B|312:218|312:218|268:203,1,95,8|0,1:0|0:0,0:0:0:0:
116,32,1170683,2,0,B|163:23|163:23|207:38,1,95,0|0,3:0|0:0,0:0:0:0:
148,206,1171024,2,0,B|100:214|100:214|56:199,1,95,8|0,1:0|0:0,0:0:0:0:
351,118,1171365,6,0,P|367:165|353:223,1,95,0|0,3:0|0:0,0:0:0:0:
350,219,1171621,1,0,0:0:0:0:
338,226,1171706,2,0,P|322:273|336:331,1,95,8|0,1:0|0:0,0:0:0:0:
341,325,1171962,1,0,0:0:0:0:
334,313,1172047,2,0,P|287:297|229:311,1,95,0|0,3:0|0:0,0:0:0:0:
232,312,1172303,1,0,0:0:0:0:
225,324,1172388,2,0,P|178:340|120:326,1,95,8|0,1:0|0:0,0:0:0:0:
121,326,1172644,1,0,0:0:0:0:
111,316,1172729,5,4,3:2:0:0:
169,238,1172899,1,0,0:0:0:0:
334,313,1173070,1,8,1:0:0:0:
334,313,1173240,2,0,L|341:253,1,47.5
353,165,1173411,1,0,3:0:0:0:
353,165,1173581,2,0,L|360:105,1,47.5
372,17,1173752,1,8,1:0:0:0:
372,17,1173922,2,0,L|312:10,1,47.5
225,0,1174092,5,0,3:0:0:0:
166,85,1174263,1,0,0:0:0:0:
166,85,1174348,1,0,0:0:0:0:
166,85,1174433,1,8,1:0:0:0:
234,172,1174604,1,0,0:0:0:0:
234,172,1174689,1,0,0:0:0:0:
234,172,1174774,1,0,3:0:0:0:
167,248,1174945,1,0,0:0:0:0:
167,248,1175030,1,0,0:0:0:0:
167,248,1175115,1,8,1:0:0:0:
233,336,1175286,1,0,0:0:0:0:
233,336,1175371,1,0,0:0:0:0:
233,336,1175456,5,0,0:0:0:0:
256,192,1175541,12,0,1178183,0:0:0:0:
186,160,1194547,5,8,3:0:0:0:
186,160,1195399,1,0,3:0:0:0:
177,251,1195570,1,0,3:0:0:0:
177,251,1195911,5,8,3:0:0:0:
177,251,1196763,1,0,3:0:0:0:
168,342,1196934,1,0,3:0:0:0:
168,342,1197274,5,8,3:0:0:0:
168,342,1198127,1,0,3:0:0:0:
177,251,1198297,1,0,3:0:0:0:
177,251,1198638,5,8,3:0:0:0:
177,251,1200002,6,0,B|277:280|252:227|359:254,1,170.999994781494,4|8,0:0|0:0,0:0:0:0:
305,372,1200513,2,0,P|304:342|306:329,1,42.7499986953736
230,177,1200683,2,0,P|224:127|248:81,1,85.4999973907472,2|0,0:0|3:0,0:0:0:0:
435,150,1201024,2,0,L|307:142,1,128.249996086121,8|0,0:0|0:0,0:0:0:0:
310,135,1201365,6,0,B|335:103|335:103|330:239,1,170.999994781494,2|8,3:2|0:0,0:0:0:0:
230,176,1201877,2,0,L|188:170,2,42.7499986953736,0|0|2,0:0|0:0|0:0,0:0:0:0:
119,217,1202217,2,0,L|77:210,1,42.7499986953736,0|0,3:0|0:0,0:0:0:0:
21,146,1202388,2,0,P|-4:203|12:264,1,128.249996086121,8|0,0:0|0:0,0:0:0:0:
65,287,1202729,6,0,B|165:316|140:263|247:290,1,170.999994781494,2|8,3:2|0:0,0:0:0:0:
119,216,1203240,2,0,P|120:193|128:172,2,42.7499986953736,0|0|2,0:0|0:0|0:0,0:0:0:0:
303,240,1203581,2,0,P|328:243|345:247,1,42.7499986953736,0|0,3:0|0:0,0:0:0:0:
401,311,1203752,2,0,P|426:254|410:193,1,128.249996086121,8|0,0:0|0:0,0:0:0:0:
402,187,1204092,6,0,B|393:145|393:145|403:73,1,85.4999973907472,2|0,3:2|0:0,0:0:0:0:
512,20,1204433,2,0,B|470:29|470:29|428:24,1,85.4999973907472,8|0,0:0|0:0,0:0:0:0:
260,40,1204774,2,0,B|302:31|302:31|345:37,1,85.4999973907472,2|0,0:0|3:0,0:0:0:0:
213,192,1205115,2,0,B|204:150|204:150|210:108,1,85.4999973907472
381,192,1205456,6,0,B|281:221|306:168|199:195,1,170.999994781494,4|8,3:2|0:0,0:0:0:0:
255,273,1205967,2,0,P|254:303|256:316,1,42.7499986953736
331,119,1206137,2,0,P|344:78|337:37,1,85.4999973907472,2|0,0:0|3:0,0:0:0:0:
289,192,1206478,2,0,P|351:199|403:164,1,128.249996086121,8|0,0:0|0:0,0:0:0:0:
411,157,1206820,6,0,B|436:125|436:125|431:261,1,170.999994781494,2|8,3:2|0:0,0:0:0:0:
366,352,1207331,2,0,L|368:310,1,42.7499986953736
494,312,1207502,2,0,L|492:354,1,42.7499986953736,2|0,0:0|0:0,0:0:0:0:
295,263,1207672,2,0,B|253:253|253:253|204:265,2,85.4999973907472,0|8|0,3:0|0:0|0:0,0:0:0:0:
130,271,1208183,6,0,P|170:257|212:263,1,85.4999973907472,2|0,3:2|0:0,0:0:0:0:
60,319,1208524,2,0,P|47:278|53:236,1,85.4999973907472,8|0,0:0|0:0,0:0:0:0:
123,189,1208865,2,0,P|136:229|130:271,1,85.4999973907472,2|0,0:0|3:0,0:0:0:0:
75,119,1209206,2,0,P|115:105|157:111,1,85.4999973907472,8|0,0:0|0:0,0:0:0:0:
289,173,1209547,6,0,P|248:186|207:180,1,85.4999973907472,2|0,3:2|0:0,0:0:0:0:
359,125,1209888,2,0,P|373:165|367:207,1,85.4999973907472,8|0,0:0|0:0,0:0:0:0:
312,55,1210229,2,0,P|352:42|394:48,1,85.4999973907472,2|0,0:0|3:0,0:0:0:0:
242,103,1210570,2,0,P|228:63|234:21,1,85.4999973907472,8|0,0:0|0:0,0:0:0:0:
292,176,1210911,6,0,B|192:205|210:151|111:183,1,170.999994781494,0|8,3:0|0:0,0:0:0:0:
166,257,1211422,2,0,P|165:287|167:300,1,42.7499986953736
242,103,1211592,2,0,P|255:62|248:21,1,85.4999973907472,2|0,0:0|3:0,0:0:0:0:
292,176,1211933,2,0,P|354:183|406:148,1,128.249996086121,8|0,0:0|0:0,0:0:0:0:
402,138,1212274,6,0,B|377:106|377:106|382:242,1,170.999994781494,0|0,3:0|0:0,0:0:0:0:
465,195,1212786,2,0,B|488:189|488:189|518:196,2,42.7499986953736,0|0|2,0:0|0:0|0:0,0:0:0:0:
292,176,1213127,2,0,L|290:110,1,42.7499986953736,0|0,3:0|0:0,0:0:0:0:
260,90,1213297,2,0,L|263:226,1,128.249996086121,8|0,0:0|0:0,0:0:0:0:
314,292,1213638,6,0,B|214:321|239:268|132:295,2,170.999994781494,0|8|2,3:0|0:0|0:0,0:0:0:0:
199,375,1214490,2,0,P|177:371|148:384,1,42.7499986953736,0|0,3:0|0:0,0:0:0:0:
78,343,1214661,2,0,P|61:283|90:227,1,128.249996086121,8|0,0:0|0:0,0:0:0:0:
101,221,1215002,6,0,B|143:212|143:212|215:222,1,85.4999973907472,0|0,3:0|0:0,0:0:0:0:
268,331,1215343,2,0,B|259:289|259:289|264:247,1,85.4999973907472,8|0,0:0|0:0,0:0:0:0:
321,104,1215684,2,0,B|330:146|330:146|324:189,1,85.4999973907472,2|0,0:0|3:0,0:0:0:0:
170,56,1216025,2,0,B|212:47|212:47|254:53,1,85.4999973907472,8|0,0:0|0:0,0:0:0:0:
489,104,1216365,6,0,B|389:133|414:80|307:107,1,170.999994781494,4|8,0:0|0:0,0:0:0:0:
361,186,1216877,2,0,L|364:231,1,42.7499986953736
430,281,1217047,2,0,L|433:326,1,42.7499986953736,2|0,0:0|0:0,0:0:0:0:
364,373,1217217,2,0,B|322:382|322:382|280:376,2,85.4999973907472,0|8|0,3:0|0:0|0:0,0:0:0:0:
235,224,1217729,6,0,B|210:192|210:192|215:323,1,170.999994781494,0|8,3:0|0:0,0:0:0:0:
129,280,1218240,2,0,L|127:237,1,42.7499986953736
122,153,1218411,2,0,P|81:166|52:196,1,85.4999973907472,2|0,0:0|3:0,0:0:0:0:
235,224,1218752,2,0,P|290:195|350:212,1,128.249996086121,8|0,0:0|0:0,0:0:0:0:
347,197,1219092,6,0,P|306:184|265:190,1,85.4999973907472,2|0,3:2|0:0,0:0:0:0:
417,245,1219433,2,0,P|431:205|425:163,1,85.4999973907472,8|0,0:0|0:0,0:0:0:0:
370,315,1219774,2,0,P|410:328|452:322,1,85.4999973907472,2|0,0:0|3:0,0:0:0:0:
300,267,1220115,2,0,P|286:307|292:349,1,85.4999973907472,8|0,0:0|0:0,0:0:0:0:
292,348,1221820,6,0,L|187:358,1,85.4999973907472,0|0,3:0|0:0,0:0:0:0:
43,342,1222161,2,0,P|50:283|88:244,1,85.4999973907472,8|0,0:0|0:0,0:0:0:0:
132,213,1222502,2,0,P|125:154|87:115,1,85.4999973907472,2|0,0:0|3:0,0:0:0:0:
38,91,1222842,2,0,P|45:32|83:-7,1,85.4999973907472,8|0,0:0|0:0,0:0:0:0:
179,76,1223183,6,0,B|221:92|221:92|383:73,1,170.999994781494,0|8,3:0|0:0,0:0:0:0:
373,264,1223695,2,0,L|415:259,1,42.7499986953736
512,244,1223865,2,0,B|470:228|470:228|308:247,1,170.999994781494,2|8,0:0|0:0,0:0:0:0:
346,77,1224377,2,0,L|303:81,1,42.7499986953736
207,97,1224547,6,0,B|249:113|249:113|411:94,1,170.999994781494,0|8,3:0|0:0,0:0:0:0:
485,141,1225058,2,0,P|463:141|443:146,1,42.7499986953736
344,242,1225229,2,0,P|386:230|455:233,1,85.4999973907472,2|0,0:0|3:0,0:0:0:0:
484,327,1225570,2,0,P|443:315|401:314,1,85.4999973907472,8|0,0:0|0:0,0:0:0:0:
274,296,1225911,6,0,B|258:254|258:254|277:92,1,170.999994781494,0|8,3:0|0:0,0:0:0:0:
344,242,1226423,2,0,L|348:199,1,42.7499986953736
364,104,1226593,2,0,B|380:146|380:146|365:271,1,170.999994781494,2|8,0:0|0:0,0:0:0:0:
269,338,1227105,2,0,L|274:296,1,42.7499986953736
465,258,1227274,6,0,B|495:285|495:285|364:271,1,170.999994781494,4|8,0:0|0:0,0:0:0:0:
372,186,1227786,2,0,L|415:191,2,42.7499986953736,0|0|2,0:0|0:0|0:0,0:0:0:0:
364,354,1228127,2,0,L|407:359,1,42.7499986953736,0|0,3:0|0:0,0:0:0:0:
298,223,1228297,2,0,B|236:230|236:230|231:225|231:225|156:234,1,128.249996086121,8|0,0:0|0:0,0:0:0:0:
48,310,1228638,6,0,B|90:326|90:326|215:311,1,170.999994781494,0|8,3:0|0:0,0:0:0:0:
172,231,1229150,2,0,L|130:236,1,42.7499986953736
215,311,1229320,2,0,B|257:327|257:327|419:308,1,170.999994781494,2|8,0:0|0:0,0:0:0:0:
487,254,1229832,2,0,L|444:258,1,42.7499986953736
282,239,1230002,6,0,P|323:227|366:226,1,85.4999973907472,2|0,3:2|0:0,0:0:0:0:
499,170,1230342,2,0,P|458:158|415:156,1,85.4999973907472,8|0,0:0|0:0,0:0:0:0:
259,126,1230683,2,0,P|300:114|343:113,1,85.4999973907472,2|0,0:0|3:0,0:0:0:0:
190,174,1231024,2,0,P|175:112|216:52,1,128.249996086121,8|0,0:0|0:0,0:0:0:0:
210,49,1231365,6,0,B|170:34|170:34|115:46,1,85.4999973907472,0|0,3:0|0:0,0:0:0:0:
0,118,1231706,2,0,B|40:103|40:103|82:113,1,85.4999973907472,8|0,0:0|0:0,0:0:0:0:
229,168,1232047,2,0,B|189:153|189:153|148:163,1,85.4999973907472,2|0,0:0|3:0,0:0:0:0:
19,237,1232388,2,0,B|59:222|59:222|100:231,1,85.4999973907472,8|0,0:0|0:0,0:0:0:0:
303,217,1232729,6,0,B|332:117|279:142|306:35,1,170.999994781494,0|8,3:0|0:0,0:0:0:0:
422,75,1233240,2,0,P|402:82|382:86,1,42.7499986953736
303,49,1233411,2,0,P|245:45|185:67,1,85.4999973907472,2|0,0:0|3:0,0:0:0:0:
27,134,1233752,2,0,P|90:138|152:117,1,128.249996086121,8|0,0:0|0:0,0:0:0:0:
161,109,1234092,6,0,L|150:289,2,170.999994781494,0|8|2,3:0|0:0|0:0,0:0:0:0:
241,174,1234945,2,0,L|238:217,1,42.7499986953736,0|0,3:0|0:0,0:0:0:0:
69,236,1235115,2,0,L|76:137,1,85.4999973907472,8|0,0:0|0:0,0:0:0:0:
242,89,1235456,6,0,B|284:73|284:73|409:87,1,170.999994781494,0|8,3:0|0:0,0:0:0:0:
366,168,1235968,2,0,L|323:163,1,42.7499986953736
75,90,1236138,2,0,B|117:74|117:74|279:93,1,170.999994781494,2|8,0:0|0:0,0:0:0:0:
199,168,1236650,2,0,L|156:163,1,42.7499986953736
304,292,1236820,6,0,P|345:305|386:299,1,85.4999973907472,0|0,3:2|0:0,0:0:0:0:
234,244,1237161,2,8,P|220:284|226:326,1,85.4999973907472,0|0,0:0|0:0,0:0:0:0:
281,174,1237502,2,0,P|241:161|199:167,1,85.4999973907472,2|0,0:0|3:0,0:0:0:0:
351,222,1237843,2,0,P|365:182|359:140,1,85.4999973907472,8|0,0:0|0:0,0:0:0:0:
409,294,1238183,6,0,B|451:305|451:305|502:295,1,85.4999973907472,4|0,3:2|0:0,0:0:0:0:
492,297,1238524,2,0,B|450:286|450:286|408:294,1,85.4999973907472,8|0,0:0|0:0,0:0:0:0:
409,294,1238865,2,0,B|367:302|367:302|325:291,2,85.4999973907472,2|0|8,0:0|3:0|0:0,0:0:0:0:
240,144,1239377,2,0,B|235:165|235:165|238:185,1,42.7499986953736
248,195,1239547,6,0,L|232:374,1,170.999994781494,0|8,3:0|0:0,0:0:0:0:
154,302,1240058,2,0,L|158:260,2,42.7499986953736,0|0|2,0:0|0:0|0:0,0:0:0:0:
321,317,1240399,2,0,L|325:275,2,42.7499986953736,0|0|8,3:0|0:0|0:0,0:0:0:0:
248,195,1240740,2,0,L|252:153,1,42.7499986953736
260,68,1240911,5,4,0:1:0:0:
50,270,1243638,6,0,B|88:259|88:259|197:273,1,142.5,4|0,0:0|0:0,0:0:0:0:
219,288,1243979,1,8,0:0:0:0:
295,195,1244149,1,2,0:0:0:0:
295,195,1244234,1,0,0:0:0:0:
295,195,1244320,2,0,P|298:139|256:89,1,95,0|0,0:0|3:0,0:0:0:0:
93,87,1244661,2,0,L|206:72,1,95,8|0,0:0|0:0,0:0:0:0:
34,35,1245002,6,0,P|17:112|81:160,1,142.5,0|0,3:0|0:0,0:0:0:0:
87,165,1245342,2,0,L|64:270,1,95,8|2,0:0|0:0,0:0:0:0:
51,287,1245598,1,0,0:0:0:0:
34,315,1245683,1,2,0:0:0:0:
149,246,1245854,1,0,3:0:0:0:
338,340,1246024,2,0,P|284:354|243:341,1,95
225,210,1246365,6,0,P|279:176|260:268,1,190,0|8,3:0|0:0,0:0:0:0:
155,173,1246877,1,2,0:0:0:0:
135,146,1246962,1,0,0:0:0:0:
128,113,1247047,1,2,0:0:0:0:
137,81,1247132,1,0,0:0:0:0:
162,59,1247217,1,0,3:0:0:0:
300,98,1247388,2,0,P|254:124|201:117,1,95,8|0,0:0|0:0,0:0:0:0:
361,32,1247729,5,0,3:0:0:0:
379,23,1248070,2,0,L|375:140,1,95,8|0,0:0|0:0,0:0:0:0:
384,149,1248325,1,0,0:0:0:0:
397,179,1248411,2,0,L|406:252,2,47.5,2|0|0,0:0|0:0|3:0,0:0:0:0:
284,308,1248752,2,0,B|328:318|328:318|385:298,1,95,8|0,0:0|0:0,0:0:0:0:
221,247,1249092,6,0,B|171:216|171:216|39:242,1,190,0|8,3:0|0:0,0:0:0:0:
237,152,1249604,1,2,0:0:0:0:
231,119,1249689,1,0,0:0:0:0:
217,88,1249774,2,0,P|203:68|169:48,2,47.5,2|0|0,0:0|0:0|3:0,0:0:0:0:
36,143,1250115,2,0,L|143:126,1,95,8|0,0:0|0:0,0:0:0:0:
310,102,1250456,6,0,L|216:87,1,95,0|0,3:0|0:0,0:0:0:0:
415,41,1250797,1,8,0:0:0:0:
287,221,1250967,1,2,0:0:0:0:
273,190,1251053,1,0,0:0:0:0:
273,156,1251138,1,2,0:0:0:0:
286,125,1251223,1,0,0:0:0:0:
310,102,1251308,1,0,3:0:0:0:
375,338,1251479,1,8,0:0:0:0:
168,302,1251649,1,2,0:0:0:0:
168,302,1251734,1,0,0:0:0:0:
168,302,1251820,6,0,P|200:249|183:163,1,142.5,0|0,3:0|0:0,0:0:0:0:
139,110,1252161,1,8,0:0:0:0:
313,47,1252331,2,0,L|236:56,1,47.5,2|0,0:0|0:0,0:0:0:0:
385,94,1252502,2,0,L|439:99,1,47.5,2|0,0:0|0:0,0:0:0:0:
319,177,1252672,2,0,P|308:150|314:109,1,47.5,0|0,3:0|0:0,0:0:0:0:
369,242,1252842,2,0,B|350:315|359:343|359:343|327:300,1,142.5,8|0,0:0|0:0,0:0:0:0:
277,258,1253183,5,0,3:0:0:0:
266,249,1253524,2,0,L|146:261,1,95,8|0,0:0|0:0,0:0:0:0:
139,268,1253780,1,0,0:0:0:0:
113,289,1253865,2,0,P|89:290|60:285,2,47.5,2|0|0,0:0|0:0|3:0,0:0:0:0:
104,109,1254206,2,0,P|84:166|99:218,1,95,8|0,0:0|0:0,0:0:0:0:
331,69,1254547,6,0,L|184:80,1,142.5,0|0,3:0|0:0,0:0:0:0:
160,62,1254888,1,8,0:0:0:0:
282,148,1255058,2,0,L|273:199,2,47.5,2|0|2,0:0|0:0|0:0,0:0:0:0:
322,274,1255399,1,0,3:0:0:0:
505,182,1255570,2,0,B|460:171|460:171|393:193,1,95,8|0,0:0|0:0,0:0:0:0:
212,307,1255911,6,0,P|253:350|302:248,1,190,0|8,3:0|0:0,0:0:0:0:
147,198,1256422,1,2,0:0:0:0:
115,186,1256507,1,0,0:0:0:0:
84,173,1256592,2,0,L|69:110,2,47.5,2|0|0,0:0|0:0|3:0,0:0:0:0:
226,45,1256933,2,0,L|208:164,1,95,8|0,0:0|0:0,0:0:0:0:
309,317,1257274,6,0,L|297:213,1,95,0|0,3:0|0:0,0:0:0:0:
386,23,1257615,1,8,0:0:0:0:
440,152,1257786,2,0,L|430:94,1,47.5,2|0,0:0|0:0,0:0:0:0:
384,216,1257956,2,0,L|371:270,1,47.5,2|0,0:0|0:0,0:0:0:0:
463,240,1258127,2,0,L|510:234,1,47.5,0|0,3:0|0:0,0:0:0:0:
354,139,1258297,2,0,P|301:127|239:158,1,95,8|0,0:0|0:0,0:0:0:0:
240,348,1258638,6,0,P|266:276|227:199,1,142.5,0|0,3:0|0:0,0:0:0:0:
217,196,1258979,2,0,L|91:206,1,95,8|2,0:0|0:0,0:0:0:0:
140,231,1259234,1,0,0:0:0:0:
159,257,1259320,1,2,0:0:0:0:
146,118,1259490,1,0,3:0:0:0:
49,317,1259661,2,0,L|64:206,1,95,8|0,0:0|0:0,0:0:0:0:
40,58,1260002,6,0,B|86:83|86:83|203:62,1,142.5,0|0,3:0|0:0,0:0:0:0:
201,47,1260342,1,8,0:0:0:0:
332,171,1260513,1,2,0:0:0:0:
348,142,1260598,1,0,0:0:0:0:
348,108,1260683,1,2,0:0:0:0:
335,76,1260769,1,0,0:0:0:0:
309,55,1260854,1,0,3:0:0:0:
213,252,1261024,2,0,L|233:369,1,95,8|0,0:0|0:0,0:0:0:0:
447,306,1261365,6,0,P|385:293|317:337,1,142.5,0|0,3:0|0:0,0:0:0:0:
309,363,1261706,1,8,0:0:0:0:
480,227,1261877,2,0,L|460:164,2,47.5,2|0|2,0:0|0:0|0:0,0:0:0:0:
496,97,1262217,1,0,3:0:0:0:
275,100,1262388,2,0,B|311:107|311:107|369:88,1,95,8|0,0:0|0:0,0:0:0:0:
213,213,1262729,6,0,B|156:223|156:223|65:194,1,142.5,0|0,3:0|0:0,0:0:0:0:
48,178,1263070,1,8,0:0:0:0:
298,180,1263240,1,2,0:0:0:0:
298,180,1263325,1,0,0:0:0:0:
298,180,1263411,2,0,P|304:231|269:278,1,95,2|0,0:0|3:0,0:0:0:0:
61,328,1263752,2,0,L|169:339,1,95,8|0,0:0|0:0,0:0:0:0:
382,337,1264092,6,0,L|248:352,1,95,0|0,3:0|0:0,0:0:0:0:
478,258,1264433,1,8,0:0:0:0:
364,147,1264604,1,2,0:0:0:0:
364,147,1264689,1,0,0:0:0:0:
364,147,1264774,1,2,0:0:0:0:
221,271,1264945,2,0,B|286:287|323:227|323:227|271:163|213:193,1,237.5,0|0,3:0|0:0,0:0:0:0:
143,221,1265456,5,0,3:0:0:0:
188,351,1265627,1,0,0:0:0:0:
187,118,1265797,2,0,L|78:135,1,95,8|0,0:0|0:0,0:0:0:0:
59,127,1266053,1,0,0:0:0:0:
26,122,1266138,1,2,0:0:0:0:
142,35,1266308,1,0,3:0:0:0:
395,159,1266479,2,0,L|243:180,1,142.5,8|0,0:0|0:0,0:0:0:0:
228,201,1266820,6,0,P|209:250|236:310,1,95,0|0,3:0|0:0,0:0:0:0:
286,95,1267161,1,8,0:0:0:0:
142,35,1267331,1,2,0:0:0:0:
159,62,1267416,1,0,0:0:0:0:
167,94,1267502,1,2,0:0:0:0:
165,127,1267587,1,0,0:0:0:0:
146,154,1267672,1,0,3:0:0:0:
58,334,1267842,2,0,B|46:301|46:301|64:219,1,95,8|0,0:0|0:0,0:0:0:0:
269,311,1268183,6,0,B|229:328|229:328|153:314,1,95,0|0,3:0|0:0,0:0:0:0:
383,193,1268524,1,8,0:0:0:0:
418,315,1268695,2,0,L|409:367,2,47.5,2|0|2,0:0|0:0|0:0,0:0:0:0:
461,163,1269036,1,0,3:0:0:0:
204,202,1269206,2,0,B|265:189|252:226|317:199,1,95,8|0,0:0|0:0,0:0:0:0:
132,165,1269547,6,0,B|100:247|161:232|132:326,1,142.5,0|0,3:0|0:0,0:0:0:0:
121,332,1269888,1,8,0:0:0:0:
86,103,1270058,1,2,0:0:0:0:
116,89,1270144,1,0,0:0:0:0:
149,88,1270229,1,2,0:0:0:0:
178,103,1270314,1,0,0:0:0:0:
196,130,1270399,1,0,3:0:0:0:
7,252,1270570,2,0,L|23:134,1,95,8|0,0:0|0:0,0:0:0:0:
222,212,1270911,6,0,P|291:229|385:166,1,190,0|8,3:0|0:0,0:0:0:0:
349,45,1271422,2,0,L|339:107,1,47.5,2|0,0:0|0:0,0:0:0:0:
384,166,1271592,2,0,L|396:223,1,47.5,2|0,0:0|0:0,0:0:0:0:
361,288,1271763,1,0,3:0:0:0:
480,74,1271933,2,0,L|459:190,1,95,8|0,0:0|0:0,0:0:0:0:
431,327,1272274,6,0,P|358:298|277:333,1,142.5,0|0,3:0|0:0,0:0:0:0:
276,339,1272615,2,0,L|165:336,1,95,8|2,0:0|0:0,0:0:0:0:
148,326,1272871,1,0,0:0:0:0:
116,316,1272956,1,2,0:0:0:0:
247,253,1273127,1,0,3:0:0:0:
131,97,1273297,2,0,L|145:215,2,95,8|0|0,0:0|0:0|3:0,0:0:0:0:
21,217,1273808,5,0,0:0:0:0:
228,106,1273979,1,8,0:0:0:0:
65,56,1274149,1,2,0:0:0:0:
51,86,1274234,1,0,0:0:0:0:
52,119,1274320,1,2,0:0:0:0:
68,148,1274405,1,0,0:0:0:0:
94,167,1274490,1,0,3:0:0:0:
206,296,1274661,1,8,0:0:0:0:
187,142,1274831,1,0,0:0:0:0:
42,315,1275002,5,0,3:0:0:0:
58,332,1275342,2,0,P|112:341|172:317,1,95,8|2,0:0|0:0,0:0:0:0:
178,313,1275598,1,0,0:0:0:0:
206,296,1275683,1,2,0:0:0:0:
301,196,1275854,1,0,3:0:0:0:
158,31,1276024,2,0,L|189:151,2,95,8|0|0,0:0|0:0|3:0,0:0:0:0:
265,150,1276536,5,0,0:0:0:0:
65,101,1276706,1,8,0:0:0:0:
273,47,1276877,2,0,L|327:30,2,47.5,2|0|2,0:0|0:0|0:0,0:0:0:0:
386,95,1277217,1,0,3:0:0:0:
158,31,1277388,2,0,L|63:15,1,95,8|0,0:0|0:0,0:0:0:0:
265,150,1277729,6,0,P|240:189|181:219,2,95,0|0|8,3:0|0:0|0:0,0:0:0:0:
349,199,1278240,1,2,0:0:0:0:
351,215,1278325,1,0,0:0:0:0:
352,234,1278411,2,0,L|339:279,2,47.5,2|0|0,0:0|0:0|3:0,0:0:0:0:
411,125,1278752,2,0,B|356:111|356:111|271:127,1,142.5,8|0,0:0|0:0,0:0:0:0:
244,146,1279092,6,0,P|180:158|136:98,1,142.5,0|0,3:0|0:0,0:0:0:0:
139,69,1279433,1,8,0:0:0:0:
221,232,1279604,2,0,L|233:287,1,47.5,2|0,0:0|0:0,0:0:0:0:
173,330,1279774,2,0,L|160:383,2,47.5,2|0|0,0:0|0:0|3:0,0:0:0:0:
370,336,1280115,2,0,P|313:354|262:323,1,95,8|0,0:0|0:0,0:0:0:0:
424,268,1280456,5,0,3:0:0:0:
432,262,1280797,2,0,L|438:160,1,95,8|2,0:0|0:0,0:0:0:0:
428,134,1281053,1,0,0:0:0:0:
415,103,1281138,1,2,0:0:0:0:
280,184,1281309,1,0,3:0:0:0:
118,37,1281479,2,0,L|95:150,1,95,8|0,0:0|0:0,0:0:0:0:
124,349,1281820,6,0,P|159:290|118:201,1,142.5,0|0,3:0|0:0,0:0:0:0:
112,205,1282161,1,8,0:0:0:0:
228,318,1282331,1,2,0:0:0:0:
259,326,1282416,1,0,0:0:0:0:
292,331,1282502,2,0,L|345:324,1,47.5,2|0,0:0|0:0,0:0:0:0:
467,297,1282672,1,0,3:0:0:0:
421,147,1282842,2,0,P|404:203|426:248,1,95,8|0,0:0|0:0,0:0:0:0:
487,96,1283183,6,0,P|403:66|336:136,1,190,0|8,3:0|0:0,0:0:0:0:
192,267,1283695,1,2,0:0:0:0:
228,275,1283780,1,0,0:0:0:0:
265,270,1283865,1,2,0:0:0:0:
295,247,1283950,1,0,0:0:0:0:
318,216,1284036,1,0,3:0:0:0:
118,168,1284206,2,0,P|65:158|52:291,1,190,8|2,0:0|0:0,0:0:0:0:
77,62,1287274,5,4,0:0:0:0:
406,92,1290002,5,2,0:0:0:0:
59,301,1292729,5,2,0:0:0:0:
419,305,1295456,5,2,0:0:0:0:
62,309,1298183,5,8,1:0:0:0:
79,319,1298524,1,0,3:0:0:0:
167,217,1298695,1,8,1:0:0:0:
19,75,1298865,2,0,P|6:125|43:181,1,95,0|0,3:0|0:0,0:0:0:0:
199,143,1299206,2,0,P|147:139|106:164,1,95,8|0,1:0|0:0,0:0:0:0:
273,194,1299547,6,0,L|371:171,1,95,8|0,1:0|0:0,0:0:0:0:
268,95,1299888,1,0,3:0:0:0:
351,262,1300058,2,0,L|458:268,1,95,8|0,1:0|3:0,0:0:0:0:
276,316,1300399,1,0,0:0:0:0:
445,192,1300570,1,8,1:0:0:0:
263,52,1300740,1,0,3:0:0:0:
263,52,1300825,1,0,3:0:0:0:
263,52,1300911,6,0,P|218:79|157:60,1,95,8|0,1:0|0:0,0:0:0:0:
13,66,1301252,1,8,1:0:0:0:
81,117,1301422,2,0,L|96:225,2,95,8|0|0,1:0|3:0|0:0,0:0:0:0:
37,275,1301933,2,0,P|77:298|153:272,1,95,8|0,1:0|0:0,0:0:0:0:
294,233,1302274,2,0,P|248:221|181:252,1,95,8|0,1:0|0:0,0:0:0:0:
352,310,1302615,1,8,1:0:0:0:
224,148,1302786,2,0,P|176:150|124:193,2,95,8|0|0,1:0|3:0|0:0,0:0:0:0:
75,338,1303297,2,0,L|59:237,1,95,8|0,1:0|0:0,0:0:0:0:
128,64,1303638,5,8,3:1:0:0:
54,153,1303808,1,0,3:0:0:0:
48,30,1303979,1,8,3:1:0:0:
273,118,1304149,1,0,3:0:0:0:
165,139,1304320,5,8,3:1:0:0:
211,45,1304490,1,0,3:0:0:0:
224,273,1304661,1,8,3:1:0:0:
154,220,1304831,1,0,3:0:0:0:
347,196,1305002,5,8,3:1:0:0:
261,341,1305172,1,0,3:0:0:0:
263,173,1305342,1,8,3:1:0:0:
393,315,1305513,1,0,3:0:0:0:
249,187,1305683,5,8,3:1:0:0:
376,334,1305854,1,0,3:0:0:0:
234,207,1306024,1,8,3:1:0:0:
368,348,1306195,1,0,3:0:0:0:
400,94,1306365,5,8,3:1:0:0:
364,70,1306450,1,0,3:0:0:0:
321,62,1306536,1,0,3:0:0:0:
281,77,1306621,1,0,3:0:0:0:
252,108,1306706,5,8,3:1:0:0:
224,140,1306791,1,0,3:0:0:0:
181,147,1306877,1,0,3:0:0:0:
140,132,1306962,1,0,3:0:0:0:
115,97,1307047,5,8,3:1:0:0:
73,85,1307132,1,0,3:0:0:0:
33,102,1307217,1,0,3:0:0:0:
11,139,1307303,1,0,3:0:0:0:
21,180,1307388,5,8,3:1:0:0:
52,208,1307473,1,0,3:0:0:0:
74,244,1307558,1,0,3:0:0:0:
68,286,1307644,1,0,3:0:0:0:
41,319,1307729,5,0,3:0:0:0:
163,283,1307899,6,0,B|271:318|245:259|369:283,1,190
220,209,1308752,5,2,0:3:0:0:
205,171,1308837,1,2,0:3:0:0:
191,133,1308922,1,2,0:3:0:0:
179,94,1309007,1,2,0:3:0:0:
164,56,1309092,6,0,P|231:88|331:55,1,170.999994781494,4|0,0:0|0:0,0:0:0:0:
395,22,1309433,2,0,L|387:156,2,113.999996520996,8|0|2,1:0|0:0|0:0,0:0:0:0:
445,201,1309945,1,0,3:0:0:0:
219,284,1310115,1,8,1:0:0:0:
316,333,1310286,1,0,0:0:0:0:
124,194,1310456,6,0,L|141:314,1,113.999996520996,0|0,3:0|0:0,0:0:0:0:
236,38,1310797,2,0,L|215:237,1,170.999994781494,8|0,1:0|0:0,0:0:0:0:
219,284,1311138,1,2,0:0:0:0:
306,177,1311308,1,0,3:0:0:0:
99,82,1311479,2,0,B|127:212,1,113.999996520996,8|0,1:0|0:0,0:0:0:0:
175,357,1311820,5,0,3:0:0:0:
342,291,1311990,1,2,0:0:0:0:
363,257,1312075,1,2,0:0:0:0:
367,216,1312161,2,0,L|344:97,2,113.999996520996,8|0|2,1:0|0:0|0:0,0:0:0:0:
421,52,1312672,1,0,3:0:0:0:
165,149,1312842,2,0,P|236:156|306:142,1,113.999996520996,8|2,1:0|0:0,0:0:0:0:
317,132,1313098,1,2,0:0:0:0:
345,104,1313183,6,0,L|332:31,1,56.9999982604981,2|0,0:0|0:0,0:0:0:0:
411,173,1313354,2,0,L|402:238,1,56.9999982604981,0|0,3:0|0:0,0:0:0:0:
271,317,1313524,2,0,P|311:294|405:320,1,113.999996520996,8|0,1:0|0:0,0:0:0:0:
196,349,1313865,2,0,L|128:344,1,56.9999982604981,2|0,0:0|0:0,0:0:0:0:
19,303,1314036,2,0,L|95:298,1,56.9999982604981,0|0,3:0|0:0,0:0:0:0:
202,242,1314206,2,0,L|127:235,1,56.9999982604981,8|0,1:0|0:0,0:0:0:0:
270,191,1314377,1,0,3:0:0:0:
120,79,1314547,6,0,P|143:143|192:73,1,170.999994781494,4|0,3:2|0:0,0:0:0:0:
172,24,1314888,1,8,1:0:0:0:
85,191,1315058,2,0,B|69:233|69:233|88:317,2,113.999996520996,0|2|0,0:0|0:0|3:0,0:0:0:0:
295,343,1315570,1,8,1:0:0:0:
193,299,1315740,2,0,L|186:222,1,56.9999982604981,2|0,0:0|0:0,0:0:0:0:
247,182,1315911,6,0,L|254:125,1,56.9999982604981,0|0,3:0|0:0,0:0:0:0:
381,173,1316081,2,0,P|349:182|315:174,1,56.9999982604981,2|0,0:0|0:0,0:0:0:0:
444,119,1316252,2,0,P|467:165|430:235,1,113.999996520996,8|0,1:0|0:0,0:0:0:0:
284,303,1316592,2,0,L|351:312,1,56.9999982604981,2|0,0:0|0:0,0:0:0:0:
158,353,1316763,2,0,L|246:343,1,56.9999982604981,0|0,3:0|0:0,0:0:0:0:
86,307,1316933,2,0,P|116:247|92:189,1,113.999996520996,8|0,1:0|0:0,0:0:0:0:
19,85,1317274,6,0,L|196:57,1,170.999994781494,0|0,3:0|0:0,0:0:0:0:
266,77,1317615,1,8,1:0:0:0:
200,242,1317786,1,2,0:0:0:0:
200,242,1317871,1,0,0:0:0:0:
200,242,1317956,2,0,L|187:113,1,113.999996520996,2|0,0:0|3:0,0:0:0:0:
288,302,1318297,2,0,L|301:171,1,113.999996520996,8|0,1:0|0:0,0:0:0:0:
41,305,1318638,5,2,3:2:0:0:
72,329,1318723,1,0,3:0:0:0:
111,331,1318808,1,2,3:2:0:0:
148,317,1318894,1,0,3:0:0:0:
180,294,1318979,5,2,3:2:0:0:
216,278,1319064,1,0,3:0:0:0:
255,281,1319149,1,2,3:2:0:0:
288,302,1319234,1,0,3:0:0:0:
318,328,1319320,5,2,3:2:0:0:
355,341,1319405,1,0,3:0:0:0:
394,338,1319490,1,2,3:2:0:0:
428,317,1319575,1,0,3:0:0:0:
453,285,1319661,6,0,L|448:206,1,56.9999982604981,8|0,1:0|0:0,0:0:0:0:
401,168,1319831,1,8,0:3:0:0:
401,168,1319917,1,8,0:3:0:0:
401,168,1320002,6,0,B|405:87|386:37|386:37|404:62|432:65,1,170.999994781494,4|0,3:2|0:0,0:0:0:0:
477,101,1320342,6,0,P|415:82|257:126,1,227.999993041992,8|2,1:0|0:0,0:0:0:0:
190,168,1320854,1,0,3:0:0:0:
292,346,1321024,2,0,B|307:309|307:309|293:217,2,113.999996520996,8|0|0,1:0|0:0|3:0,0:0:0:0:
373,229,1321536,1,0,0:0:0:0:
107,303,1321706,2,0,B|153:310|153:310|229:293,1,113.999996520996,8|0,1:0|0:0,0:0:0:0:
14,230,1322047,1,2,0:0:0:0:
46,359,1322217,1,0,3:0:0:0:
145,147,1322388,2,0,P|142:92|82:52,1,113.999996520996,8|0,1:0|0:0,0:0:0:0:
97,227,1322729,5,0,3:0:0:0:
338,193,1322899,1,2,0:0:0:0:
338,193,1322984,1,2,0:0:0:0:
338,193,1323070,1,8,1:0:0:0:
257,33,1323240,2,0,P|220:118|256:201,1,170.999994781494
287,259,1323581,1,0,3:0:0:0:
69,252,1323752,2,0,L|193:241,2,113.999996520996,8|0|2,1:0|0:0|0:0,0:0:0:0:
222,362,1324263,6,0,P|221:328|233:298,1,56.9999982604981,0|0,3:0|0:0,0:0:0:0:
402,334,1324433,2,0,P|343:356|286:331,1,113.999996520996,8|0,1:0|0:0,0:0:0:0:
459,182,1324774,2,0,L|471:261,1,56.9999982604981,2|0,0:0|0:0,0:0:0:0:
414,118,1324945,2,0,P|447:104|500:117,1,56.9999982604981,0|0,3:0|0:0,0:0:0:0:
354,165,1325115,2,0,L|273:157,1,56.9999982604981,8|0,1:0|0:0,0:0:0:0:
389,234,1325286,1,0,3:0:0:0:
238,102,1325456,6,0,P|166:107|146:206,1,170.999994781494,4|0,3:2|0:0,0:0:0:0:
199,261,1325797,2,0,L|47:269,2,113.999996520996,8|0|2,1:0|0:0|0:0,0:0:0:0:
109,335,1326308,1,0,3:0:0:0:
255,200,1326479,2,0,P|280:265|257:320,2,113.999996520996,8|0|0,1:0|0:0|3:0,0:0:0:0:
364,341,1326990,6,0,P|401:337|427:325,1,56.9999982604981,2|0,0:0|0:0,0:0:0:0:
384,158,1327160,2,0,P|357:216|387:281,1,113.999996520996,8|0,1:0|0:0,0:0:0:0:
492,80,1327502,2,0,L|417:92,1,56.9999982604981,2|0,0:0|0:0,0:0:0:0:
292,58,1327673,2,0,L|371:69,1,56.9999982604981,0|0,3:0|0:0,0:0:0:0:
237,218,1327842,2,0,P|220:139|245:107,1,113.999996520996,8|0,1:0|0:0,0:0:0:0:
292,288,1328183,5,4,3:2:0:0:
136,199,1328354,1,2,3:2:0:0:
136,199,1328439,1,2,0:0:0:0:
136,199,1328524,1,8,1:0:0:0:
291,143,1328695,1,0,3:0:0:0:
186,296,1328865,1,0,3:0:0:0:
161,104,1329036,1,0,3:0:0:0:
272,362,1329206,1,8,1:0:0:0:
81,281,1329377,1,0,3:0:0:0:
241,238,1329547,5,0,3:0:0:0:
274,259,1329632,1,0,3:0:0:0:
313,262,1329717,1,0,3:0:0:0:
351,249,1329803,1,0,3:0:0:0:
382,224,1329888,5,8,1:0:0:0:
417,206,1329973,1,0,3:0:0:0:
456,210,1330058,1,0,3:0:0:0:
485,237,1330144,1,0,3:0:0:0:
479,276,1330229,6,0,L|462:348,3,56.9999982604981,2|0|0|0,3:2|3:0|3:0|3:0,0:0:0:0:
456,210,1330570,2,0,P|423:133|481:68,1,170.999994781494,8|0,1:0|0:0,0:0:0:0:
498,144,1330911,6,0,L|363:147,1,113.999996520996,4|0,0:1|0:0,0:0:0:0:
176,99,1331252,1,8,1:0:0:0:
253,257,1331422,2,0,P|284:206|194:202,1,170.999994781494,2|0,0:0|0:0,0:0:0:0:
151,242,1331763,1,0,3:0:0:0:
368,354,1331933,2,0,P|344:305|370:237,1,113.999996520996,8|0,1:0|0:0,0:0:0:0:
501,157,1332274,6,0,L|388:175,1,113.999996520996,0|0,3:0|0:0,0:0:0:0:
137,148,1332615,1,8,1:0:0:0:
260,73,1332786,1,0,0:0:0:0:
260,73,1332871,1,0,0:0:0:0:
260,73,1332956,1,2,0:0:0:0:
210,263,1333127,1,0,3:0:0:0:
46,50,1333297,2,0,B|64:89|64:89|47:236,1,170.999994781494,8|0,1:0|0:0,0:0:0:0:
0,273,1333638,6,0,P|53:252|118:267,1,113.999996520996,0|0,3:0|0:0,0:0:0:0:
331,360,1333979,1,8,1:0:0:0:
370,169,1334149,2,0,B|381:249|398:293|398:293|401:259|426:228,1,170.999994781494,2|0,0:0|0:0,0:0:0:0:
451,188,1334490,2,0,L|461:97,1,56.9999982604981,0|0,3:0|0:0,0:0:0:0:
399,55,1334661,1,8,1:0:0:0:
206,136,1334831,6,0,P|278:168|294:93,1,170.999994781494,2|0,0:0|0:0,0:0:0:0:
231,52,1335172,1,0,3:0:0:0:
147,237,1335342,2,0,P|202:274|258:283,1,113.999996520996,8|0,1:0|0:0,0:0:0:0:
411,278,1335683,1,2,0:0:0:0:
456,81,1335854,2,0,B|479:131|479:131|466:212,2,113.999996520996,0|8|0,3:0|1:0|3:0,0:0:0:0:
211,34,1336365,6,0,L|224:237,1,170.999994781494,4|0,3:2|0:0,0:0:0:0:
192,277,1336706,1,8,1:0:0:0:
405,272,1336877,2,0,P|360:247|285:268,1,113.999996520996,2|0,0:0|0:0,0:0:0:0:
146,342,1337217,1,0,3:0:0:0:
173,152,1337388,1,8,1:0:0:0:
95,206,1337558,6,0,L|75:75,2,113.999996520996,2|0|0,0:0|3:0|0:0,0:0:0:0:
297,51,1338070,2,0,P|244:42|183:74,1,113.999996520996,8|0,1:0|0:0,0:0:0:0:
350,129,1338411,1,2,0:0:0:0:
471,43,1338581,1,0,3:0:0:0:
254,135,1338752,2,0,L|284:258,1,113.999996520996,8|0,1:0|0:0,0:0:0:0:
505,286,1339092,6,0,P|414:254|335:321,1,170.999994781494,0|0,3:0|0:0,0:0:0:0:
293,341,1339433,2,0,L|166:332,2,113.999996520996,8|0|2,1:0|0:0|0:0,0:0:0:0:
117,263,1339945,1,0,3:0:0:0:
322,157,1340115,1,8,1:0:0:0:
199,74,1340286,6,0,L|218:209,1,113.999996520996,0|2,0:0|0:0,0:0:0:0:
280,44,1340627,1,0,3:0:0:0:
280,44,1340712,1,0,3:0:0:0:
280,44,1340797,1,8,1:0:0:0:
100,162,1340967,2,0,L|116:38,1,113.999996520996,0|2,0:0|0:0,0:0:0:0:
44,241,1341308,1,0,3:0:0:0:
44,241,1341394,1,0,3:0:0:0:
44,241,1341479,1,8,1:0:0:0:
156,343,1341649,1,0,3:0:0:0:
311,238,1341820,6,0,L|128:259,1,170.999994781494,4|0,0:0|0:0,0:0:0:0:
197,174,1342161,1,8,1:0:0:0:
369,313,1342331,1,2,0:0:0:0:
395,283,1342416,1,0,0:0:0:0:
405,244,1342502,2,0,L|394:168,2,56.9999982604981,2|0|0,0:0|0:0|3:0,0:0:0:0:
334,23,1342842,2,0,L|316:153,1,113.999996520996,8|0,1:0|0:0,0:0:0:0:
257,264,1343183,5,0,3:0:0:0:
363,358,1343354,1,0,0:0:0:0:
151,156,1343524,2,0,P|124:223|153:278,1,113.999996520996,8|2,1:0|0:0,0:0:0:0:
157,293,1343780,1,2,0:0:0:0:
178,326,1343865,2,0,P|131:310|39:327,1,113.999996520996,2|0,0:0|3:0,0:0:0:0:
257,264,1344206,2,0,P|304:248|383:264,1,113.999996520996,8|0,1:0|0:0,0:0:0:0:
479,370,1344547,6,0,L|438:158,1,170.999994781494,0|0,3:0|0:0,0:0:0:0:
422,125,1344888,2,0,P|414:73|442:21,2,113.999996520996,8|0|2,1:0|0:0|0:0,0:0:0:0:
501,87,1345399,1,0,3:0:0:0:
273,33,1345570,1,8,1:0:0:0:
312,212,1345740,6,0,P|337:146|309:92,2,113.999996520996,2|0|0,0:0|0:0|3:0,0:0:0:0:
142,39,1346252,2,0,L|158:159,1,113.999996520996,8|2,1:0|0:0,0:0:0:0:
157,191,1346507,1,0,0:0:0:0:
148,229,1346592,1,2,0:0:0:0:
50,116,1346763,1,0,3:0:0:0:
258,83,1346933,1,8,1:0:0:0:
58,272,1347104,1,0,3:0:0:0:
264,291,1347274,6,0,B|263:259|283:239|283:239|292:205|271:169,1,113.999996520996,4|0,0:0|0:0,0:0:0:0:
369,337,1347615,1,8,1:0:0:0:
442,224,1347786,1,2,0:0:0:0:
435,185,1347871,1,0,0:0:0:0:
423,148,1347956,2,0,L|405:72,2,56.9999982604981,2|0|0,0:0|0:0|3:0,0:0:0:0:
329,42,1348297,1,8,1:0:0:0:
161,90,1348467,2,0,P|228:110|301:87,2,113.999996520996,2|0|0,0:0|3:0|0:0,0:0:0:0:
372,120,1348979,6,0,L|347:265,1,113.999996520996,8|0,1:0|0:0,0:0:0:0:
430,353,1349320,1,2,0:0:0:0:
430,353,1349405,1,2,0:0:0:0:
430,353,1349490,1,0,3:0:0:0:
249,206,1349661,2,0,L|275:332,1,113.999996520996,8|0,1:0|0:0,0:0:0:0:
275,132,1350002,6,0,P|204:136|173:223,1,170.999994781494,0|0,3:0|0:0,0:0:0:0:
190,294,1350342,1,8,1:0:0:0:
362,175,1350513,1,2,0:0:0:0:
362,175,1350598,1,0,0:0:0:0:
362,175,1350683,1,2,0:0:0:0:
267,41,1350854,1,0,3:0:0:0:
318,273,1351024,1,8,1:0:0:0:
256,192,1351195,12,0,1352558,0:0:0:0:
471,148,1352729,5,4,0:1:0:0:
176,140,1354113,6,0,P|252:124|342:132,1,142.500005435944,2|0,0:0|0:0,0:0:0:0:
227,226,1354624,2,0,P|299:229|367:249,1,142.500005435944,2|0,0:0|0:0,0:0:0:0:
272,323,1355135,2,0,P|329:341|386:381,1,106.875004076958,2|0,0:0|0:0,0:0:0:0:
383,384,1355476,1,2,0:0:0:0:
336,140,1356840,6,0,P|260:124|170:132,1,142.500005435944,2|0,0:0|0:0,0:0:0:0:
284,226,1357351,2,0,P|212:229|144:249,1,142.500005435944,2|0,0:0|0:0,0:0:0:0:
240,323,1357862,2,0,P|182:341|125:381,1,106.875004076958,2|0,0:0|0:0,0:0:0:0:
129,384,1358203,1,2,0:0:0:0:
10,94,1360931,6,0,B|62:69|125:93|125:93|63:207|159:217|135:346|135:346|159:218|248:240|234:112|234:112|309:104|349:148,1,760,2|2,0:0|0:0,0:0:0:0:
340,17,1365022,6,0,B|329:68|329:68|279:143,1,142.500005435944,2|0,0:0|0:0,0:0:0:0:
61,210,1365533,2,0,B|111:193|111:193|200:199,1,142.500005435944,2|0,0:0|0:0,0:0:0:0:
348,325,1366044,2,0,B|315:296|315:296|287:239,1,106.875004076958,2|0,0:0|0:0,0:0:0:0:
281,227,1366385,1,2,0:0:0:0:
166,22,1367749,6,0,B|176:73|176:73|226:148,1,142.500005435944,2|0,0:0|0:0,0:0:0:0:
445,215,1368260,2,0,B|395:198|395:198|305:204,1,142.500005435944,2|0,0:0|0:0,0:0:0:0:
158,330,1368771,2,0,B|190:301|190:301|218:244,1,106.875004076958,2|0,0:0|0:0,0:0:0:0:
225,232,1369112,1,2,0:0:0:0:
203,160,1370476,6,0,L|133:152,2,71.2500027179719,2|0|0,0:0|0:0|0:0,0:0:0:0:
259,240,1371158,2,0,P|256:170|302:118,1,142.500005435944,2|2,0:0|0:0,0:0:0:0:
347,205,1371840,6,0,P|419:281|384:377,1,213.750008153916,2|0,0:0|0:0,0:0:0:0:
185,298,1372692,2,0,B|281:287|281:287|325:300,1,142.500005435944,2|2,0:0|0:0,0:0:0:0:
347,205,1373203,6,0,L|357:122,1,71.2500027179719,2|0,0:0|0:0,0:0:0:0:
260,121,1373544,2,0,L|252:192,1,71.2500027179719,2|0,0:0|0:0,0:0:0:0:
78,33,1374056,6,0,L|66:167,1,118.75,2|0,0:0|0:0,0:0:0:0:
66,161,1374567,6,0,P|156:113|293:156,1,246.999988693238,4|0,3:0|1:0,0:0:0:0:
285,261,1375078,5,2,0:0:0:0:
285,261,1375249,2,0,B|322:192|302:115|302:115|277:181,1,190,2|0,0:0|1:0,0:0:0:0:
152,147,1375760,6,0,P|219:167|288:152,1,142.5,2|0,0:0|0:0,0:0:0:0:
407,140,1376101,6,0,P|346:132|288:152,1,123.499994346619,2|0,0:0|1:0,0:0:0:0:
285,337,1376442,6,0,B|267:277|267:277|288:151,1,190
310,56,1376953,1,0,1:0:0:0:
364,269,1377124,1,2,0:0:0:0:
288,151,1377294,6,0,B|228:133|228:133|102:154,2,190,2|0|0,0:0|1:0|0:0,0:0:0:0:
221,231,1378147,1,0,0:0:0:0:
146,48,1378317,1,0,1:0:0:0:
282,54,1378488,6,0,P|214:33|145:48,1,142.5,2|0,0:0|0:0,0:0:0:0:
27,61,1378829,6,0,P|87:68|145:48,1,123.499994346619,2|0,0:0|1:0,0:0:0:0:
363,0,1379169,1,2,0:0:0:0:
363,0,1379681,1,0,1:0:0:0:
365,239,1380022,6,0,L|364:113,1,95,0|0,3:0|0:0,0:0:0:0:
363,0,1380363,1,0,1:0:0:0:
153,57,1380533,1,2,0:0:0:0:
153,57,1380703,2,0,B|222:94|299:74|299:74|233:49,1,190,2|0,0:0|1:0,0:0:0:0:
64,97,1381215,6,0,P|43:164|58:233,1,142.5,2|0,0:0|0:0,0:0:0:0:
71,352,1381556,6,0,P|78:291|58:233,1,123.499994346619,2|0,0:0|1:0,0:0:0:0:
220,199,1381897,6,0,P|130:177|58:233,1,190,2|0,0:0|0:0,0:0:0:0:
154,281,1382408,1,0,1:0:0:0:
124,68,1382578,1,2,0:0:0:0:
220,199,1382749,6,0,B|279:216|279:216|405:195,2,190,2|0|0,0:0|1:0|0:0,0:0:0:0:
132,161,1383601,1,0,0:0:0:0:
284,115,1383772,1,0,1:0:0:0:
338,297,1383942,6,0,P|268:308|202:283,1,142.5,2|0,0:0|0:0,0:0:0:0:
87,254,1384283,6,0,P|148:255|202:283,1,123.499994346619,2|0,0:0|1:0,0:0:0:0:
384,382,1384624,1,2,0:0:0:0:
384,382,1385135,1,0,1:0:0:0:
390,263,1385476,6,0,L|388:142,1,95,0|0,3:0|0:0,0:0:0:0:
297,343,1385817,1,0,1:0:0:0:
388,168,1386158,2,0,L|387:47,1,95,0|0,3:0|0:0,0:0:0:0:
296,248,1386499,1,0,1:0:0:0:
2,305,1386840,6,0,L|4:184,1,95,0|0,3:0|0:0,0:0:0:0:
95,384,1387181,1,0,1:0:0:0:
3,210,1387522,2,0,L|4:89,1,95,0|0,3:0|0:0,0:0:0:0:
96,289,1387863,1,0,1:0:0:0:
181,150,1388203,6,0,P|133:146|87:154,1,95,0|0,3:0|0:0,0:0:0:0:
201,136,1388544,2,0,P|132:123|63:142,1,142.500005435944,0|0,1:0|0:0,0:0:0:0:
331,150,1388885,6,0,P|378:146|424:154,1,95,0|0,3:0|0:0,0:0:0:0:
310,136,1389226,2,0,P|379:123|448:142,1,142.500005435944,0|0,1:0|0:0,0:0:0:0:
338,345,1389567,6,0,L|347:210,1,95,0|0,3:0|0:0,0:0:0:0:
362,370,1389908,2,0,L|371:227,1,142.500005435944,0|0,1:0|0:0,0:0:0:0:
174,345,1390249,6,0,L|165:210,1,95,0|0,3:0|0:0,0:0:0:0:
150,370,1390590,2,0,L|140:227,1,142.500005435944,0|0,1:0|0:0,0:0:0:0:
134,85,1390931,5,0,3:0:0:0:
134,85,1391101,1,0,0:0:0:0:
233,93,1391272,5,0,3:0:0:0:
233,93,1391442,1,0,0:0:0:0:
332,101,1391613,5,0,3:0:0:0:
332,101,1391783,1,0,0:0:0:0:
431,109,1391953,5,0,3:0:0:0:
431,109,1392123,1,0,0:0:0:0:
378,299,1392294,5,0,3:0:0:0:
378,299,1392464,1,0,0:0:0:0:
279,291,1392635,5,0,3:0:0:0:
279,291,1392805,1,0,0:0:0:0:
180,283,1392976,5,0,3:0:0:0:
180,283,1393146,1,0,0:0:0:0:
81,275,1393316,5,0,3:0:0:0:
81,275,1393488,1,0,0:0:0:0:
134,85,1393658,5,0,3:0:0:0:
180,283,1393828,1,0,3:0:0:0:
233,93,1393999,1,0,3:0:0:0:
279,291,1394169,1,0,3:0:0:0:
332,101,1394340,1,0,3:0:0:0:
378,299,1394510,1,0,3:0:0:0:
290,14,1394681,5,0,3:0:0:0:
218,366,1394851,1,0,3:0:0:0:
92,114,1395022,5,0,3:0:0:0:
139,107,1395107,1,0,3:0:0:0:
186,100,1395192,1,0,3:0:0:0:
233,93,1395277,1,0,3:0:0:0:
204,129,1395363,5,0,3:0:0:0:
181,132,1395448,1,0,3:0:0:0:
157,136,1395533,1,0,3:0:0:0:
134,140,1395618,1,0,3:0:0:0:
152,163,1395703,6,0,L|204:156,1,42.7499986953736,0|0,3:0|0:0,0:0:0:0:
273,177,1396044,6,0,L|73:203,1,199.499993911743,0|0,1:0|0:0,0:0:0:0:
0,285,1396385,5,4,1:0:0:0:
109,312,1396556,1,2,0:0:0:0:
27,100,1396726,1,2,0:0:0:0:
165,122,1396897,2,0,L|98:132,1,56.9999982604981,0|0,3:0|0:0,0:0:0:0:
27,100,1397067,2,0,B|68:59|68:59|117:51|117:51|118:34,2,113.999996520996,0|0|0,1:0|0:0|0:0,0:0:0:0:
106,297,1397578,1,0,0:0:0:0:
273,136,1397749,5,0,3:0:0:0:
310,323,1397919,2,0,B|271:323|256:299|256:299|234:317|212:319|212:319|199:297|151:273|105:298,1,227.999993041992,2|0,0:0|3:0,0:0:0:0:
310,323,1398431,2,0,B|417:312|417:312|436:313,2,113.999996520996,0|0|0,1:0|0:0|0:0,0:0:0:0:
15,300,1398942,1,0,0:0:0:0:
204,209,1399113,5,0,3:0:0:0:
144,379,1399283,2,0,B|144:340|120:325|120:325|138:303|140:281|140:281|119:267|94:220|114:174,1,227.999993041992,2|0,0:0|3:0,0:0:0:0:
205,59,1399794,2,0,B|314:46|314:46|323:30,2,113.999996520996,0|0|0,1:0|0:0|0:0,0:0:0:0:
204,209,1400306,1,0,0:0:0:0:
424,37,1400476,5,0,3:0:0:0:
408,239,1400647,2,0,B|363:259|316:234|302:213|302:213|280:215|258:233|258:233|243:209|204:209,1,227.999993041992,2|0,0:0|3:0,0:0:0:0:
373,149,1401158,1,0,1:0:0:0:
262,111,1401328,6,0,L|264:34,2,56.9999982604981
185,101,1401584,6,0,L|185:63,5,37.9999988403321
15,221,1402010,5,2,0:0:0:0:
113,275,1402181,1,2,0:0:0:0:
41,53,1402351,2,0,L|34:110,1,56.9999982604981,0|2,3:0|0:0,0:0:0:0:
15,221,1402522,2,0,B|3:329|3:329|-16:343,2,113.999996520996,0|0|0,1:0|0:0|0:0,0:0:0:0:
196,198,1403033,1,2,0:0:0:0:
307,354,1403203,5,0,3:0:0:0:
289,111,1403374,2,0,B|212:80|147:151|147:151|169:195|196:198,1,227.999993041992,2|0,0:0|3:0,0:0:0:0:
382,175,1403885,2,0,B|411:118|392:68|392:68|411:59,2,113.999996520996,0|0|0,1:0|0:0|0:0,0:0:0:0:
289,111,1404397,1,2,0:0:0:0:
512,104,1404567,5,0,3:0:0:0:
235,14,1404738,2,0,B|158:-16|93:54|93:54|115:98|141:100,1,227.999993041992,2|0,0:0|3:0,0:0:0:0:
394,66,1405249,5,0,1:0:0:0:
384,176,1405505,5,0,0:0:0:0:
485,130,1405760,5,0,0:0:0:0:
294,110,1405931,1,0,3:0:0:0:
290,262,1406101,2,0,B|367:292|432:222|432:222|410:178|384:176,1,227.999993041992,2|0,0:0|0:0,0:0:0:0:
211,182,1406613,1,0,1:0:0:0:
294,110,1406783,6,0,L|296:44,2,56.9999982604981
212,94,1407039,6,0,L|213:44,5,37.9999988403321
383,175,1407465,5,2,0:0:0:0:
118,240,1407635,1,2,0:0:0:0:
358,342,1407806,2,0,L|366:286,1,56.9999982604981,0|2,3:0|0:0,0:0:0:0:
268,232,1407976,2,0,B|251:340|251:340|239:346,2,113.999996520996,0|0|0,1:0|0:0|0:0,0:0:0:0:
470,247,1408488,1,2,0:0:0:0:
222,130,1408658,1,0,3:0:0:0:
512,30,1408828,6,0,B|477:41|443:30|443:30|396:44|396:44|355:16|318:17|318:17|279:35|239:17,1,285.000010871888,2|0,0:0|3:0,0:0:0:0:
337,141,1409340,6,0,B|396:162|443:145|443:145|426:171,2,113.999996520996,0|0|0,1:0|0:0|0:0,0:0:0:0:
512,30,1409851,1,2,0:0:0:0:
486,248,1410022,5,0,3:0:0:0:
337,141,1410192,2,0,B|307:128|276:142|276:142|246:143|213:120|213:120|175:132|175:132|147:123|119:132,1,227.999993041992,2|0,0:0|3:0,0:0:0:0:
26,260,1410703,2,0,B|32:369|32:369|27:380,2,113.999996520996,0|0|0,1:0|0:0|0:0,0:0:0:0:
118,132,1411215,1,2,0:0:0:0:
190,343,1411385,5,0,3:0:0:0:
381,240,1411556,2,0,B|350:230|319:244|319:244|289:245|256:222|256:222|218:234|218:234|190:225|161:233,1,227.999993041992,0|0,0:0|3:0,0:0:0:0:
359,349,1412067,1,0,1:0:0:0:
466,167,1412238,6,0,L|462:110,2,56.9999982604981
384,138,1412493,6,0,L|380:92,5,37.9999988403321
434,0,1412919,5,2,0:0:0:0:
277,57,1413090,1,2,0:0:0:0:
387,194,1413260,2,0,L|383:119,1,56.9999982604981,0|2,3:0|0:0,0:0:0:0:
274,170,1413431,2,0,B|278:231|278:231|303:274|303:274|294:289,2,113.999996520996,0|0|0,1:0|0:0|0:0,0:0:0:0:
434,0,1413942,1,2,0:0:0:0:
487,243,1414113,1,0,3:0:0:0:
274,170,1414283,6,0,B|173:132|109:155|109:155|125:209|125:209|120:269,1,285.000010871888,2|0,0:0|3:0,0:0:0:0:
274,170,1414794,6,0,B|277:173|277:173|295:229|269:275|269:275|246:266,2,113.999996520996,0|0|0,1:0|0:0|0:0,0:0:0:0:
442,337,1415306,1,2,0:0:0:0:
274,170,1415476,5,0,3:0:0:0:
408,16,1415647,2,0,B|461:20|461:20|507:6|507:6|528:62|502:131,1,227.999993041992,2|0,0:0|3:0,0:0:0:0:
442,337,1416158,1,0,1:0:0:0:
380,183,1416328,2,0,L|393:128,2,56.9999982604981
352,281,1416669,1,2,0:0:0:0:
313,62,1416840,5,0,3:0:0:0:
256,192,1416925,12,0,1418033,0:0:0:0:
196,132,1418183,5,4,0:1:0:0:
107,178,1418353,2,0,B|99:124|99:124|113:73,1,104.500003189087,2|8,0:0|1:0,0:0:0:0:
190,52,1418694,1,2,0:0:0:0:
298,137,1418864,2,0,B|244:145|244:145|193:131,1,104.500003189087,2|0,0:0|3:0,0:0:0:0:
372,68,1419205,1,8,1:0:0:0:
376,198,1419376,6,0,P|332:226|283:242,2,104.500003189087,2|0|0,0:0|3:0|0:0,0:0:0:0:
196,132,1419887,2,0,B|250:124|250:124|301:138,1,104.500003189087,8|0,1:0|0:0,0:0:0:0:
298,137,1420143,1,0,0:0:0:0:
298,137,1420228,5,2,0:0:0:0:
112,187,1420398,1,2,0:0:0:0:
297,38,1420569,1,8,1:0:0:0:
120,289,1420739,1,2,0:0:0:0:
32,34,1420909,5,2,3:2:0:0:
148,82,1421080,1,2,0:0:0:0:
32,130,1421251,1,8,1:0:0:0:
80,14,1421421,1,2,0:0:0:0:
128,130,1421592,1,2,0:0:0:0:
12,82,1421762,1,2,3:2:0:0:
128,34,1421933,1,8,1:0:0:0:
80,150,1422103,1,2,0:0:0:0:
266,87,1422273,5,2,3:2:0:0:
178,299,1422443,1,2,0:0:0:0:
391,211,1422614,1,8,1:0:0:0:
178,123,1422784,1,2,0:0:0:0:
266,336,1422955,1,2,0:0:0:0:
354,123,1423125,1,2,3:2:0:0:
142,211,1423296,1,8,1:0:0:0:
354,299,1423467,1,2,0:0:0:0:
354,123,1423637,5,0,3:0:0:0:
393,213,1423807,2,0,B|340:219|340:219|292:200,1,104.500003189087,2|8,0:0|1:0,0:0:0:0:
376,28,1424149,1,2,0:0:0:0:
450,90,1424319,2,0,B|404:118|404:118|353:122,1,104.500003189087,2|0,0:0|3:0,0:0:0:0:
120,25,1424660,1,8,1:0:0:0:
87,122,1424830,6,0,P|125:155|183:181,2,104.500003189087,2|0|2,0:0|3:0|0:0,0:0:0:0:
251,117,1425341,2,0,B|305:109|305:109|356:123,1,104.500003189087,8|0,1:0|0:0,0:0:0:0:
353,122,1425597,1,0,0:0:0:0:
353,122,1425682,5,2,0:0:0:0:
173,178,1425852,1,2,3:2:0:0:
229,18,1426023,1,8,1:0:0:0:
361,130,1426193,1,2,0:0:0:0:
89,62,1426364,5,2,3:2:0:0:
205,110,1426535,1,2,0:0:0:0:
89,158,1426706,1,8,1:0:0:0:
137,42,1426876,1,2,0:0:0:0:
185,158,1427047,1,2,0:0:0:0:
69,110,1427217,1,2,3:2:0:0:
185,62,1427388,1,8,1:0:0:0:
137,178,1427558,2,0,L|139:245,1,52.2500015945435,8|0,0:3|0:0,0:0:0:0:
189,320,1427728,5,2,3:2:0:0:
185,62,1427898,1,2,3:2:0:0:
189,320,1428069,1,8,1:0:0:0:
415,320,1428239,1,2,3:2:0:0:
189,320,1428410,1,2,3:2:0:0:
415,320,1428580,1,2,3:2:0:0:
189,320,1428751,1,8,1:0:0:0:
185,62,1428921,1,2,3:2:0:0:
412,62,1429092,5,4,0:1:0:0:
313,94,1429262,2,0,B|343:137|343:137|389:161,1,104.500003189087,2|8,0:0|1:0,0:0:0:0:
487,128,1429603,1,2,0:0:0:0:
464,228,1429773,2,0,B|419:255|419:255|367:259,1,104.500003189087,2|0,0:0|3:0,0:0:0:0:
182,251,1430114,1,8,1:0:0:0:
389,161,1430285,1,2,0:0:0:0:
432,356,1430455,5,0,3:0:0:0:
368,260,1430626,1,2,0:0:0:0:
469,99,1430796,2,0,B|426:69|426:69|374:61,1,104.500003189087,8|0,1:0|0:0,0:0:0:0:
294,189,1431137,1,2,0:0:0:0:
512,191,1431308,1,2,3:2:0:0:
204,144,1431478,1,8,1:0:0:0:
368,260,1431648,1,2,0:0:0:0:
358,21,1431819,5,2,3:2:0:0:
474,69,1431990,1,2,0:0:0:0:
358,117,1432161,1,8,1:0:0:0:
406,1,1432331,1,2,0:0:0:0:
454,117,1432502,1,2,0:0:0:0:
338,69,1432672,1,2,3:2:0:0:
454,21,1432843,1,8,1:0:0:0:
406,137,1433013,1,2,0:0:0:0:
156,20,1433183,5,2,3:2:0:0:
68,232,1433353,1,2,0:0:0:0:
281,144,1433524,1,8,1:0:0:0:
68,56,1433694,1,2,0:0:0:0:
156,269,1433865,1,2,0:0:0:0:
244,56,1434035,1,2,3:2:0:0:
32,144,1434206,1,8,1:0:0:0:
244,232,1434377,1,2,0:0:0:0:
419,60,1434546,6,0,P|329:9|236:71,1,209.000006378174,8|8,3:0|1:0,0:0:0:0:
331,110,1435058,1,0,0:0:0:0:
419,60,1435228,1,2,0:0:0:0:
242,158,1435398,1,0,3:0:0:0:
65,60,1435569,1,8,1:0:0:0:
154,108,1435739,1,0,0:0:0:0:
65,256,1435910,5,0,3:0:0:0:
153,206,1436081,1,0,0:0:0:0:
330,208,1436251,2,0,L|422:255,1,104.500003189087,8|0,1:0|0:0,0:0:0:0:
220,372,1436592,6,0,B|213:348|213:348|219:309,1,52.2500015945435,2|0,0:0|0:0,0:0:0:0:
242,158,1436762,1,0,3:0:0:0:
214,373,1436933,6,0,B|207:349|207:349|213:310,1,52.2500015945435,8|0,1:0|0:0,0:0:0:0:
236,159,1437103,1,2,0:0:0:0:
505,192,1437273,6,0,P|413:151|330:207,1,209.000006378174,4|8,3:2|1:0,0:0:0:0:
422,255,1437785,1,0,0:0:0:0:
505,192,1437955,1,2,0:0:0:0:
339,318,1438126,1,0,3:0:0:0:
173,192,1438296,1,8,1:0:0:0:
256,255,1438467,1,0,0:0:0:0:
416,137,1438637,6,0,B|418:113|418:113|408:69,1,52.2500015945435,8|0,3:0|0:0,0:0:0:0:
346,8,1438808,1,8,0:3:0:0:
256,255,1438977,6,0,B|254:231|254:231|264:187,1,52.2500015945435,8|0,0:1|0:0,0:0:0:0:
326,126,1439148,1,8,0:3:0:0:
339,318,1439319,1,8,3:0:0:0:
235,81,1439489,6,0,B|211:79|211:79|167:89,1,52.2500015945435,8|0,3:0|0:0,0:0:0:0:
131,328,1439660,2,0,B|155:330|155:330|183:324,1,52.2500015945435,8|0,1:0|0:0,0:0:0:0:
256,255,1439830,1,8,0:3:0:0:
0,77,1440001,5,4,0:1:0:0:
0,77,1440342,2,0,B|43:184|-41:151|15:288,1,190,8|0,1:0|0:0,0:0:0:0:
65,384,1440853,1,0,3:0:0:0:
189,215,1441023,2,0,P|143:207|96:212,1,95,8|0,1:0|0:0,0:0:0:0:
267,281,1441364,6,0,B|291:233|291:233|271:70,1,190,0|8,3:0|1:0,0:0:0:0:
398,41,1441876,2,0,B|374:89|374:89|391:225,1,190,0|0,0:0|3:0,0:0:0:0:
487,209,1442387,2,0,L|475:114,1,95,8|0,1:0|0:0,0:0:0:0:
274,97,1442728,5,0,3:0:0:0:
203,169,1442898,1,0,0:0:0:0:
213,16,1443069,2,0,B|152:11|152:11|100:34|100:34|16:25,1,190,8|0,1:0|0:0,0:0:0:0:
107,136,1443580,1,0,3:0:0:0:
274,97,1443751,2,0,L|368:104,1,95,8|0,1:0|0:0,0:0:0:0:
419,270,1444092,6,0,P|429:190|363:101,1,190,0|8,3:0|1:0,0:0:0:0:
324,234,1444603,2,0,P|262:182|151:188,1,190,0|0,0:0|3:0,0:0:0:0:
241,289,1445114,2,0,P|201:297|159:336,1,95,8|0,1:0|0:0,0:0:0:0:
419,270,1445455,6,0,L|541:291,1,95,0|0,3:0|0:0,0:0:0:0:
512,132,1445796,2,0,L|390:111,1,95,8|0,1:0|0:0,0:0:0:0:
353,193,1446137,1,0,0:0:0:0:
512,286,1446308,1,0,3:0:0:0:
418,115,1446478,2,0,B|371:96|371:96|310:97,1,95,8|0,1:0|0:0,0:0:0:0:
246,41,1446819,6,0,B|198:65|198:65|35:45,1,190,0|8,3:0|1:0,0:0:0:0:
6,172,1447331,2,0,B|54:148|54:148|190:165,1,190,0|0,0:0|3:0,0:0:0:0:
174,261,1447842,2,0,L|79:249,1,95,8|0,1:0|0:0,0:0:0:0:
289,175,1448183,5,0,3:0:0:0:
329,268,1448353,1,2,0:0:0:0:
189,164,1448523,1,8,1:0:0:0:
249,82,1448694,1,2,0:0:0:0:
289,175,1448864,1,2,0:0:0:0:
89,153,1449035,1,0,3:0:0:0:
350,94,1449205,1,8,1:0:0:0:
49,60,1449376,1,0,3:0:0:0:
169,339,1449546,5,0,3:0:0:0:
389,186,1449717,1,0,3:0:0:0:
49,60,1449887,1,8,1:0:0:0:
29,235,1450058,1,2,0:0:0:0:
89,153,1450228,1,2,0:0:0:0:
169,339,1450398,1,0,3:0:0:0:
350,94,1450569,1,8,1:0:0:0:
428,278,1450739,1,0,3:0:0:0:
228,256,1450910,5,2,0:0:0:0:
389,186,1451080,1,0,3:0:0:0:
169,339,1451251,6,0,B|118:323|118:323|146:259|232:256,1,190,12|0,1:0|0:0,0:0:0:0:
428,278,1451762,1,0,3:0:0:0:
200,177,1451933,2,0,P|246:147|319:144,1,95,8|0,1:0|0:0,0:0:0:0:
488,48,1452273,6,0,B|440:24|440:24|277:44,1,190,0|8,3:0|1:0,0:0:0:0:
284,139,1452785,2,0,B|420:122|420:122|468:146,1,190,0|0,0:0|3:0,0:0:0:0:
400,225,1453296,2,0,L|305:237,1,95,8|0,1:0|0:0,0:0:0:0:
105,262,1453637,5,0,3:0:0:0:
207,252,1453808,1,0,0:0:0:0:
15,308,1453978,2,0,B|6:260|6:260|17:214,1,95,8|0,1:0|0:0,0:0:0:0:
148,169,1454319,1,0,0:0:0:0:
163,344,1454489,1,0,3:0:0:0:
103,78,1454660,2,0,B|151:68|151:68|196:79,1,95,8|0,1:0|0:0,0:0:0:0:
362,28,1455001,6,0,P|282:18|193:84,1,190,0|8,3:0|1:0,0:0:0:0:
389,126,1455512,2,0,P|337:188|343:299,1,190,0|0,0:0|3:0,0:0:0:0:
469,187,1456023,2,0,P|477:227|516:269,1,95,8|0,1:0|0:0,0:0:0:0:
456,25,1456364,6,0,B|408:18|408:18|355:29,1,95,0|0,3:0|0:0,0:0:0:0:
169,25,1456705,2,0,B|217:18|217:18|263:28,1,95,8|0,1:0|0:0,0:0:0:0:
315,116,1457046,1,0,0:0:0:0:
71,47,1457217,1,0,3:0:0:0:
217,117,1457387,2,0,B|224:165|224:165|214:210,1,95,8|0,1:0|0:0,0:0:0:0:
10,301,1457728,6,0,B|58:325|58:325|221:305,1,190,0|8,3:0|1:0,0:0:0:0:
214,210,1458240,2,0,B|78:227|78:227|30:203,1,190,0|0,0:0|3:0,0:0:0:0:
98,124,1458751,2,0,L|193:112,1,95,8|0,1:0|3:0,0:0:0:0:
293,105,1459092,6,0,L|351:114,3,35.625001358986,0|0|0|0,3:0|0:0|0:0|0:0,0:0:0:0:
368,97,1459433,2,0,L|426:88,3,40.375000770092,8|8|8|8,3:0|0:3|0:3|0:3,0:0:0:0:
444,101,1459773,5,4,0:3:0:0:
459,130,1459858,1,4,0:3:0:0:
462,164,1459943,1,4,0:3:0:0:
452,196,1460028,1,4,0:3:0:0:
431,222,1460113,1,4,0:3:0:0:
415,251,1460200,1,4,0:3:0:0:
412,285,1460285,1,4,0:3:0:0:
422,317,1460370,1,4,3:0:0:0:
443,343,1460455,6,0,B|397:357|354:331|354:331|334:329|297:341,1,142.499995651245,12|0,0:3|0:0,0:0:0:0:
300,321,1460967,6,0,L|294:304,3,18.999999420166,8|8|8|8,0:3|0:3|0:3|0:3,0:0:0:0:
209,384,1461308,6,0,L|218:352,1,28.4999991302491,0|0,3:0|0:0,0:0:0:0:
265,213,1461478,1,0,1:0:0:0:
95,248,1461648,1,0,0:0:0:0:
134,266,1461734,1,0,0:0:0:0:
176,263,1461819,5,4,0:0:0:0:
154,164,1461989,1,2,0:0:0:0:
445,210,1462160,2,0,B|386:241|324:237|324:237|264:212,1,190,8|0,1:0|0:0,0:0:0:0:
491,119,1462671,1,0,3:0:0:0:
487,301,1462842,1,8,1:0:0:0:
445,210,1463012,1,2,0:0:0:0:
203,293,1463183,5,2,3:2:0:0:
245,384,1463353,1,2,0:0:0:0:
264,212,1463523,2,0,B|205:181|143:185|143:185|83:210,1,190,8|0,1:0|0:0,0:0:0:0:
144,375,1464035,1,0,3:0:0:0:
306,303,1464205,1,8,1:0:0:0:
383,368,1464376,1,2,0:0:0:0:
512,217,1464546,5,2,3:2:0:0:
435,282,1464717,1,2,0:0:0:0:
291,160,1464887,2,0,B|225:155|225:155|220:158|220:158|176:153|176:153|171:156|171:156|94:149,1,190,8|0,1:0|0:0,0:0:0:0:
249,260,1465398,1,0,3:0:0:0:
332,67,1465569,1,8,1:0:0:0:
391,149,1465739,1,2,0:0:0:0:
103,149,1465910,5,2,3:2:0:0:
173,76,1466080,1,2,0:0:0:0:
105,329,1466251,2,0,B|74:270|78:208|78:208|103:148,1,190,8|0,1:0|0:0,0:0:0:0:
256,134,1466762,1,0,3:0:0:0:
196,375,1466933,1,8,1:0:0:0:
286,329,1467103,2,0,L|329:333,3,23.75,2|2|2|2,0:0|0:0|0:0|0:0,0:0:0:0:
327,328,1467273,6,0,B|368:310|368:310|424:319,1,95,0|2,3:0|0:0,0:0:0:0:
201,275,1467614,1,8,1:0:0:0:
293,229,1467785,1,0,0:0:0:0:
293,229,1467955,1,0,0:0:0:0:
121,213,1468126,1,0,3:0:0:0:
345,141,1468296,2,0,P|378:175|393:220,1,95,8|0,1:0|0:0,0:0:0:0:
153,353,1468637,6,0,P|167:308|201:275,1,95,0|0,3:0|0:0,0:0:0:0:
417,317,1468978,1,8,1:0:0:0:
341,384,1469148,1,0,0:0:0:0:
341,384,1469319,1,0,0:0:0:0:
504,370,1469489,1,0,3:0:0:0:
393,220,1469660,2,0,P|407:175|440:141,1,95,8|2,1:0|0:0,0:0:0:0:
314,285,1470001,6,0,P|269:270|235:237,1,95,0|2,3:0|0:0,0:0:0:0:
256,108,1470342,1,8,1:0:0:0:
323,184,1470512,1,0,0:0:0:0:
323,184,1470683,1,0,0:0:0:0:
309,22,1470853,1,0,3:0:0:0:
159,132,1471024,2,0,P|114:117|80:84,1,95,8|0,1:0|0:0,0:0:0:0:
170,290,1471364,5,6,0:0:0:0:
256,110,1471535,1,2,0:0:0:0:
319,354,1471705,1,8,1:0:0:0:
170,290,1471876,1,2,3:2:0:0:
170,290,1472217,5,2,3:2:0:0:
459,273,1472387,1,8,1:0:0:0:
319,354,1472558,1,0,0:0:0:0:
256,110,1472728,5,6,0:0:0:0:
355,132,1472898,1,2,0:0:0:0:
179,199,1473069,2,0,B|154:139|154:139|150:77|181:18,1,190,8|0,1:0|0:0,0:0:0:0:
448,95,1473580,1,0,3:0:0:0:
256,110,1473751,1,8,1:0:0:0:
355,132,1473921,1,2,0:0:0:0:
140,108,1474092,5,2,3:2:0:0:
200,26,1474262,1,2,0:0:0:0:
197,191,1474432,2,0,B|132:207|73:190|73:190|20:152,1,190,8|0,1:0|0:0,0:0:0:0:
100,16,1474944,1,0,3:0:0:0:
256,110,1475114,1,8,1:0:0:0:
318,38,1475285,1,2,0:0:0:0:
432,197,1475455,5,2,3:2:0:0:
355,132,1475626,1,2,0:0:0:0:
239,291,1475796,2,0,B|173:296|173:296|168:293|168:293|124:298|124:298|119:295|119:295|42:302,1,190,8|0,1:0|0:0,0:0:0:0:
197,191,1476307,1,0,3:0:0:0:
280,384,1476478,1,8,1:0:0:0:
339,302,1476648,1,2,0:0:0:0:
51,301,1476819,5,2,3:2:0:0:
121,374,1476989,1,2,0:0:0:0:
53,121,1477160,2,0,B|22:180|26:242|26:242|51:302,1,190,8|0,1:0|0:0,0:0:0:0:
191,272,1477671,1,0,3:0:0:0:
339,302,1477842,1,8,1:0:0:0:
476,240,1478012,2,0,L|472:197,3,23.75,2|2|2|2,0:0|0:0|0:0|0:0,0:0:0:0:
469,204,1478182,6,0,B|428:186|428:186|372:195,1,95,2|0,3:2|0:0,0:0:0:0:
191,272,1478523,1,8,1:0:0:0:
132,193,1478694,1,0,0:0:0:0:
132,193,1478864,1,0,0:0:0:0:
134,356,1479035,1,0,3:0:0:0:
269,225,1479205,2,0,P|224:239|190:271,1,95,8|2,1:0|0:0,0:0:0:0:
369,216,1479546,6,0,P|354:171|321:137,1,95,0|2,3:0|0:0,0:0:0:0:
326,308,1479887,1,8,1:0:0:0:
431,303,1480057,1,0,0:0:0:0:
431,303,1480228,1,0,0:0:0:0:
269,225,1480398,1,0,3:0:0:0:
260,384,1480569,1,8,1:0:0:0:
326,308,1480739,1,2,0:0:0:0:
180,273,1480910,5,2,3:2:0:0:
260,384,1481080,1,2,0:0:0:0:
275,122,1481251,1,8,1:0:0:0:
269,225,1481421,1,0,0:0:0:0:
281,19,1481592,1,0,0:0:0:0:
180,273,1481762,1,0,3:0:0:0:
360,179,1481933,1,8,1:0:0:0:
275,122,1482103,1,0,0:0:0:0:
269,225,1482273,5,8,0:3:0:0:
269,225,1482785,6,0,L|267:258,3,31.6666666666667,0|0|0|0,3:0|3:0|3:0|3:0,0:0:0:0:
275,122,1483126,5,0,3:0:0:0:
266,357,1483296,1,8,1:0:0:0:
278,365,1483381,1,0,0:0:0:0:
306,371,1483467,1,2,0:0:0:0:
344,361,1483552,1,0,0:0:0:0:
387,330,1483637,6,0,B|510:334,1,104.500003189087,4|0,0:1|0:0,0:0:0:0:
186,324,1483978,2,0,B|63:320,1,104.500003189087,8|0,1:0|0:0,0:0:0:0:
287,327,1484319,1,2,0:0:0:0:
81,320,1484489,1,0,3:0:0:0:
387,330,1484660,2,0,B|510:334,1,104.500003189087,8|0,1:0|0:0,0:0:0:0:
175,225,1485001,6,0,B|52:221,1,104.500003189087,0|0,3:0|0:0,0:0:0:0:
376,231,1485342,2,0,B|499:235,1,104.500003189087,8|0,1:0|0:0,0:0:0:0:
275,228,1485683,1,2,0:0:0:0:
481,235,1485853,1,0,3:0:0:0:
175,225,1486024,2,0,B|52:221,1,104.500003189087,8|0,1:0|0:0,0:0:0:0:
275,228,1486364,6,0,B|271:351,1,104.500003189087,0|0,3:0|0:0,0:0:0:0:
278,127,1486705,2,0,B|282:4,1,104.500003189087,8|0,1:0|0:0,0:0:0:0:
275,228,1487046,1,2,0:0:0:0:
282,22,1487216,1,0,3:0:0:0:
275,228,1487387,2,0,B|271:332,1,104.500003189087,8|0,1:0|0:0,0:0:0:0:
177,130,1487728,6,0,B|181:7,1,104.500003189087,0|0,3:0|0:0,0:0:0:0:
174,231,1488069,2,0,B|170:354,1,104.500003189087,8|0,1:0|0:0,0:0:0:0:
177,130,1488410,1,2,0:0:0:0:
170,336,1488580,1,0,3:0:0:0:
177,130,1488751,2,0,B|180:25,1,104.500003189087,8|0,1:0|0:0,0:0:0:0:
174,231,1489092,6,0,L|391:241,2,209.000006378174,0|8|2,3:0|1:0|0:0,0:0:0:0:
484,248,1489944,1,0,3:0:0:0:
173,230,1490114,2,0,L|69:226,1,104.500003189087,8|2,1:0|0:0,0:0:0:0:
25,323,1490370,1,2,0:0:0:0:
33,323,1490455,6,0,L|250:333,2,209.000006378174,2|8|2,3:2|1:0|0:0,0:0:0:0:
345,336,1491307,1,0,3:0:0:0:
241,332,1491477,2,0,L|345:336,1,104.500003189087,8|2,1:0|0:0,0:0:0:0:
446,322,1491734,1,2,0:0:0:0:
446,314,1491819,6,0,L|456:97,2,209.000006378174,2|8|2,3:2|1:0|0:0,0:0:0:0:
459,1,1492671,1,0,3:0:0:0:
455,105,1492841,2,0,L|459:0,1,104.500003189087,8|0,1:0|0:0,0:0:0:0:
446,314,1493183,6,0,L|341:309,1,104.500003189087,0|0,3:0|0:0,0:0:0:0:
30,296,1493523,1,8,1:0:0:0:
239,305,1493694,2,0,L|134:300,1,104.500003189087,0|2,3:0|0:0,0:0:0:0:
342,309,1494035,1,0,3:0:0:0:
135,301,1494205,2,0,L|30:296,1,104.500003189087,8|0,1:0|0:0,0:0:0:0:
144,35,1494546,6,0,B|21:31,1,104.500003189087,4|0,3:2|0:0,0:0:0:0:
345,41,1494887,2,0,B|468:45,1,104.500003189087,8|0,1:0|0:0,0:0:0:0:
244,38,1495228,1,2,0:0:0:0:
450,45,1495398,1,0,3:0:0:0:
144,35,1495569,2,0,B|21:31,1,104.500003189087,8|0,1:0|0:0,0:0:0:0:
356,140,1495910,6,0,B|479:144,1,104.500003189087,0|0,3:0|0:0,0:0:0:0:
155,134,1496251,2,0,B|32:130,1,104.500003189087,8|0,1:0|0:0,0:0:0:0:
256,137,1496592,1,2,0:0:0:0:
50,130,1496762,1,0,3:0:0:0:
356,140,1496933,2,0,B|479:144,1,104.500003189087,8|0,1:0|0:0,0:0:0:0:
256,137,1497273,6,0,B|260:14,1,104.500003189087,0|0,3:0|0:0,0:0:0:0:
253,238,1497614,2,0,B|249:361,1,104.500003189087,8|0,1:0|0:0,0:0:0:0:
256,137,1497955,1,2,0:0:0:0:
249,343,1498125,1,0,3:0:0:0:
256,137,1498296,2,0,B|259:32,1,104.500003189087,8|0,1:0|0:0,0:0:0:0:
354,235,1498637,6,0,B|350:358,1,104.500003189087,0|0,3:0|0:0,0:0:0:0:
357,134,1498978,2,0,B|361:11,1,104.500003189087,8|0,1:0|0:0,0:0:0:0:
354,235,1499319,1,2,0:0:0:0:
361,29,1499489,1,0,3:0:0:0:
354,235,1499660,2,0,B|350:339,1,104.500003189087,8|0,1:0|0:0,0:0:0:0:
357,134,1500001,6,0,L|140:124,2,209.000006378174,2|8|2,3:1|1:0|0:0,0:0:0:0:
47,117,1500853,1,0,3:0:0:0:
357,134,1501023,2,0,L|461:138,1,104.500003189087,8|2,1:0|0:0,0:0:0:0:
506,42,1501279,1,2,0:0:0:0:
498,42,1501364,6,0,L|281:32,2,209.000006378174,2|8|2,3:2|1:0|0:0,0:0:0:0:
186,29,1502216,1,0,3:0:0:0:
290,33,1502387,2,0,L|185:28,1,104.500003189087,8|2,1:0|0:0,0:0:0:0:
85,43,1502643,1,2,0:0:0:0:
85,51,1502728,6,0,L|75:268,2,209.000006378174,2|8|2,3:2|1:0|0:0,0:0:0:0:
72,364,1503580,1,0,3:0:0:0:
76,260,1503750,2,0,L|71:364,1,104.500003189087,8|0,1:0|0:0,0:0:0:0:
256,192,1504092,5,8,0:3:0:0:
256,192,1504603,6,0,L|256:241,3,34.8333343963623,0|0|0|0,3:0|3:0|3:0|3:0,0:0:0:0:
256,96,1504944,1,0,3:0:0:0:
256,320,1505114,1,8,1:0:0:0:
256,320,1505455,5,4,0:0:0:0:
180,178,1516364,5,0,3:0:0:0:
332,178,1517046,1,0,3:0:0:0:
172,194,1517728,1,0,3:0:0:0:
324,194,1518410,1,0,3:0:0:0:
164,210,1519092,1,0,3:0:0:0:
316,210,1519774,1,0,3:0:0:0:
156,226,1520455,1,0,3:0:0:0:
308,226,1521137,1,0,3:0:0:0:
308,226,1521819,5,0,3:0:0:0:
156,226,1522160,1,0,3:0:0:0:
316,210,1522501,1,0,3:0:0:0:
164,210,1522842,1,0,3:0:0:0:
324,194,1523182,1,0,3:0:0:0:
172,194,1523523,1,0,3:0:0:0:
332,178,1523864,1,0,3:0:0:0:
180,178,1524205,1,0,3:0:0:0:
484,178,1524546,5,0,0:0:0:0:
256,192,1524631,12,0,1527103,0:0:0:0:
166,160,1527273,6,0,B|243:163|243:163|261:167|261:167|276:164|276:164|377:169,1,190,4|8,0:0|0:0,0:0:0:0:
431,250,1527785,1,2,0:0:0:0:
431,250,1527870,1,0,1:0:0:0:
431,250,1527955,2,0,L|436:309,1,47.5,2|0,0:0|1:0,0:0:0:0:
364,368,1528126,1,2,3:2:0:0:
355,167,1528296,1,8,0:0:0:0:
272,275,1528467,2,0,L|225:271,1,47.5,2|0,0:0|1:0,0:0:0:0:
125,259,1528637,5,0,3:0:0:0:
174,362,1528808,1,0,0:0:0:0:
319,273,1528978,2,0,L|225:271,1,95,8|2,0:0|0:0,0:0:0:0:
225,271,1529234,1,0,1:0:0:0:
225,271,1529319,1,2,0:0:0:0:
225,271,1529404,1,0,1:0:0:0:
225,271,1529489,1,2,3:2:0:0:
304,366,1529660,1,8,0:0:0:0:
403,333,1529830,1,2,0:0:0:0:
403,333,1529916,1,0,1:0:0:0:
403,333,1530001,6,0,B|406:256|406:256|410:238|410:238|407:223|407:223|412:122,1,190,0|8,3:0|0:0,0:0:0:0:
512,190,1530512,1,2,0:0:0:0:
512,189,1530597,1,0,1:0:0:0:
512,189,1530683,2,0,L|506:248,1,47.5,2|0,0:0|1:0,0:0:0:0:
505,338,1530853,1,2,3:2:0:0:
411,144,1531023,2,0,L|416:97,1,47.5,8|0,0:0|0:0,0:0:0:0:
312,166,1531194,2,0,L|307:119,1,47.5,2|0,0:0|1:0,0:0:0:0:
232,228,1531364,5,0,3:0:0:0:
325,268,1531535,1,0,0:0:0:0:
140,190,1531705,2,0,P|97:210|71:249,1,95,8|2,0:0|0:0,0:0:0:0:
71,249,1531961,1,0,1:0:0:0:
71,249,1532046,1,2,0:0:0:0:
71,249,1532131,1,0,1:0:0:0:
71,249,1532217,1,2,3:2:0:0:
198,105,1532387,2,0,P|177:62|138:36,1,95,8|2,0:0|0:0,0:0:0:0:
7,41,1532643,1,0,1:0:0:0:
7,41,1532728,6,0,B|4:118|4:118|0:136|0:136|3:151|3:151|-2:252,1,190,0|8,3:0|0:0,0:0:0:0:
110,146,1533239,1,2,0:0:0:0:
109,146,1533324,1,0,1:0:0:0:
110,145,1533410,2,0,L|157:149,1,47.5,2|0,0:0|1:0,0:0:0:0:
258,159,1533580,1,2,3:2:0:0:
189,384,1533751,1,8,0:0:0:0:
196,287,1533921,2,0,L|201:240,1,47.5,2|0,0:0|1:0,0:0:0:0:
258,159,1534092,6,0,P|324:135|441:173,1,190,0|8,3:0|0:0,0:0:0:0:
512,263,1534603,1,2,0:0:0:0:
512,263,1534688,1,0,1:0:0:0:
512,263,1534773,1,2,0:0:0:0:
512,263,1534859,1,0,1:0:0:0:
512,263,1534944,1,2,3:2:0:0:
315,120,1535114,2,0,P|409:134|443:198,1,142.5,8|0,0:0|1:0,0:0:0:0:
433,179,1535455,6,0,P|417:82|476:21,1,190,0|8,3:0|0:0,0:0:0:0:
512,116,1535967,1,0,0:0:0:0:
368,257,1536137,2,0,L|320:252,1,47.5,2|0,0:0|1:0,0:0:0:0:
220,244,1536308,1,2,3:2:0:0:
415,261,1536478,2,0,L|367:256,1,47.5,8|0,0:0|0:0,0:0:0:0:
172,239,1536648,2,0,L|219:243,1,47.5,2|0,0:0|1:0,0:0:0:0:
320,252,1536819,5,2,3:2:0:0:
263,337,1536989,1,0,0:0:0:0:
276,159,1537160,1,8,0:0:0:0:
388,147,1537330,1,2,0:0:0:0:
388,147,1537415,1,0,1:0:0:0:
388,147,1537501,1,2,0:0:0:0:
388,147,1537586,1,0,1:0:0:0:
388,147,1537671,1,2,3:2:0:0:
219,243,1537842,1,8,0:0:0:0:
150,168,1538012,1,2,0:0:0:0:
150,168,1538097,1,0,1:0:0:0:
150,168,1538183,6,0,B|121:126|121:126|274:124,1,190,0|8,3:0|0:0,0:0:0:0:
219,243,1538694,1,0,0:0:0:0:
167,25,1538864,2,0,L|214:23,1,47.5,2|0,0:0|1:0,0:0:0:0:
315,22,1539035,1,0,3:0:0:0:
66,28,1539205,1,8,0:0:0:0:
315,22,1539376,2,0,L|362:20,1,47.5,2|0,0:0|1:0,0:0:0:0:
441,82,1539546,6,0,B|438:159|438:159|434:177|434:177|437:192|437:192|432:293,1,190,0|8,3:0|0:0,0:0:0:0:
512,363,1540058,1,2,0:0:0:0:
512,363,1540143,1,0,1:0:0:0:
512,363,1540228,1,2,0:0:0:0:
512,363,1540313,1,0,1:0:0:0:
512,363,1540398,1,2,3:2:0:0:
338,302,1540569,2,0,P|293:286|240:302,1,95,0|2,0:0|0:0,0:0:0:0:
248,296,1540825,1,0,1:0:0:0:
256,304,1540910,6,0,P|233:217|146:183,1,190,2|0,3:2|0:0,0:0:0:0:
110,290,1541421,1,2,0:0:0:0:
110,290,1541506,1,0,1:0:0:0:
109,289,1541592,2,0,L|157:285,1,47.5,2|0,0:0|1:0,0:0:0:0:
356,266,1541762,1,2,3:2:0:0:
146,182,1541933,2,0,L|141:134,1,47.5,8|0,0:0|0:0,0:0:0:0:
240,116,1542103,2,0,L|244:68,1,47.5,2|0,0:0|1:0,0:0:0:0:
344,97,1542273,5,0,3:0:0:0:
416,182,1542444,1,2,0:0:0:0:
416,182,1542529,1,0,1:0:0:0:
416,182,1542614,1,8,0:0:0:0:
356,266,1542785,1,2,0:0:0:0:
356,266,1542870,1,0,1:0:0:0:
356,266,1542955,1,2,0:0:0:0:
356,266,1543040,1,0,1:0:0:0:
356,266,1543126,1,2,3:2:0:0:
474,98,1543296,2,0,B|487:52|487:52|466:-9,1,95,8|2,0:0|0:0,0:0:0:0:
471,7,1543552,1,0,1:0:0:0:
479,15,1543637,6,0,B|411:36|411:36|271:25,1,190,2|8,3:2|0:0,0:0:0:0:
179,99,1544148,1,2,0:0:0:0:
179,99,1544233,1,0,1:0:0:0:
178,98,1544319,2,0,L|226:103,1,47.5,2|0,0:0|1:0,0:0:0:0:
86,39,1544489,1,2,3:2:0:0:
318,146,1544660,1,8,0:0:0:0:
97,160,1544830,2,0,L|49:155,1,47.5,2|0,0:0|1:0,0:0:0:0:
164,238,1545001,6,0,B|285:278|238:207|379:246,1,190,2|8,3:2|0:0,0:0:0:0:
321,350,1545512,1,2,0:0:0:0:
321,350,1545597,1,0,1:0:0:0:
321,350,1545683,1,2,0:0:0:0:
321,350,1545768,1,0,1:0:0:0:
321,350,1545853,1,2,3:2:0:0:
223,149,1546023,1,8,0:0:0:0:
164,238,1546194,1,2,0:0:0:0:
164,238,1546279,1,0,1:0:0:0:
164,238,1546364,6,0,B|94:254|94:254|16:238,1,142.5,2|0,3:2|0:0,0:0:0:0:
19,236,1546705,2,0,P|10:192|36:133,1,95,8|2,0:0|0:0,0:0:0:0:
98,73,1546961,1,0,1:0:0:0:
98,73,1547046,2,0,P|130:77|170:65,1,47.5,2|0,0:0|1:0,0:0:0:0:
237,34,1547217,1,2,3:2:0:0:
365,95,1547387,2,0,P|342:91|319:94,1,47.5,8|0,0:0|0:0,0:0:0:0:
228,135,1547558,2,0,P|206:143|187:158,1,47.5,2|0,0:0|1:0,0:0:0:0:
170,260,1547728,5,2,3:2:0:0:
431,173,1547898,1,0,0:0:0:0:
144,74,1548069,1,8,0:0:0:0:
229,350,1548239,1,2,0:0:0:0:
266,346,1548325,1,0,1:0:0:0:
303,342,1548410,1,2,0:0:0:0:
340,338,1548495,1,0,1:0:0:0:
377,334,1548580,6,0,L|435:328,1,47.5,0|0,3:0|0:0,0:0:0:0:
512,114,1548751,2,0,L|484:75,1,47.5,8|0,0:0|0:0,0:0:0:0:
247,91,1548921,2,0,L|227:134,1,47.5,2|0,0:0|1:0,0:0:0:0:
164,219,1549092,6,0,B|234:229|234:229|297:211|297:211|368:226,1,209.000006378174,4|8,3:2|0:0,0:0:0:0:
227,134,1549603,1,2,0:0:0:0:
227,134,1549688,1,0,1:0:0:0:
227,134,1549773,2,0,L|171:126,1,52.2500015945435,2|0,0:0|1:0,0:0:0:0:
81,160,1549944,1,2,3:2:0:0:
308,311,1550114,1,8,0:0:0:0:
64,313,1550285,2,0,L|72:262,1,52.2500015945435,2|0,0:0|1:0,0:0:0:0:
163,219,1550455,6,0,B|284:259|237:188|367:224,1,209.000006378174,2|8,3:2|0:0,0:0:0:0:
440,325,1550967,1,2,0:0:0:0:
440,325,1551052,1,0,1:0:0:0:
440,325,1551137,1,2,0:0:0:0:
440,325,1551222,1,0,1:0:0:0:
440,325,1551308,1,2,3:2:0:0:
404,130,1551478,2,0,B|369:95|369:95|314:87,1,104.500003189087,8|2,0:0|0:0,0:0:0:0:
227,134,1551734,1,0,1:0:0:0:
227,134,1551819,6,0,B|106:94|153:165|22:128,1,209.000006378174,2|8,3:2|0:0,0:0:0:0:
82,34,1552330,1,2,0:0:0:0:
170,228,1552501,2,0,P|170:261|159:290,1,52.2500015945435,2|0,0:0|1:0,0:0:0:0:
96,353,1552671,1,2,3:2:0:0:
274,275,1552842,2,0,P|307:275|336:286,1,52.2500015945435,8|0,0:0|0:0,0:0:0:0:
402,353,1553012,2,0,P|435:353|464:342,1,52.2500015945435,2|0,0:0|1:0,0:0:0:0:
512,259,1553183,5,2,3:2:0:0:
430,187,1553353,1,2,0:0:0:0:
430,187,1553438,1,0,1:0:0:0:
430,187,1553523,1,8,0:0:0:0:
512,117,1553694,1,2,0:0:0:0:
512,117,1553779,1,0,1:0:0:0:
512,117,1553864,1,2,0:0:0:0:
512,117,1553950,1,0,1:0:0:0:
512,117,1554035,1,2,3:2:0:0:
353,259,1554205,2,0,P|328:214|335:142,1,104.500003189087,8|2,0:0|0:0,0:0:0:0:
327,162,1554461,1,0,1:0:0:0:
335,170,1554546,6,0,P|321:213|403:346,1,209.000006378174,0|8,3:0|0:0,0:0:0:0:
252,352,1555058,1,2,0:0:0:0:
252,352,1555143,1,0,1:0:0:0:
252,352,1555228,2,0,L|201:342,1,52.2500015945435,2|0,0:0|1:0,0:0:0:0:
102,324,1555398,1,2,3:2:0:0:
199,96,1555569,1,8,0:0:0:0:
167,246,1555739,2,0,L|177:195,1,52.2500015945435,2|0,0:0|1:0,0:0:0:0:
199,96,1555910,6,0,B|321:52|279:139|415:96,1,209.000006378174,2|8,3:2|0:0,0:0:0:0:
361,7,1556421,1,2,0:0:0:0:
361,7,1556506,1,0,1:0:0:0:
361,7,1556592,1,2,0:0:0:0:
361,7,1556677,1,0,1:0:0:0:
361,7,1556762,1,2,3:2:0:0:
253,189,1556933,1,8,0:0:0:0:
199,96,1557103,1,2,0:0:0:0:
199,96,1557188,1,0,1:0:0:0:
199,96,1557273,6,0,B|151:81|151:81|96:92,1,104.500003189087,0|0,3:0|0:0,0:0:0:0:
253,189,1557614,2,0,B|306:178|306:178|360:184,1,104.500003189087,8|2,0:0|0:0,0:0:0:0:
374,287,1557870,1,0,1:0:0:0:
374,287,1557955,2,0,L|322:284,1,52.2500015945435,2|0,0:0|1:0,0:0:0:0:
202,277,1558126,1,2,3:2:0:0:
356,183,1558296,2,0,L|408:186,1,52.2500015945435,8|0,0:0|0:0,0:0:0:0:
327,82,1558467,2,0,L|377:69,1,52.2500015945435,2|0,0:0|1:0,0:0:0:0:
243,21,1558637,5,0,3:0:0:0:
144,46,1558808,1,2,0:0:0:0:
144,46,1558893,1,0,1:0:0:0:
144,46,1558978,1,10,0:0:0:0:
105,146,1559148,1,2,0:0:0:0:
105,146,1559234,1,0,1:0:0:0:
105,146,1559319,1,2,0:0:0:0:
105,146,1559404,1,0,1:0:0:0:
105,146,1559489,6,0,L|107:216,1,52.2500015945435,2|0,3:2|0:0,0:0:0:0:
202,231,1559660,2,0,L|219:298,1,52.2500015945435,8|0,0:0|0:0,0:0:0:0:
316,277,1559830,2,0,L|355:334,1,52.2500015945435,2|0,0:0|1:0,0:0:0:0:
466,110,1560001,6,0,P|364:102|292:173,1,209.000006378174,4|8,3:2|0:0,0:0:0:0:
267,51,1560512,1,2,0:0:0:0:
267,51,1560597,1,0,1:0:0:0:
267,51,1560683,2,0,P|230:47|201:58,1,52.2500015945435,2|0,0:0|1:0,0:0:0:0:
129,105,1560853,1,2,3:2:0:0:
292,173,1561023,1,8,0:0:0:0:
192,186,1561194,2,0,P|177:219|178:250,1,52.2500015945435,2|0,0:0|1:0,0:0:0:0:
118,314,1561364,6,0,B|240:358|198:271|334:314,1,209.000006378174,0|8,3:0|0:0,0:0:0:0:
425,371,1561876,1,2,0:0:0:0:
425,371,1561961,1,0,1:0:0:0:
425,371,1562046,1,2,0:0:0:0:
425,371,1562131,1,0,1:0:0:0:
425,371,1562217,1,2,3:2:0:0:
389,234,1562387,2,0,P|389:181|413:125,1,104.500003189087,8|2,0:0|0:0,0:0:0:0:
407,133,1562643,1,0,1:0:0:0:
414,140,1562728,6,0,B|348:160|348:160|208:140,1,209.000006378174,2|8,3:2|0:0,0:0:0:0:
294,55,1563239,1,2,0:0:0:0:
294,55,1563325,1,0,1:0:0:0:
294,55,1563410,2,0,L|345:63,1,52.2500015945435,2|0,0:0|1:0,0:0:0:0:
504,96,1563580,1,2,3:2:0:0:
353,234,1563751,2,0,L|344:285,1,52.2500015945435,8|0,0:0|0:0,0:0:0:0:
458,235,1563921,2,0,L|466:286,1,52.2500015945435,2|0,0:0|0:0,0:0:0:0:
404,367,1564092,5,2,3:2:0:0:
246,305,1564262,1,2,0:0:0:0:
466,286,1564433,1,8,0:0:0:0:
392,217,1564603,1,2,0:0:0:0:
392,217,1564688,1,0,1:0:0:0:
392,217,1564773,1,2,0:0:0:0:
392,217,1564859,1,0,1:0:0:0:
392,217,1564944,1,2,3:2:0:0:
392,217,1565029,1,0,0:0:0:0:
392,217,1565114,1,10,0:0:0:0:
392,217,1565200,1,2,0:0:0:0:
392,217,1565285,1,2,0:0:0:0:
392,217,1565370,1,2,0:0:0:0:
392,217,1565455,5,2,3:2:0:0:
437,119,1565626,1,2,0:0:0:0:
459,288,1565796,1,8,0:0:0:0:
234,206,1565967,1,2,0:0:0:0:
234,206,1566052,1,0,1:0:0:0:
234,206,1566137,2,0,L|308:210,1,52.2500015945435,2|0,0:0|1:0,0:0:0:0:
392,217,1566308,1,2,3:2:0:0:
128,199,1566478,1,8,0:0:0:0:
347,67,1566648,2,0,L|345:120,1,52.2500015945435,2|0,0:0|1:0,0:0:0:0:
331,302,1566819,5,0,3:2:0:0:
328,322,1566904,1,0,0:0:0:0:
326,343,1566989,1,0,0:0:0:0:
325,363,1567074,1,0,0:0:0:0:
322,384,1567160,5,8,0:0:0:0:
280,353,1567245,1,0,0:0:0:0:
230,338,1567330,1,0,0:0:0:0:
178,343,1567415,1,0,0:0:0:0:
131,365,1567501,5,0,3:0:0:0:
101,323,1567586,1,0,3:0:0:0:
86,273,1567671,1,0,3:0:0:0:
91,221,1567756,1,0,3:0:0:0:
113,174,1567841,5,8,1:2:0:0:
117,178,1567927,1,0,1:0:0:0:
121,182,1568012,1,0,1:0:0:0:
125,186,1568097,1,0,1:0:0:0:
129,190,1568183,1,2,0:0:0:0:
208,32,1570569,5,8,1:0:0:0:
304,352,1570739,1,8,1:0:0:0:
327,38,1570910,6,0,P|380:36|431:34,1,95,4|0,0:0|0:0,0:0:0:0:
512,152,1571251,1,8,0:0:0:0:
405,190,1571421,2,0,P|352:188|301:186,1,95,2|0,0:0|0:0,0:0:0:0:
455,257,1571762,1,0,3:0:0:0:
330,98,1571933,1,8,0:0:0:0:
328,261,1572103,2,0,P|330:304|337:357,1,95,2|0,0:0|0:0,0:0:0:0:
233,229,1572444,5,2,3:2:0:0:
120,150,1572614,2,0,P|121:95|127:52,2,95,10|2|2,0:0|0:0|0:0,0:0:0:0:
48,265,1573126,1,0,3:0:0:0:
200,340,1573296,2,0,P|253:336|309:335,1,95,10|0,0:0|0:0,0:0:0:0:
442,211,1573637,6,0,P|388:214|331:200,1,95,2|0,3:2|0:0,0:0:0:0:
215,128,1573978,1,8,0:0:0:0:
185,246,1574148,2,0,P|190:291|200:341,1,95,2|0,0:0|0:0,0:0:0:0:
113,202,1574489,1,0,3:0:0:0:
284,323,1574660,1,8,0:0:0:0:
110,327,1574830,2,0,P|60:322|13:313,1,95,2|0,0:0|0:0,0:0:0:0:
260,304,1575171,5,0,3:0:0:0:
366,209,1575342,2,0,P|370:157|365:109,2,95,10|2|2,0:0|0:0|0:0,0:0:0:0:
424,334,1575853,1,0,3:0:0:0:
445,168,1576023,1,10,0:0:0:0:
329,279,1576194,1,0,1:0:0:0:
329,279,1576279,1,0,1:0:0:0:
329,279,1576364,6,0,P|272:280|208:252,1,95,2|0,3:2|0:0,0:0:0:0:
130,165,1576705,1,8,0:0:0:0:
237,99,1576876,2,0,P|288:101|339:105,1,95,2|0,0:0|0:0,0:0:0:0:
196,32,1577217,1,0,3:0:0:0:
291,184,1577387,1,10,0:0:0:0:
166,258,1577558,2,0,P|127:258|65:235,1,95,2|0,0:0|0:0,0:0:0:0:
286,289,1577898,5,2,3:2:0:0:
392,168,1578069,1,10,0:0:0:0:
397,195,1578239,1,2,0:0:0:0:
402,214,1578410,1,2,0:0:0:0:
458,353,1578580,1,0,3:0:0:0:
284,357,1578751,2,0,P|232:349|173:344,1,95,10|0,0:0|0:0,0:0:0:0:
39,242,1579092,6,0,P|91:234|150:229,1,95,0|0,3:2|0:0,0:0:0:0:
241,104,1579433,1,8,0:0:0:0:
276,243,1579603,2,0,P|274:284|272:364,1,95,2|0,0:0|0:0,0:0:0:0:
352,200,1579944,1,0,3:0:0:0:
192,321,1580114,1,10,0:0:0:0:
350,297,1580285,2,0,P|403:295|477:304,1,95,2|0,0:0|0:0,0:0:0:0:
280,216,1580626,5,2,3:2:0:0:
151,100,1580796,1,10,0:0:0:0:
146,127,1580966,1,2,0:0:0:0:
141,146,1581137,1,2,0:0:0:0:
84,285,1581308,1,0,3:0:0:0:
231,140,1581478,1,10,0:0:0:0:
52,198,1581648,1,0,1:0:0:0:
52,198,1581734,1,0,1:0:0:0:
52,198,1581819,6,0,P|105:200|156:232,1,95,2|0,3:2|0:0,0:0:0:0:
225,342,1582160,1,8,0:0:0:0:
303,247,1582330,2,0,P|305:194|307:143,1,95,2|0,0:0|0:0,0:0:0:0:
366,304,1582671,1,0,3:0:0:0:
215,215,1582842,1,8,0:0:0:0:
403,135,1583012,2,0,P|446:137|499:144,1,95,2|0,0:0|0:0,0:0:0:0:
303,247,1583353,5,0,3:0:0:0:
112,336,1583523,1,10,0:0:0:0:
117,309,1583693,1,2,0:0:0:0:
122,290,1583864,1,2,0:0:0:0:
151,152,1584035,1,0,3:0:0:0:
310,202,1584205,2,0,P|363:206|419:207,1,95,10|0,0:0|0:0,0:0:0:0:
488,300,1584546,6,0,P|435:296|379:295,1,95,2|0,3:2|0:0,0:0:0:0:
244,335,1584887,1,8,0:0:0:0:
184,224,1585058,2,0,P|189:179|199:129,1,95,2|0,0:0|0:0,0:0:0:0:
103,225,1585398,1,0,3:0:0:0:
258,274,1585569,1,10,0:0:0:0:
117,139,1585739,2,0,P|122:89|131:42,1,95,2|0,0:0|0:0,0:0:0:0:
29,178,1586080,5,2,3:2:0:0:
175,330,1586251,1,10,0:0:0:0:
171,303,1586421,1,2,0:0:0:0:
168,279,1586592,1,2,0:0:0:0:
20,269,1586762,1,0,3:0:0:0:
178,198,1586932,1,10,0:0:0:0:
9,176,1587103,1,0,1:0:0:0:
9,176,1587188,1,0,1:0:0:0:
9,176,1587273,6,0,P|8:233|36:297,1,95,2|0,3:2|0:0,0:0:0:0:
164,360,1587614,1,8,0:0:0:0:
261,269,1587785,2,0,P|312:271|363:275,1,95,2|0,0:0|0:0,0:0:0:0:
221,203,1588126,1,0,3:0:0:0:
291,351,1588296,1,10,0:0:0:0:
336,177,1588467,2,0,P|336:138|359:76,1,95,2|0,0:0|0:0,0:0:0:0:
468,160,1588807,5,2,3:2:0:0:
288,270,1588978,1,10,0:0:0:0:
315,275,1589148,1,2,0:0:0:0:
334,280,1589319,1,2,0:0:0:0:
468,359,1589489,1,0,3:0:0:0:
443,184,1589660,2,0,P|444:130|456:73,1,95,10|0,0:0|0:0,0:0:0:0:
282,28,1590001,6,0,P|291:93|285:133,1,95,2|2,3:2|0:0,0:0:0:0:
175,246,1590342,1,10,3:2:0:0:
150,118,1590512,1,2,0:0:0:0:
286,259,1590683,2,0,P|331:256|393:252,1,95,2|2,3:2|0:0,0:0:0:0:
224,324,1591023,1,10,3:2:0:0:
321,174,1591194,1,2,0:0:0:0:
286,364,1591364,5,0,3:0:0:0:
257,128,1591535,1,8,1:0:0:0:
373,372,1591705,5,8,1:0:0:0:
171,123,1591876,1,8,1:0:0:0:
470,308,1592046,5,8,1:0:0:0:
95,182,1592217,1,2,3:2:0:0:
419,107,1592387,6,0,P|424:49|415:-1,1,95,8|0,1:0|0:0,0:0:0:0:
250,147,1592728,6,0,P|200:141|147:142,1,95,0|0,3:0|0:0,0:0:0:0:
63,274,1593069,2,0,P|112:268|166:269,1,95,8|0,1:0|0:0,0:0:0:0:
292,348,1593410,1,2,0:0:0:0:
252,208,1593580,1,0,3:0:0:0:
168,362,1593751,2,0,P|219:357|271:352,1,95,8|0,1:0|0:0,0:0:0:0:
431,218,1594092,6,0,P|430:166|436:115,1,95,0|0,3:0|0:0,0:0:0:0:
337,33,1594433,1,8,1:0:0:0:
355,164,1594603,1,0,1:0:0:0:
355,164,1594688,1,0,1:0:0:0:
355,164,1594774,1,0,1:2:0:0:
211,154,1594944,1,0,3:0:0:0:
327,252,1595115,2,0,P|378:247|430:242,1,95,8|0,1:0|0:0,0:0:0:0:
241,307,1595455,6,0,P|193:302|146:303,1,95,0|0,3:0|0:0,0:0:0:0:
90,190,1595796,2,0,P|137:194|184:193,1,95,8|0,1:0|0:0,0:0:0:0:
280,43,1596137,1,2,0:0:0:0:
272,173,1596307,1,0,3:0:0:0:
196,32,1596478,1,8,1:0:0:0:
324,113,1596648,1,0,0:0:0:0:
160,240,1596819,6,0,P|114:240|49:229,1,95,0|0,3:0|0:0,0:0:0:0:
239,296,1597160,1,8,1:0:0:0:
199,179,1597330,1,0,0:0:0:0:
185,346,1597501,1,2,0:0:0:0:
266,217,1597671,1,0,3:0:0:0:
87,295,1597842,1,8,1:0:0:0:
271,317,1598012,1,0,1:0:0:0:
271,317,1598097,1,0,1:0:0:0:
271,317,1598183,6,0,P|321:311|374:312,1,95,0|0,3:0|0:0,0:0:0:0:
266,217,1598524,2,0,P|315:211|369:212,1,95,8|0,1:0|0:0,0:0:0:0:
271,317,1598865,1,2,0:0:0:0:
172,208,1599035,1,0,3:0:0:0:
69,364,1599206,2,0,P|64:313|59:261,1,95,8|0,1:0|0:0,0:0:0:0:
112,83,1599547,6,0,P|105:137|107:186,1,95,0|0,3:0|0:0,0:0:0:0:
206,268,1599888,1,8,1:0:0:0:
262,145,1600058,1,0,0:0:0:0:
115,257,1600229,1,2,0:0:0:0:
292,224,1600399,1,0,3:0:0:0:
180,82,1600570,2,0,P|129:73|77:72,1,95,8|0,1:0|0:0,0:0:0:0:
21,221,1600910,6,0,P|26:268|29:327,1,95,0|0,3:0|0:0,0:0:0:0:
172,176,1601251,2,0,P|177:129|180:70,1,95,8|0,1:0|0:0,0:0:0:0:
91,204,1601592,1,2,0:0:0:0:
276,152,1601762,1,0,3:0:0:0:
70,118,1601933,1,8,1:0:0:0:
164,250,1602103,1,0,0:0:0:0:
362,124,1602274,6,0,P|362:78|373:13,1,95,0|0,3:0|0:0,0:0:0:0:
306,203,1602615,1,8,1:0:0:0:
423,163,1602785,1,0,0:0:0:0:
256,149,1602956,1,2,0:0:0:0:
385,230,1603126,1,0,3:0:0:0:
307,51,1603297,1,8,1:0:0:0:
285,235,1603467,1,0,3:0:0:0:
285,235,1603552,1,0,3:0:0:0:
285,235,1603637,6,0,P|235:229|182:230,1,95,0|0,3:0|0:0,0:0:0:0:
62,299,1603978,2,0,P|111:293|165:294,1,95,8|0,1:0|0:0,0:0:0:0:
298,348,1604319,1,2,0:0:0:0:
170,371,1604489,1,0,3:0:0:0:
190,229,1604660,2,0,P|185:178|180:126,1,95,8|0,1:0|0:0,0:0:0:0:
70,32,1605001,6,0,P|69:83|69:135,1,95,0|0,3:0|0:0,0:0:0:0:
133,271,1605342,1,8,1:0:0:0:
180,134,1605512,1,0,1:0:0:0:
180,134,1605597,1,0,1:0:0:0:
180,134,1605683,1,0,1:2:0:0:
44,223,1605853,1,0,3:0:0:0:
259,243,1606024,2,0,P|310:238|362:233,1,95,8|0,1:0|0:0,0:0:0:0:
123,306,1606364,6,0,P|75:301|28:302,1,95,0|0,3:0|0:0,0:0:0:0:
230,352,1606705,2,0,P|277:356|324:355,1,95,8|0,1:0|0:0,0:0:0:0:
427,236,1607046,1,2,0:0:0:0:
410,384,1607216,1,0,3:0:0:0:
348,170,1607387,1,8,1:0:0:0:
407,66,1607557,1,0,0:0:0:0:
205,246,1607728,6,0,P|154:242|94:235,1,95,0|0,3:0|0:0,0:0:0:0:
284,302,1608069,1,8,1:0:0:0:
244,185,1608239,1,0,0:0:0:0:
230,352,1608410,1,2,0:0:0:0:
311,223,1608580,1,0,3:0:0:0:
132,301,1608751,1,8,1:0:0:0:
316,323,1608921,1,0,3:0:0:0:
316,323,1609006,1,0,3:0:0:0:
316,323,1609092,6,0,P|322:273|321:220,1,95,0|0,3:0|0:0,0:0:0:0:
409,324,1609433,2,0,P|415:275|414:221,1,95,8|0,1:0|0:0,0:0:0:0:
370,108,1609774,1,2,0:0:0:0:
239,183,1609944,1,0,3:0:0:0:
415,230,1610115,2,0,P|466:225|518:220,1,95,8|0,1:0|0:0,0:0:0:0:
406,74,1610455,6,0,P|354:73|302:73,1,95,0|0,3:0|0:0,0:0:0:0:
260,214,1610797,1,8,1:0:0:0:
204,91,1610967,1,0,0:0:0:0:
351,203,1611138,1,2,0:0:0:0:
174,170,1611308,1,0,3:0:0:0:
286,28,1611478,2,0,P|337:19|389:18,1,95,8|0,1:0|0:0,0:0:0:0:
445,167,1611819,6,0,P|440:214|437:273,1,95,0|0,3:0|0:0,0:0:0:0:
294,122,1612160,2,0,P|289:75|286:16,1,95,8|0,1:0|0:0,0:0:0:0:
366,163,1612501,1,0,0:0:0:0:
208,92,1612671,1,0,3:0:0:0:
281,281,1612842,1,8,1:0:0:0:
286,158,1613012,1,0,0:0:0:0:
76,258,1613183,5,0,3:0:0:0:
104,295,1613268,1,0,3:0:0:0:
145,317,1613353,1,0,3:0:0:0:
193,317,1613438,1,0,3:0:0:0:
234,294,1613523,5,8,3:1:0:0:
272,266,1613608,1,0,3:0:0:0:
318,262,1613693,1,0,3:0:0:0:
360,283,1613778,1,0,3:0:0:0:
394,317,1613864,6,0,P|426:318|461:308,1,47.5,8|0,3:0|3:0,0:0:0:0:
333,156,1614035,2,0,P|301:155|266:165,1,47.5,8|0,3:0|3:0,0:0:0:0:
479,180,1614205,5,8,1:0:0:0:
479,180,1614546,5,4,3:1:0:0:
388,40,1635001,5,0,3:0:0:0:
362,297,1635171,1,8,1:0:0:0:
283,32,1635342,5,8,1:0:0:0:
446,269,1635512,1,8,1:0:0:0:
213,91,1635683,5,8,1:0:0:0:
477,163,1635853,1,0,3:0:0:0:
111,316,1636023,5,8,1:0:0:0:
111,316,1636364,6,0,L|105:148,1,152,6|0,0:0|0:0,0:0:0:0:
292,26,1636876,2,0,L|297:177,1,152,2|0,0:0|0:0,0:0:0:0:
475,86,1637387,2,0,P|436:126|383:146,1,114,2|0,0:0|0:0,0:0:0:0:
337,149,1637728,6,0,P|297:117|278:90,1,76
169,219,1638069,2,0,P|199:197|224:168,1,76
120,55,1638410,2,0,P|126:93|141:128,2,76,2|0|0,0:0|0:0|0:0,0:0:0:0:
357,294,1639092,6,0,L|340:127,1,152,2|0,0:0|0:0,0:0:0:0:
127,141,1639603,2,0,P|178:196|251:216,1,152,2|0,0:0|0:0,0:0:0:0:
263,19,1640114,2,0,P|239:71|227:127,1,114,2|0,0:0|0:0,0:0:0:0:
220,172,1640455,6,0,P|207:229|194:263,1,76
323,361,1640796,2,0,P|311:324|304:287,1,76
394,301,1641137,1,0,0:0:0:0:
129,187,1641478,1,0,0:0:0:0:
364,34,1641819,6,0,B|331:73|331:73|214:57,1,152,2|0,0:0|0:0,0:0:0:0:
31,212,1642330,2,0,B|64:173|64:173|163:186,1,152,2|0,0:0|0:0,0:0:0:0:
335,307,1642842,2,0,L|212:293,1,114,2|0,0:0|0:0,0:0:0:0:
175,291,1643183,6,0,P|130:299|77:318,1,76
23,355,1643523,1,2,0:0:0:0:
98,217,1643694,2,0,P|98:179|91:132,1,76,0|2,0:0|0:0,0:0:0:0:
75,51,1644035,1,2,0:0:0:0:
75,51,1644205,1,0,0:0:0:0:
373,176,1644546,6,0,L|205:155,1,152,2|0,0:0|0:0,0:0:0:0:
71,327,1645058,2,0,L|222:346,1,152,2|0,0:0|0:0,0:0:0:0:
297,220,1645569,2,0,P|288:152|332:98,1,114,2|0,0:0|0:0,0:0:0:0:
346,87,1645910,6,0,L|266:73,1,76
152,227,1646251,2,0,L|72:213,1,76
367,209,1646592,2,0,L|287:195,1,76,2|0,0:0|0:0,0:0:0:0:
167,344,1646933,2,0,L|87:330,1,76,2|0,0:0|0:0,0:0:0:0:
92,330,1647188,1,0,0:0:0:0:
92,330,1647273,6,0,P|116:290|118:170,1,152,2|2,0:0|0:0,0:0:0:0:
54,17,1647955,1,2,0:0:0:0:
225,80,1648296,2,0,B|277:76|277:76|336:86|336:86|389:82,1,152,2|0,0:0|0:0,0:0:0:0:
472,238,1648978,5,0,0:0:0:0:
463,267,1649319,1,0,0:0:0:0:
455,296,1649660,1,2,0:0:0:0:
380,347,1649830,1,2,0:0:0:0:
302,298,1650001,2,0,L|284:156,1,114,2|0,0:0|0:0,0:0:0:0:
278,139,1650342,2,0,P|252:182|180:218,1,114,2|0,0:0|0:0,0:0:0:0:
152,217,1650683,2,0,P|201:244|231:292,1,114,2|0,0:0|0:0,0:0:0:0:
242,336,1651023,1,2,0:0:0:0:
411,203,1651364,6,0,L|401:147,1,47.5
216,128,1651705,2,0,L|206:72,1,47.5
281,295,1652046,2,0,L|271:239,1,47.5
86,220,1652387,2,0,L|76:164,1,47.5
143,343,1652728,6,0,P|181:344|281:294,1,152,2|0,0:0|0:0,0:0:0:0:
177,163,1653239,2,0,P|176:187|181:217,1,38,0|2,0:0|0:0,0:0:0:0:
189,245,1653410,2,0,P|226:221|250:187,1,76,2|0,0:0|0:0,0:0:0:0:
412,337,1653751,2,0,P|387:280|378:103,1,228,2|0,0:0|0:0,0:0:0:0:
407,30,1654433,5,0,0:0:0:0:
281,60,1654603,1,0,0:0:0:0:
421,25,1654773,1,2,0:0:0:0:
263,65,1654944,1,0,0:0:0:0:
420,212,1655114,1,2,0:0:0:0:
115,348,1655455,6,0,L|106:181,1,152
198,276,1655967,2,0,L|195:219,1,38,0|2,0:0|0:0,0:0:0:0:
195,192,1656137,2,0,L|276:217,1,76
256,47,1656478,2,0,P|253:85|260:123,1,76,2|0,0:0|0:0,0:0:0:0:
329,329,1656819,5,0,0:0:0:0:
358,321,1657160,1,0,0:0:0:0:
387,313,1657501,1,2,0:0:0:0:
221,236,1657842,1,2,0:0:0:0:
485,31,1658183,5,2,3:2:0:0:
399,177,1658353,1,0,0:0:0:0:
473,49,1658523,1,0,3:0:0:0:
453,260,1658694,1,2,0:0:0:0:
328,76,1658864,2,0,P|293:112|266:168,1,95,0|0,3:0|0:0,0:0:0:0:
197,308,1659205,2,0,P|189:268|143:170,1,142.5,2|0,3:2|0:0,0:0:0:0:
107,134,1659546,5,0,3:0:0:0:
88,246,1659717,1,0,0:0:0:0:
8,164,1659887,2,0,P|9:111|40:54,1,95,0|0,3:0|0:0,0:0:0:0:
178,220,1660228,2,0,P|177:273|146:330,1,95,0|0,3:0|0:0,0:0:0:0:
334,220,1660569,2,0,P|335:273|366:330,1,95,2|0,3:2|0:0,0:0:0:0:
504,164,1660910,6,0,P|503:111|438:24,1,142.5,2|0,3:2|0:0,0:0:0:0:
404,13,1661251,1,0,3:0:0:0:
336,104,1661421,2,0,B|289:118|289:118|186:105|186:105|131:115,1,190,2|0,0:0|0:0,0:0:0:0:
64,188,1661933,2,0,L|89:288,1,95,2|0,3:2|0:0,0:0:0:0:
262,254,1662273,6,0,P|224:226|179:214,1,95,0|0,3:0|0:0,0:0:0:0:
327,334,1662614,2,0,P|355:296|344:194,1,142.5,0|0,3:0|0:0,0:0:0:0:
319,156,1662955,2,0,P|284:108|273:51,1,95,0|0,3:0|0:0,0:0:0:0:
125,284,1663296,2,0,P|154:247|170:203,1,95,0|0,3:0|0:0,0:0:0:0:
295,349,1663637,6,0,P|276:281|279:146,1,190,2|0,3:2|3:0,0:0:0:0:
313,54,1664148,1,2,0:0:0:0:
204,19,1664319,1,0,3:0:0:0:
313,54,1664489,1,0,0:0:0:0:
134,145,1664660,2,0,L|155:331,1,142.5,2|0,3:2|0:0,0:0:0:0:
151,344,1665001,6,0,P|171:284|196:247,1,95,0|0,3:0|0:0,0:0:0:0:
345,102,1665342,1,2,3:2:0:0:
193,57,1665512,1,2,0:0:0:0:
345,102,1665683,2,0,P|365:162|390:199,1,95,2|2,3:2|0:0,0:0:0:0:
261,335,1666023,2,0,P|284:293|297:248,1,95,0|0,3:0|0:0,0:0:0:0:
150,82,1666364,6,0,P|129:172|183:248,1,190,2|0,3:2|3:0,0:0:0:0:
363,251,1666876,2,0,P|273:223|183:248,1,190,2|0,0:0|0:0,0:0:0:0:
68,257,1667387,2,0,P|75:210|96:168,1,95,2|0,3:2|0:0,0:0:0:0:
281,60,1667728,6,0,P|302:102|309:148,1,95,0|0,3:0|0:0,0:0:0:0:
265,254,1668069,2,0,P|322:260|418:194,1,142.5,0|0,3:0|0:0,0:0:0:0:
423,172,1668410,2,0,L|446:379,1,190,2|2,3:2|3:2,0:0:0:0:
198,305,1669092,6,0,L|307:334,1,104.500003189087,4|0,3:2|0:0,0:0:0:0:
272,208,1669433,2,0,L|246:23,1,156.750004783631,8|0,0:0|0:0,0:0:0:0:
250,52,1669773,2,0,P|184:62|109:44,1,104.500003189087,0|0,3:0|0:0,0:0:0:0:
163,280,1670114,2,0,P|182:217|185:167,1,104.500003189087,10|0,0:0|0:0,0:0:0:0:
69,333,1670455,5,0,3:0:0:0:
89,338,1670796,1,8,0:0:0:0:
109,343,1671137,1,0,3:0:0:0:
129,348,1671478,1,10,0:0:0:0:
148,354,1671819,6,0,L|260:335,1,104.500003189087,0|0,3:0|0:0,0:0:0:0:
315,62,1672160,2,0,P|237:130|207:204,1,156.750004783631,8|0,0:0|0:0,0:0:0:0:
191,235,1672501,2,0,L|179:123,1,104.500003189087,0|0,3:0|0:0,0:0:0:0:
347,350,1672842,2,0,L|359:238,1,104.500003189087,10|0,0:0|0:0,0:0:0:0:
148,354,1673183,5,0,3:0:0:0:
132,340,1673523,1,8,0:0:0:0:
116,325,1673864,1,0,3:0:0:0:
100,310,1674205,1,8,0:0:0:0:
61,170,1674546,5,0,3:0:0:0:
46,154,1674717,1,0,3:0:0:0:
31,138,1674887,2,0,L|48:25,1,104.500003189087,8|2,0:0|3:2,0:0:0:0:
293,164,1675228,1,0,3:0:0:0:
308,148,1675399,1,0,3:0:0:0:
323,132,1675569,2,0,L|306:19,1,104.500003189087,10|0,0:0|3:0,0:0:0:0:
241,294,1675910,5,0,3:0:0:0:
263,290,1676080,1,0,3:0:0:0:
285,285,1676251,2,0,P|335:266|392:221,1,113.999996520996,10|2,0:0|3:2,0:0:0:0:
193,86,1676592,1,2,3:2:0:0:
171,82,1676762,1,2,3:2:0:0:
149,77,1676933,2,0,P|99:58|42:13,1,113.999996520996,8|0,0:0|3:0,0:0:0:0:
66,237,1677273,5,8,3:2:0:0:
73,258,1677359,1,0,3:0:0:0:
80,279,1677444,1,0,3:0:0:0:
87,300,1677529,1,0,3:0:0:0:
112,322,1677614,5,8,3:2:0:0:
126,290,1677700,1,0,3:0:0:0:
140,259,1677785,1,0,3:0:0:0:
152,227,1677870,1,0,3:0:0:0:
188,200,1677955,5,8,3:2:0:0:
203,242,1678040,1,0,3:0:0:0:
221,284,1678126,1,0,3:0:0:0:
238,325,1678211,1,0,3:0:0:0:
291,343,1678296,5,8,3:2:0:0:
308,288,1678381,1,0,3:0:0:0:
327,233,1678467,1,0,3:0:0:0:
341,178,1678552,1,0,3:0:0:0:
394,136,1678637,5,0,3:0:0:0:
361,146,1678722,1,0,3:0:0:0:
326,145,1678808,1,0,3:0:0:0:
292,136,1678893,1,0,3:0:0:0:
262,118,1678978,2,0,P|229:78|216:57,1,56.9999982604981,8|0,3:2|3:0,0:0:0:0:
156,165,1679148,2,0,P|139:188|120:209,1,56.9999982604981,0|0,3:0|3:0,0:0:0:0:
60,122,1679319,1,2,3:2:0:0:
154,341,1679489,1,0,3:0:0:0:
308,44,1679660,1,10,0:0:0:0:
440,292,1680001,6,0,B|377:299|377:299|315:288|315:288|238:297,1,185.249991519928,4|0,0:0|0:0,0:0:0:0:
210,353,1680342,1,8,0:0:0:0:
120,235,1680512,2,0,L|142:103,1,123.499994346619,2|0,0:0|0:0,0:0:0:0:
33,9,1680853,1,0,3:0:0:0:
237,183,1681023,2,0,P|300:159|359:99,1,123.499994346619,10|0,0:0|0:0,0:0:0:0:
180,278,1681364,5,0,3:0:0:0:
326,305,1681535,1,0,0:0:0:0:
170,276,1681705,1,8,0:0:0:0:
346,139,1681876,1,0,0:0:0:0:
157,274,1682046,1,2,0:0:0:0:
374,227,1682217,1,0,3:0:0:0:
205,95,1682387,2,0,L|224:235,1,123.499994346619,10|0,0:0|0:0,0:0:0:0:
427,47,1682728,6,0,P|393:98|347:139,1,123.499994346619,2|0,3:2|0:0,0:0:0:0:
285,3,1683069,1,8,0:0:0:0:
415,195,1683239,2,0,P|396:267|397:333,1,123.499994346619,2|0,0:0|0:0,0:0:0:0:
291,27,1683580,1,0,3:0:0:0:
294,253,1683751,2,0,P|291:191|274:132,1,123.499994346619,10|0,0:0|0:0,0:0:0:0:
154,220,1684092,5,0,0:0:0:0:
188,363,1684262,1,0,3:0:0:0:
193,136,1684433,1,8,0:0:0:0:
108,312,1684603,1,0,0:0:0:0:
38,62,1684773,1,0,0:0:0:0:
196,265,1684944,1,0,3:0:0:0:
215,1,1685114,2,0,P|173:20|113:80,1,123.499994346619,10|0,0:0|0:0,0:0:0:0:
286,255,1685455,6,0,P|271:195|250:137,1,123.499994346619,2|0,3:2|0:0,0:0:0:0:
153,24,1685796,1,8,0:0:0:0:
371,172,1685967,2,0,P|386:112|407:54,1,123.499994346619,2|0,0:0|0:0,0:0:0:0:
158,37,1686308,1,0,3:0:0:0:
346,252,1686478,2,0,P|265:260|205:278,1,123.499994346619,10|0,0:0|0:0,0:0:0:0:
0,168,1686819,6,0,P|89:180|150:271,1,185.249991519928,0|0,3:0|0:0,0:0:0:0:
148,325,1687160,2,0,P|193:263|217:208,1,123.499994346619,8|0,0:0|0:0,0:0:0:0:
297,8,1687501,1,2,0:0:0:0:
226,193,1687671,1,0,3:0:0:0:
458,133,1687842,2,0,P|399:120|319:113,1,123.499994346619,10|0,0:0|0:0,0:0:0:0:
139,26,1688183,6,0,P|136:99|282:167,1,246.999988693238,2|8,3:2|0:0,0:0:0:0:
480,255,1688694,2,0,P|394:170|273:170,1,246.999988693238,2|0,0:0|3:0,0:0:0:0:
285,349,1689205,2,0,P|298:258|273:170,1,185.249991519928,10|0,0:0|0:0,0:0:0:0:
210,130,1689546,5,0,0:0:0:0:
124,346,1689717,1,0,3:0:0:0:
203,148,1689887,1,8,0:0:0:0:
203,378,1690058,1,0,0:0:0:0:
368,153,1690228,2,0,P|431:161|488:198,1,123.499994346619,2|0,0:0|3:0,0:0:0:0:
194,177,1690569,2,0,P|131:169|74:132,1,123.499994346619,10|0,0:0|0:0,0:0:0:0:
407,238,1690910,6,0,P|336:236|202:281,1,185.249991519928,2|0,3:2|0:0,0:0:0:0:
167,312,1691251,1,8,0:0:0:0:
300,148,1691421,2,0,P|291:120|275:18,1,123.499994346619,2|0,0:0|0:0,0:0:0:0:
177,306,1691762,1,0,3:0:0:0:
154,0,1691933,2,0,P|146:61|129:120,1,123.499994346619,10|0,0:0|0:0,0:0:0:0:
82,260,1692273,5,0,3:0:0:0:
221,207,1692444,1,0,0:0:0:0:
429,349,1692614,1,8,0:0:0:0:
290,296,1692785,1,0,0:0:0:0:
274,45,1692955,1,0,0:0:0:0:
327,184,1693126,1,0,3:0:0:0:
168,346,1693296,1,10,0:0:0:0:
221,207,1693467,1,0,0:0:0:0:
451,314,1693637,6,0,P|369:320|235:287,1,185.249991519928,2|0,3:2|0:0,0:0:0:0:
196,280,1693978,1,8,0:0:0:0:
389,51,1694148,2,0,P|383:136|369:204,1,123.499994346619,2|0,0:0|0:0,0:0:0:0:
135,344,1694489,1,0,3:0:0:0:
155,76,1694660,2,0,P|216:85|276:102,1,123.499994346619,10|0,0:0|0:0,0:0:0:0:
245,328,1695001,5,0,0:0:0:0:
188,191,1695171,1,0,3:0:0:0:
250,349,1695342,1,8,0:0:0:0:
275,101,1695512,1,0,0:0:0:0:
405,273,1695683,2,0,P|344:254|290:218,1,123.499994346619,2|0,0:0|3:0,0:0:0:0:
53,91,1696023,2,0,P|112:73|164:40,1,123.499994346619,10|0,0:0|0:0,0:0:0:0:
138,355,1696364,6,0,P|161:284|163:136,1,185.249991519928,2|0,3:2|0:0,0:0:0:0:
132,108,1696705,1,8,0:0:0:0:
276,286,1696876,2,0,P|351:273|419:248,1,123.499994346619,2|0,0:0|0:0,0:0:0:0:
498,150,1697217,1,0,3:0:0:0:
263,10,1697387,2,0,P|276:85|301:153,1,123.499994346619,10|0,0:0|0:0,0:0:0:0:
330,273,1697728,5,0,3:0:0:0:
367,79,1697898,1,0,0:0:0:0:
422,345,1698069,1,8,0:0:0:0:
301,166,1698239,5,2,0:0:0:0:
512,261,1698410,1,2,0:0:0:0:
254,355,1698580,1,2,3:2:0:0:
433,125,1698751,2,0,P|422:195|396:272,1,123.499994346619,10|0,0:0|0:0,0:0:0:0:
111,311,1699092,6,0,P|150:258|310:168,1,246.999988693238,2|8,3:2|0:0,0:0:0:0:
494,282,1699603,2,0,P|375:266|304:169,1,246.999988693238,2|0,3:2|3:0,0:0:0:0:
369,64,1700114,2,0,P|342:120|304:169,1,123.499994346619,10|0,0:0|0:0,0:0:0:0:
256,192,1700455,12,0,1701648,0:0:0:0:
105,325,1701819,6,0,L|97:206,1,104.500003189087,6|0,0:0|0:0,0:0:0:0:
36,110,1702160,1,8,0:0:0:0:
192,267,1702330,2,0,L|311:275,1,104.500003189087,2|0,0:0|0:0,0:0:0:0:
421,282,1702671,1,0,3:0:0:0:
248,178,1702842,2,0,L|240:59,1,104.500003189087,10|0,0:0|0:0,0:0:0:0:
457,99,1703183,6,0,P|407:114|356:123,1,104.500003189087,0|0,3:0|0:0,0:0:0:0:
139,49,1703523,2,0,P|190:57|240:72,1,104.500003189087,8|0,0:0|0:0,0:0:0:0:
191,297,1703864,1,0,0:0:0:0:
264,81,1704035,1,0,0:0:0:0:
393,272,1704205,2,0,P|385:323|367:372,1,104.500003189087,10|0,0:0|0:0,0:0:0:0:
191,297,1704546,6,0,P|173:247|179:111,1,156.750004783631,2|0,3:2|0:0,0:0:0:0:
191,84,1704887,1,8,0:0:0:0:
75,211,1705058,2,0,P|56:285|35:329,1,104.500003189087,2|0,0:0|0:0,0:0:0:0:
185,99,1705398,1,0,3:0:0:0:
164,280,1705569,2,0,P|183:354|204:398,1,104.500003189087,10|0,0:0|0:0,0:0:0:0:
328,164,1705910,5,0,3:0:0:0:
272,51,1706080,1,0,0:0:0:0:
333,176,1706251,1,8,0:0:0:0:
267,40,1706421,1,0,0:0:0:0:
167,193,1706592,1,0,0:0:0:0:
366,77,1706762,1,0,3:0:0:0:
155,200,1706933,1,10,0:0:0:0:
375,72,1707103,1,0,0:0:0:0:
278,348,1707273,6,0,L|266:232,1,104.500003189087,2|0,3:2|0:0,0:0:0:0:
257,118,1707614,1,8,0:0:0:0:
54,328,1707785,2,0,P|110:327|178:308,1,104.500003189087,2|0,0:0|0:0,0:0:0:0:
280,294,1708126,1,0,3:0:0:0:
109,34,1708296,2,0,P|96:99|94:174,1,104.500003189087,10|0,0:0|0:0,0:0:0:0:
290,93,1708637,6,0,B|362:88|362:88|415:102|415:102|521:97,2,209.000006378174,0|8|2,3:0|0:0|0:0,0:0:0:0:
100,332,1709489,1,0,3:0:0:0:
267,101,1709660,2,0,L|279:236,1,104.500003189087,10|0,0:0|0:0,0:0:0:0:
437,304,1710001,6,0,P|413:247|378:192,1,104.500003189087,2|0,3:2|0:0,0:0:0:0:
313,111,1710342,1,8,0:0:0:0:
98,364,1710512,2,0,P|117:315|143:270,1,104.500003189087,2|0,0:0|0:0,0:0:0:0:
218,169,1710853,1,0,3:0:0:0:
21,19,1711023,2,0,P|40:67|66:112,1,104.500003189087,10|0,0:0|0:0,0:0:0:0:
362,99,1711364,6,0,L|342:-6,1,104.500003189087,0|0,3:0|0:0,0:0:0:0:
257,264,1711705,2,0,L|277:159,1,104.500003189087,8|0,0:0|0:0,0:0:0:0:
496,192,1712046,1,2,0:0:0:0:
282,140,1712217,1,0,3:0:0:0:
391,357,1712387,2,0,L|411:252,1,104.500003189087,10|0,0:0|0:0,0:0:0:0:
69,310,1712728,6,0,L|225:289,1,156.750004783631,6|0,3:2|0:0,0:0:0:0:
287,280,1713069,1,8,0:0:0:0:
210,181,1713239,2,0,P|187:108|181:44,1,104.500003189087,2|0,0:0|0:0,0:0:0:0:
280,268,1713580,1,0,3:0:0:0:
328,0,1713751,2,0,P|318:51|300:100,1,104.500003189087,10|0,0:0|0:0,0:0:0:0:
452,287,1714092,5,0,3:0:0:0:
274,352,1714262,1,0,0:0:0:0:
452,287,1714433,1,8,0:0:0:0:
234,163,1714603,1,0,0:0:0:0:
366,329,1714773,1,0,0:0:0:0:
392,65,1714944,1,0,3:0:0:0:
209,263,1715114,2,0,P|291:247|333:227,1,104.500003189087,10|0,0:0|0:0,0:0:0:0:
198,0,1715455,6,0,P|205:54|222:112,1,104.500003189087,2|0,3:2|0:0,0:0:0:0:
250,223,1715796,1,8,0:0:0:0:
504,64,1715967,2,0,P|444:42|362:27,1,104.500003189087,2|0,0:0|0:0,0:0:0:0:
280,11,1716308,1,0,3:0:0:0:
387,285,1716478,2,0,P|403:233|414:170,1,104.500003189087,10|0,0:0|0:0,0:0:0:0:
234,335,1716819,6,0,P|207:263|194:108,2,209.000006378174,0|8|2,3:0|0:0|0:0,0:0:0:0:
490,361,1717671,1,0,3:0:0:0:
256,335,1717842,2,0,P|316:312|373:279,1,104.500003189087,10|0,0:0|0:0,0:0:0:0:
64,65,1718183,6,0,P|113:82|159:107,1,104.500003189087,2|0,3:2|0:0,0:0:0:0:
265,172,1718523,1,8,0:0:0:0:
83,343,1718694,2,0,P|73:290|70:236,1,104.500003189087,2|0,0:0|0:0,0:0:0:0:
66,113,1719035,1,0,3:0:0:0:
320,284,1719205,2,0,P|268:282|216:278,1,104.500003189087,10|0,0:0|0:0,0:0:0:0:
323,49,1719546,5,0,3:0:0:0:
199,171,1719717,1,0,0:0:0:0:
311,63,1719887,1,8,0:0:0:0:
267,285,1720058,5,2,0:0:0:0:
207,62,1720228,1,2,0:0:0:0:
157,339,1720398,1,2,3:2:0:0:
353,240,1720569,2,0,P|320:198|270:155,1,104.500003189087,10|0,0:0|0:0,0:0:0:0:
32,318,1720910,6,0,P|102:331|252:247,1,209.000006378174,2|8,3:2|0:0,0:0:0:0:
279,89,1721421,2,0,P|224:176|225:279,1,209.000006378174,2|0,0:0|3:0,0:0:0:0:
329,271,1721933,2,0,P|277:270|225:279,1,104.500003189087,10|0,0:0|0:0,0:0:0:0:
487,358,1722273,5,0,3:0:0:0:
256,192,1722359,12,0,1723467,3:0:0:0:
487,358,1723637,5,4,0:0:0:0:
