osu file format v14

[General]
AudioFilename: dont click.mp3
AudioLeadIn: 0
PreviewTime: 345140
Countdown: 0
SampleSet: Soft
StackLeniency: 0.4
Mode: 0
LetterboxInBreaks: 0
WidescreenStoryboard: 0

[Editor]
Bookmarks: 104459,126339,170099,213859,279500,301380,388901,432661,476421,542062,640523,717104,760864,815564,881205,924965,1012486,1089067,1132827,1220353
DistanceSpacing: 0.7
BeatDivisor: 4
GridSize: 32
TimelineZoom: 1.7

[Metadata]
Title:Liquicity Yearmix 2015
TitleUnicode:Liquicity Yearmix 2015
Artist:Maduk
ArtistUnicode:Maduk
Creator:Strategas
Version:Marathon
Source:
Tags:cut Feint We Won't Be Alone Laura Brehm Spillage & Dealt Fairly Take Me Home Michael Seary Luke Cusato Can't Say It Remix T and Sugah Green Valleys LAOS rmx Aether Sizzlebird Raccoon ft. Veela Priority & TwoThirds City Needs Sleep Fox Stevenson Whatever I Do feat. Kostja James Marvel MC Mota Face of the Earth Elliott Mac Like Is LSB About Tonight Cartoon One Day Raise Spirit Don't Let Go Station Summer Soulstice Draper Set Free Misun Eli Nymfo Africa Koven One's Own Shanic Leap Year Gal (Boxplot Jus Jack & Speed Limits All Falls Down Dualistic Muzzy Voicians Back To You Azerite Xilver Exote RyoKazuka pishifat
BeatmapID:939197
BeatmapSetID:429411

[Difficulty]
HPDrainRate:4
CircleSize:4
OverallDifficulty:8
ApproachRate:9
SliderMultiplier:1.8
SliderTickRate:2

[Events]
//Background and Video events
0,0,"dont dare to click.jpg",0,0
//Break Periods
2,60888,71028
2,170289,180429
2,389092,391027
2,476613,495642
2,542254,546924
2,815764,825905
2,1015422,1017358
2,1026363,1028298
//Storyboard Layer 0 (Background)
//Storyboard Layer 1 (Fail)
//Storyboard Layer 2 (Pass)
//Storyboard Layer 3 (Foreground)
//Storyboard Sound Samples

[TimingPoints]
5944,694.682352941174,4,2,25,50,1,0
16711,-100,4,2,25,5,0,0
16928,341.880341880342,4,2,25,50,1,0
16928,-200,4,2,25,50,0,0
19492,-200,4,2,25,5,0,0
19663,-200,4,2,25,50,0,0
19748,-200,4,2,25,30,0,0
20346,-200,4,2,25,50,0,0
20432,-200,4,2,25,30,0,0
21030,-200,4,2,25,50,0,0
21116,-200,4,2,25,30,0,0
21714,-200,4,2,25,50,0,0
21799,-200,4,2,25,30,0,0
22398,-200,4,2,25,35,0,0
23765,-200,4,2,25,40,0,0
25133,-200,4,2,25,30,0,0
27868,-200,4,2,25,35,0,0
29235,-200,4,2,25,40,0,0
30603,-200,4,2,25,30,0,0
33338,-200,4,2,25,35,0,0
34705,-200,4,2,25,40,0,0
36073,-200,4,2,25,30,0,0
38637,-200,4,2,25,5,0,0
38808,-133.333333333333,4,2,25,40,0,0
60688,-133.333333333333,4,2,25,25,0,0
71628,-100,4,2,25,40,0,0
77098,-100,4,2,25,50,0,0
80517,-100,4,2,25,40,0,0
80859,-100,4,2,25,30,0,0
81885,-200,4,2,25,20,0,0
82569,-90.9090909090909,4,1,25,70,0,1
93765,-90.9090909090909,4,2,25,5,0,1
93851,-90.9090909090909,4,1,25,70,0,1
103081,-90.9090909090909,4,1,25,70,0,0
103252,-90.9090909090909,4,1,25,60,0,0
103594,-90.9090909090909,4,1,25,50,0,0
103936,-90.9090909090909,4,1,25,40,0,0
104278,-90.9090909090909,4,1,25,30,0,0
104449,-90.9090909090909,4,1,25,70,0,1
107184,-76.9230769230769,4,1,25,75,0,1
109919,-90.9090909090909,4,1,25,70,0,1
112654,-76.9230769230769,4,1,25,75,0,1
114021,-66.6666666666667,4,1,25,80,0,1
115389,-90.9090909090909,4,1,25,70,0,1
118124,-76.9230769230769,4,1,25,75,0,1
120859,-90.9090909090909,4,1,25,70,0,1
124962,-100,4,2,25,50,0,0
125645,-100,4,2,25,40,0,0
126329,341.880341880342,4,1,26,70,1,1
126329,-90.9090909090909,4,1,26,70,0,1
168722,-90.9090909090909,4,1,26,70,0,1
169064,-90.9090909090909,4,1,26,70,0,1
169405,-90.9090909090909,4,1,26,70,0,1
169747,-90.9090909090909,4,1,26,70,0,1
170089,341.880341880342,4,2,25,25,1,0
181029,-133.333333333333,4,2,25,25,0,0
185131,-133.333333333333,4,2,25,40,0,0
185388,-133.333333333333,4,2,25,5,0,0
185473,-133.333333333333,4,2,25,40,0,0
185730,-133.333333333333,4,2,25,5,0,0
185815,-133.333333333333,4,2,25,40,0,0
186071,-133.333333333333,4,2,25,5,0,0
186157,-133.333333333333,4,2,25,40,0,0
186413,-133.333333333333,4,2,25,5,0,0
186499,-133.333333333333,4,2,25,25,0,0
191285,-133.333333333333,4,2,25,30,0,0
191371,-133.333333333333,4,2,25,32,0,0
191456,-133.333333333333,4,2,25,34,0,0
191541,-133.333333333333,4,2,25,36,0,0
191627,-133.333333333333,4,2,25,38,0,0
191712,-133.333333333333,4,2,25,40,0,0
191798,-133.333333333333,4,2,25,45,0,0
191969,-100,4,2,27,60,0,0
213849,-100,4,2,27,55,0,0
234361,-100,4,2,27,40,0,0
235729,-100,4,2,27,55,0,0
257609,-200,4,2,27,35,0,0
260344,-100,4,2,27,55,0,0
279490,-133.333333333333,4,2,25,50,0,0
290430,-66.6666666666667,4,2,25,50,0,0
290601,-100,4,2,25,40,0,0
291113,-66.6666666666667,4,2,25,50,0,0
291284,-100,4,2,25,40,0,0
291797,-66.6666666666667,4,2,25,50,0,0
291968,-100,4,2,25,40,0,0
292481,-66.6666666666667,4,2,25,50,0,0
292652,-100,4,2,25,40,0,0
293165,-66.6666666666667,4,2,25,50,0,0
293336,-100,4,2,25,40,0,0
293848,-66.6666666666667,4,2,25,50,0,0
294019,-100,4,2,25,40,0,0
294532,-66.6666666666667,4,2,25,50,0,0
294703,-100,4,2,25,40,0,0
295216,-66.6666666666667,4,2,25,50,0,0
295387,-100,4,2,25,40,0,0
295900,-100,4,2,25,50,0,0
301028,-50,4,2,25,70,0,0
301284,-50,4,2,25,5,0,0
301371,-90.9090909090909,4,1,25,70,0,1
320516,-90.9090909090909,4,2,25,60,0,0
323251,-90.9090909090909,4,1,25,70,0,1
342396,-100,4,2,25,50,0,0
344789,-50,4,2,25,70,0,0
345046,-50,4,2,25,5,0,0
345131,-50,4,2,25,50,0,0
345473,-90.9090909090909,4,1,25,70,0,1
365644,-90.9090909090909,4,2,25,65,0,0
367012,-200,4,2,25,65,0,0
367268,-200,4,2,25,5,0,0
367353,-76.9230769230769,4,1,25,70,0,1
367866,-90.9090909090909,4,1,25,70,0,1
377952,-200,4,2,25,65,0,0
378208,-200,4,2,25,5,0,0
378294,-76.9230769230769,4,1,25,70,0,1
378635,-90.9090909090909,4,1,25,70,0,1
388892,-300,4,2,25,30,0,0
398464,-200,4,2,25,35,0,0
399832,-133.333333333333,4,2,25,40,0,0
408037,-303.030303030303,4,2,25,20,0,0
409404,-125,4,2,25,40,0,0
409746,-111.111111111111,4,2,25,50,0,0
410088,-100,4,2,25,60,0,0
410430,-90.9090909090909,4,2,25,70,0,0
410772,-83.3333333333333,4,2,25,75,0,1
432653,-333.333333333333,4,2,25,40,0,0
432994,-76.9230769230769,4,2,26,60,0,0
433678,-100,4,2,26,60,0,0
435046,-50,4,2,26,70,0,0
435388,-100,4,2,26,60,0,0
436755,-66.6666666666667,4,2,26,65,0,0
438123,-100,4,2,26,60,0,0
445986,-50,4,2,26,70,0,0
446328,-100,4,2,26,60,0,0
447695,-66.6666666666667,4,2,26,65,0,0
449063,-100,4,2,26,60,0,0
454533,-333.333333333333,4,2,25,40,0,0
454875,-76.9230769230769,4,2,26,60,0,0
455558,-100,4,2,26,60,0,0
476413,-100,4,2,25,10,0,0
498293,-100,4,2,27,50,0,0
503763,-100,4,2,27,55,0,0
509233,-100,4,2,27,60,0,0
514703,-100,4,2,27,55,0,0
520173,-166.666666666667,4,2,27,50,0,0
525643,-100,4,2,27,55,0,0
531113,-100,4,2,27,60,0,0
536583,-100,4,2,27,55,0,0
542054,-200,4,2,25,50,0,0
552994,-133.333333333333,4,2,25,40,0,0
563934,-133.333333333333,4,2,25,45,0,0
581712,-133.333333333333,4,2,25,50,0,0
581883,-133.333333333333,4,2,25,5,0,0
582054,-133.333333333333,4,2,25,50,0,0
582224,-133.333333333333,4,2,25,5,0,0
582395,-133.333333333333,4,2,25,50,0,0
582566,-133.333333333333,4,2,25,5,0,0
582737,-133.333333333333,4,2,25,50,0,0
582908,-133.333333333333,4,2,25,5,0,0
583079,-133.333333333333,4,2,25,55,0,0
585472,-333.333333333333,4,2,25,80,0,0
585729,-200,4,2,25,5,0,0
585815,-90.9090909090909,4,2,25,70,0,1
607695,-333.333333333333,4,2,25,40,0,0
608036,-100,4,2,25,65,0,0
613165,-76.9230769230769,4,2,25,50,0,0
613250,-100,4,2,25,65,0,0
614532,-83.3333333333333,4,2,25,40,0,0
614618,-100,4,2,25,65,0,0
615900,-90.9090909090909,4,2,25,30,0,0
615985,-100,4,2,25,65,0,0
617951,-50,4,2,25,65,0,0
618635,-100,4,2,25,65,0,0
624105,-76.9230769230769,4,2,25,50,0,0
624190,-100,4,2,25,65,0,0
625472,-83.3333333333333,4,2,25,40,0,0
625558,-100,4,2,25,65,0,0
626840,-90.9090909090909,4,2,25,30,0,0
626925,-100,4,2,25,65,0,0
640516,-400,4,2,25,50,0,0
640687,-400,4,2,25,15,0,0
644618,-400,4,2,25,50,0,0
646157,-400,4,2,25,15,0,0
650089,-400,4,2,25,50,0,0
650943,-166.666666666667,4,2,25,50,0,0
667866,-125,4,2,25,35,0,0
669233,-125,4,2,25,40,0,0
671968,-125,4,2,25,45,0,0
672652,-125,4,2,25,52,0,0
673336,-100,4,2,25,60,0,1
673422,-100,4,2,25,60,0,0
693849,-100,4,2,25,50,0,0
695217,-100,4,2,25,60,0,1
715730,-100,4,2,25,50,0,0
717097,-100,4,2,26,60,0,0
728122,-100,4,2,26,5,0,0
728208,-100,4,2,26,60,0,0
728293,-100,4,2,26,5,0,0
728379,-100,4,2,26,60,0,0
729490,-100,4,2,26,5,0,0
729576,-100,4,2,26,60,0,0
729661,-100,4,2,26,5,0,0
729747,-100,4,2,26,60,0,0
730857,-100,4,2,26,5,0,0
730943,-100,4,2,26,60,0,0
731028,-100,4,2,26,5,0,0
731114,-100,4,2,26,60,0,0
732225,-100,4,2,26,5,0,0
732311,-100,4,2,26,60,0,0
732396,-100,4,2,26,5,0,0
732482,-100,4,2,26,60,0,0
733592,-100,4,2,26,5,0,0
733678,-100,4,2,26,60,0,0
733763,-100,4,2,26,5,0,0
733849,-100,4,2,26,60,0,0
734960,-100,4,2,26,5,0,0
735046,-100,4,2,26,60,0,0
735131,-100,4,2,26,5,0,0
735217,-100,4,2,26,60,0,0
736327,-100,4,2,26,5,0,0
736413,-100,4,2,26,60,0,0
736498,-100,4,2,26,5,0,0
736584,-100,4,2,26,60,0,0
751370,-100,4,2,26,5,0,0
751456,-100,4,2,26,60,0,0
751541,-100,4,2,26,5,0,0
751627,-100,4,2,26,60,0,0
752738,-100,4,2,26,5,0,0
752824,-100,4,2,26,60,0,0
752909,-100,4,2,26,5,0,0
752995,-100,4,2,26,60,0,0
754105,-100,4,2,26,5,0,0
754191,-100,4,2,26,60,0,0
754276,-100,4,2,26,5,0,0
754362,-100,4,2,26,60,0,0
758208,-100,4,2,26,5,0,0
758294,-100,4,2,26,60,0,0
758379,-100,4,2,26,5,0,0
758465,-100,4,2,26,60,0,0
760864,341.880341880342,4,1,25,70,1,0
760864,-133.333333333333,4,1,25,70,0,0
761034,-133.333333333333,4,1,25,35,0,0
763599,-133.333333333333,4,1,25,40,0,0
766334,-133.333333333333,4,1,25,45,0,0
769069,-133.333333333333,4,1,25,50,0,0
769752,-133.333333333333,4,1,25,55,0,0
770436,-133.333333333333,4,1,25,60,0,0
771120,-133.333333333333,4,1,25,20,0,0
771291,-133.333333333333,4,1,25,35,0,0
771462,-133.333333333333,4,1,25,50,0,0
771633,-133.333333333333,4,1,25,65,0,0
771804,-90.9090909090909,4,1,25,70,0,1
771975,-90.9090909090909,4,1,25,70,0,0
782744,-90.9090909090909,4,1,25,70,0,1
793513,-90.9090909090909,4,1,25,70,0,0
793684,-90.9090909090909,4,1,25,70,0,1
793855,-90.9090909090909,4,1,25,70,0,0
804624,-90.9090909090909,4,1,25,70,0,1
815564,-100,4,2,25,50,0,0
826504,-200,4,2,25,60,0,0
831974,-153.846153846154,4,2,25,60,0,0
835051,-142.857142857143,4,2,25,60,0,0
835393,-133.333333333333,4,2,25,60,0,0
835734,-125,4,2,25,60,0,0
837444,-100,4,2,25,70,0,0
845991,-100,4,2,25,70,0,0
846333,-100,4,2,25,70,0,0
878982,-111.111111111111,4,2,25,70,0,0
879837,-133.333333333333,4,2,25,40,0,0
880179,-151.515151515152,4,2,25,40,0,0
880521,-66.6666666666667,4,2,25,70,0,0
880777,-66.6666666666667,4,2,25,20,0,0
880863,-50,4,2,25,70,0,0
880948,-50,4,2,25,22,0,0
881205,-100,4,2,25,60,0,0
924966,-200,4,2,25,70,0,0
925051,-200,4,2,25,30,0,0
930436,-200,4,2,25,70,0,0
930521,-200,4,2,25,30,0,0
938641,-153.846153846154,4,2,25,40,0,0
941376,-133.333333333333,4,2,25,50,0,0
944111,-133.333333333333,4,2,25,40,0,0
945478,-133.333333333333,4,2,25,30,0,0
946846,-100,4,2,25,80,0,1
947103,-100,4,2,25,60,0,0
957787,-100,4,2,25,80,0,1
958043,-100,4,2,25,60,0,0
967871,-100,4,2,25,55,0,0
967957,-100,4,2,25,51,0,0
968042,-100,4,2,25,47,0,0
968128,-100,4,2,25,43,0,0
968213,-100,4,2,25,39,0,0
968299,-100,4,2,25,35,0,0
968384,-100,4,2,25,31,0,0
968470,-100,4,2,25,27,0,0
968555,-100,4,2,25,23,0,0
968641,-100,4,2,25,19,0,0
968727,-80,4,2,25,80,0,1
979154,-80,4,2,25,70,0,0
979324,-80,4,2,25,55,0,0
979495,-80,4,2,25,40,0,0
979667,-80,4,2,25,80,0,1
984795,-200,4,2,25,70,0,0
985137,-80,4,2,25,80,0,1
989752,-80,4,2,25,55,0,0
989837,-80,4,2,25,51,0,0
989923,-80,4,2,25,47,0,0
990008,-80,4,2,25,43,0,0
990094,-80,4,2,25,39,0,0
990179,-80,4,2,25,35,0,0
990265,-80,4,2,25,31,0,0
990350,-80,4,2,25,27,0,0
990436,-80,4,2,25,23,0,0
990521,-80,4,2,25,19,0,0
990607,-100,4,2,25,80,0,1
990864,-100,4,2,25,60,0,0
1001547,-100,4,2,25,80,0,1
1001804,-100,4,2,25,60,0,0
1009752,-111.111111111111,4,2,25,55,0,0
1011119,-125,4,2,25,50,0,0
1011632,-125,4,2,25,45,0,0
1011718,-125,4,2,25,41,0,0
1011803,-125,4,2,25,37,0,0
1011889,-125,4,2,25,33,0,0
1011974,-125,4,2,25,29,0,0
1012060,-125,4,2,25,25,0,0
1012145,-125,4,2,25,21,0,0
1012230,-125,4,2,25,19,0,0
1012316,-125,4,2,25,15,0,0
1012401,-125,4,2,25,11,0,0
1012487,-142.857142857143,4,2,25,50,0,0
1023427,-117.647058823529,4,2,25,50,0,0
1039837,-142.857142857143,4,2,25,50,0,0
1042914,-200,4,2,25,50,0,0
1043427,-166.666666666667,4,2,25,50,0,0
1044452,-117.647058823529,4,2,25,50,0,0
1045307,-90.9090909090909,4,2,25,50,0,0
1089069,-200,4,2,25,50,0,0
1089325,-200,4,2,25,5,0,0
1089411,-100,4,2,25,80,0,1
1089581,-100,4,2,25,70,0,0
1110949,-200,4,2,25,50,0,0
1111975,-100,4,2,25,50,0,1
1112146,-100,4,2,25,50,0,0
1132829,-200,4,2,25,40,0,0
1135222,-100,4,2,25,60,0,0
1135478,-100,4,2,25,20,0,0
1135564,-200,4,2,25,40,0,0
1137957,-100,4,2,25,60,0,0
1138213,-100,4,2,25,20,0,0
1138299,-200,4,2,25,40,0,0
1140692,-100,4,2,25,60,0,0
1140948,-100,4,2,25,20,0,0
1141034,-200,4,2,25,40,0,0
1143769,-100,4,2,25,55,0,0
1154710,-90.9090909090909,4,1,25,65,0,1
1156418,-66.6666666666667,4,1,25,80,0,1
1156589,-90.9090909090909,4,1,25,70,0,1
1157102,-58.8235294117647,4,1,25,85,0,1
1157444,-90.9090909090909,4,1,25,65,0,1
1159837,-58.8235294117647,4,1,25,85,0,1
1160179,-90.9090909090909,4,1,25,65,0,1
1162914,-200,4,1,25,65,0,1
1165649,-90.9090909090909,4,1,25,65,0,1
1167358,-66.6666666666667,4,1,25,80,0,1
1167529,-90.9090909090909,4,1,25,65,0,1
1168042,-58.8235294117647,4,1,25,85,0,1
1168384,-90.9090909090909,4,1,25,65,0,1
1170777,-58.8235294117647,4,1,25,85,0,1
1171119,-90.9090909090909,4,1,25,65,0,1
1178299,-66.6666666666667,4,1,25,80,0,1
1178640,-90.9090909090909,4,1,25,65,0,1
1178982,-58.8235294117647,4,1,25,85,0,1
1179324,-90.9090909090909,4,1,25,65,0,1
1181717,-58.8235294117647,4,1,25,85,0,1
1182059,-90.9090909090909,4,1,25,65,0,1
1184794,-200,4,1,25,65,0,1
1187871,-76.9230769230769,4,1,25,75,0,1
1188213,-200,4,1,25,65,0,1
1188555,-76.9230769230769,4,1,25,75,0,1
1188897,-200,4,1,25,65,0,1
1189239,-76.9230769230769,4,1,25,75,0,1
1189581,-200,4,1,25,65,0,1
1189923,-76.9230769230769,4,1,25,75,0,1
1190264,-200,4,1,25,65,0,1
1190606,-76.9230769230769,4,1,25,75,0,1
1190948,-200,4,1,25,65,0,1
1191290,-76.9230769230769,4,1,25,75,0,1
1191632,-200,4,1,25,65,0,1
1191974,-76.9230769230769,4,1,25,75,0,1
1192316,-200,4,1,25,65,0,1
1192658,-76.9230769230769,4,1,25,75,0,1
1193000,-200,4,1,25,65,0,1
1198470,-100,4,2,25,60,0,0
1209410,-200,4,2,25,60,0,0
1209752,-100,4,2,25,60,0,0
1220008,-133.333333333333,4,2,25,40,0,0

[Colours]
Combo1 : 157,60,255
Combo2 : 27,175,31
Combo3 : 43,85,230
Combo4 : 238,83,165
Combo5 : 251,134,4

[HitObjects]
256,192,5944,12,0,7333,0:0:0:0:
256,192,7376,12,0,8722,0:0:0:0:
256,192,8766,12,0,10112,0:0:0:0:
256,192,10155,12,0,11501,0:0:0:0:
256,192,11544,12,0,16711,0:0:0:0:
98,226,16928,6,0,B|157:313|306:280|334:234|334:234|403:283|509:238|531:76|346:22|304:146,1,675,4|0,0:1|0:0,0:0:0:0:
382,168,19663,6,0,P|452:172|504:127,1,135,2|0,0:0|0:0,0:0:0:0:
382,168,20346,2,0,P|378:238|423:290,1,135,2|0,0:0|0:0,0:0:0:0:
382,168,21030,2,0,P|312:164|260:209,1,135,2|0,0:0|0:0,0:0:0:0:
382,168,21714,2,0,P|386:98|341:46,1,135,2|0,0:0|0:0,0:0:0:0:
189,29,22398,6,0,L|192:74,1,45,2|0,0:0|0:0,0:0:0:0:
129,125,22739,2,0,L|127:170,1,45
194,216,23081,2,0,L|197:261,1,45,2|0,0:0|0:0,0:0:0:0:
134,312,23423,2,0,L|132:357,1,45
264,306,23765,6,0,L|266:350,1,45,2|0,0:0|0:0,0:0:0:0:
328,210,24107,2,0,L|325:254,1,45
259,119,24449,2,0,L|261:163,1,45,2|0,0:0|0:0,0:0:0:0:
323,23,24791,2,0,L|320:67,1,45,2|0,0:0|0:0,0:0:0:0:
478,121,25133,6,0,P|454:119|423:120,1,45,2|0,0:0|0:0,0:0:0:0:
382,182,25475,2,0,P|359:182|337:180,1,45
283,119,25816,2,0,P|259:117|228:118,1,45,2|0,0:0|0:0,0:0:0:0:
187,182,26158,2,0,P|164:182|142:180,1,45
146,302,26500,2,0,P|170:304|201:303,1,45,2|0,0:0|0:0,0:0:0:0:
242,241,26842,2,0,P|264:240|286:242,1,45
341,304,27184,2,0,P|365:306|396:305,1,45,2|0,0:0|0:0,0:0:0:0:
437,241,27526,2,0,P|459:240|481:242,1,45
361,211,27868,6,0,L|356:158,1,45,2|0,0:0|0:0,0:0:0:0:
416,110,28210,1,0,0:0:0:0:
416,110,28380,1,0,0:0:0:0:
282,193,28551,2,0,L|277:140,1,45,2|0,0:0|0:0,0:0:0:0:
337,92,28893,1,0,0:0:0:0:
337,92,29064,1,0,0:0:0:0:
361,211,29235,6,0,L|366:264,1,45,2|0,0:0|0:0,0:0:0:0:
306,312,29577,1,0,0:0:0:0:
306,312,29748,1,0,0:0:0:0:
440,229,29919,2,0,L|445:282,1,45,2|0,0:0|0:0,0:0:0:0:
389,374,30261,2,0,L|385:330,1,45,2|0,0:0|0:0,0:0:0:0:
301,267,30603,6,0,L|305:311,1,45,2|0,0:0|0:0,0:0:0:0:
361,212,30945,1,0,0:0:0:0:
361,212,31116,1,0,0:0:0:0:
221,251,31286,2,0,L|226:296,1,45,2|0,0:0|0:0,0:0:0:0:
281,193,31628,1,0,0:0:0:0:
281,193,31799,1,0,0:0:0:0:
139,229,31970,2,0,L|143:273,1,45,2|0,0:0|0:0,0:0:0:0:
199,174,32312,1,0,0:0:0:0:
199,174,32483,1,0,0:0:0:0:
59,213,32654,2,0,L|63:257,1,45,2|0,0:0|0:0,0:0:0:0:
119,155,32996,1,0,0:0:0:0:
119,155,33167,1,0,0:0:0:0:
221,251,33338,5,2,0:0:0:0:
282,198,33509,1,0,0:0:0:0:
276,311,33680,2,0,L|273:361,1,45
400,205,34022,1,2,0:0:0:0:
339,258,34192,1,0,0:0:0:0:
345,145,34363,2,0,L|348:95,1,45
416,285,34705,5,2,0:0:0:0:
356,338,34876,1,0,0:0:0:0:
282,198,35047,2,0,P|255:196|218:198,1,45
164,144,35389,2,0,P|159:114|165:92,1,45,2|0,0:0|0:0,0:0:0:0:
319,174,35731,2,0,P|302:190|281:198,1,45,2|0,0:0|0:0,0:0:0:0:
267,23,36073,6,0,P|289:30|306:44,1,45,2|0,0:0|0:0,0:0:0:0:
362,104,36415,2,0,P|410:110|451:106,1,90,0|2,0:0|0:0,0:0:0:0:
408,24,36928,1,0,0:0:0:0:
284,123,37098,2,0,P|238:128|194:125,1,90,0|2,0:0|0:0,0:0:0:0:
256,192,37526,12,0,38637,0:0:0:0:
256,189,38808,6,0,P|265:234|276:184,1,135.000005149842,2|2,0:3|0:0,0:0:0:0:
268,174,39321,1,0,0:0:0:0:
379,206,39492,2,0,P|355:278|297:313,1,135.000005149842,0|2,0:0|0:0,0:0:0:0:
388,358,40004,2,0,P|413:336|432:306,1,67.5000025749208,0|2,0:0|0:3,0:0:0:0:
506,214,40346,2,0,P|441:229|379:206,1,135.000005149842
247,156,40859,2,0,L|315:156,1,67.5000025749208,0|2,0:0|0:3,0:0:0:0:
427,88,41201,2,0,L|359:87,1,67.5000025749208
378,205,41543,6,0,B|360:278|295:305|295:305|226:279|164:309|164:309|97:286|76:195,1,405.000015449525,2|2,0:3|0:0,0:0:0:0:
80,210,43081,5,2,0:3:0:0:
124,106,43252,1,2,0:0:0:0:
156,300,43765,5,2,0:3:0:0:
200,195,43936,1,0,0:0:0:0:
124,106,44107,1,2,0:0:0:0:
313,193,44278,6,0,P|382:203|455:183,1,135.000005149842,2|2,0:3|0:0,0:0:0:0:
487,118,44791,1,0,0:0:0:0:
453,271,44962,2,0,L|441:340,2,67.5000025749208,0|2|2,0:0|0:3|0:0,0:0:0:0:
370,278,45475,2,0,B|310:275|276:307|276:307|234:281|170:298,1,202.500007724762
116,349,46158,1,0,0:0:0:0:
116,349,46329,2,0,P|98:312|100:269,1,67.5000025749208,0|2,0:0|0:3,0:0:0:0:
223,287,46671,2,0,P|219:253|203:224,1,67.5000025749208
106,127,47013,6,0,B|178:154|238:127|238:127|311:161|306:232|306:232|379:199|454:231,1,405.000015449525,2|2,0:3|0:0,0:0:0:0:
225,216,48551,5,2,0:3:0:0:
365,135,48722,1,2,0:0:0:0:
295,256,49235,5,2,0:3:0:0:
155,174,49406,1,0,0:0:0:0:
154,336,49577,1,2,0:0:0:0:
325,264,49748,6,0,P|319:224|295:256,1,101.250003862381,2|0,0:3|0:0,0:0:0:0:
379,325,50090,2,0,P|407:287|412:254,1,67.5000025749208,2|0,0:0|0:0,0:0:0:0:
215,262,50432,2,0,P|223:294|246:320,1,67.5000025749208,0|2,0:0|0:3,0:0:0:0:
316,143,50774,2,0,P|307:110|285:85,1,67.5000025749208,2|0,0:0|0:0,0:0:0:0:
426,158,51116,2,0,P|458:149|483:127,1,67.5000025749208,2|0,0:3|0:0,0:0:0:0:
363,209,51457,1,0,0:0:0:0:
285,85,51628,2,0,P|232:54|168:84,1,135.000005149842,0|2,0:0|0:3,0:0:0:0:
183,291,52141,2,0,P|284:338|338:268,1,202.500007724762
258,262,52825,6,0,B|248:341|296:357|323:377|363:372|401:357|428:317|433:270|407:222|361:207|361:207|430:232|467:180|483:151|469:104,1,540.000020599366,2|2,0:0|0:0,0:0:0:0:
335,281,54705,5,2,0:3:0:0:
392,131,54876,1,0,0:0:0:0:
233,157,55047,1,2,0:0:0:0:
335,281,55218,5,2,0:3:0:0:
320,188,55389,1,0,0:0:0:0:
244,250,55560,2,0,P|241:295|258:342,1,67.5000025749208,2|0,0:0|0:0,0:0:0:0:
401,279,55902,2,0,P|356:276|309:293,1,67.5000025749208,0|2,0:0|0:3,0:0:0:0:
492,310,56244,2,0,P|495:265|478:218,1,67.5000025749208,2|0,0:0|0:0,0:0:0:0:
320,188,56586,1,2,0:3:0:0:
415,184,56757,1,0,0:0:0:0:
246,248,56928,2,0,L|165:243,1,67.5000025749208
228,90,57269,2,0,L|296:95,1,67.5000025749208,0|2,0:0|0:3,0:0:0:0:
244,266,57611,6,0,B|109:252|109:252|159:217|159:147|116:111|59:106|26:125|1:154|-11:193|0:236|51:261,1,472.500018024445,0|2,0:0|0:3,0:0:0:0:
207,194,58979,1,2,0:0:0:0:
207,194,59492,5,2,0:3:0:0:
73,196,59663,1,2,0:0:0:0:
73,196,60175,5,2,0:3:0:0:
207,194,60346,1,0,0:0:0:0:
341,192,60517,1,2,0:0:0:0:
73,196,60688,5,4,0:1:0:0:
135,74,71628,5,4,0:1:0:0:
126,119,71970,1,2,0:3:0:0:
117,164,72312,1,2,0:3:0:0:
108,209,72654,1,2,0:3:0:0:
377,310,72996,5,2,0:3:0:0:
386,265,73338,1,2,0:3:0:0:
395,220,73680,1,2,0:3:0:0:
404,175,74022,1,2,0:3:0:0:
134,287,74363,6,0,L|141:377,1,90,2|0,0:3|0:0,0:0:0:0:
208,226,74705,2,0,L|217:136,1,90,2|0,0:3|0:0,0:0:0:0:
281,289,75047,1,2,0:3:0:0:
284,333,75218,1,2,0:0:0:0:
288,378,75389,1,2,0:3:0:0:
407,203,75731,6,0,L|375:113,1,90,2|0,0:3|0:0,0:0:0:0:
280,288,76073,2,0,L|311:204,1,90,2|0,0:3|0:0,0:0:0:0:
380,295,76415,1,2,0:3:0:0:
395,337,76586,1,2,0:0:0:0:
410,379,76757,1,2,0:3:0:0:
193,360,76928,1,2,0:0:0:0:
315,108,77098,5,2,0:3:0:0:
380,295,77269,1,2,0:3:0:0:
193,360,77440,1,2,0:3:0:0:
128,173,77611,1,2,0:3:0:0:
386,188,77782,5,2,0:3:0:0:
299,366,77953,1,2,0:3:0:0:
121,279,78124,1,2,0:3:0:0:
208,101,78295,1,2,0:3:0:0:
299,366,78466,5,2,0:3:0:0:
315,108,78637,1,2,0:3:0:0:
193,360,78808,1,2,0:3:0:0:
208,101,78979,1,2,0:3:0:0:
380,295,79150,5,2,0:3:0:0:
121,279,79321,1,2,0:3:0:0:
386,188,79492,1,2,0:3:0:0:
128,173,79663,1,2,0:3:0:0:
354,83,79833,5,2,0:3:0:0:
398,79,79919,1,2,0:3:0:0:
440,94,80004,1,2,0:3:0:0:
473,124,80090,1,2,0:3:0:0:
491,164,80175,1,2,0:3:0:0:
492,209,80261,1,2,0:3:0:0:
474,250,80346,1,2,0:3:0:0:
442,281,80432,1,2,0:3:0:0:
400,296,80517,5,2,0:3:0:0:
420,269,80603,1,2,0:3:0:0:
432,237,80688,1,2,0:3:0:0:
433,204,80774,1,2,0:3:0:0:
423,172,80859,5,0,3:0:0:0:
402,180,80945,1,0,3:0:0:0:
380,184,81030,1,0,3:0:0:0:
357,183,81116,1,0,3:0:0:0:
336,177,81201,5,8,0:0:0:0:
376,88,81372,1,0,0:0:0:0:
241,167,81543,1,8,0:0:0:0:
281,256,81714,1,0,0:0:0:0:
169,251,81885,6,0,L|105:248,1,45,8|0,0:0|0:0,0:0:0:0:
78,150,82227,2,0,L|146:154,1,67.5
151,160,82569,6,0,P|211:85|310:98,1,198.000006042481,4|8,0:0|0:0,0:0:0:0:
347,183,83081,1,0,0:0:0:0:
249,176,83252,1,2,0:2:0:0:
404,263,83423,1,2,0:3:0:0:
402,103,83594,2,0,L|398:4,1,99.0000030212403,8|0,0:0|0:0,0:0:0:0:
202,91,83936,6,0,P|149:100|105:84,1,99.0000030212403,2|0,0:3|0:3,0:3:0:0:
249,176,84278,2,0,P|258:229|242:273,1,99.0000030212403,8|0,0:0|0:3,0:3:0:0:
177,344,84620,1,0,0:0:0:0:
159,218,84791,1,2,0:3:0:0:
354,263,84962,1,8,0:0:0:0:
372,137,85133,1,0,0:0:0:0:
159,218,85304,6,0,P|109:230|56:213,1,99.0000030212403,2|0,0:3|0:0,0:0:0:0:
228,144,85645,1,8,0:0:0:0:
239,130,85987,5,2,0:2:0:0:
234,332,86158,1,2,0:3:0:0:
239,130,86329,1,8,0:0:0:0:
346,116,86671,6,0,P|298:105|250:115,1,99.0000030212403,2|0,0:3|0:0,0:0:0:0:
408,198,87013,1,8,0:0:0:0:
424,191,87355,5,2,0:2:0:0:
334,10,87526,1,2,0:3:0:0:
424,191,87697,1,8,0:0:0:0:
173,118,87868,1,2,0:2:0:0:
312,359,88039,6,0,P|363:366|413:352,1,99.0000030212403,2|0,0:3|0:0,0:0:0:0:
248,280,88380,2,0,P|197:273|147:287,1,99.0000030212403,8|0,0:0|0:0,0:0:0:0:
70,343,88722,1,2,0:2:0:0:
122,188,88893,1,2,0:3:0:0:
349,268,89064,2,0,P|356:217|342:167,1,99.0000030212403,8|0,0:0|0:0,0:0:0:0:
181,73,89406,6,0,L|294:64,1,99.0000030212403,2|0,0:3|0:0,0:0:0:0:
122,188,89748,2,0,L|9:179,1,99.0000030212403,8|0,0:0|0:0,0:0:0:0:
81,83,90090,1,2,0:2:0:0:
221,168,90261,1,2,0:3:0:0:
63,285,90432,1,8,0:0:0:0:
23,180,90603,1,0,0:0:0:0:
214,269,90774,6,0,P|277:252|314:206,1,99.0000030212403,2|0,0:3|0:0,0:0:0:0:
131,211,91116,1,8,0:0:0:0:
114,205,91457,5,0,0:0:0:0:
317,223,91628,1,2,0:3:0:0:
114,205,91799,1,8,0:0:0:0:
159,294,92141,6,0,L|258:304,1,99.0000030212403,2|0,0:3|0:0,0:0:0:0:
272,133,92483,2,0,L|173:123,1,99.0000030212403,2|0,0:3|0:0,0:0:0:0:
114,205,92825,1,2,0:3:0:0:
317,223,92996,1,2,0:3:0:0:
348,225,93081,1,2,0:3:0:0:
379,227,93167,1,8,0:0:0:0:
173,123,93338,1,2,0:3:0:0:
456,162,93509,6,0,P|479:232|450:298,1,148.50000453186,4|0,0:0|0:0,0:0:0:0:
423,326,93851,2,0,L|310:325,1,99.0000030212403,8|0,0:0|0:0,0:0:0:0:
239,274,94192,1,2,0:2:0:0:
379,227,94363,1,2,0:3:0:0:
196,183,94534,2,0,P|179:146|187:75,1,99.0000030212403,8|0,0:0|0:0,0:0:0:0:
370,107,94876,6,0,P|324:126|276:122,1,99.0000030212403,2|0,0:3|0:0,0:0:0:0:
450,47,95218,2,0,P|469:93|464:141,1,99.0000030212403,8|0,0:0|0:0,0:0:0:0:
389,206,95560,1,2,0:2:0:0:
310,27,95731,1,2,0:3:0:0:
289,223,95902,1,8,0:0:0:0:
370,107,96073,1,0,0:0:0:0:
354,299,96244,6,0,P|307:322|247:314,1,99.0000030212403,2|0,0:3|0:0,0:0:0:0:
271,121,96586,1,8,0:0:0:0:
274,104,96928,5,2,0:2:0:0:
244,313,97098,1,2,0:3:0:0:
274,104,97269,1,8,0:0:0:0:
372,95,97611,6,0,P|310:80|246:104,1,99.0000030212403,2|0,0:3|0:0,0:0:0:0:
389,195,97953,1,8,0:0:0:0:
407,200,98295,5,2,0:2:0:0:
198,238,98466,1,2,0:3:0:0:
407,200,98637,1,8,0:0:0:0:
159,144,98808,1,2,0:2:0:0:
380,298,98979,6,0,L|282:293,1,99.0000030212403,2|0,0:3|0:0,0:0:0:0:
253,109,99321,2,0,L|352:115,1,99.0000030212403,8|0,0:0|0:0,0:0:0:0:
228,208,99663,1,2,0:2:0:0:
407,200,99833,1,2,0:3:0:0:
180,299,100004,2,0,L|81:304,1,99.0000030212403,8|0,0:0|0:0,0:0:0:0:
51,134,100346,5,2,0:3:0:0:
67,293,100517,1,0,0:0:0:0:
130,72,100688,1,8,0:0:0:0:
120,207,100859,1,0,0:0:0:0:
35,32,101030,1,2,0:2:0:0:
0,220,101201,1,2,0:3:0:0:
200,145,101372,1,8,0:0:0:0:
190,280,101543,1,0,0:0:0:0:
392,185,101714,6,0,L|294:186,1,99.0000030212403,2|0,0:3|0:0,0:0:0:0:
120,207,102056,1,8,0:0:0:0:
120,207,102227,1,0,0:0:0:0:
236,50,102398,2,0,L|334:50,1,99.0000030212403,2|2,0:2|0:3,0:0:0:0:
508,71,102739,1,8,0:0:0:0:
508,71,102910,1,0,0:0:0:0:
471,259,103081,5,2,0:3:0:0:
471,259,103252,1,0,0:0:0:0:
415,112,103423,1,2,0:3:0:0:
415,112,103594,1,0,0:0:0:0:
378,209,103765,1,2,0:3:0:0:
312,116,103936,1,2,0:3:0:0:
309,131,104022,1,2,0:3:0:0:
306,146,104107,1,8,0:0:0:0:
237,56,104278,1,2,0:3:0:0:
161,306,104449,6,0,B|226:318|226:318|290:296|290:296|373:305,1,198.000006042481,4|8,0:0|0:0,0:0:0:0:
217,214,104962,2,0,B|152:202|152:202|88:224|88:224|5:215,1,198.000006042481,2|2,0:2|0:3,0:0:0:0:
73,23,105475,2,0,L|75:122,1,99.0000030212403,8|0,0:0|0:0,0:0:0:0:
77,324,105816,5,2,0:3:0:0:
217,214,105987,2,0,B|268:206|268:206|344:212,1,99.0000030212403,2|8,0:2|0:0,0:0:0:0:
439,325,106329,2,0,B|474:232|474:232|452:117,1,198.000006042481,2|2,0:2|0:3,0:0:0:0:
263,105,106842,2,0,B|311:111|311:111|360:102,1,99.0000030212403,8|0,0:0|0:0,0:0:0:0:
276,315,107184,6,0,P|147:288|40:315,1,233.999989288331,2|8,0:3|0:0,0:0:0:0:
134,106,107697,2,0,P|247:128|360:101,1,233.999989288331,2|2,0:2|0:3,0:0:0:0:
413,299,108210,2,0,P|424:241|419:183,1,116.999994644165,8|0,0:0|0:0,0:0:0:0:
320,7,108551,5,2,0:3:0:0:
204,189,108722,2,0,P|261:200|320:196,1,116.999994644165,2|8,0:2|0:0,0:0:0:0:
267,356,109064,2,0,P|153:333|40:360,1,233.999989288331,2|2,0:2|0:3,0:0:0:0:
204,189,109577,1,8,0:0:0:0:
285,372,109748,1,0,0:0:0:0:
412,235,109919,6,0,B|430:182|402:140|402:140|376:85|400:45,1,198.000006042481,2|8,0:3|0:0,0:0:0:0:
319,196,110432,2,0,B|266:214|224:186|224:186|169:160|129:184,1,198.000006042481,2|2,0:2|0:3,0:0:0:0:
280,102,110945,2,0,P|275:46|244:6,1,99.0000030212403,8|0,0:0|0:0,0:0:0:0:
187,156,111286,5,2,0:3:0:0:
319,195,111457,2,0,P|332:243|322:291,1,99.0000030212403,2|8,0:2|0:0,0:0:0:0:
42,234,111799,2,0,B|94:215|136:243|136:243|185:269|231:245,1,198.000006042481,2|2,0:2|0:3,0:0:0:0:
184,60,112312,2,0,P|173:107|186:155,1,99.0000030212403,8|0,0:0|0:0,0:0:0:0:
441,170,112654,6,0,P|334:196|274:105,1,233.999989288331,2|8,0:3|0:0,0:0:0:0:
376,338,113167,2,0,P|467:277|441:170,1,233.999989288331,2|2,0:2|0:3,0:0:0:0:
280,301,113680,2,0,P|216:311|153:301,1,116.999994644165,8|0,0:0|0:0,0:0:0:0:
99,118,114022,6,0,B|141:197|240:190|240:190|265:137|334:119,1,270.000010299683,2|8,0:3|0:0,0:0:0:0:
495,308,114534,2,0,B|452:228|354:236|354:236|329:289|260:307,1,270.000010299683,2|2,0:2|0:3,0:0:0:0:
27,272,115047,1,8,0:0:0:0:
248,187,115218,1,2,0:3:0:0:
45,345,115389,6,0,B|27:312|27:272|27:272|99:289|154:263,1,198.000006042481,4|8,0:0|0:0,0:0:0:0:
248,187,115902,2,0,B|266:220|266:260|266:260|194:243|139:269,1,198.000006042481,2|2,0:2|0:3,0:0:0:0:
356,306,116415,1,8,0:0:0:0:
209,374,116586,1,2,0:2:0:0:
209,364,116671,1,2,0:2:0:0:
209,354,116757,5,2,0:3:0:0:
291,97,116928,2,0,L|401:85,1,99.0000030212403,2|8,0:2|0:0,0:0:0:0:
451,196,117269,2,0,L|210:224,1,198.000006042481,2|2,0:2|0:3,0:0:0:0:
80,139,117782,2,0,L|179:129,1,99.0000030212403,8|0,0:0|0:0,0:0:0:0:
316,317,118124,6,0,B|265:347|220:340|179:319|154:279|154:279|147:318|101:341,1,233.999989288331,2|8,0:3|0:0,0:0:0:0:
254,218,118637,2,0,B|305:188|350:195|391:216|416:256|416:256|423:217|469:194,1,233.999989288331,2|2,0:2|0:3,0:0:0:0:
151,161,119150,2,0,P|95:177|21:170,1,116.999994644165,8|0,0:0|0:0,0:0:0:0:
246,95,119492,5,2,0:3:0:0:
439,214,119663,2,0,P|455:157|456:97,1,116.999994644165,2|8,0:2|0:0,0:0:0:0:
337,13,120004,2,0,P|347:128|309:238,1,233.999989288331,2|2,0:2|0:3,0:0:0:0:
137,120,120517,1,8,0:0:0:0:
331,0,120688,1,2,0:2:0:0:
220,176,120859,6,0,P|139:221|44:158,1,198.000006042481,2|8,0:3|0:0,0:0:0:0:
277,93,121372,2,0,P|322:176|277:260,1,198.000006042481,2|2,0:2|0:3,0:0:0:0:
177,86,121885,2,0,P|194:35|230:4,1,99.0000030212403,8|0,0:0|0:0,0:0:0:0:
220,176,122227,5,2,0:3:0:0:
375,89,122398,2,0,L|276:92,1,99.0000030212403,2|8,0:2|0:0,0:0:0:0:
471,222,122739,2,0,B|464:153|464:153|479:98|479:98|467:27,1,198.000006042481,2|2,0:2|0:3,0:0:0:0:
367,190,123252,1,8,0:0:0:0:
482,323,123423,1,0,0:0:0:0:
338,379,123594,6,0,L|235:361,1,99.0000030212403,2|0,0:3|0:0,0:0:0:0:
388,289,123936,1,8,0:0:0:0:
243,266,124107,5,2,0:2:0:0:
267,262,124192,1,0,3:0:0:0:
292,258,124278,1,2,0:2:0:0:
159,213,124449,1,2,0:3:0:0:
367,190,124620,1,8,0:0:0:0:
247,148,124791,5,2,0:2:0:0:
259,145,124876,1,0,3:0:0:0:
271,143,124962,1,2,0:2:0:0:
204,121,125133,1,2,0:2:0:0:
308,109,125304,1,8,0:1:0:0:
241,43,125475,5,2,0:2:0:0:
247,42,125560,1,0,3:0:0:0:
253,41,125645,1,2,0:2:0:0:
219,30,125816,1,2,0:3:0:0:
271,24,125987,1,8,0:1:0:0:
364,275,126329,6,0,P|286:330|194:289,1,198.000006042481,4|8,0:2|0:0,0:0:0:0:
275,230,126841,1,2,0:2:0:0:
278,193,126927,1,0,3:0:0:0:
269,157,127012,1,2,0:2:0:0:
247,128,127098,1,0,3:0:0:0:
215,108,127183,1,2,0:3:0:0:
377,173,127354,2,0,L|499:184,1,99.0000030212403,8|0,0:0|0:0,0:0:0:0:
313,94,127696,6,0,L|215:108,1,99.0000030212403,2|0,0:3|0:0,0:0:0:0:
386,25,128038,1,8,0:0:0:0:
481,70,128209,1,2,0:2:0:0:
479,107,128294,1,0,3:0:0:0:
477,144,128380,1,2,0:2:0:0:
475,181,128465,1,0,3:0:0:0:
473,218,128551,1,2,0:3:0:0:
368,352,128722,2,0,L|376:254,1,99.0000030212403,8|0,0:0|0:0,0:0:0:0:
121,188,129064,6,0,B|145:163|188:162|188:162|221:198|270:203|301:186,1,198.000006042481,2|8,0:3|0:0,0:0:0:0:
262,94,129576,1,2,0:2:0:0:
311,87,129662,1,0,3:0:0:0:
357,104,129747,1,2,0:2:0:0:
388,142,129833,1,0,3:0:0:0:
398,190,129918,1,2,0:3:0:0:
447,58,130089,1,8,0:0:0:0:
357,104,130260,5,2,0:2:0:0:
308,111,130346,1,0,3:0:0:0:
262,94,130431,1,2,0:2:0:0:
231,56,130517,1,0,3:0:0:0:
221,8,130602,1,2,0:3:0:0:
172,138,130773,1,8,0:0:0:0:
262,94,130944,5,2,0:2:0:0:
311,86,131029,1,0,3:0:0:0:
357,103,131115,1,2,0:2:0:0:
388,141,131200,1,0,3:0:0:0:
398,189,131286,1,2,0:3:0:0:
447,58,131457,1,8,0:0:0:0:
301,186,131628,1,2,0:2:0:0:
293,192,131713,1,0,3:0:0:0:
285,198,131799,6,0,P|233:205|163:182,1,99.0000030212403,2|0,0:3|0:0,0:0:0:0:
357,103,132140,1,8,0:0:0:0:
398,189,132311,1,2,0:2:0:0:
396,213,132397,1,0,3:0:0:0:
394,238,132482,1,2,0:2:0:0:
392,263,132568,1,0,3:0:0:0:
390,287,132653,1,2,0:3:0:0:
457,107,132824,1,8,0:0:0:0:
392,4,132995,1,2,0:2:0:0:
401,9,133081,1,0,3:0:0:0:
409,16,133166,5,2,0:3:0:0:
357,103,133337,1,0,0:0:0:0:
227,24,133508,2,0,L|114:35,1,99.0000030212403,8|2,0:0|0:2,0:0:0:0:
118,34,133764,1,0,3:0:0:0:
108,35,133850,1,2,0:2:0:0:
256,121,134021,1,2,0:3:0:0:
133,251,134192,2,0,L|34:241,1,99.0000030212403,8|2,0:0|0:2,0:0:0:0:
76,161,134448,1,0,3:0:0:0:
76,161,134534,6,0,B|124:169|166:167|166:167|139:107|180:53,1,198.000006042481,2|8,0:3|0:0,0:0:0:0:
256,121,135046,2,0,B|280:184|243:231|243:231|256:276|311:283,1,198.000006042481,2|2,0:2|0:3,0:0:0:0:
166,167,135559,6,0,P|125:152|66:159,1,99.0000030212403,8|2,0:0|0:2,0:0:0:0:
38,180,135816,1,0,3:0:0:0:
38,180,135901,1,2,0:2:0:0:
128,50,136072,1,2,0:3:0:0:
256,121,136243,6,0,P|297:136|356:129,1,99.0000030212403,8|2,0:0|0:2,0:0:0:0:
384,108,136499,1,0,3:0:0:0:
384,108,136585,1,2,0:2:0:0:
289,236,136756,1,2,0:3:0:0:
158,102,136927,2,0,P|117:87|58:94,1,99.0000030212403,8|2,0:0|0:2,0:0:0:0:
5,138,137183,1,0,3:0:0:0:
5,138,137269,6,0,B|29:195|6:233|6:233|24:292|85:288,1,198.000006042481,4|8,0:2|0:0,0:0:0:0:
171,249,137781,1,2,0:2:0:0:
207,241,137867,1,0,3:0:0:0:
244,241,137952,1,2,0:2:0:0:
280,248,138038,1,0,3:0:0:0:
315,262,138123,1,2,0:3:0:0:
116,162,138294,2,0,P|121:112|140:58,1,99.0000030212403,8|2,0:0|0:2,0:0:0:0:
212,47,138551,1,0,3:0:0:0:
212,47,138636,6,0,P|262:66|321:66,1,99.0000030212403,2|0,0:3|0:0,0:0:0:0:
469,55,138978,1,8,0:0:0:0:
395,125,139149,1,2,0:2:0:0:
396,134,139234,1,0,3:0:0:0:
397,143,139320,2,0,L|402:216,1,49.5000015106202,2|0,0:2|3:0,0:0:0:0:
467,268,139491,1,2,0:3:0:0:
302,213,139662,1,8,0:0:0:0:
369,288,139833,1,0,0:0:0:0:
124,239,140004,6,0,B|92:205|113:163|113:163|151:145|171:113|173:71,1,198.000006042481,2|8,0:3|0:0,0:0:0:0:
72,70,140517,1,2,0:2:0:0:
82,117,140602,1,0,3:0:0:0:
115,154,140687,1,2,0:2:0:0:
161,171,140773,1,0,3:0:0:0:
209,163,140858,1,2,0:3:0:0:
315,250,141029,5,8,0:0:0:0:
318,150,141200,1,2,0:2:0:0:
365,162,141286,1,0,3:0:0:0:
401,195,141371,1,2,0:2:0:0:
416,241,141457,1,0,3:0:0:0:
406,289,141542,1,2,0:3:0:0:
257,110,141713,6,0,L|270:0,1,99.0000030212403,8|2,0:0|0:2,0:0:0:0:
389,96,141970,1,0,3:0:0:0:
389,96,142055,2,0,L|402:206,1,99.0000030212403,2|2,0:2|0:3,0:0:0:0:
271,315,142311,1,0,3:0:0:0:
271,315,142397,2,0,L|283:217,1,99.0000030212403,8|2,0:0|0:2,0:0:0:0:
400,296,142653,1,0,3:0:0:0:
400,296,142739,6,0,P|455:280|492:235,1,99.0000030212403,2|0,0:3|0:0,0:0:0:0:
271,115,143081,1,8,0:0:0:0:
190,180,143252,2,0,P|121:160|177:80,1,198.000006042481,2|2,0:2|0:3,0:0:0:0:
376,179,143764,1,8,0:0:0:0:
363,76,143935,1,2,0:2:0:0:
363,76,144021,1,0,3:0:0:0:
363,76,144106,5,2,0:3:0:0:
457,118,144277,1,0,0:0:0:0:
281,141,144448,1,8,0:0:0:0:
376,179,144619,1,2,0:2:0:0:
376,179,144705,1,0,3:0:0:0:
376,179,144790,1,2,0:2:0:0:
270,38,144961,1,2,0:3:0:0:
196,194,145132,1,8,0:0:0:0:
196,194,145474,6,0,P|148:210|14:148,1,198.000006042481,2|8,0:3|0:0,0:0:0:0:
0,274,145987,2,0,P|90:313|187:305,1,198.000006042481,2|2,0:2|0:3,0:0:0:0:
174,94,146499,2,0,P|130:112|90:85,1,99.0000030212403,8|0,0:0|0:0,0:0:0:0:
263,43,146841,5,2,0:2:0:0:
263,43,146927,1,0,3:0:0:0:
263,43,147012,1,2,0:3:0:0:
229,180,147183,2,0,P|272:162|312:189,1,99.0000030212403,8|0,0:0|0:0,0:0:0:0:
150,242,147525,1,2,0:2:0:0:
150,242,147611,1,0,3:0:0:0:
150,242,147696,1,2,0:3:0:0:
158,81,147867,2,0,P|114:98|75:72,1,99.0000030212403,8|0,0:0|0:0,0:0:0:0:
397,71,148209,6,0,B|412:94|401:126|369:176|326:118|302:75|344:22,1,198.000006042481,4|8,0:2|0:0,0:0:0:0:
220,99,148722,2,0,P|224:123|235:145,1,49.5000015106202,2|0,0:2|3:0,0:0:0:0:
301,223,148893,2,0,P|321:236|345:241,1,49.5000015106202,2|0,0:2|3:0,0:0:0:0:
444,224,149064,1,2,0:3:0:0:
218,281,149234,2,0,P|172:288|104:276,1,99.0000030212403,8|2,0:0|0:2,0:0:0:0:
58,245,149491,1,0,3:0:0:0:
58,245,149576,5,2,0:3:0:0:
42,345,149747,1,0,0:0:0:0:
136,183,149918,2,0,P|130:132|112:84,1,99.0000030212403,8|2,0:0|0:2,0:0:0:0:
48,50,150175,1,0,3:0:0:0:
48,50,150260,1,2,0:2:0:0:
196,28,150431,1,2,0:3:0:0:
237,181,150602,2,0,P|288:175|336:157,1,99.0000030212403,8|2,0:0|0:2,0:0:0:0:
45,158,150944,6,0,B|19:203|52:246|52:246|100:227|154:239,1,198.000006042481,2|8,0:3|0:0,0:0:0:0:
244,281,151457,1,2,0:2:0:0:
293,280,151542,1,0,3:0:0:0:
341,269,151628,1,2,0:2:0:0:
387,250,151713,1,0,3:0:0:0:
428,222,151799,1,2,0:3:0:0:
338,371,151970,5,8,0:0:0:0:
244,281,152140,1,2,0:2:0:0:
194,282,152226,1,0,3:0:0:0:
146,293,152311,1,2,0:2:0:0:
100,312,152397,1,0,3:0:0:0:
59,340,152482,1,2,0:3:0:0:
150,192,152653,5,8,0:0:0:0:
244,281,152824,1,2,0:2:0:0:
287,305,152910,1,0,3:0:0:0:
334,319,152995,1,2,0:2:0:0:
384,326,153081,1,0,3:0:0:0:
433,322,153166,1,2,0:3:0:0:
223,384,153337,1,8,0:0:0:0:
250,179,153508,1,0,0:0:0:0:
259,178,153593,1,0,0:0:0:0:
268,177,153679,6,0,L|372:167,1,99.0000030212403,2|0,0:3|0:0,0:0:0:0:
242,77,154021,2,0,L|138:67,1,99.0000030212403,8|2,0:0|0:2,0:0:0:0:
133,66,154277,1,0,3:0:0:0:
123,65,154363,1,2,0:2:0:0:
113,64,154448,1,0,3:0:0:0:
103,63,154534,1,2,0:3:0:0:
330,22,154705,2,0,L|443:37,1,99.0000030212403,8|0,0:0|0:0,0:0:0:0:
438,37,154961,1,0,0:0:0:0:
448,38,155046,6,0,L|462:143,1,99.0000030212403,2|0,0:3|0:0,0:0:0:0:
337,150,155388,1,8,0:0:0:0:
407,222,155559,2,0,L|404:295,1,49.5000015106202,2|0,0:2|3:0,0:0:0:0:
254,255,155730,2,0,L|252:206,1,49.5000015106202,2|0,0:2|3:0,0:0:0:0:
323,330,155901,1,2,0:3:0:0:
167,151,156072,1,8,0:0:0:0:
167,151,156414,6,0,P|126:222|115:135,1,198.000006042481,2|8,0:3|0:0,0:0:0:0:
43,281,156927,2,0,P|120:310|235:261,1,198.000006042481,2|2,0:2|0:3,0:0:0:0:
0,158,157440,2,0,P|14:99|61:62,1,99.0000030212403,8|0,0:0|0:0,0:0:0:0:
144,151,157781,6,0,L|94:150,1,49.5000015106202,2|0,0:2|3:0,0:0:0:0:
178,60,157952,1,2,0:3:0:0:
205,225,158123,1,8,0:0:0:0:
238,134,158294,2,0,L|326:138,1,49.5000015106202,2|0,0:2|3:0,0:0:0:0:
349,229,158465,2,0,L|300:232,1,49.5000015106202,2|0,0:2|3:0,0:0:0:0:
383,139,158636,1,2,0:3:0:0:
416,299,158807,1,8,0:0:0:0:
449,208,158978,2,0,L|519:201,1,49.5000015106202,2|0,0:2|3:0,0:0:0:0:
360,52,159149,6,0,L|162:39,1,198.000006042481,4|8,0:2|0:0,0:0:0:0:
182,142,159662,1,2,0:2:0:0:
219,144,159747,1,0,3:0:0:0:
256,146,159833,1,2,0:2:0:0:
293,149,159918,1,0,3:0:0:0:
330,151,160004,1,2,0:3:0:0:
295,249,160175,2,0,L|197:244,1,99.0000030212403,8|0,0:0|0:0,0:0:0:0:
240,347,160517,5,2,0:3:0:0:
342,338,160687,1,0,0:0:0:0:
142,328,160858,1,8,0:0:0:0:
196,243,161029,1,2,0:2:0:0:
196,233,161115,1,0,3:0:0:0:
196,223,161200,2,0,L|194:163,1,49.5000015106202,2|0,0:2|3:0,0:0:0:0:
133,93,161371,1,2,0:3:0:0:
294,160,161542,2,0,P|401:165|453:145,1,148.50000453186,8|0,0:0|3:0,0:0:0:0:
507,193,161884,6,0,P|417:233|304:234,1,198.000006042481,4|8,0:2|0:0,0:0:0:0:
374,153,162397,1,2,0:2:0:0:
406,189,162482,1,0,3:0:0:0:
417,237,162568,1,2,0:2:0:0:
404,284,162653,1,0,3:0:0:0:
371,320,162739,1,2,0:3:0:0:
274,147,162910,5,8,0:0:0:0:
355,204,163081,1,2,0:2:0:0:
318,236,163166,1,0,3:0:0:0:
270,247,163252,1,2,0:2:0:0:
223,234,163337,1,0,3:0:0:0:
187,201,163423,1,2,0:3:0:0:
363,102,163593,6,0,P|412:119|448:161,1,99.0000030212403,8|2,0:0|0:2,0:0:0:0:
355,204,163850,1,0,3:0:0:0:
355,204,163935,2,0,P|338:253|296:289,1,99.0000030212403,2|2,0:2|0:3,0:0:0:0:
255,197,164192,1,0,3:0:0:0:
255,197,164277,2,0,P|206:180|170:138,1,99.0000030212403,8|2,0:0|0:2,0:0:0:0:
261,95,164534,1,0,3:0:0:0:
260,94,164619,6,0,P|226:59|83:103,1,198.000006042481,2|8,0:3|0:0,0:0:0:0:
255,197,165132,2,0,P|346:150|355:57,1,198.000006042481,2|2,0:2|0:3,0:0:0:0:
398,242,165645,2,0,L|409:341,1,99.0000030212403,8|2,0:0|0:2,0:0:0:0:
411,350,165901,1,0,3:0:0:0:
413,360,165987,5,2,0:3:0:0:
502,282,166158,1,0,0:0:0:0:
297,297,166329,2,0,L|176:287,1,99.0000030212403,8|2,0:0|0:2,0:0:0:0:
188,287,166585,1,0,3:0:0:0:
178,285,166670,1,2,0:2:0:0:
168,283,166756,1,0,3:0:0:0:
158,281,166841,1,2,0:3:0:0:
319,211,167012,1,8,0:0:0:0:
241,142,167183,2,0,L|231:77,1,49.5000015106202,2|0,0:2|3:0,0:0:0:0:
410,148,167354,6,0,B|423:216|423:216|404:277|404:277|418:354,1,198.000006042481,2|8,0:3|0:0,0:0:0:0:
319,211,167867,2,0,B|255:199|255:199|194:218|194:218|126:205,1,198.000006042481,2|2,0:2|0:3,0:0:0:0:
185,14,168380,2,0,L|190:113,1,99.0000030212403,8|0,0:0|0:0,0:0:0:0:
256,192,168722,12,8,169747,0:0:0:0:
305,235,170089,5,4,0:1:0:0:
133,115,181029,5,2,0:0:0:0:
119,161,181371,1,2,0:0:0:0:
105,207,181712,1,2,0:0:0:0:
91,253,182054,1,2,0:0:0:0:
384,123,182396,5,2,0:0:0:0:
351,88,182738,1,2,0:0:0:0:
318,53,183080,1,2,0:0:0:0:
285,18,183422,1,2,0:0:0:0:
250,337,183764,5,2,0:0:0:0:
297,326,184106,1,2,0:0:0:0:
344,315,184447,1,2,0:0:0:0:
391,304,184789,1,2,0:0:0:0:
100,216,185131,6,0,P|88:160|88:97,1,101.250003862381,2|0,0:0|0:0,0:0:0:0:
158,108,185473,2,0,P|161:163|173:210,1,101.250003862381,2|0,0:0|0:0,0:0:0:0:
244,202,185815,2,0,P|232:153|229:97,1,101.250003862381,2|0,0:0|0:0,0:0:0:0:
301,92,186157,2,0,P|304:145|316:192,1,101.250003862381,2|0,0:0|0:0,0:0:0:0:
320,196,186499,5,2,0:0:0:0:
324,200,186841,1,2,0:0:0:0:
328,204,187183,1,2,0:0:0:0:
332,208,187524,1,2,0:0:0:0:
192,196,187866,5,2,0:0:0:0:
188,200,188208,1,2,0:0:0:0:
184,204,188550,1,2,0:0:0:0:
180,208,188892,1,2,0:0:0:0:
267,126,189234,6,0,L|277:49,1,67.5000025749208,2|0,0:0|0:0,0:0:0:0:
330,177,189576,2,0,L|355:114,1,67.5000025749208,2|0,0:0|0:0,0:0:0:0:
385,237,189918,2,0,L|432:175,1,67.5000025749208,2|0,0:0|0:0,0:0:0:0:
426,307,190259,2,0,L|487:259,1,67.5000025749208,2|0,0:0|0:0,0:0:0:0:
345,308,190601,5,2,0:0:0:0:
267,297,190772,1,2,0:0:0:0:
223,231,190943,1,2,0:0:0:0:
242,155,191114,1,2,0:0:0:0:
318,216,191285,5,2,3:2:0:0:
313,249,191371,1,0,3:0:0:0:
297,278,191456,1,2,3:2:0:0:
272,301,191541,1,0,3:0:0:0:
240,313,191627,1,2,3:2:0:0:
207,313,191712,1,0,3:0:0:0:
175,303,191798,1,2,3:0:0:0:
332,121,191969,6,0,P|401:168|395:271,1,180,4|8,0:0|0:0,0:0:0:0:
276,233,192482,2,0,L|318:216,1,45,2|0,0:0|0:0,0:0:0:0:
328,317,192653,1,2,0:0:0:0:
332,334,192738,1,0,3:0:0:0:
337,351,192824,1,2,0:3:0:0:
182,217,192994,2,0,L|151:104,1,90,8|2,0:0|0:0,0:0:0:0:
155,112,193251,1,0,0:0:0:0:
150,95,193336,6,0,L|170:-3,1,90,2|2,0:3|0:0,0:0:0:0:
255,123,193678,2,0,L|266:166,1,45,8|0,0:0|0:0,0:0:0:0:
265,263,193849,1,2,0:0:0:0:
262,280,193935,1,0,0:0:0:0:
259,297,194020,1,2,0:0:0:0:
256,314,194106,1,0,3:0:0:0:
254,331,194191,2,0,L|247:377,1,45,2|0,0:3|0:0,0:0:0:0:
356,259,194362,2,0,L|350:215,1,45,8|0,0:0|0:0,0:0:0:0:
403,345,194533,1,2,0:0:0:0:
406,362,194618,1,0,0:0:0:0:
408,379,194704,5,2,0:3:0:0:
440,199,194875,1,2,0:0:0:0:
435,182,194960,1,0,0:0:0:0:
430,164,195046,1,8,0:0:0:0:
348,119,195217,1,2,0:0:0:0:
330,123,195302,1,0,0:0:0:0:
312,127,195388,1,2,0:0:0:0:
294,131,195473,1,0,3:0:0:0:
276,135,195559,1,2,0:3:0:0:
428,66,195730,1,8,0:0:0:0:
351,216,195900,1,2,0:0:0:0:
343,232,195986,1,0,0:0:0:0:
335,248,196071,5,2,0:3:0:0:
276,135,196242,1,2,0:0:0:0:
260,127,196328,1,0,0:0:0:0:
244,119,196413,1,8,0:0:0:0:
384,113,196584,1,2,0:0:0:0:
392,97,196670,1,0,0:0:0:0:
400,81,196755,1,2,0:0:0:0:
408,65,196841,1,0,3:0:0:0:
416,49,196926,1,2,0:3:0:0:
454,199,197097,1,8,0:0:0:0:
470,207,197183,1,0,0:0:0:0:
486,215,197268,1,2,0:0:0:0:
233,241,197439,6,0,B|170:237|170:237|124:195|124:195|56:189,1,180,2|8,0:3|0:0,0:0:0:0:
224,150,197952,1,2,0:0:0:0:
241,148,198037,1,0,0:0:0:0:
259,146,198123,1,2,0:0:0:0:
276,144,198208,1,0,3:0:0:0:
294,142,198294,2,0,L|356:134,1,45,2|0,0:3|0:0,0:0:0:0:
241,51,198465,2,0,L|179:43,1,45,8|0,0:0|0:0,0:0:0:0:
133,118,198636,1,0,0:0:0:0:
133,118,198721,1,0,0:0:0:0:
133,118,198806,5,2,0:3:0:0:
105,18,198977,1,0,0:0:0:0:
57,178,199148,2,0,L|51:259,1,45,8|0,0:0|0:0,0:0:0:0:
35,85,199319,1,2,0:0:0:0:
149,212,199490,1,2,0:0:0:0:
174,237,199576,1,0,3:0:0:0:
199,262,199661,1,2,0:3:0:0:
316,151,199832,2,0,L|342:74,2,45,8|0|2,0:0|0:0|0:0,0:0:0:0:
408,332,200174,6,0,L|426:386,2,45,2|0|2,0:3|0:0|0:0,0:0:0:0:
464,183,200516,2,0,L|479:124,1,45,8|0,0:0|0:0,0:0:0:0:
416,55,200687,1,2,0:0:0:0:
376,233,200858,1,2,0:0:0:0:
340,240,200943,1,0,3:0:0:0:
304,247,201029,1,2,0:3:0:0:
196,86,201200,2,0,L|140:71,1,45,8|0,0:0|0:0,0:0:0:0:
72,135,201371,1,2,0:0:0:0:
270,148,201541,6,0,P|291:97|286:51,1,90,2|2,0:3|0:0,0:0:0:0:
72,135,201883,2,0,P|51:186|56:232,1,90,8|2,0:0|0:0,0:0:0:0:
189,198,202225,1,2,0:0:0:0:
168,183,202311,1,0,3:0:0:0:
146,197,202396,1,2,0:3:0:0:
308,282,202567,2,0,P|363:283|405:262,1,90,8|2,0:0|0:0,0:0:0:0:
270,148,202909,5,2,0:3:0:0:
324,68,203080,1,2,0:0:0:0:
335,54,203165,1,0,0:0:0:0:
346,40,203251,1,8,0:0:0:0:
365,156,203422,1,2,0:0:0:0:
382,157,203507,1,0,0:0:0:0:
400,158,203593,1,2,0:0:0:0:
418,159,203678,1,0,3:0:0:0:
436,160,203764,1,2,0:3:0:0:
311,235,203935,2,0,L|363:343,1,90,8|2,0:0|0:0,0:0:0:0:
137,250,204277,6,0,L|219:211,1,90,2|2,0:3|0:0,0:0:0:0:
227,348,204618,1,8,0:0:0:0:
104,358,204789,1,2,0:0:0:0:
87,351,204875,1,0,0:0:0:0:
70,344,204960,1,2,0:0:0:0:
54,337,205046,1,0,3:0:0:0:
37,330,205131,1,2,0:3:0:0:
84,168,205302,2,0,L|105:105,2,45,8|0|2,0:0|0:0|0:0,0:0:0:0:
212,305,205644,6,0,L|226:347,2,45,2|0|2,0:3|0:0|0:0,0:0:0:0:
340,168,205986,1,8,0:0:0:0:
418,224,206157,1,2,0:0:0:0:
424,240,206242,1,0,0:0:0:0:
427,258,206328,1,2,0:0:0:0:
426,276,206413,1,0,3:0:0:0:
421,293,206499,1,2,0:3:0:0:
263,111,206670,2,0,P|261:37|295:-1,1,90,8|2,0:0|0:0,0:0:0:0:
208,189,207012,6,0,B|155:193|155:193|95:171|95:171|27:176,1,180,2|8,0:3|0:0,0:0:0:0:
81,267,207524,1,2,0:0:0:0:
83,284,207610,1,0,0:0:0:0:
85,302,207695,1,2,0:0:0:0:
87,320,207781,1,0,3:0:0:0:
89,338,207866,1,2,0:3:0:0:
201,233,208037,2,0,L|207:188,2,45,8|0|2,0:0|0:0|0:0,0:0:0:0:
321,340,208379,6,0,L|327:384,2,45,2|0|2,0:3|0:0|0:0,0:0:0:0:
435,244,208721,1,8,0:0:0:0:
386,161,208892,1,2,0:0:0:0:
388,143,208977,1,0,0:0:0:0:
390,125,209063,1,2,0:0:0:0:
392,107,209148,1,0,3:0:0:0:
394,89,209234,1,2,0:3:0:0:
340,245,209405,1,8,0:0:0:0:
322,243,209490,1,0,0:0:0:0:
304,241,209576,1,2,0:0:0:0:
286,239,209661,1,0,0:0:0:0:
268,237,209747,6,0,B|232:224|193:236|193:236|153:196|182:127,1,180,2|8,0:3|0:0,0:0:0:0:
250,77,210259,1,2,0:0:0:0:
267,72,210345,1,0,0:0:0:0:
285,69,210430,1,2,0:0:0:0:
303,69,210516,1,0,3:0:0:0:
320,71,210601,2,0,P|345:75|373:84,1,45,2|0,0:3|0:0,0:0:0:0:
414,162,210772,1,8,0:0:0:0:
407,197,210858,1,0,0:0:0:0:
400,232,210943,1,2,0:0:0:0:
164,208,211114,5,2,0:3:0:0:
171,173,211200,1,0,0:0:0:0:
178,138,211285,1,2,0:0:0:0:
278,262,211456,2,0,L|263:354,1,90,8|2,0:0|0:0,0:0:0:0:
174,311,211798,1,2,0:0:0:0:
174,311,211883,1,0,3:0:0:0:
174,311,211969,1,2,0:3:0:0:
269,166,212140,1,8,0:0:0:0:
374,317,212311,1,2,0:0:0:0:
374,317,212396,1,0,0:0:0:0:
374,317,212482,5,2,0:3:0:0:
399,212,212653,1,2,0:0:0:0:
424,107,212824,1,2,0:0:0:0:
449,2,212994,1,2,0:0:0:0:
335,141,213165,1,2,0:0:0:0:
335,141,213251,1,2,0:0:0:0:
335,141,213336,1,2,0:3:0:0:
115,33,213507,1,8,0:0:0:0:
115,33,213593,1,2,0:3:0:0:
115,33,213678,1,8,0:3:0:0:
153,244,213849,6,0,B|195:264|239:250|239:250|261:205|235:141,1,180,4|8,0:0|0:0,0:0:0:0:
166,111,214362,1,2,0:0:0:0:
171,93,214447,1,0,0:0:0:0:
176,76,214533,2,0,L|190:25,1,45,2|0,0:0|3:0,0:0:0:0:
278,40,214704,2,0,L|289:83,1,45,2|0,0:3|0:0,0:0:0:0:
380,76,214875,2,0,L|394:25,1,45,8|0,0:0|0:0,0:0:0:0:
482,40,215046,2,0,L|493:83,1,45,2|0,0:0|0:0,0:0:0:0:
434,248,215217,5,2,0:3:0:0:
350,211,215388,2,0,L|255:208,1,90,2|8,0:0|0:0,0:0:0:0:
176,243,215730,1,2,0:0:0:0:
179,260,215815,1,0,0:0:0:0:
182,277,215900,2,0,L|191:328,1,45,2|0,0:0|3:0,0:0:0:0:
278,343,216071,2,0,L|285:298,1,45,2|0,0:3|0:0,0:0:0:0:
375,299,216242,2,0,L|384:350,1,45,8|0,0:0|0:0,0:0:0:0:
472,363,216413,2,0,L|479:318,1,45,2|0,0:0|0:0,0:0:0:0:
369,113,216584,6,0,P|322:97|256:107,1,90,2|2,0:3|0:0,0:0:0:0:
404,197,216926,2,0,P|458:127|426:42,1,180,8|2,0:0|0:0,0:0:0:0:
416,35,217353,1,0,3:0:0:0:
400,26,217439,1,2,0:3:0:0:
316,187,217610,2,0,L|304:249,1,45,8|0,0:0|0:0,0:0:0:0:
190,138,217781,2,0,L|202:76,1,45,2|0,0:0|0:0,0:0:0:0:
121,330,217952,6,0,B|168:345|168:345|243:328|243:328|298:338,1,180,2|8,0:3|0:0,0:0:0:0:
374,292,218465,1,2,0:0:0:0:
178,252,218636,2,0,L|176:204,2,45,2|0|2,0:0|3:0|0:3,0:0:0:0:
401,205,218977,2,0,L|455:195,1,45,8|0,0:0|0:0,0:0:0:0:
324,151,219148,2,0,L|270:141,1,45,2|0,0:0|0:0,0:0:0:0:
482,59,219319,5,2,0:3:0:0:
407,113,219490,1,0,0:0:0:0:
220,35,219661,2,0,P|173:38|106:52,1,90,8|2,0:0|0:0,0:0:0:0:
112,49,219918,1,0,0:0:0:0:
94,54,220003,1,2,0:0:0:0:
76,60,220089,1,0,3:0:0:0:
59,67,220174,1,2,0:3:0:0:
121,227,220345,2,0,P|129:195|131:166,1,45,8|0,0:0|0:0,0:0:0:0:
212,240,220516,2,0,P|220:208|222:179,1,45,2|0,0:0|0:0,0:0:0:0:
330,253,220687,6,0,P|345:193|320:250,1,180,2|8,0:3|0:0,0:0:0:0:
373,349,221200,1,2,0:0:0:0:
373,349,221285,1,0,0:0:0:0:
373,349,221371,2,0,L|441:364,2,45,2|0|2,0:0|3:0|0:3,0:0:0:0:
437,159,221712,2,0,L|423:56,1,90,8|2,0:0|0:0,0:0:0:0:
196,37,222054,5,2,0:3:0:0:
256,106,222225,1,2,0:0:0:0:
58,57,222396,1,8,0:0:0:0:
135,104,222567,1,2,0:0:0:0:
134,121,222653,1,0,0:0:0:0:
133,139,222738,1,2,0:0:0:0:
132,157,222824,1,0,3:0:0:0:
131,175,222909,1,2,0:3:0:0:
284,20,223080,1,8,0:0:0:0:
338,145,223251,1,2,0:0:0:0:
344,161,223336,1,0,0:0:0:0:
350,177,223422,6,0,L|384:272,1,90,2|2,0:3|0:0,0:0:0:0:
430,130,223764,1,8,0:0:0:0:
371,56,223935,1,2,0:0:0:0:
386,47,224020,1,0,0:0:0:0:
402,39,224106,2,0,L|452:14,2,45,2|0|2,0:0|3:0|0:3,0:0:0:0:
191,98,224447,2,0,B|149:101|149:101|93:89,1,90,8|2,0:0|0:0,0:0:0:0:
193,335,224789,6,0,L|390:321,1,180,2|8,0:3|0:0,0:0:0:0:
403,238,225302,1,2,0:0:0:0:
385,239,225388,1,0,0:0:0:0:
367,240,225473,2,0,L|304:243,1,45,2|0,0:0|3:0,0:0:0:0:
186,248,225644,2,0,L|231:246,1,45,2|0,0:3|0:0,0:0:0:0:
367,158,225815,2,0,L|304:161,1,45,8|0,0:0|0:0,0:0:0:0:
186,166,225986,2,0,L|230:163,1,45,2|0,0:0|0:0,0:0:0:0:
458,156,226157,5,2,0:3:0:0:
356,68,226328,2,0,L|366:157,1,90,2|8,0:0|0:0,0:0:0:0:
293,243,226670,1,2,0:0:0:0:
291,226,226755,1,0,0:0:0:0:
289,208,226841,2,0,L|281:145,1,45,2|0,0:0|3:0,0:0:0:0:
267,29,227012,2,0,L|272:73,1,45,2|0,0:3|0:0,0:0:0:0:
191,210,227183,2,0,L|183:147,1,45,8|0,0:0|0:0,0:0:0:0:
170,30,227353,2,0,L|175:74,1,45,2|0,0:0|0:0,0:0:0:0:
199,301,227524,5,2,0:3:0:0:
116,262,227695,1,0,0:0:0:0:
253,374,227866,2,0,B|309:383|341:364|341:364|339:311|284:301,1,180,8|2,0:0|0:0,0:0:0:0:
283,300,228294,1,0,3:0:0:0:
278,298,228379,1,2,0:3:0:0:
439,241,228550,2,0,L|502:257,2,45,8|0|2,0:0|0:0|0:0,0:0:0:0:
273,139,228892,6,0,P|267:89|284:47,1,90,2|2,0:3|0:0,0:0:0:0:
401,105,229234,2,0,L|357:103,2,45,8|0|2,0:0|0:0|0:0,0:0:0:0:
218,210,229576,2,0,P|168:216|125:200,1,90,2|2,0:2|0:3,0:0:0:0:
188,79,229918,2,0,L|183:124,1,45,8|0,0:0|0:0,0:0:0:0:
167,313,230089,1,2,0:0:0:0:
167,313,230174,1,0,0:0:0:0:
167,313,230259,6,0,L|285:321,1,90,2|2,0:3|0:0,0:0:0:0:
435,243,230601,2,0,L|256:228,1,180,8|2,0:0|0:0,0:0:0:0:
251,227,231029,1,0,3:0:0:0:
246,226,231114,1,2,0:3:0:0:
188,79,231285,2,0,L|183:34,2,45,8|0|2,0:0|0:0|0:0,0:0:0:0:
389,59,231627,6,0,L|478:45,1,90,2|2,0:3|0:0,0:0:0:0:
353,147,231969,2,0,L|264:134,1,90,8|2,0:0|0:0,0:0:0:0:
412,217,232311,1,2,0:0:0:0:
429,219,232396,1,0,3:0:0:0:
446,222,232482,1,2,0:3:0:0:
337,271,232653,1,8,0:0:0:0:
320,269,232738,1,0,0:0:0:0:
303,266,232824,1,2,0:0:0:0:
323,65,232994,6,0,B|350:104|350:104|353:158,1,90,2|2,0:3|0:0,0:0:0:0:
87,142,233336,2,0,B|151:127|151:127|214:140|214:140|263:133,1,180,8|2,0:0|0:0,0:0:0:0:
152,220,233849,1,2,0:3:0:0:
216,47,234020,1,8,0:0:0:0:
263,132,234191,1,2,0:0:0:0:
271,147,234277,1,0,0:0:0:0:
279,162,234362,5,2,0:3:0:0:
320,241,234533,1,2,0:0:0:0:
361,320,234704,1,2,0:0:0:0:
409,244,234875,5,2,0:0:0:0:
414,236,235046,1,2,0:0:0:0:
419,228,235217,1,2,3:2:0:0:
424,220,235388,1,8,0:0:0:0:
424,220,235730,6,0,B|394:259|346:253|346:253|310:211|246:225,1,180,4|8,0:0|0:0,0:0:0:0:
279,310,236242,1,2,0:0:0:0:
292,322,236328,1,0,0:0:0:0:
307,331,236413,1,2,0:0:0:0:
324,338,236499,1,0,3:0:0:0:
341,341,236584,1,2,0:3:0:0:
196,348,236755,2,0,P|151:343|91:324,1,90,8|2,0:0|0:0,0:0:0:0:
281,134,237097,6,0,P|276:178|263:221,1,90,2|2,0:3|0:0,0:0:0:0:
206,83,237439,1,8,0:0:0:0:
287,44,237610,1,2,0:0:0:0:
304,45,237695,1,0,0:0:0:0:
322,50,237781,1,2,0:0:0:0:
337,59,237866,1,0,3:0:0:0:
351,70,237952,1,2,0:3:0:0:
205,82,238123,2,0,L|118:61,1,90,8|2,0:0|0:0,0:0:0:0:
69,137,238379,1,0,0:0:0:0:
79,152,238465,6,0,L|167:174,1,90,2|2,0:3|0:0,0:0:0:0:
326,200,238806,1,8,0:0:0:0:
271,272,238977,1,2,0:0:0:0:
253,269,239063,1,0,0:0:0:0:
236,265,239148,1,2,0:0:0:0:
218,262,239234,1,0,3:0:0:0:
200,259,239319,1,2,0:3:0:0:
348,343,239490,2,0,L|476:323,1,90,8|2,0:0|0:0,0:0:0:0:
486,172,239832,5,2,0:3:0:0:
486,172,240003,1,2,0:0:0:0:
332,104,240174,2,0,L|226:117,1,90,8|2,0:0|0:0,0:0:0:0:
124,191,240516,2,0,L|214:202,1,90,2|2,0:0|0:3,0:0:0:0:
350,270,240858,2,0,L|260:280,1,90,8|2,0:0|0:3,0:0:0:0:
414,333,241200,6,0,P|435:242|378:184,1,180,2|8,0:3|0:0,0:0:0:0:
481,112,241712,2,0,L|489:157,1,45,2|0,0:0|0:0,0:0:0:0:
453,83,241883,2,0,L|459:127,1,45,2|0,0:0|3:0,0:0:0:0:
424,53,242054,1,2,0:3:0:0:
290,176,242225,2,0,L|380:184,1,90,8|2,0:0|0:0,0:0:0:0:
238,102,242567,6,0,P|200:179|245:254,1,180,2|8,0:3|0:0,0:0:0:0:
148,325,243080,2,0,L|140:280,1,45,2|0,0:0|0:0,0:0:0:0:
176,354,243251,2,0,L|170:310,1,45,2|0,0:0|3:0,0:0:0:0:
205,384,243422,1,2,0:3:0:0:
334,261,243593,2,0,L|244:253,1,90,8|2,0:0|0:0,0:0:0:0:
54,253,243935,5,2,0:3:0:0:
54,253,244277,2,0,L|60:125,1,90,8|2,0:0|0:0,0:0:0:0:
146,181,244618,2,0,L|152:53,1,90,2|2,0:0|0:3,0:0:0:0:
238,109,244960,2,0,L|244:-19,1,90,8|2,0:0|0:0,0:0:0:0:
322,193,245302,6,0,L|233:198,1,90,2|2,0:3|0:0,0:0:0:0:
328,103,245644,1,8,0:0:0:0:
403,152,245815,1,2,0:0:0:0:
407,62,245986,1,2,0:0:0:0:
406,250,246157,1,2,0:3:0:0:
406,250,246242,1,0,0:0:0:0:
406,250,246328,1,8,0:0:0:0:
249,144,246499,1,2,0:3:0:0:
180,344,246670,6,0,B|154:356|121:351|121:351|81:298|106:225,1,180,2|8,0:3|0:0,0:0:0:0:
190,215,247183,1,2,0:0:0:0:
205,223,247268,1,0,0:0:0:0:
223,228,247353,1,2,0:0:0:0:
240,231,247439,1,0,3:0:0:0:
258,230,247524,1,2,0:3:0:0:
126,148,247695,2,0,P|75:153|33:177,1,90,8|2,0:0|0:0,0:0:0:0:
249,144,248037,6,0,B|252:96|252:96|246:48,1,90,2|2,0:3|0:0,0:0:0:0:
190,215,248379,1,8,0:0:0:0:
279,230,248550,2,0,L|338:226,1,45,2|0,0:0|0:0,0:0:0:0:
221,300,248721,2,0,L|176:303,1,45,2|0,0:0|3:0,0:0:0:0:
309,321,248892,1,2,0:3:0:0:
105,246,249063,2,0,P|99:201|135:144,1,90,8|2,0:0|0:0,0:0:0:0:
175,99,249319,1,0,0:0:0:0:
190,109,249405,6,0,P|207:149|201:193,1,90,2|2,0:3|0:0,0:0:0:0:
88,74,249747,1,8,0:0:0:0:
155,10,249918,2,0,L|250:6,1,90,2|2,0:0|0:0,0:0:0:0:
355,100,250259,1,2,0:3:0:0:
200,194,250430,1,8,0:0:0:0:
272,251,250601,1,0,0:0:0:0:
339,10,250772,5,2,0:3:0:0:
339,10,250943,1,0,0:0:0:0:
482,118,251114,2,0,B|485:161|485:161|475:223,1,90,8|2,0:0|0:0,0:0:0:0:
376,158,251456,1,2,0:0:0:0:
385,158,251541,1,0,3:0:0:0:
394,158,251627,1,2,0:3:0:0:
482,27,251798,1,8,0:0:0:0:
309,97,251969,1,2,0:3:0:0:
136,27,252140,6,0,P|104:109|141:217,1,180,2|8,0:3|0:0,0:0:0:0:
215,210,252653,1,2,0:0:0:0:
232,207,252738,1,0,0:0:0:0:
250,206,252824,1,2,0:0:0:0:
268,205,252909,1,0,3:0:0:0:
286,206,252994,1,2,0:3:0:0:
157,281,253165,1,8,0:0:0:0:
181,126,253336,1,2,0:0:0:0:
185,108,253422,1,0,0:0:0:0:
189,90,253507,6,0,P|283:74|380:108,1,180,2|8,0:3|0:0,0:0:0:0:
415,174,254020,2,0,L|411:234,1,45,2|0,0:0|0:0,0:0:0:0:
320,224,254191,2,0,L|323:180,1,45,2|0,0:0|3:0,0:0:0:0:
369,299,254362,1,2,0:3:0:0:
362,97,254533,1,8,0:0:0:0:
234,259,254704,1,0,0:0:0:0:
231,276,254789,1,0,0:0:0:0:
228,293,254875,1,2,0:3:0:0:
228,294,255217,6,0,L|247:198,1,90,8|2,0:0|0:0,0:0:0:0:
336,384,255559,2,0,L|319:296,1,90,2|2,0:0|0:3,0:0:0:0:
284,122,255900,1,8,0:0:0:0:
120,279,256071,1,0,0:0:0:0:
78,262,256157,1,0,0:0:0:0:
35,245,256242,1,4,0:0:0:0:
256,192,256328,12,0,257610,0:0:0:0:
157,217,257952,6,0,P|258:189|331:218,1,180,0|2,0:0|0:0,0:0:0:0:
325,214,258721,1,0,3:0:0:0:
325,214,258806,1,0,3:0:0:0:
267,287,258977,2,0,P|248:276|227:281,1,45
235,375,259319,1,0,0:0:0:0:
323,360,259490,2,0,P|371:350|430:363,1,90
251,197,260003,5,8,0:0:0:0:
251,197,260174,1,0,0:0:0:0:
452,197,260345,6,0,L|457:99,1,90,2|2,0:3|0:0,0:0:0:0:
351,200,260687,2,0,L|347:290,1,90,8|2,0:0|0:0,0:0:0:0:
251,197,261029,2,0,L|246:99,1,90,2|2,0:0|0:3,0:0:0:0:
151,200,261371,1,8,0:0:0:0:
204,287,261541,1,0,0:0:0:0:
337,97,261712,5,0,0:0:0:0:
383,174,261883,2,0,B|430:183|430:183|495:177,1,90,2|8,0:0|0:0,0:0:0:0:
293,177,262225,2,0,B|284:224|284:224|290:289,1,90,2|2,0:0|0:0,0:0:0:0:
337,97,262567,1,2,0:3:0:0:
196,226,262738,1,8,0:0:0:0:
247,99,262909,1,2,0:3:0:0:
362,314,263080,6,0,P|410:320|462:311,1,90,2|2,0:3|0:0,0:0:0:0:
279,357,263422,2,0,P|198:367|90:348,1,180,8|2,0:0|0:0,0:0:0:0:
3,200,263935,1,2,0:3:0:0:
157,105,264106,2,0,P|204:97|282:105,1,90,8|0,0:0|0:0,0:0:0:0:
98,260,264447,6,0,L|92:171,1,90,2|2,0:3|0:0,0:0:0:0:
83,16,264789,1,8,0:0:0:0:
157,105,264960,2,0,L|165:60,1,45,2|0,0:0|0:0,0:0:0:0:
231,194,265131,2,0,L|239:149,1,45,2|0,0:0|3:0,0:0:0:0:
316,16,265302,1,2,0:3:0:0:
415,162,265473,2,0,L|326:173,1,90,8|2,0:0|0:0,0:0:0:0:
512,48,265815,5,2,0:3:0:0:
512,48,266157,2,0,L|508:165,1,90,8|2,0:0|0:0,0:0:0:0:
423,178,266413,1,0,0:0:0:0:
415,162,266499,2,0,L|419:45,1,90,2|2,0:0|0:3,0:0:0:0:
499,227,266841,2,0,L|495:344,1,90,8|2,0:0|0:0,0:0:0:0:
338,209,267183,6,0,B|295:202|295:202|227:205,1,90,2|2,0:3|0:0,0:0:0:0:
96,264,267524,2,0,B|139:270|139:270|186:269,1,90,8|2,0:0|0:0,0:0:0:0:
352,319,267866,2,0,B|305:321|305:321|263:315,1,90,2|2,0:0|0:3,0:0:0:0:
416,255,268208,1,8,0:0:0:0:
186,269,268379,1,2,0:3:0:0:
322,43,268550,5,2,0:3:0:0:
322,43,268892,1,8,0:0:0:0:
384,111,269063,1,2,0:0:0:0:
402,107,269148,1,0,0:0:0:0:
420,103,269234,2,0,L|470:93,1,45,2|0,0:0|3:0,0:0:0:0:
385,199,269405,2,0,L|340:207,1,45,2|0,0:3|0:0,0:0:0:0:
252,137,269576,2,0,L|297:129,1,45,8|0,0:0|0:0,0:0:0:0:
253,230,269747,2,0,L|208:238,1,45,2|0,0:0|0:0,0:0:0:0:
425,281,269918,6,0,L|513:261,1,90,2|2,0:3|0:0,0:0:0:0:
386,363,270259,1,8,0:0:0:0:
334,289,270430,1,2,0:0:0:0:
330,271,270516,1,0,0:0:0:0:
326,253,270601,2,0,L|316:203,1,45,2|0,0:0|3:0,0:0:0:0:
407,189,270772,2,0,L|398:144,1,45,2|0,0:3|0:0,0:0:0:0:
299,119,270943,2,0,L|290:74,1,45,8|0,0:0|0:0,0:0:0:0:
380,55,271114,2,0,L|371:10,1,45,2|0,0:0|0:0,0:0:0:0:
123,40,271285,5,2,0:3:0:0:
201,85,271456,1,2,0:0:0:0:
32,146,271627,1,8,0:0:0:0:
106,199,271798,1,2,0:0:0:0:
101,216,271883,1,0,0:0:0:0:
97,234,271969,1,2,0:0:0:0:
93,251,272054,1,0,3:0:0:0:
89,269,272140,1,2,0:3:0:0:
267,236,272311,1,8,0:0:0:0:
194,182,272482,1,0,0:0:0:0:
231,320,272653,6,0,P|282:325|341:292,1,90,2|2,0:3|0:0,0:0:0:0:
277,146,272994,1,8,0:0:0:0:
365,158,273165,1,2,0:0:0:0:
377,178,273251,1,0,0:0:0:0:
384,199,273336,1,2,0:0:0:0:
386,221,273422,1,0,3:0:0:0:
382,244,273507,1,2,0:3:0:0:
277,146,273678,1,8,0:0:0:0:
451,124,273849,1,2,0:3:0:0:
400,335,274020,5,2,0:3:0:0:
400,335,274362,2,0,B|446:345|446:345|501:329,1,90,8|2,0:0|0:0,0:0:0:0:
316,297,274704,2,0,L|255:301,1,45,2|0,0:0|3:0,0:0:0:0:
311,207,274875,2,0,L|266:209,1,45,0|0,0:3|0:0,0:0:0:0:
190,259,275046,2,0,L|145:261,1,45,8|0,0:0|0:0,0:0:0:0:
185,166,275217,2,0,L|124:170,1,45,2|0,0:0|0:0,0:0:0:0:
392,249,275388,6,0,L|501:242,1,90,2|2,0:3|0:0,0:0:0:0:
354,111,275730,2,0,L|264:116,1,90,8|2,0:0|0:0,0:0:0:0:
185,166,276071,2,0,L|189:219,1,45,2|0,0:0|3:0,0:0:0:0:
278,207,276242,2,0,L|282:260,1,45,2|0,0:3|0:0,0:0:0:0:
371,248,276413,2,0,L|375:301,1,45,8|0,0:0|0:0,0:0:0:0:
464,289,276584,2,0,L|468:342,1,45,2|0,0:0|0:0,0:0:0:0:
355,159,276755,5,2,0:3:0:0:
436,119,276926,1,0,0:0:0:0:
371,248,277097,1,8,0:0:0:0:
278,207,277268,1,2,0:0:0:0:
269,191,277353,1,0,0:0:0:0:
264,173,277439,1,2,0:0:0:0:
263,155,277524,1,0,3:0:0:0:
266,138,277610,1,2,0:3:0:0:
371,248,277781,1,8,0:0:0:0:
295,296,277952,1,0,0:0:0:0:
355,159,278123,6,0,P|411:168|455:281,1,180,2|8,0:3|0:0,0:0:0:0:
401,344,278636,1,2,0:0:0:0:
401,344,278721,1,0,0:0:0:0:
401,344,278806,1,2,0:0:0:0:
295,296,278977,1,2,0:3:0:0:
189,344,279148,1,8,0:0:0:0:
83,296,279319,1,2,0:3:0:0:
197,106,279490,5,4,1:0:0:0:
204,87,279661,1,0,0:0:0:0:
213,69,279832,1,8,0:0:0:0:
220,50,280003,1,0,0:0:0:0:
220,50,280345,5,2,0:3:0:0:
298,224,280516,1,8,0:0:0:0:
208,229,280858,5,2,0:3:0:0:
388,216,281200,5,8,0:0:0:0:
388,216,281712,5,2,0:3:0:0:
208,229,281883,1,8,0:0:0:0:
398,206,282054,1,0,0:0:0:0:
198,219,282225,1,2,0:3:0:0:
188,209,282396,1,0,0:0:0:0:
178,199,282567,1,8,0:0:0:0:
168,189,282738,1,0,0:0:0:0:
168,189,283080,5,2,0:3:0:0:
408,196,283251,1,8,0:0:0:0:
240,94,283593,5,2,0:3:0:0:
289,306,283935,5,8,0:0:0:0:
289,306,284447,5,2,0:3:0:0:
240,94,284618,1,8,0:0:0:0:
369,262,284960,5,2,0:3:0:0:
386,251,285131,1,0,0:0:0:0:
319,138,285302,1,8,0:0:0:0:
336,127,285473,1,0,0:0:0:0:
336,127,285815,5,2,0:3:0:0:
386,251,285986,1,8,0:0:0:0:
140,250,286328,5,2,0:3:0:0:
416,166,286670,5,8,0:0:0:0:
301,211,287183,5,2,0:3:0:0:
276,31,287353,1,8,0:0:0:0:
256,35,287524,1,0,0:0:0:0:
281,215,287695,1,2,0:3:0:0:
261,219,287866,1,0,0:0:0:0:
236,39,288037,1,8,0:0:0:0:
216,43,288208,1,0,0:0:0:0:
216,43,288550,5,2,0:3:0:0:
261,219,288721,1,8,0:0:0:0:
124,80,289063,5,2,0:3:0:0:
351,126,289405,5,8,0:0:0:0:
150,172,289918,5,2,0:3:0:0:
421,186,290089,1,8,0:0:0:0:
421,186,290430,6,0,B|357:209|357:209|268:191,1,135.000005149842,4|0,0:0|0:0,0:0:0:0:
344,37,290772,2,0,L|351:126,1,90,2|0,0:3|0:0,0:0:0:0:
91,186,291114,6,0,B|155:209|155:209|220:195,1,135.000005149842,4|0,0:0|0:0,0:0:0:0:
170,38,291456,2,0,L|160:126,1,90,2|0,0:3|0:0,0:0:0:0:
211,283,291798,6,0,P|297:272|378:300,1,135.000005149842,4|0,0:0|0:0,0:0:0:0:
228,361,292140,2,0,P|271:351|315:356,1,90,2|0,0:3|0:0,0:0:0:0:
160,127,292482,6,0,P|74:116|-7:144,1,135.000005149842,4|0,0:0|0:0,0:0:0:0:
138,201,292824,2,0,P|89:193|20:217,1,90,2|0,0:3|0:0,0:0:0:0:
237,72,293165,6,0,L|401:73,1,135.000005149842,4|0,0:0|0:0,0:0:0:0:
258,164,293507,2,0,L|360:165,1,90,2|0,0:3|0:0,0:0:0:0:
164,135,293849,6,0,L|0:136,1,135.000005149842,4|0,0:0|0:0,0:0:0:0:
143,227,294191,2,0,L|41:228,1,90,2|0,0:3|0:0,0:0:0:0:
306,299,294533,6,0,P|263:342|222:298,1,135.000005149842,4|0,0:0|0:0,0:0:0:0:
390,266,294875,2,0,P|396:314|383:360,1,90,2|0,0:3|0:0,0:0:0:0:
137,301,295217,6,0,P|179:343|221:300,1,135.000005149842,4|0,0:0|0:0,0:0:0:0:
53,267,295559,2,0,P|47:315|60:361,1,90,2|0,0:3|0:0,0:0:0:0:
175,217,295900,5,6,3:0:0:0:
40,146,296071,1,2,0:3:0:0:
175,217,296242,1,2,3:0:0:0:
93,88,296413,1,2,0:3:0:0:
253,217,296584,5,6,3:0:0:0:
387,146,296755,1,2,0:3:0:0:
253,217,296926,1,2,3:0:0:0:
334,88,297097,1,2,0:3:0:0:
213,285,297268,5,6,3:0:0:0:
145,145,297439,1,2,0:3:0:0:
76,285,297610,1,2,3:0:0:0:
281,145,297781,1,2,0:3:0:0:
357,344,297952,5,6,3:0:0:0:
213,197,298123,1,2,0:3:0:0:
144,338,298294,1,2,3:0:0:0:
349,197,298465,1,2,0:3:0:0:
77,92,298636,5,2,3:0:0:0:
72,118,298806,1,0,0:0:0:0:
67,144,298977,1,0,0:0:0:0:
63,170,299148,1,0,0:0:0:0:
241,67,299490,5,0,0:0:0:0:
237,41,299661,1,0,0:0:0:0:
256,192,300003,5,2,0:3:0:0:
256,192,300345,1,2,0:3:0:0:
256,192,300687,1,2,0:3:0:0:
256,192,301029,6,0,B|309:147|352:165|325:128|404:128|404:216|324:216|258:162|298:86,1,270,8|0,0:0|0:0,0:0:0:0:
321,85,301371,6,0,P|221:75|111:99,1,198.000006042481,4|8,0:0|0:0,0:0:0:0:
33,188,301883,2,0,P|87:208|145:209,1,99.0000030212403,0|2,0:0|0:2,0:0:0:0:
27,87,302225,1,2,0:3:0:0:
55,289,302396,2,0,P|159:298|254:273,1,198.000006042481,8|2,0:0|0:2,0:0:0:0:
396,199,302909,5,2,0:3:0:0:
247,79,303080,2,0,P|191:73|135:105,1,99.0000030212403,8|0,0:0|0:0,0:0:0:0:
340,117,303422,2,0,P|346:61|314:5,1,99.0000030212403,2|2,0:2|0:3,0:0:0:0:
302,210,303764,2,0,P|358:216|414:184,1,99.0000030212403,8|0,0:0|0:0,0:0:0:0:
209,172,304106,6,0,L|215:299,1,99.0000030212403,2|0,0:3|0:0,0:0:0:0:
118,130,304447,2,0,L|122:31,1,99.0000030212403,8|0,0:0|0:0,0:0:0:0:
302,210,304789,2,0,L|308:337,1,99.0000030212403,2|2,0:2|0:3,0:0:0:0:
23,183,305131,2,0,L|29:56,1,99.0000030212403,8|0,0:0|0:0,0:0:0:0:
213,270,305473,6,0,B|165:277|165:277|114:267,1,99.0000030212403,2|2,0:2|0:3,0:0:0:0:
169,76,305815,2,0,B|176:124|176:124|167:175,1,99.0000030212403,8|2,0:0|0:3,0:0:0:0:
261,36,306157,2,0,B|309:29|309:29|359:38,1,99.0000030212403,2|2,0:2|0:3,0:0:0:0:
311,229,306499,2,0,B|302:179|302:179|309:131,1,99.0000030212403,8|0,0:0|0:0,0:0:0:0:
213,270,306841,6,0,P|139:277|62:185,1,198.000006042481,2|8,0:3|0:0,0:0:0:0:
167,174,307353,2,0,P|234:166|286:187,1,99.0000030212403,0|2,0:0|0:2,0:0:0:0:
278,346,307695,1,2,0:3:0:0:
363,199,307866,2,0,P|355:127|331:95,1,99.0000030212403,8|2,0:0|0:2,0:0:0:0:
263,174,308208,5,2,0:2:0:0:
465,146,308379,1,2,0:3:0:0:
247,74,308550,2,0,P|199:71|143:74,1,99.0000030212403,8|0,0:0|0:0,0:0:0:0:
148,273,308892,2,0,P|197:276|246:273,1,99.0000030212403,2|2,0:2|0:3,0:0:0:0:
98,173,309234,2,0,P|50:170|-6:173,1,99.0000030212403,8|0,0:0|0:0,0:0:0:0:
101,362,309576,5,2,0:3:0:0:
148,273,309747,1,0,0:0:0:0:
312,349,309918,2,0,P|366:349|438:340,1,99.0000030212403,8|0,0:0|0:0,0:0:0:0:
474,267,310259,1,0,0:0:0:0:
248,272,310430,1,2,0:3:0:0:
460,165,310601,2,0,P|362:182|264:171,1,198.000006042481,8|2,0:0|0:2,0:0:0:0:
428,52,311114,5,2,0:3:0:0:
494,259,311285,1,8,0:0:0:0:
420,71,311456,1,2,0:3:0:0:
348,284,311627,1,2,0:2:0:0:
412,90,311798,1,2,0:3:0:0:
432,339,311969,2,0,P|385:378|317:379,1,99.0000030212403,8|0,0:0|0:0,0:0:0:0:
124,198,312311,6,0,P|111:117|212:41,1,198.000006042481,4|8,0:0|0:0,0:0:0:0:
213,245,312824,1,0,0:0:0:0:
207,142,312994,1,2,0:2:0:0:
124,198,313165,1,2,0:3:0:0:
301,291,313336,2,0,P|231:344|131:301,1,198.000006042481,8|2,0:0|0:2,0:0:0:0:
298,189,313849,5,2,0:3:0:0:
124,198,314020,2,0,P|86:187|44:137,1,99.0000030212403,8|0,0:0|0:0,0:0:0:0:
288,179,314362,2,0,P|326:168|368:118,1,99.0000030212403,2|2,0:2|0:3,0:0:0:0:
134,188,314704,2,0,P|96:177|54:127,1,99.0000030212403,8|0,0:0|0:0,0:0:0:0:
343,262,315046,6,0,B|354:310|354:310|337:380,1,99.0000030212403,2|0,0:3|0:0,0:0:0:0:
416,192,315388,2,0,B|464:181|464:181|534:198,1,99.0000030212403,8|0,0:0|0:0,0:0:0:0:
319,164,315730,2,0,B|308:116|308:116|325:46,1,99.0000030212403,2|2,0:2|0:3,0:0:0:0:
246,237,316071,2,0,B|198:248|198:248|128:231,1,99.0000030212403,8|0,0:0|0:0,0:0:0:0:
322,381,316413,6,0,B|333:332|333:332|322:284,1,99.0000030212403,2|2,0:2|0:3,0:0:0:0:
153,211,316755,2,0,B|201:222|201:222|249:211,1,99.0000030212403,8|2,0:0|0:3,0:0:0:0:
278,19,317097,2,0,B|266:67|266:67|277:115,1,99.0000030212403,2|2,0:2|0:3,0:0:0:0:
444,189,317439,2,0,B|395:177|395:177|347:188,1,99.0000030212403,8|0,0:0|0:0,0:0:0:0:
202,323,317781,6,0,B|137:334|137:334|72:315|72:315|-5:323,1,198.000006042481,2|8,0:3|0:0,0:0:0:0:
143,232,318294,2,0,L|144:133,1,99.0000030212403,0|2,0:0|0:2,0:0:0:0:
44,217,318636,1,2,0:3:0:0:
243,217,318806,2,0,L|244:118,1,99.0000030212403,8|0,0:0|0:0,0:0:0:0:
182,40,319148,5,2,0:2:0:0:
315,46,319319,1,2,0:3:0:0:
144,133,319490,2,0,P|106:105|81:49,1,99.0000030212403,8|0,0:0|0:0,0:0:0:0:
206,211,319832,2,0,P|200:257|164:307,1,99.0000030212403,2|2,0:2|0:3,0:0:0:0:
246,117,320174,2,0,P|289:98|350:104,1,99.0000030212403,8|0,0:0|0:0,0:0:0:0:
439,273,320516,5,2,0:3:0:0:
106,227,320858,1,2,0:3:0:0:
434,150,321200,1,2,0:3:0:0:
101,104,321541,1,2,0:3:0:0:
429,27,321883,5,2,0:3:0:0:
364,189,322054,2,0,L|355:137,1,49.5000015106202,2|2,3:0|3:0,0:0:0:0:
334,22,322225,1,8,0:0:0:0:
269,184,322396,2,0,L|260:132,1,49.5000015106202,2|2,3:0|3:0,0:0:0:0:
239,17,322567,1,8,0:0:0:0:
174,179,322738,2,0,L|165:127,1,49.5000015106202,2|2,3:0|3:0,0:0:0:0:
144,12,322909,1,8,0:0:0:0:
144,12,323251,5,4,0:0:0:0:
75,87,323422,1,0,0:0:0:0:
234,57,323593,1,8,0:0:0:0:
165,130,323764,2,0,L|181:227,1,99.0000030212403,0|2,0:0|0:2,0:0:0:0:
324,100,324106,1,2,0:3:0:0:
429,227,324277,2,0,P|375:220|326:95,1,198.000006042481,8|2,0:0|0:2,0:0:0:0:
492,148,324789,5,2,0:3:0:0:
192,205,324960,2,0,P|223:124|327:102,1,198.000006042481,8|2,0:0|0:2,0:0:0:0:
253,290,325473,1,2,0:3:0:0:
100,152,325644,1,8,0:0:0:0:
103,254,325815,1,0,0:0:0:0:
297,198,325986,5,2,0:3:0:0:
253,290,326157,1,0,0:0:0:0:
240,115,326328,1,8,0:0:0:0:
297,198,326499,2,0,L|426:193,1,99.0000030212403,0|2,0:0|0:2,0:0:0:0:
198,206,326841,1,2,0:3:0:0:
340,96,327012,2,0,P|289:25|167:44,1,198.000006042481,8|2,0:0|0:2,0:0:0:0:
198,206,327524,5,0,0:0:0:0:
440,103,327695,1,8,0:0:0:0:
240,115,327866,1,2,0:3:0:0:
395,194,328037,1,0,0:0:0:0:
140,121,328208,1,2,0:3:0:0:
340,96,328379,1,8,0:0:0:0:
338,71,328550,1,0,0:0:0:0:
296,201,328721,5,2,0:3:0:0:
298,226,328892,1,0,0:0:0:0:
142,146,329063,1,8,0:0:0:0:
140,121,329234,2,0,L|133:1,1,99.0000030212403,0|2,0:0|0:2,0:0:0:0:
239,118,329576,1,2,0:3:0:0:
133,254,329747,2,0,B|96:262|52:243|52:243|18:197|22:103,1,198.000006042481,8|2,0:0|0:2,0:0:0:0:
239,118,330259,5,2,0:3:0:0:
353,247,330430,2,0,B|390:255|434:236|434:236|468:190|464:126,1,198.000006042481,8|2,0:0|0:2,0:0:0:0:
239,118,330943,1,2,0:3:0:0:
272,304,331114,1,8,0:0:0:0:
277,328,331285,1,0,0:0:0:0:
105,251,331456,5,2,0:3:0:0:
89,270,331627,1,0,0:0:0:0:
92,79,331798,1,8,0:0:0:0:
68,72,331969,2,0,P|92:62|178:61,1,99.0000030212403,0|2,0:0|0:2,0:0:0:0:
315,106,332311,1,2,0:3:0:0:
205,243,332482,1,8,0:0:0:0:
300,206,332653,1,2,2:0:0:0:
300,206,332824,1,2,2:0:0:0:
127,180,332994,5,2,0:3:0:0:
394,170,333165,1,8,0:0:0:0:
219,138,333336,1,2,0:3:0:0:
315,106,333507,1,2,2:0:0:0:
281,307,333678,1,2,0:3:0:0:
240,39,333849,1,8,0:0:0:0:
236,14,334020,1,0,0:0:0:0:
394,170,334191,5,4,0:0:0:0:
419,166,334362,1,0,0:0:0:0:
281,307,334533,1,8,0:0:0:0:
285,332,334704,2,0,P|332:336|385:310,1,99.0000030212403
247,145,335046,1,2,0:3:0:0:
186,335,335217,2,0,P|89:349|1:307,1,198.000006042481,8|2,0:0|0:2,0:0:0:0:
232,245,335730,5,0,0:0:0:0:
110,109,335900,2,0,L|11:97,2,99.0000030212403,8|0|2,0:0|0:0|0:2,0:0:0:0:
232,245,336413,1,2,0:3:0:0:
354,109,336584,1,8,0:0:0:0:
378,106,336755,1,0,0:0:0:0:
438,314,336926,5,2,0:3:0:0:
462,317,337097,1,0,0:0:0:0:
488,135,337268,1,8,0:0:0:0:
512,132,337439,2,0,P|480:173|417:187,1,99.0000030212403,0|2,0:0|0:2,0:0:0:0:
255,93,337781,1,2,0:3:0:0:
73,209,337952,2,0,P|16:141|91:83,1,198.000006042481,8|2,0:0|0:2,0:0:0:0:
160,262,338465,5,2,0:3:0:0:
173,34,338636,1,8,0:0:0:0:
233,193,338806,1,2,0:3:0:0:
233,193,338977,1,2,0:2:0:0:
72,310,339148,1,2,0:3:0:0:
84,82,339319,1,8,0:0:0:0:
62,78,339490,1,0,0:0:0:0:
290,110,339661,5,2,0:3:0:0:
314,113,339832,1,0,0:0:0:0:
201,290,340003,1,8,0:0:0:0:
177,287,340174,2,0,L|76:275,1,99.0000030212403,0|2,0:0|0:2,0:0:0:0:
188,115,340516,1,2,0:3:0:0:
301,290,340687,2,0,L|504:268,1,198.000006042481,8|2,0:0|0:2,0:0:0:0:
394,178,341200,5,2,0:3:0:0:
410,380,341371,1,8,0:0:0:0:
394,178,341712,5,2,0:2:0:0:
410,380,341883,1,2,0:3:0:0:
308,127,342054,1,8,0:0:0:0:
321,330,342225,1,4,0:3:0:0:
396,77,342396,5,2,0:3:0:0:
221,77,342738,1,0,0:0:0:0:
221,77,343080,1,0,0:0:0:0:
256,192,343764,5,2,0:3:0:0:
256,192,344106,1,2,0:3:0:0:
256,192,344447,1,2,0:3:0:0:
256,192,344789,6,0,B|309:147|352:165|325:128|404:128|404:216|324:216|258:162|298:86,1,270,8|0,0:0|0:0,0:0:0:0:
295,94,345131,5,4,0:1:0:0:
295,94,345473,6,0,L|158:81,1,99.0000030212403,8|0,0:0|0:0,0:0:0:0:
29,166,345815,2,0,L|128:157,1,99.0000030212403,2|2,0:2|0:3,0:0:0:0:
307,224,346157,2,0,L|209:215,1,99.0000030212403,8|0,0:0|0:0,0:0:0:0:
380,150,346499,1,2,0:3:0:0:
380,150,346841,6,0,P|427:178|484:175,1,99.0000030212403,8|0,0:0|0:0,0:0:0:0:
452,80,347183,1,2,0:2:0:0:
280,148,347353,1,2,0:3:0:0:
413,277,347524,1,8,0:0:0:0:
320,317,347695,1,0,0:0:0:0:
332,62,347866,1,2,0:3:0:0:
332,62,348208,6,0,P|276:47|220:67,1,99.0000030212403,8|0,0:0|0:0,0:0:0:0:
274,242,348550,2,0,P|289:196|280:148,1,99.0000030212403,2|0,0:2|0:0,0:0:0:0:
94,184,348892,2,0,P|140:199|189:190,1,99.0000030212403,8|0,0:0|0:0,0:0:0:0:
28,109,349234,6,0,P|-4:201|65:280,1,198.000006042481,2|8,0:3|0:0,0:0:0:0:
149,295,349747,1,0,0:0:0:0:
94,184,349918,1,2,0:2:0:0:
80,370,350089,1,2,0:3:0:0:
160,108,350259,1,8,0:0:0:0:
192,204,350430,1,0,0:0:0:0:
235,42,350601,1,2,0:3:0:0:
235,42,350943,6,0,L|382:50,1,99.0000030212403,8|0,0:0|0:0,0:0:0:0:
479,61,351285,1,2,0:2:0:0:
363,144,351456,1,2,0:3:0:0:
227,26,351627,2,0,L|325:31,1,99.0000030212403,8|0,0:0|0:0,0:0:0:0:
471,45,351969,1,2,0:3:0:0:
471,45,352311,6,0,P|486:91|478:140,1,99.0000030212403,8|0,0:0|0:0,0:0:0:0:
415,215,352653,1,0,0:0:0:0:
238,110,352824,2,0,L|288:108,1,49.5000015106202,2|0,0:3|2:0,0:0:0:0:
387,99,352994,1,8,0:0:0:0:
316,204,353165,1,0,0:0:0:0:
329,16,353336,1,2,0:3:0:0:
329,16,353678,6,0,B|276:22|276:22|207:18,1,99.0000030212403,8|0,0:0|0:0,0:0:0:0:
330,40,354020,2,0,B|277:46|277:46|231:43,1,99.0000030212403,2|2,0:2|0:3,0:0:0:0:
82,28,354362,1,8,0:0:0:0:
94,144,354533,6,0,B|147:150|147:150|216:146,1,99.0000030212403,0|2,0:0|0:3,0:0:0:0:
93,168,354875,2,0,B|146:174|146:174|215:170,1,99.0000030212403,0|8,0:0|0:0,0:0:0:0:
341,156,355217,1,0,0:0:0:0:
329,272,355388,6,0,B|276:278|276:278|207:274,1,99.0000030212403,2|2,0:2|0:3,0:0:0:0:
330,296,355730,2,0,B|277:302|277:302|208:298,1,99.0000030212403,8|0,0:0|0:0,0:0:0:0:
82,284,356071,1,2,0:3:0:0:
82,284,356413,6,0,L|72:172,1,99.0000030212403,12|0,0:0|0:0,0:0:0:0:
168,34,356755,2,0,L|160:133,1,99.0000030212403,2|2,0:2|0:3,0:0:0:0:
253,283,357097,2,0,L|245:185,1,99.0000030212403,8|0,0:0|0:0,0:0:0:0:
168,337,357439,1,2,0:3:0:0:
168,337,357781,6,0,P|109:335|68:308,1,99.0000030212403,8|0,0:0|0:0,0:0:0:0:
142,239,358123,1,2,0:2:0:0:
260,384,358294,1,2,0:3:0:0:
342,169,358465,1,8,0:0:0:0:
262,260,358636,1,0,0:0:0:0:
454,342,358806,1,2,0:3:0:0:
454,342,359148,6,0,L|435:224,1,99.0000030212403,8|0,0:0|0:0,0:0:0:0:
255,164,359490,2,0,L|348:200,1,99.0000030212403,2|2,0:2|0:3,3:0:0:0:
508,80,359832,2,0,L|432:143,1,99.0000030212403,8|0,0:0|0:0,0:0:0:0:
255,164,360174,6,0,B|228:144|196:143|196:143|152:172|104:167|65:131,1,198.000006042481,2|8,0:3|0:0,0:0:0:0:
16,51,360687,1,0,0:0:0:0:
138,61,360858,1,0,0:0:0:0:
26,224,361029,1,2,0:3:0:0:
255,164,361200,1,8,0:0:0:0:
71,136,361371,1,0,0:0:0:0:
315,82,361541,1,2,0:3:0:0:
315,82,361883,6,0,L|204:55,1,99.0000030212403,8|0,0:0|0:0,0:0:0:0:
91,28,362225,1,2,0:2:0:0:
213,57,362396,1,2,0:3:0:0:
13,116,362567,2,0,L|113:138,1,99.0000030212403,8|0,0:0|0:0,0:0:0:0:
255,164,362909,1,2,0:3:0:0:
255,164,363251,6,0,L|381:152,1,99.0000030212403,8|0,0:0|0:0,0:0:0:0:
478,147,363593,1,2,0:2:0:0:
438,378,363764,2,0,L|432:329,1,49.5000015106202,2|0,0:3|2:0,0:0:0:0:
421,229,363935,1,8,0:0:0:0:
512,270,364106,1,0,0:0:0:0:
341,288,364277,1,2,0:3:0:0:
341,288,364618,6,0,P|322:237|331:186,1,99.0000030212403,8|0,0:0|0:0,0:0:0:0:
407,134,364960,2,0,P|426:185|417:236,1,99.0000030212403,2|2,0:2|0:3,0:0:0:0:
315,94,365302,1,8,0:0:0:0:
397,34,365473,1,0,0:0:0:0:
327,193,365644,1,2,0:3:0:0:
327,193,365986,5,8,0:0:0:0:
152,133,366157,1,2,0:3:0:0:
237,30,366328,1,0,0:0:0:0:
336,208,366499,1,8,0:0:0:0:
161,148,366670,1,2,0:3:0:0:
345,223,366841,1,8,0:0:0:0:
132,294,367012,6,0,P|163:308|212:302,1,67.5,2|0,0:3|0:0,0:0:0:0:
229,311,367353,6,0,P|128:308|93:177,1,233.999989288331,12|2,0:0|0:2,0:0:0:0:
184,73,367866,5,2,0:3:0:0:
275,220,368037,2,0,P|227:209|180:222,1,99.0000030212403,8|0,0:0|0:0,0:0:0:0:
326,134,368379,1,2,0:3:0:0:
326,134,368721,6,0,B|378:140|378:140|442:133,1,99.0000030212403,8|0,0:0|0:0,0:0:0:0:
213,35,369063,2,0,B|265:29|265:29|329:36,1,99.0000030212403,2|2,0:2|0:3,0:0:0:0:
103,134,369405,2,0,B|155:140|155:140|219:133,1,99.0000030212403,8|0,0:0|0:0,0:0:0:0:
267,312,369747,6,0,L|264:214,1,99.0000030212403,2|0,0:3|0:0,0:0:0:0:
44,316,370089,2,0,L|41:218,1,99.0000030212403,8|0,0:0|0:0,0:0:0:0:
379,254,370430,2,0,L|382:352,1,99.0000030212403,2|2,0:2|0:3,0:0:0:0:
154,259,370772,2,0,L|158:358,1,99.0000030212403,8|0,0:0|0:0,0:0:0:0:
417,243,371114,6,0,P|428:195|416:147,1,99.0000030212403,2|0,0:3|0:0,0:0:0:0:
233,195,371456,2,0,P|280:206|328:194,1,99.0000030212403,8|0,0:0|0:0,0:0:0:0:
281,11,371798,2,0,P|269:58|280:106,1,99.0000030212403,2|2,0:2|0:3,0:0:0:0:
464,58,372140,2,0,P|416:46|368:58,1,99.0000030212403,8|0,0:0|0:0,0:0:0:0:
417,243,372482,5,2,0:3:0:0:
416,147,372653,1,0,0:0:0:0:
238,240,372824,2,0,P|148:205|133:104,1,198.000006042481,8|2,0:0|0:2,0:0:0:0:
73,271,373336,1,2,0:3:0:0:
225,141,373507,2,0,P|225:85|198:40,1,99.0000030212403,8|0,0:0|0:0,0:0:0:0:
153,211,373849,5,2,0:3:0:0:
130,114,374020,1,0,0:0:0:0:
249,238,374191,2,0,P|297:210|322:164,1,99.0000030212403,8|0,0:0|0:0,0:0:0:0:
477,207,374533,2,0,P|454:164|414:137,1,99.0000030212403,2|2,0:2|0:3,0:0:0:0:
398,4,374875,2,0,P|357:31|335:75,1,99.0000030212403,8|0,0:0|0:0,0:0:0:0:
141,118,375217,5,2,0:3:0:0:
242,112,375388,1,0,0:0:0:0:
71,189,375559,2,0,P|45:145|45:92,1,99.0000030212403,8|0,0:0|0:0,0:0:0:0:
312,182,375900,2,0,P|270:207|221:209,1,99.0000030212403
339,86,376242,1,8,0:0:0:0:
410,159,376413,1,0,0:0:0:0:
215,208,376584,1,2,0:3:0:0:
215,208,376926,6,0,P|214:256|235:300,1,99.0000030212403,8|0,0:0|0:0,0:0:0:0:
272,124,377268,2,0,P|230:98|181:95,1,99.0000030212403,2|2,0:2|0:3,0:0:0:0:
316,215,377610,2,0,P|359:192|386:151,1,99.0000030212403,8|0,0:0|0:0,0:0:0:0:
232,198,377952,6,0,L|147:200,1,67.5,2|0,0:3|0:0,0:0:0:0:
82,219,378294,6,0,L|330:214,1,233.999989288331,12|0,0:0|0:0,0:0:0:0:
207,319,378806,5,2,0:3:0:0:
208,115,378977,2,0,L|306:113,1,99.0000030212403,8|0,0:0|0:0,0:0:0:0:
396,274,379319,1,2,0:3:0:0:
396,274,379661,6,0,L|441:152,1,99.0000030212403,8|0,0:0|0:0,0:0:0:0:
232,208,380003,2,0,L|296:285,1,99.0000030212403,0|0,0:2|0:3,0:0:0:0:
372,99,380345,2,0,L|274:115,1,99.0000030212403,8|0,0:0|0:0,0:0:0:0:
347,290,380687,6,0,P|360:336|350:384,1,99.0000030212403,2|0,0:3|0:0,0:0:0:0:
408,207,381029,2,0,P|454:194|502:204,1,99.0000030212403,8|0,0:0|0:0,0:0:0:0:
322,153,381371,2,0,P|309:107|319:59,1,99.0000030212403,2|2,0:2|0:3,0:0:0:0:
261,236,381712,2,0,P|215:249|167:239,1,99.0000030212403,8|0,0:0|0:0,0:0:0:0:
207,49,382054,6,0,P|196:96|210:143,1,99.0000030212403,2|0,0:3|0:0,0:0:0:0:
387,201,382396,2,0,P|339:190|292:204,1,99.0000030212403,8|0,0:0|0:0,0:0:0:0:
242,384,382738,2,0,P|252:336|238:289,1,99.0000030212403,2|2,0:2|0:3,0:0:0:0:
62,232,383080,2,0,P|109:242|156:228,1,99.0000030212403,8|0,0:0|0:0,0:0:0:0:
306,107,383422,5,2,0:3:0:0:
292,204,383593,1,0,0:0:0:0:
123,126,383764,2,0,B|146:107|182:105|182:105|217:133|271:138|308:106,1,198.000006042481,8|2,0:0|0:2,0:0:0:0:
247,28,384277,1,2,0:3:0:0:
171,210,384447,1,8,0:0:0:0:
123,126,384618,1,0,0:0:0:0:
103,283,384789,5,2,0:3:0:0:
52,195,384960,1,0,0:0:0:0:
271,220,385131,2,0,L|390:231,1,99.0000030212403,8|0,0:0|0:0,0:0:0:0:
309,104,385473,2,0,L|210:94,1,99.0000030212403,2|2,0:2|0:3,0:0:0:0:
405,134,385815,2,0,L|524:123,1,99.0000030212403,8|0,0:0|0:0,0:0:0:0:
384,36,386157,5,2,0:3:0:0:
309,104,386328,1,0,0:0:0:0:
128,39,386499,2,0,P|78:54|40:103,1,99.0000030212403,8|0,0:0|0:0,0:0:0:0:
132,139,386841,1,2,0:2:0:0:
229,43,387012,1,2,0:3:0:0:
395,153,387183,2,0,P|360:189|314:203,1,99.0000030212403,8|0,0:0|0:0,0:0:0:0:
128,39,387524,5,2,0:3:0:0:
128,39,387866,5,8,0:0:0:0:
180,299,388037,1,2,0:3:0:0:
228,29,388379,5,8,0:0:0:0:
280,289,388550,1,2,0:3:0:0:
188,120,388721,1,8,0:0:0:0:
136,380,388892,1,4,0:1:0:0:
45,175,391627,6,0,P|84:184|186:67,1,210,2|0,0:0|0:0,0:0:0:0:
272,227,392994,6,0,P|233:236|131:119,1,210,2|0,0:0|0:0,0:0:0:0:
124,121,394277,1,0,0:0:0:0:
118,115,394362,6,0,B|181:186|303:177|351:60|351:60|427:133|501:85,1,450,2|0,0:3|0:0,0:0:0:0:
447,323,397097,6,0,P|408:332|369:205,1,210,2|0,0:0|0:0,0:0:0:0:
370,117,398465,2,0,L|385:61,1,45,2|0,0:0|0:0,0:0:0:0:
242,2,398806,2,0,L|253:45,1,45
114,160,399148,2,0,P|172:132|238:158,1,135,2|0,0:0|0:0,0:0:0:0:
177,217,399832,5,2,0:3:0:0:
326,350,400003,2,0,L|295:331,2,33.7500012874604
261,232,400345,2,0,L|260:268,2,33.7500012874604
190,352,400687,2,0,L|221:334,2,33.7500012874604
177,217,401029,1,0,0:0:0:0:
116,291,401200,5,2,0:3:0:0:
72,102,401371,2,0,L|98:122,2,33.7500012874604
215,68,401712,2,0,L|183:81,2,33.7500012874604
169,213,402054,2,0,L|173:179,2,33.7500012874604
330,241,402396,1,0,0:0:0:0:
264,148,402567,5,2,0:3:0:0:
476,234,402738,2,0,L|454:207,2,33.7500012874604
340,161,403080,2,0,L|373:155,2,33.7500012874604
467,77,403422,2,0,L|454:108,2,33.7500012874604
441,312,403764,1,0,0:0:0:0:
381,240,403935,5,2,0:3:0:0:
305,346,404106,2,0,L|264:359,2,33.7500012874604
170,294,404447,2,0,L|211:281,2,33.7500012874604
286,184,404789,2,0,L|245:197,2,33.7500012874604
198,115,405131,1,0,0:0:0:0:
155,199,405302,5,2,0:3:0:0:
36,54,405473,1,0,0:0:0:0:
34,62,405559,1,0,0:0:0:0:
35,70,405644,1,0,0:0:0:0:
109,153,405815,1,0,0:0:0:0:
111,161,405900,1,0,0:0:0:0:
110,169,405986,1,0,0:0:0:0:
27,249,406157,1,0,0:0:0:0:
25,257,406242,1,0,0:0:0:0:
26,265,406328,1,0,0:0:0:0:
150,348,406499,1,0,0:0:0:0:
131,255,406670,5,2,0:3:0:0:
266,297,406841,1,0,0:0:0:0:
274,300,406926,1,0,0:0:0:0:
282,303,407012,1,0,0:0:0:0:
382,199,407183,1,0,0:0:0:0:
374,202,407268,1,0,0:0:0:0:
365,205,407353,1,0,0:0:0:0:
222,126,407524,1,0,0:0:0:0:
230,129,407610,1,0,0:0:0:0:
240,133,407695,1,0,0:0:0:0:
377,67,407866,1,0,0:0:0:0:
225,250,408037,6,0,P|174:247|125:114,1,207.89999936554,4|0,0:1|0:0,0:0:0:0:
208,158,409405,6,0,P|240:146|265:115,1,72,2|0,0:3|0:0,0:0:0:0:
406,229,409747,6,0,P|366:232|329:215,1,80.9999975280763,2|0,0:3|0:0,0:0:0:0:
273,29,410089,6,0,P|319:25|361:44,1,90,2|0,0:3|0:0,0:0:0:0:
73,9,410430,6,0,P|70:58|90:102,1,99.0000030212403,2|0,0:3|0:0,0:0:0:0:
192,266,410772,5,4,0:1:0:0:
285,139,410943,1,0,0:0:0:0:
372,347,411114,2,0,P|341:308|328:249,1,107.999996704102,8|0,0:0|0:0,0:0:0:0:
369,246,411371,1,0,0:0:0:0:
401,222,411456,1,2,0:3:0:0:
417,185,411541,1,0,0:0:0:0:
409,145,411627,1,2,0:3:0:0:
360,28,411798,1,8,0:0:0:0:
256,112,411969,1,0,0:0:0:0:
256,112,412054,1,2,0:3:0:0:
256,112,412140,6,0,L|202:101,1,53.9999983520508,2|0,0:3|0:0,0:0:0:0:
34,179,412311,2,0,L|86:168,1,53.9999983520508,2|0,0:3|0:0,0:0:0:0:
230,265,412482,1,8,0:0:0:0:
136,366,412653,1,0,0:0:0:0:
96,357,412738,1,2,0:3:0:0:
67,330,412824,1,2,0:3:0:0:
54,292,412909,1,0,0:0:0:0:
62,253,412994,1,2,0:3:0:0:
129,100,413165,1,8,0:0:0:0:
231,255,413336,1,0,0:0:0:0:
231,255,413422,1,0,0:0:0:0:
231,255,413507,5,2,0:3:0:0:
328,145,413678,1,0,0:0:0:0:
386,351,413849,2,0,P|409:306|396:252,1,107.999996704102,8|0,0:0|0:0,0:0:0:0:
435,232,414106,1,2,0:3:0:0:
457,195,414191,1,0,0:0:0:0:
456,153,414277,1,0,0:0:0:0:
432,118,414362,1,2,0:3:0:0:
331,46,414533,1,8,0:0:0:0:
151,232,414704,1,2,0:3:0:0:
151,232,414789,1,0,0:0:0:0:
151,232,414875,6,0,L|202:196,1,53.9999983520508
317,168,415046,2,0,L|266:132,1,53.9999983520508,2|0,0:3|0:0,0:0:0:0:
159,58,415217,1,8,0:0:0:0:
39,229,415388,1,0,0:0:0:0:
39,229,415473,1,2,0:3:0:0:
39,229,415559,2,0,P|27:209|21:173,1,53.9999983520508,2|0,0:3|0:0,0:0:0:0:
70,29,415730,2,0,P|82:49|88:85,1,53.9999983520508,2|2,0:3|0:3,0:0:0:0:
155,236,415900,2,0,P|218:194|204:119,1,161.999995056153,8|0,0:0|0:0,0:0:0:0:
302,281,416242,6,0,P|269:246|256:171,1,107.999996704102,2|0,0:3|0:0,0:0:0:0:
317,32,416584,2,0,P|350:67|363:142,1,107.999996704102,8|0,0:0|0:0,0:0:0:0:
364,164,416841,1,2,0:3:0:0:
386,198,416926,1,2,0:3:0:0:
422,216,417012,1,0,0:0:0:0:
461,213,417097,1,2,0:3:0:0:
443,43,417268,1,8,0:0:0:0:
286,183,417439,1,0,0:0:0:0:
286,183,417524,1,2,0:3:0:0:
286,183,417610,6,0,P|271:162|262:133,1,53.9999983520508,2|0,0:3|0:0,0:0:0:0:
222,26,417781,2,0,P|200:41|174:49,1,53.9999983520508,2|0,0:3|0:0,0:0:0:0:
137,194,417952,1,8,0:0:0:0:
225,365,418123,1,0,0:0:0:0:
264,359,418208,1,2,0:3:0:0:
296,335,418294,1,2,0:3:0:0:
312,298,418379,1,0,0:0:0:0:
309,258,418465,1,2,0:3:0:0:
251,94,418636,1,8,0:0:0:0:
151,254,418806,1,0,0:0:0:0:
114,270,418892,1,0,0:0:0:0:
74,267,418977,5,2,0:3:0:0:
109,111,419148,1,0,0:0:0:0:
214,337,419319,2,0,P|175:305|148:233,1,107.999996704102,8|0,0:0|0:0,0:0:0:0:
193,249,419576,1,2,0:3:0:0:
227,227,419661,1,2,0:3:0:0:
246,192,419747,1,0,0:0:0:0:
244,152,419832,1,2,0:3:0:0:
332,27,420003,1,8,0:0:0:0:
417,213,420174,1,0,0:0:0:0:
417,213,420259,1,0,0:0:0:0:
417,213,420345,6,0,P|398:192|388:153,1,53.9999983520508,2|0,0:3|0:0,0:0:0:0:
480,33,420516,2,0,P|454:42|435:60,1,53.9999983520508,2|0,0:3|0:0,0:0:0:0:
301,187,420687,2,0,P|262:151|245:91,1,107.999996704102,8|0,0:0|0:0,0:0:0:0:
145,126,420943,1,2,0:3:0:0:
145,126,421029,2,0,P|114:130|84:126,1,53.9999983520508,2|0,0:3|0:0,0:0:0:0:
28,41,421200,1,2,0:3:0:0:
153,254,421371,2,0,P|162:204|153:145,1,107.999996704102,8|0,0:0|0:0,0:0:0:0:
215,345,421712,6,0,P|198:300|193:222,1,107.999996704102,4|0,0:0|0:0,0:0:0:0:
276,22,422054,2,0,P|296:71|295:128,1,107.999996704102,8|0,0:0|0:0,0:0:0:0:
293,165,422311,1,2,0:3:0:0:
312,200,422396,1,2,0:3:0:0:
346,221,422482,1,0,0:0:0:0:
386,222,422567,1,2,0:3:0:0:
499,111,422738,1,8,0:0:0:0:
446,336,422909,1,0,0:0:0:0:
446,336,422994,1,2,0:3:0:0:
446,336,423080,6,0,P|434:316|428:280,1,53.9999983520508,2|0,0:3|0:0,0:0:0:0:
417,130,423251,2,0,P|397:142|361:148,1,53.9999983520508,2|0,0:3|0:0,0:0:0:0:
332,292,423422,1,8,0:0:0:0:
241,130,423593,1,0,0:0:0:0:
201,133,423678,1,2,0:3:0:0:
169,157,423764,1,2,0:3:0:0:
154,194,423849,1,0,0:0:0:0:
161,234,423935,1,2,0:3:0:0:
204,359,424106,1,8,0:0:0:0:
348,246,424277,1,0,0:0:0:0:
378,219,424362,1,0,0:0:0:0:
394,183,424447,5,2,0:3:0:0:
240,112,424618,1,0,0:0:0:0:
131,357,424789,2,0,P|163:314|163:261,1,107.999996704102,8|0,0:0|0:0,0:0:0:0:
126,241,425046,1,2,0:3:0:0:
99,207,425131,1,0,0:0:0:0:
96,165,425217,1,0,0:0:0:0:
117,128,425302,1,2,0:3:0:0:
62,32,425473,1,8,0:0:0:0:
260,156,425644,1,0,0:0:0:0:
260,156,425730,1,0,0:0:0:0:
260,156,425815,6,0,P|280:142|300:114,1,53.9999983520508,2|0,0:3|0:0,0:0:0:0:
389,22,425986,2,0,P|388:46|399:79,1,53.9999983520508
429,266,426157,2,0,P|390:231|379:164,1,107.999996704102,8|0,0:0|0:0,0:0:0:0:
348,351,426413,1,2,0:3:0:0:
348,351,426499,2,0,P|332:329|328:295,1,53.9999983520508,2|0,0:3|0:0,0:0:0:0:
246,129,426670,2,0,P|246:156|230:186,1,53.9999983520508,2|0,0:3|0:0,0:0:0:0:
143,272,426841,2,0,P|106:264|88:158,1,161.999995056153,8|0,0:0|0:0,0:0:0:0:
127,368,427183,6,0,P|154:322|142:271,1,107.999996704102,4|2,0:0|0:3,0:0:0:0:
186,26,427524,2,0,P|157:71|164:123,1,107.999996704102,8|0,0:0|0:0,0:0:0:0:
204,133,427781,1,2,0:3:0:0:
238,155,427866,1,2,0:3:0:0:
257,190,427952,1,0,0:0:0:0:
259,230,428037,1,2,0:3:0:0:
375,76,428208,1,8,0:0:0:0:
425,284,428379,1,2,0:3:0:0:
425,284,428465,1,0,0:0:0:0:
425,284,428550,6,0,P|403:268|389:234,1,53.9999983520508,2|0,0:3|0:0,0:0:0:0:
259,230,428721,2,0,P|281:214|295:180,1,53.9999983520508,2|0,0:3|0:0,0:0:0:0:
329,44,428892,1,8,0:0:0:0:
50,152,429063,1,0,0:0:0:0:
84,150,429148,1,2,0:3:0:0:
118,148,429233,1,2,0:3:0:0:
153,147,429319,1,0,0:0:0:0:
187,146,429405,1,2,0:3:0:0:
237,39,429576,1,8,0:0:0:0:
418,140,429747,1,0,0:0:0:0:
387,166,429833,1,0,0:0:0:0:
348,171,429918,5,2,0:3:0:0:
343,29,430089,1,0,0:0:0:0:
359,269,430259,2,0,P|335:223|347:171,1,107.999996704102,8|0,0:0|0:0,0:0:0:0:
325,136,430516,1,2,0:3:0:0:
302,102,430601,1,2,0:3:0:0:
266,85,430687,1,0,0:0:0:0:
226,88,430772,1,2,0:3:0:0:
79,149,430943,1,8,0:0:0:0:
189,306,431114,1,0,0:0:0:0:
189,306,431200,1,0,0:0:0:0:
189,306,431285,6,0,P|201:286|206:252,1,53.9999983520508,2|0,0:3|0:0,0:0:0:0:
169,39,431456,2,0,P|157:59|152:93,1,53.9999983520508
274,212,431627,2,0,P|278:161|323:136,1,107.999996704102,8|0,0:0|0:0,0:0:0:0:
364,314,431883,1,2,0:3:0:0:
364,314,431969,2,0,P|350:292|340:243,1,53.9999983520508,2|0,0:3|0:0,0:0:0:0:
297,63,432140,1,2,0:3:0:0:
140,246,432311,6,0,B|161:241|161:241|182:247|182:247|203:242|203:242|225:246|225:246|247:244,1,107.999996704102,8|0,0:0|0:0,0:0:0:0:
0,169,432653,6,0,P|27:175|47:169,1,40.4999987640381
60,169,432994,6,0,P|28:242|119:354,1,233.999989288331,12|2,0:0|0:0,0:0:0:0:
141,131,433507,1,2,0:3:0:0:
358,181,433678,6,0,P|285:149|204:201,1,180,8|2,0:0|0:0,0:0:0:0:
416,251,434191,1,2,0:3:0:0:
134,254,434362,6,0,P|207:286|288:234,1,180,8|2,0:0|0:0,0:0:0:0:
116,155,434875,1,2,0:3:0:0:
224,96,435046,6,0,B|209:119|176:126|176:126|129:103|56:128|56:128|27:147|79:164|126:152,1,270
146,181,435388,5,2,0:3:0:0:
157,34,435559,1,0,0:0:0:0:
157,34,435644,1,0,0:0:0:0:
157,34,435730,1,8,0:0:0:0:
297,41,435900,2,0,L|351:45,2,45,0|0|2,0:0|0:0|0:0,0:0:0:0:
97,104,436242,1,2,0:3:0:0:
316,167,436413,2,0,L|443:189,1,90,8|0,0:0|0:0,0:0:0:0:
232,256,436755,6,0,B|174:266|174:266|161:274|161:274|90:281,1,135.000005149842,2|0,0:0|0:3,0:0:0:0:
3,211,437097,2,0,B|130:199|130:199|146:191|146:191|281:170,1,270.000010299683,8|2,0:0|0:0,0:0:0:0:
307,314,437610,1,2,0:3:0:0:
335,108,437781,1,8,0:0:0:0:
376,256,437952,1,0,0:0:0:0:
213,98,438123,6,0,P|165:94|96:99,1,90,4|0,0:0|0:0,0:0:0:0:
100,97,438379,1,0,0:0:0:0:
78,101,438465,1,8,0:0:0:0:
125,229,438636,2,0,P|127:251|125:282,2,45,0|0|2,0:0|0:0|0:0,0:0:0:0:
0,149,438977,1,2,0:3:0:0:
213,98,439148,6,0,B|270:94|270:94|336:109|336:109|396:102,1,180,8|2,0:0|0:0,0:0:0:0:
264,184,439661,1,2,0:3:0:0:
177,61,439832,6,0,B|122:54|122:54|56:69|56:69|0:65,1,180,8|2,0:0|0:0,0:0:0:0:
126,145,440345,1,2,0:3:0:0:
262,35,440516,1,8,0:0:0:0:
315,109,440687,1,0,0:0:0:0:
177,220,440858,6,0,P|131:236|65:212,1,90,2|0,0:3|0:0,0:0:0:0:
230,145,441200,1,8,0:0:0:0:
267,229,441371,2,0,P|268:255|265:276,1,45
200,335,441541,1,2,0:0:0:0:
126,145,441712,1,2,0:3:0:0:
321,154,441883,5,8,0:0:0:0:
281,72,442054,2,0,L|288:8,2,45,0|0|2,0:0|0:0|0:0,0:0:0:0:
267,229,442396,1,2,0:3:0:0:
410,149,442567,5,8,0:0:0:0:
371,64,442738,1,0,0:0:0:0:
373,41,442824,1,0,0:0:0:0:
375,19,442909,1,2,0:0:0:0:
365,230,443080,1,2,0:3:0:0:
231,146,443251,1,10,0:0:0:0:
177,218,443422,1,0,0:0:0:0:
164,236,443507,1,0,0:0:0:0:
151,254,443593,6,0,L|55:268,1,90,4|0,0:0|0:0,0:0:0:0:
141,134,443935,1,8,0:0:0:0:
177,218,444106,1,0,0:0:0:0:
184,239,444191,1,0,0:0:0:0:
191,260,444277,1,2,0:0:0:0:
231,146,444447,1,2,0:3:0:0:
277,294,444618,5,8,0:0:0:0:
329,221,444789,1,0,0:0:0:0:
322,200,444875,1,0,0:0:0:0:
315,179,444960,1,2,0:0:0:0:
411,262,445131,1,2,0:3:0:0:
367,104,445302,5,8,0:0:0:0:
448,144,445473,1,0,0:0:0:0:
455,165,445559,1,0,0:0:0:0:
462,186,445644,1,2,0:0:0:0:
504,71,445815,1,2,0:3:0:0:
296,46,445986,6,0,B|200:44|200:44|123:83|123:83|19:77,1,270,8|0,0:0|0:0,0:0:0:0:
70,162,446328,6,0,L|177:169,1,90,2|0,0:3|0:0,0:0:0:0:
182,169,446584,1,0,0:0:0:0:
204,170,446670,1,8,0:0:0:0:
322,205,446841,2,0,L|366:208,2,45,0|0|2,0:0|0:0|0:0,0:0:0:0:
155,257,447183,1,2,0:3:0:0:
281,122,447353,2,0,B|284:72|284:72|276:20,1,90,8|0,0:0|0:0,0:0:0:0:
65,63,447695,6,0,B|141:90|141:90|195:79,1,135.000005149842,2|2,0:0|0:3,0:0:0:0:
329,129,448037,2,0,B|141:170|141:170|51:144,1,270.000010299683,8|2,0:0|0:0,0:0:0:0:
195,79,448550,2,0,L|340:46,1,135.000005149842,2|8,0:3|0:0,0:0:0:0:
408,88,448892,1,0,0:0:0:0:
360,238,449063,6,0,P|281:263|149:260,1,180,4|8,0:0|0:0,0:0:0:0:
265,175,449576,2,0,P|287:171|308:163,1,45
386,110,449747,1,2,0:0:0:0:
386,110,449832,1,0,0:0:0:0:
386,110,449918,1,2,0:3:0:0:
227,52,450089,6,0,P|172:48|109:73,1,90,8|0,0:0|0:0,0:0:0:0:
117,66,450345,1,0,0:0:0:0:
98,79,450430,1,2,0:0:0:0:
183,208,450601,1,2,0:3:0:0:
216,38,450772,6,0,P|161:34|98:59,1,90,8|0,0:0|0:0,0:0:0:0:
106,52,451029,1,0,0:0:0:0:
87,65,451114,1,2,0:0:0:0:
174,193,451285,1,2,0:3:0:0:
299,64,451456,1,8,0:0:0:0:
354,170,451627,1,0,0:0:0:0:
210,278,451798,6,0,P|156:284|102:249,1,90,2|0,0:3|0:0,0:0:0:0:
107,255,452054,1,0,0:0:0:0:
94,236,452140,1,8,0:0:0:0:
284,224,452311,1,0,0:0:0:0:
293,244,452396,1,0,0:0:0:0:
299,265,452482,1,2,0:0:0:0:
299,288,452567,1,0,0:0:0:0:
295,310,452653,1,2,0:3:0:0:
222,158,452824,5,8,0:0:0:0:
389,216,452994,1,0,0:0:0:0:
399,237,453080,1,0,0:0:0:0:
405,258,453165,1,2,0:0:0:0:
405,281,453251,1,0,0:0:0:0:
401,303,453336,1,2,0:3:0:0:
329,147,453507,5,8,0:0:0:0:
210,278,453678,1,0,0:0:0:0:
187,273,453764,1,0,0:0:0:0:
164,268,453849,2,0,L|57:248,1,90,2|2,0:0|0:3,0:0:0:0:
32,88,454191,2,0,L|139:108,1,90,8|0,0:0|0:0,0:0:0:0:
254,198,454533,6,0,L|212:192,1,40.4999987640381,2|0,0:3|0:0,0:0:0:0:
209,196,454875,6,0,B|238:17|238:17|262:106,1,233.999989288331,4|2,0:1|0:0,0:0:0:0:
312,268,455388,1,2,0:3:0:0:
139,254,455559,6,0,L|46:242,2,90,8|0|2,0:0|0:0|0:0,0:0:0:0:
312,268,456071,1,2,0:3:0:0:
334,96,456242,6,0,L|346:3,2,90,8|0|2,0:0|0:0|0:0,0:0:0:0:
312,268,456755,1,2,0:3:0:0:
484,282,456926,1,8,0:0:0:0:
396,303,457097,1,0,0:0:0:0:
482,104,457268,5,2,0:3:0:0:
293,177,457439,1,0,0:0:0:0:
284,176,457524,1,0,0:0:0:0:
274,175,457610,1,8,0:0:0:0:
121,71,457781,1,0,0:0:0:0:
130,70,457866,1,0,0:0:0:0:
140,69,457952,1,2,0:0:0:0:
75,236,458123,1,2,0:3:0:0:
66,235,458208,1,0,0:0:0:0:
56,234,458294,1,8,0:0:0:0:
207,331,458465,1,0,0:0:0:0:
216,330,458550,1,0,0:0:0:0:
226,329,458636,1,2,0:0:0:0:
172,184,458806,5,2,0:3:0:0:
173,175,458892,1,0,0:0:0:0:
175,164,458977,1,8,0:0:0:0:
370,197,459148,1,0,0:0:0:0:
371,206,459234,1,0,0:0:0:0:
372,216,459319,1,2,0:0:0:0:
309,92,459490,1,2,0:3:0:0:
310,83,459576,1,0,0:0:0:0:
311,73,459661,1,8,0:0:0:0:
224,310,459832,1,0,0:0:0:0:
225,319,459918,1,0,0:0:0:0:
226,329,460003,6,0,B|377:344|377:344|345:324,1,180,4|8,0:0|0:0,0:0:0:0:
158,246,460516,1,0,0:0:0:0:
149,246,460601,1,0,0:0:0:0:
140,247,460687,1,2,0:0:0:0:
291,198,460858,1,2,0:3:0:0:
84,176,461029,6,0,P|49:251|102:330,1,180,8|2,0:0|0:0,0:0:0:0:
172,161,461541,1,2,0:3:0:0:
96,327,461712,6,0,P|171:362|250:309,1,180,8|2,0:0|0:0,0:0:0:0:
41,255,462225,1,2,0:3:0:0:
247,314,462396,2,0,P|264:261|250:200,1,90,8|0,0:0|0:0,0:0:0:0:
111,92,462738,5,2,0:3:0:0:
240,102,462909,1,0,0:0:0:0:
248,103,462994,1,0,0:0:0:0:
256,104,463080,1,8,0:0:0:0:
78,177,463251,1,0,0:0:0:0:
69,176,463336,1,0,0:0:0:0:
59,175,463422,1,2,0:0:0:0:
50,174,463507,1,0,0:0:0:0:
40,173,463593,1,2,0:3:0:0:
211,260,463764,6,0,B|301:241|301:241|411:255,1,180,8|2,0:0|0:0,0:0:0:0:
204,351,464277,1,2,0:3:0:0:
206,170,464447,6,0,B|296:151|296:151|383:162,1,180,8|2,0:0|0:0,0:0:0:0:
198,260,464960,1,2,0:3:0:0:
201,79,465131,2,0,L|309:57,1,90,8|0,0:0|0:0,0:0:0:0:
505,171,465473,6,0,L|315:157,1,180,4|8,0:0|0:0,0:0:0:0:
377,254,465986,2,0,L|441:259,2,45,0|0|2,0:0|0:0|0:0,0:0:0:0:
443,79,466328,1,2,0:3:0:0:
325,157,466499,6,0,B|282:170|282:170|225:159,2,90,8|0|2,0:0|0:0|0:0,0:0:0:0:
441,47,467012,1,2,0:3:0:0:
323,125,467183,6,0,B|280:138|280:138|223:127,2,90,8|0|2,0:0|0:0|0:0,0:0:0:0:
439,15,467695,1,2,0:3:0:0:
321,93,467866,2,0,B|278:106|278:106|221:95,1,90,8|0,0:0|0:0,0:0:0:0:
132,253,468208,6,0,P|181:264|249:249,1,90,2|0,0:3|0:0,0:0:0:0:
228,257,468465,1,0,0:0:0:0:
236,254,468550,1,8,0:0:0:0:
220,351,468721,2,0,P|197:355|176:354,2,45,0|0|2,0:0|0:0|0:0,0:0:0:0:
364,356,469063,1,2,0:3:0:0:
307,196,469234,6,0,P|266:167|204:165,2,90,8|0|2,0:0|0:0|0:0,0:0:0:0:
379,337,469747,1,2,0:3:0:0:
322,177,469918,6,0,P|281:148|219:146,2,90,8|0|2,0:0|0:0|0:0,0:0:0:0:
394,318,470430,1,2,0:3:0:0:
337,158,470601,2,0,P|296:129|234:127,1,90,8|0,0:0|0:0,0:0:0:0:
429,171,470943,6,0,B|473:48|473:48|433:77,1,180,4|8,0:0|0:0,0:0:0:0:
337,158,471456,1,0,0:0:0:0:
331,165,471541,1,0,0:0:0:0:
325,172,471627,1,2,0:0:0:0:
512,207,471798,1,2,0:3:0:0:
343,67,471969,5,8,0:0:0:0:
407,217,472140,1,0,0:0:0:0:
413,224,472225,1,0,0:0:0:0:
419,231,472311,1,2,0:0:0:0:
270,244,472482,1,2,0:3:0:0:
412,125,472653,5,8,0:0:0:0:
346,295,472824,1,0,0:0:0:0:
340,302,472909,1,0,0:0:0:0:
334,309,472994,1,2,0:0:0:0:
485,295,473165,1,2,0:3:0:0:
325,172,473336,1,8,0:0:0:0:
416,356,473507,1,0,0:0:0:0:
423,362,473593,1,0,0:0:0:0:
430,368,473678,6,0,B|484:293|484:293|375:282,1,180,2|8,0:3|0:0,0:0:0:0:
486,203,474191,2,0,L|483:127,2,45,0|0|2,0:0|0:0|0:0,0:0:0:0:
382,300,474533,1,2,0:3:0:0:
263,200,474704,6,0,L|275:96,2,90,8|0|2,0:0|0:0|0:0,0:0:0:0:
363,282,475217,1,2,0:3:0:0:
466,214,475388,5,8,0:0:0:0:
377,192,475559,1,0,0:0:0:0:
372,191,475644,1,0,0:0:0:0:
367,190,475730,1,2,0:0:0:0:
440,126,475900,1,2,0:3:0:0:
324,108,476071,1,8,0:0:0:0:
306,104,476413,5,0,3:0:0:0:
256,192,496242,12,0,498123,0:0:0:0:
156,218,498294,6,0,L|201:209,3,45,2|0|0|0,0:3|0:0|0:0|0:0,0:0:0:0:
196,289,498636,2,0,L|240:298,5,45,8|0|0|0|2|0,0:0|0:0|0:0|0:0|0:0|0:0,0:0:0:0:
275,230,499148,2,0,L|361:212,1,45,2|0,0:3|0:0,0:0:0:0:
316,301,499319,2,0,L|360:312,3,45,8|0|0|0,0:0|0:0|0:0|0:0,0:0:0:0:
406,250,499661,6,0,L|395:207,3,45,2|0|0|0,0:3|0:0|0:0|0:0,0:0:0:0:
466,179,500003,2,0,L|475:134,5,45,8|0|0|0|2|0,0:0|0:0|0:0|0:0|0:0|0:0,0:0:0:0:
396,129,500516,2,0,L|378:43,1,45,2|0,0:3|0:0,0:0:0:0:
459,60,500687,2,0,L|470:16,3,45,8|0|0|0,0:0|0:0|0:0|0:0,0:0:0:0:
387,85,501029,6,0,L|343:76,3,45,2|0|0|0,0:3|0:0|0:0|0:0,0:0:0:0:
348,156,501371,2,0,L|303:165,5,45,8|0|0|0|2|0,0:0|0:0|0:0|0:0|0:0|0:0,0:0:0:0:
269,97,501883,2,0,L|183:79,1,45,2|0,0:3|0:0,0:0:0:0:
227,167,502054,2,0,L|183:178,3,45,8|0|0|0,0:0|0:0|0:0|0:0,0:0:0:0:
124,106,502396,6,0,L|112:149,3,45,2|0|0|0,0:3|0:0|0:0|0:0,0:0:0:0:
184,178,502738,2,0,L|193:222,5,45,8|0|0|0|2|0,0:0|0:0|0:0|0:0|0:0|0:0,0:0:0:0:
115,227,503251,2,0,L|97:313,1,45,2|0,0:3|0:0,0:0:0:0:
177,297,503422,2,0,L|188:341,3,45,8|0|0|0,0:0|0:0|0:0|0:0,0:0:0:0:
212,368,503764,5,2,0:3:0:0:
226,378,503849,1,0,0:0:0:0:
243,383,503935,1,0,0:0:0:0:
260,384,504020,1,0,0:0:0:0:
278,382,504106,2,0,P|312:369|337:347,5,45,8|0|0|0|2|0,0:0|0:0|0:0|0:0|0:0|0:0,0:0:0:0:
360,299,504618,2,0,P|394:312|419:334,1,45,2|0,0:3|0:0,0:0:0:0:
448,380,504789,2,0,P|482:367|507:345,3,45,8|0|0|0,0:0|0:0|0:0|0:0,0:0:0:0:
500,328,505131,5,2,0:3:0:0:
499,309,505217,1,0,0:0:0:0:
498,291,505302,1,0,0:0:0:0:
497,272,505388,1,0,0:0:0:0:
496,254,505473,2,0,L|492:179,5,45,8|0|0|0|2|0,0:0|0:0|0:0|0:0|0:0|0:0,0:0:0:0:
428,168,505986,2,0,L|425:123,1,45,2|0,0:3|0:0,0:0:0:0:
480,68,506157,2,0,L|479:18,3,45,8|0|0|0,0:0|0:0|0:0|0:0,0:0:0:0:
445,10,506499,5,2,0:3:0:0:
428,17,506584,1,0,0:0:0:0:
410,22,506670,1,0,0:0:0:0:
392,24,506755,1,0,0:0:0:0:
374,27,506841,2,0,P|346:28|315:22,5,45,8|0|0|0|2|0,0:0|0:0|0:0|0:0|0:0|0:0,0:0:0:0:
271,78,507353,2,0,P|243:79|212:73,1,45,2|0,0:3|0:0,0:0:0:0:
157,43,507524,2,0,P|128:39|101:42,3,45,8|0|0|0,0:0|0:0|0:0|0:0,0:0:0:0:
102,75,507866,5,2,0:3:0:0:
96,92,507952,1,0,0:0:0:0:
91,109,508037,1,0,0:0:0:0:
86,126,508123,1,0,0:0:0:0:
79,142,508208,2,0,L|63:187,5,45,8|0|0|0|2|0,0:0|0:0|0:0|0:0|0:0|0:0,0:0:0:0:
137,208,508721,2,0,L|152:250,1,45,2|0,0:3|0:0,0:0:0:0:
75,261,508892,2,0,L|59:303,3,45,8|0|0|0,0:0|0:0|0:0|0:0,0:0:0:0:
96,329,509234,5,2,0:3:0:0:
116,336,509319,1,0,0:0:0:0:
137,341,509405,1,0,0:0:0:0:
159,343,509490,1,0,0:0:0:0:
181,343,509576,2,0,P|211:343|235:337,5,45,8|0|0|0|2|0,0:0|0:0|0:0|0:0|0:0|0:0,0:0:0:0:
285,290,510089,1,2,0:3:0:0:
307,286,510174,1,0,0:0:0:0:
329,287,510259,2,0,P|359:289|393:301,3,45,8|0|0|0,0:0|0:0|0:0|0:0,0:0:0:0:
418,284,510601,5,2,0:3:0:0:
425,264,510687,1,0,0:0:0:0:
430,243,510772,1,0,0:0:0:0:
432,221,510858,1,0,0:0:0:0:
432,199,510943,2,0,P|432:169|426:145,5,45,8|0|0|0|2|0,0:0|0:0|0:0|0:0|0:0|0:0,0:0:0:0:
379,95,511456,1,2,0:3:0:0:
375,73,511541,1,0,0:0:0:0:
376,51,511627,2,0,P|378:21|390:-13,3,45,8|0|0|0,0:0|0:0|0:0|0:0,0:0:0:0:
338,17,511969,5,2,0:3:0:0:
315,21,512054,1,0,0:0:0:0:
293,25,512140,1,0,0:0:0:0:
271,30,512225,1,0,0:0:0:0:
248,35,512311,2,0,L|187:47,5,45,8|0|0|0|2|0,0:0|0:0|0:0|0:0|0:0|0:0,0:0:0:0:
141,91,512824,1,2,0:3:0:0:
119,96,512909,1,0,0:0:0:0:
97,101,512994,2,0,L|39:112,3,45,8|0|0|0,0:0|0:0|0:0|0:0,0:0:0:0:
57,154,513336,5,2,0:3:0:0:
80,158,513422,1,0,0:0:0:0:
102,162,513507,1,0,0:0:0:0:
124,167,513593,1,0,0:0:0:0:
147,172,513678,2,0,L|208:184,5,45,8|0|0|0|2|0,0:0|0:0|0:0|0:0|0:0|0:0,0:0:0:0:
254,228,514191,1,2,0:3:0:0:
276,233,514277,1,0,0:0:0:0:
298,238,514362,2,0,L|356:249,3,45,8|0|0|0,0:0|0:0|0:0|0:0,0:0:0:0:
376,235,514704,5,2,0:3:0:0:
385,219,514789,1,0,0:0:0:0:
391,202,514875,1,0,0:0:0:0:
394,184,514960,1,0,0:0:0:0:
395,166,515046,2,0,P|396:136|390:112,5,45,8|0|0|0|2|0,0:0|0:0|0:0|0:0|0:0|0:0,0:0:0:0:
337,68,515559,2,0,P|314:64|292:66,1,45,2|0,0:3|0:0,0:0:0:0:
247,130,515730,2,0,P|224:133|202:131,3,45,8|0|0|0,0:0|0:0|0:0|0:0,0:0:0:0:
168,120,516071,5,2,0:3:0:0:
150,124,516157,1,0,0:0:0:0:
132,129,516242,1,0,0:0:0:0:
114,133,516328,1,0,0:0:0:0:
96,138,516413,2,0,L|50:147,5,45,8|0|0|0|2|0,0:0|0:0|0:0|0:0|0:0|0:0,0:0:0:0:
120,212,516926,2,0,L|164:220,1,45,2|0,0:3|0:0,0:0:0:0:
44,223,517097,2,0,L|-2:232,3,45,8|0|0|0,0:0|0:0|0:0|0:0,0:0:0:0:
2,268,517439,5,2,0:3:0:0:
8,284,517524,1,0,0:0:0:0:
15,300,517610,1,0,0:0:0:0:
26,314,517695,1,0,0:0:0:0:
39,325,517781,2,0,P|62:340|113:358,5,45,8|0|0|0|2|0,0:0|0:0|0:0|0:0|0:0|0:0,0:0:0:0:
156,342,518294,2,0,P|176:331|194:319,1,45,2|0,0:3|0:0,0:0:0:0:
266,285,518465,2,0,P|286:295|304:307,3,45,8|0|0|0,0:0|0:0|0:0|0:0,0:0:0:0:
329,334,518806,5,2,0:3:0:0:
346,333,518892,1,0,0:0:0:0:
364,332,518977,1,0,0:0:0:0:
381,331,519063,1,0,0:0:0:0:
399,331,519148,2,0,L|465:326,5,45,8|0|0|0|2|0,0:0|0:0|0:0|0:0|0:0|0:0,0:0:0:0:
420,250,519661,2,0,L|375:246,1,45,2|0,0:3|0:0,0:0:0:0:
306,282,519832,2,0,L|261:285,3,45,8|0|0|0,0:0|0:0|0:0|0:0,0:0:0:0:
213,270,520174,5,2,0:3:0:0:
204,268,520259,1,0,0:0:0:0:
195,266,520345,1,0,0:0:0:0:
186,264,520430,1,0,0:0:0:0:
177,262,520516,1,8,0:0:0:0:
168,260,520601,1,0,0:0:0:0:
159,258,520687,1,0,0:0:0:0:
150,256,520772,1,0,0:0:0:0:
141,254,520858,1,2,0:0:0:0:
132,252,520943,1,0,0:0:0:0:
123,250,521029,1,2,0:3:0:0:
114,248,521114,1,0,0:0:0:0:
105,246,521200,2,0,L|63:237,3,26.9999991760254,8|0|0|0,0:0|0:0|0:0|0:0,0:0:0:0:
69,238,521541,5,2,0:3:0:0:
78,236,521627,1,0,0:0:0:0:
87,234,521712,1,0,0:0:0:0:
96,232,521798,1,0,0:0:0:0:
105,230,521883,1,8,0:0:0:0:
114,228,521969,1,0,0:0:0:0:
123,226,522054,1,0,0:0:0:0:
132,224,522140,1,0,0:0:0:0:
141,222,522225,1,2,0:0:0:0:
150,220,522311,1,0,0:0:0:0:
159,218,522396,1,2,0:3:0:0:
168,216,522482,1,0,0:0:0:0:
177,214,522567,2,0,L|219:205,3,26.9999991760254,8|0|0|0,0:0|0:0|0:0|0:0,0:0:0:0:
213,206,522909,5,2,0:3:0:0:
204,204,522994,1,0,0:0:0:0:
195,202,523080,1,0,0:0:0:0:
186,200,523165,1,0,0:0:0:0:
177,198,523251,1,8,0:0:0:0:
168,196,523336,1,0,0:0:0:0:
159,194,523422,1,0,0:0:0:0:
150,192,523507,1,0,0:0:0:0:
141,190,523593,1,2,0:0:0:0:
132,188,523678,1,0,0:0:0:0:
123,186,523764,1,2,0:3:0:0:
114,184,523849,1,0,0:0:0:0:
105,182,523935,2,0,L|63:173,3,26.9999991760254,8|0|0|0,0:0|0:0|0:0|0:0,0:0:0:0:
69,174,524277,5,2,0:3:0:0:
78,172,524362,1,0,0:0:0:0:
87,170,524447,1,0,0:0:0:0:
96,168,524533,1,0,0:0:0:0:
105,166,524618,1,8,0:0:0:0:
114,164,524704,1,0,0:0:0:0:
123,162,524789,1,0,0:0:0:0:
132,160,524875,1,0,0:0:0:0:
141,158,524960,1,2,0:0:0:0:
150,156,525046,1,0,0:0:0:0:
159,154,525131,1,2,0:3:0:0:
168,152,525217,1,0,0:0:0:0:
177,150,525302,2,0,L|219:141,3,26.9999991760254,8|0|0|0,0:0|0:0|0:0|0:0,0:0:0:0:
213,142,525644,5,2,0:3:0:0:
206,158,525730,1,0,0:0:0:0:
203,176,525815,1,0,0:0:0:0:
202,194,525900,1,0,0:0:0:0:
204,212,525986,1,8,0:0:0:0:
209,229,526071,1,0,0:0:0:0:
217,245,526157,1,0,0:0:0:0:
228,260,526242,1,0,0:0:0:0:
240,273,526328,1,2,0:0:0:0:
255,283,526413,1,0,0:0:0:0:
271,291,526499,1,2,0:3:0:0:
288,297,526584,1,0,0:0:0:0:
306,299,526670,2,0,P|339:299|367:287,3,45,8|0|0|0,0:0|0:0|0:0|0:0,0:0:0:0:
374,281,527012,5,2,0:3:0:0:
361,268,527097,1,0,0:0:0:0:
345,258,527183,1,0,0:0:0:0:
328,250,527268,1,0,0:0:0:0:
311,246,527353,1,8,0:0:0:0:
294,244,527439,1,0,0:0:0:0:
276,245,527524,1,0,0:0:0:0:
257,250,527610,1,0,0:0:0:0:
241,256,527695,1,2,0:0:0:0:
227,267,527781,1,0,0:0:0:0:
213,279,527866,1,2,0:3:0:0:
201,292,527952,1,0,0:0:0:0:
193,308,528037,2,0,P|184:333|181:361,3,45,8|0|0|0,0:0|0:0|0:0|0:0,0:0:0:0:
184,379,528379,5,2,0:3:0:0:
191,362,528465,1,0,0:0:0:0:
194,344,528550,1,0,0:0:0:0:
195,326,528636,1,0,0:0:0:0:
193,308,528721,1,8,0:0:0:0:
187,291,528806,1,0,0:0:0:0:
179,275,528892,1,0,0:0:0:0:
169,260,528977,1,0,0:0:0:0:
156,248,529063,1,2,0:0:0:0:
142,237,529148,1,0,0:0:0:0:
126,229,529234,1,2,0:3:0:0:
109,224,529319,1,0,0:0:0:0:
91,221,529405,2,0,P|61:220|31:230,3,45,8|0|0|0,0:0|0:0|0:0|0:0,0:0:0:0:
23,237,529747,5,2,0:3:0:0:
40,244,529832,1,0,0:0:0:0:
58,247,529918,1,0,0:0:0:0:
76,248,530003,1,0,0:0:0:0:
94,246,530089,1,8,0:0:0:0:
111,240,530174,1,0,0:0:0:0:
127,232,530259,1,0,0:0:0:0:
142,222,530345,1,0,0:0:0:0:
154,209,530430,1,2,0:0:0:0:
165,195,530516,1,0,0:0:0:0:
173,179,530601,1,2,0:3:0:0:
178,162,530687,1,0,0:0:0:0:
181,144,530772,2,0,P|180:116|172:91,3,45,8|0|0|0,0:0|0:0|0:0|0:0,0:0:0:0:
163,76,531114,5,2,0:3:0:0:
192,95,531200,1,0,0:0:0:0:
226,107,531285,1,0,0:0:0:0:
262,110,531371,1,0,0:0:0:0:
297,103,531456,1,8,0:0:0:0:
330,87,531541,1,0,0:0:0:0:
357,64,531627,1,0,0:0:0:0:
362,71,531712,1,0,0:0:0:0:
367,78,531798,2,0,L|391:124,1,45,2|0,0:0|0:0,0:0:0:0:
333,171,531969,2,0,L|309:217,1,45,2|0,0:3|0:0,0:0:0:0:
480,181,532140,2,0,L|460:142,1,45,8|0,0:0|0:0,0:0:0:0:
405,229,532311,1,0,0:0:0:0:
408,237,532396,1,0,0:0:0:0:
411,245,532482,5,2,0:3:0:0:
388,273,532567,1,0,0:0:0:0:
359,294,532653,1,0,0:0:0:0:
325,306,532738,1,0,0:0:0:0:
290,308,532824,1,8,0:0:0:0:
254,301,532909,1,0,0:0:0:0:
223,284,532994,1,0,0:0:0:0:
218,292,533080,1,0,0:0:0:0:
213,299,533165,2,0,L|188:344,1,45,2|0,0:0|0:0,0:0:0:0:
166,215,533336,2,0,L|144:175,1,45,2|0,0:3|0:0,0:0:0:0:
111,287,533507,2,0,L|86:332,1,45,8|0,0:0|0:0,0:0:0:0:
60,206,533678,1,0,0:0:0:0:
55,197,533764,1,0,0:0:0:0:
50,189,533849,5,2,0:3:0:0:
55,153,533935,1,0,0:0:0:0:
73,122,534020,1,0,0:0:0:0:
101,100,534106,1,0,0:0:0:0:
135,89,534191,1,8,0:0:0:0:
170,91,534277,1,0,0:0:0:0:
203,107,534362,1,0,0:0:0:0:
227,133,534447,1,0,0:0:0:0:
239,167,534533,1,2,0:0:0:0:
244,131,534618,1,0,0:0:0:0:
262,100,534704,1,2,0:3:0:0:
290,78,534789,1,0,0:0:0:0:
324,67,534875,1,8,0:0:0:0:
359,69,534960,1,0,0:0:0:0:
392,85,535046,1,0,0:0:0:0:
416,111,535131,1,0,0:0:0:0:
428,145,535217,5,2,0:3:0:0:
392,150,535302,1,0,0:0:0:0:
361,168,535388,1,0,0:0:0:0:
339,196,535473,1,0,0:0:0:0:
328,230,535559,1,8,0:0:0:0:
330,265,535644,1,0,0:0:0:0:
346,298,535730,1,0,0:0:0:0:
372,322,535815,1,0,0:0:0:0:
413,330,535900,1,2,0:0:0:0:
408,294,535986,1,0,0:0:0:0:
390,263,536071,1,2,0:3:0:0:
362,241,536157,1,0,0:0:0:0:
328,230,536242,2,0,P|291:231|266:243,3,45,8|0|0|0,0:0|0:0|0:0|0:0,0:0:0:0:
250,272,536584,5,2,0:3:0:0:
232,269,536670,1,0,0:0:0:0:
214,266,536755,1,0,0:0:0:0:
196,263,536841,1,0,0:0:0:0:
178,261,536926,1,8,0:0:0:0:
161,258,537012,1,0,0:0:0:0:
143,255,537097,1,0,0:0:0:0:
125,252,537183,1,0,0:0:0:0:
107,250,537268,1,2,0:0:0:0:
89,247,537353,1,0,0:0:0:0:
72,245,537439,2,0,L|22:238,1,45,2|0,0:3|0:0,0:0:0:0:
113,159,537610,2,0,L|163:152,1,45,8|0,0:0|0:0,0:0:0:0:
254,146,537781,1,0,0:0:0:0:
254,146,537866,1,0,0:0:0:0:
254,146,537952,5,2,0:3:0:0:
262,143,538037,1,0,0:0:0:0:
267,135,538123,1,0,0:0:0:0:
264,127,538208,1,0,0:0:0:0:
256,123,538294,1,8,0:0:0:0:
247,123,538379,1,0,0:0:0:0:
240,127,538465,1,0,0:0:0:0:
235,135,538550,1,0,0:0:0:0:
235,144,538636,1,2,0:0:0:0:
238,152,538721,1,0,0:0:0:0:
243,159,538806,1,2,0:3:0:0:
250,165,538892,1,0,0:0:0:0:
259,168,538977,1,8,0:0:0:0:
268,168,539063,1,0,0:0:0:0:
276,165,539148,1,0,0:0:0:0:
284,162,539234,1,0,0:0:0:0:
291,156,539319,5,0,3:0:0:0:
256,192,539405,12,0,541883,0:0:0:0:
237,189,542054,5,4,0:3:0:0:
200,19,547524,5,2,0:0:0:0:
333,36,548037,1,2,0:0:0:0:
200,53,548550,1,2,0:0:0:0:
306,77,548892,5,2,0:0:0:0:
173,94,549405,1,2,0:0:0:0:
306,112,549918,1,2,0:0:0:0:
200,137,550259,5,2,0:0:0:0:
333,154,550772,1,2,0:0:0:0:
200,172,551285,1,2,0:0:0:0:
333,189,551798,1,2,0:0:0:0:
200,206,552311,1,2,0:0:0:0:
333,224,552824,1,2,0:0:0:0:
227,283,552994,6,0,P|180:285|144:264,1,67.5000025749208,4|0,0:0|0:0,0:0:0:0:
200,206,553336,1,0,0:0:0:0:
200,206,553507,2,0,P|268:212|309:264,1,135.000005149842,2|0,0:0|0:0,0:0:0:0:
285,338,554020,1,2,0:0:0:0:
364,320,554191,2,0,P|389:263|352:182,2,135.000005149842,0|0|2,0:0|0:0|0:0,0:0:0:0:
360,316,555559,5,0,0:0:0:0:
364,320,555730,2,0,L|451:314,1,67.5000025749208,2|0,0:0|0:0,0:0:0:0:
430,230,556071,1,0,0:0:0:0:
426,234,556242,2,0,L|358:238,1,67.5000025749208,2|0,0:0|0:0,0:0:0:0:
355,157,556584,2,0,L|423:153,1,67.5000025749208,0|2,0:0|0:0,0:0:0:0:
286,201,556926,2,0,L|140:208,1,135.000005149842
52,74,557610,6,0,P|85:67|118:70,1,67.5000025749208,2|0,0:0|0:0,0:0:0:0:
189,109,557952,2,0,P|222:115|255:112,1,67.5000025749208,0|2,0:0|0:0,0:0:0:0:
324,70,558294,1,0,0:0:0:0:
324,70,558465,2,0,P|383:54|467:78,1,135.000005149842,2|0,0:0|0:0,0:0:0:0:
493,141,558977,1,2,0:0:0:0:
426,283,559490,6,0,L|414:197,1,67.5000025749208,2|0,0:0|0:0,0:0:0:0:
402,136,559832,1,2,0:0:0:0:
256,192,559918,12,8,563764,0:0:0:0:
210,184,563935,5,4,0:1:0:0:
319,160,564277,5,8,0:0:0:0:
322,173,564447,1,0,0:0:0:0:
324,184,564618,1,0,0:0:0:0:
428,175,564789,5,2,0:3:0:0:
327,197,564960,1,8,0:0:0:0:
330,210,565131,1,0,0:0:0:0:
431,188,565302,6,0,L|444:254,1,67.5000025749208,2|0,0:3|0:0,0:0:0:0:
381,317,565644,1,8,0:0:0:0:
377,321,565815,2,0,L|310:307,1,67.5000025749208
263,223,566157,2,0,L|329:209,1,67.5000025749208,2|8,0:3|0:0,0:0:0:0:
377,127,566499,2,0,L|311:113,1,67.5000025749208,0|2,0:0|0:3,0:0:0:0:
213,99,567012,5,8,0:0:0:0:
210,112,567183,1,0,0:0:0:0:
208,123,567353,1,0,0:0:0:0:
104,114,567524,5,2,0:3:0:0:
205,136,567695,1,8,0:0:0:0:
202,149,567866,1,0,0:0:0:0:
101,127,568037,6,0,L|88:193,1,67.5000025749208,2|0,0:3|0:0,0:0:0:0:
169,46,568379,1,8,0:0:0:0:
289,191,568550,2,0,L|302:257,1,67.5000025749208
439,71,568892,2,0,L|452:5,1,67.5000025749208,2|8,0:3|0:0,0:0:0:0:
457,165,569234,6,0,B|422:162|422:162|390:152,1,67.5000025749208,0|2,0:0|0:3,0:0:0:0:
278,55,569576,2,0,B|313:58|313:58|345:68,1,67.5000025749208,0|8,0:0|0:0,0:0:0:0:
235,142,569918,2,0,B|202:116|202:116|183:75|183:75|188:14,1,135.000005149842,0|2,0:0|0:3,0:0:0:0:
190,23,570430,1,8,0:0:0:0:
96,54,570601,1,0,0:0:0:0:
96,54,570772,6,0,L|88:145,1,67.5000025749208,2|0,0:3|0:0,0:0:0:0:
164,181,571114,2,0,L|158:248,1,67.5000025749208,8|0,0:0|0:0,0:0:0:0:
72,289,571456,2,0,L|64:380,1,67.5000025749208,0|2,0:0|0:3,0:0:0:0:
231,309,571798,1,8,0:0:0:0:
158,248,571969,1,0,0:0:0:0:
302,374,572140,6,0,P|380:376|446:356,1,135.000005149842,2|8,0:3|0:0,0:0:0:0:
434,361,572994,5,2,0:3:0:0:
399,211,573165,1,8,0:0:0:0:
399,211,573507,6,0,P|321:209|255:229,1,135.000005149842,2|8,0:3|0:0,0:0:0:0:
266,223,574362,5,2,0:3:0:0:
293,71,574533,1,8,0:0:0:0:
298,59,574875,5,2,0:3:0:0:
298,211,575217,5,8,0:0:0:0:
215,229,575388,1,0,0:0:0:0:
149,177,575559,1,0,0:0:0:0:
215,40,575730,5,2,0:3:0:0:
334,135,575900,1,8,0:0:0:0:
298,59,576071,1,0,0:0:0:0:
149,92,576242,6,0,P|118:91|74:77,1,67.5000025749208,2|0,0:3|0:0,0:0:0:0:
215,40,576584,1,8,0:0:0:0:
215,40,576755,2,0,P|246:41|290:55,1,67.5000025749208
260,172,577097,2,0,P|227:170|195:161,1,67.5000025749208,2|8,0:3|0:0,0:0:0:0:
331,122,577439,2,0,P|362:123|406:137,1,67.5000025749208,0|2,0:0|0:3,0:0:0:0:
341,313,577952,5,8,0:0:0:0:
260,313,578123,1,0,0:0:0:0:
219,242,578294,1,0,0:0:0:0:
381,242,578465,5,2,0:3:0:0:
260,172,578636,1,8,0:0:0:0:
341,172,578806,1,0,0:0:0:0:
219,242,578977,6,0,L|142:233,1,67.5000025749208,2|0,0:3|0:0,0:0:0:0:
301,103,579319,1,8,0:0:0:0:
381,242,579490,2,0,L|372:319,1,67.5000025749208
219,242,579832,2,0,L|228:165,1,67.5000025749208,2|8,0:3|0:0,0:0:0:0:
301,103,580174,1,0,0:0:0:0:
155,106,580345,5,2,0:3:0:0:
301,103,580687,1,2,0:3:0:0:
155,106,581029,1,2,0:3:0:0:
301,103,581371,1,2,0:3:0:0:
158,231,581712,6,0,L|71:239,1,67.5000025749208,2|0,0:3|0:0,0:0:0:0:
313,238,582054,2,0,L|400:246,1,67.5000025749208,2|0,0:3|0:0,0:0:0:0:
148,221,582396,2,0,L|61:229,1,67.5000025749208,2|0,0:3|0:0,0:0:0:0:
323,228,582738,2,0,L|410:236,1,67.5000025749208,2|0,0:3|0:0,0:0:0:0:
234,264,583080,5,2,0:3:0:0:
188,67,583251,1,2,0:3:0:0:
390,234,583422,1,2,0:3:0:0:
457,42,583593,1,2,0:3:0:0:
265,227,583764,5,2,0:3:0:0:
216,32,583935,1,2,0:3:0:0:
415,200,584106,1,2,0:3:0:0:
481,11,584277,1,2,0:3:0:0:
285,115,584447,6,0,L|225:125,1,33.7500012874604,2|0,0:3|0:0,0:0:0:0:
415,200,584618,2,0,L|475:210,1,33.7500012874604,2|0,0:3|0:0,0:0:0:0:
265,227,584789,2,0,L|205:237,1,33.7500012874604,2|0,0:3|0:0,0:0:0:0:
395,312,584960,2,0,L|455:322,1,33.7500012874604,2|0,0:3|0:0,0:0:0:0:
265,343,585131,5,2,3:0:0:0:
254,343,585217,1,2,3:0:0:0:
243,343,585302,1,2,3:0:0:0:
232,343,585388,1,2,3:0:0:0:
221,343,585473,6,0,L|172:343,1,40.4999987640381,8|0,0:0|0:0,0:0:0:0:
174,343,585815,6,0,B|142:258|176:268|166:184|166:184|140:210,1,198.000006042481,2|10,0:3|0:0,0:0:0:0:
63,303,586328,1,2,0:0:0:0:
260,285,586499,2,0,P|307:279|386:284,1,99.0000030212403,2|2,0:0|0:3,0:0:0:0:
140,209,586841,2,0,P|87:204|14:208,1,99.0000030212403,10|0,0:0|0:0,0:0:0:0:
254,143,587183,6,0,L|265:34,1,99.0000030212403,2|0,0:3|0:0,0:0:0:0:
140,209,587524,2,0,L|129:100,1,99.0000030212403,10|0,0:0|0:0,0:0:0:0:
376,176,587866,2,0,L|387:67,1,99.0000030212403,2|2,0:0|0:3,0:0:0:0:
263,241,588208,2,0,L|252:132,1,99.0000030212403,10|0,0:0|0:0,0:0:0:0:
355,270,588550,5,2,0:3:0:0:
355,270,588892,1,10,0:0:0:0:
449,239,589063,1,2,0:0:0:0:
376,176,589234,1,2,0:0:0:0:
428,333,589405,1,2,0:3:0:0:
466,144,589576,2,0,L|468:41,1,99.0000030212403,10|0,0:0|0:0,0:0:0:0:
285,204,589918,6,0,L|151:197,1,99.0000030212403,2|0,0:3|0:0,0:0:0:0:
40,192,590259,1,10,0:0:0:0:
116,133,590430,1,2,0:0:0:0:
110,258,590601,1,2,0:0:0:0:
27,97,590772,1,2,0:3:0:0:
18,286,590943,2,0,P|44:327|87:352,1,99.0000030212403,10|0,0:0|0:0,0:0:0:0:
186,198,591285,6,0,B|252:190|252:190|320:204|320:204|402:195,1,198.000006042481,2|10,0:3|0:0,0:0:0:0:
323,103,591798,1,2,0:0:0:0:
248,292,591969,2,0,L|354:312,1,99.0000030212403,2|2,0:0|0:3,0:3:0:0:
323,103,592311,2,0,L|221:84,1,99.0000030212403,10|0,0:0|0:0,0:3:0:0:
387,181,592653,6,0,P|421:125|422:87,1,99.0000030212403,2|0,0:3|0:0,0:0:0:0:
309,246,592994,2,0,P|365:280|403:281,1,99.0000030212403,10|0,0:0|0:0,0:0:0:0:
245,168,593336,2,0,P|211:224|210:262,1,99.0000030212403,2|2,0:0|0:3,0:0:0:0:
323,103,593678,2,0,P|267:69|229:68,1,99.0000030212403,10|0,0:0|0:0,0:0:0:0:
83,197,594020,5,2,0:3:0:0:
83,197,594362,1,10,0:0:0:0:
154,125,594533,1,2,0:0:0:0:
56,99,594704,1,2,0:0:0:0:
105,296,594875,1,2,0:3:0:0:
252,151,595046,1,10,0:0:0:0:
252,151,595388,5,2,0:3:0:0:
181,225,595559,1,2,0:0:0:0:
56,99,595730,1,10,0:0:0:0:
56,99,596071,5,2,0:3:0:0:
105,296,596242,1,2,0:3:0:0:
252,151,596413,1,8,0:0:0:0:
203,322,596584,1,2,0:3:0:0:
154,125,596755,1,2,0:3:0:0:
154,125,597097,5,10,0:0:0:0:
252,151,597268,1,2,0:0:0:0:
350,177,597439,1,2,0:0:0:0:
181,222,597610,1,2,0:3:0:0:
322,79,597781,2,0,L|451:71,1,99.0000030212403,10|0,0:0|0:0,0:0:0:0:
154,125,598123,6,0,P|100:125|34:176,1,99.0000030212403,2|0,0:3|0:0,0:0:0:0:
349,176,598465,2,0,P|403:176|469:227,1,99.0000030212403,10|0,0:0|0:0,0:0:0:0:
186,219,598806,2,0,P|132:219|66:270,1,99.0000030212403,2|2,0:0|0:3,0:0:0:0:
282,292,599148,2,0,P|331:293|376:273,1,99.0000030212403,10|0,0:0|0:0,0:0:0:0:
254,145,599490,5,2,0:3:0:0:
254,145,599832,1,10,0:0:0:0:
186,219,600003,1,2,0:0:0:0:
118,293,600174,1,2,0:0:0:0:
157,123,600345,1,2,0:3:0:0:
281,248,600516,2,0,P|256:290|215:316,1,99.0000030212403,10|0,0:0|0:0,0:0:0:0:
87,196,600858,6,0,P|39:229|17:283,1,99.0000030212403,2|0,0:3|0:0,0:0:0:0:
118,293,601200,1,10,0:0:0:0:
186,219,601371,1,2,0:0:0:0:
254,145,601541,1,2,0:0:0:0:
214,316,601712,1,2,0:3:0:0:
157,123,601883,2,0,L|128:20,1,99.0000030212403,10|0,0:0|0:0,0:0:0:0:
343,119,602225,6,0,B|356:140|356:140|254:145|254:145|298:46,1,198.000006042481,2|10,0:3|0:0,0:0:0:0:
315,0,602738,1,2,0:0:0:0:
343,119,602909,1,2,0:0:0:0:
183,216,603080,1,2,0:3:0:0:
381,303,603251,2,0,L|479:298,1,99.0000030212403,10|0,0:0|0:0,0:0:0:0:
278,199,603593,6,0,B|218:199|218:199|142:236,1,99.0000030212403,2|0,0:3|0:0,0:0:0:0:
62,127,603935,2,0,B|122:127|122:127|158:110,1,99.0000030212403,10|0,0:0|0:0,0:0:0:0:
353,82,604277,2,0,B|318:100|318:100|258:100,1,99.0000030212403,2|2,0:0|0:3,0:0:0:0:
371,188,604618,2,0,B|406:170|406:170|466:170,1,99.0000030212403,10|0,0:0|0:0,0:0:0:0:
385,316,604960,5,2,0:3:0:0:
255,179,605302,5,10,0:0:0:0:
282,302,605473,1,2,0:0:0:0:
191,256,605644,1,2,0:0:0:0:
345,225,605815,1,2,0:3:0:0:
97,275,605986,1,10,0:0:0:0:
255,179,606328,5,2,0:3:0:0:
199,357,606499,1,2,0:0:0:0:
137,118,606670,1,10,0:0:0:0:
349,174,607012,5,2,1:3:0:0:
137,230,607183,1,2,1:3:0:0:
426,308,607353,1,8,1:2:0:0:
334,151,607524,1,2,3:0:0:0:
342,163,607610,1,2,3:0:0:0:
349,174,607695,1,2,3:0:0:0:
35,215,608037,5,8,1:2:0:0:
90,289,608208,2,0,L|179:291,1,90,0|2,0:0|0:0,0:0:0:0:
265,284,608550,2,0,P|216:276|176:294,1,90,2|8,0:3|0:0,0:0:0:0:
265,284,608892,2,0,L|356:276,1,90,0|2,0:0|0:3,0:0:0:0:
327,165,609234,6,0,P|281:180|235:169,2,90,0|8|0,0:0|0:0|0:0,0:0:0:0:
278,90,609747,1,2,0:0:0:0:
155,197,609918,1,2,0:3:0:0:
360,251,610089,2,0,P|399:221|417:168,1,90,8|0,0:0|0:0,0:0:0:0:
219,259,610430,5,2,0:3:0:0:
219,259,610601,1,0,0:0:0:0:
170,89,610772,1,8,0:0:0:0:
247,136,610943,2,0,P|291:146|349:127,1,90,0|2,0:0|0:0,0:0:0:0:
410,87,611285,1,2,0:3:0:0:
348,226,611456,1,8,0:0:0:0:
415,288,611627,1,0,0:0:0:0:
415,288,611798,6,0,B|356:310|356:310|271:298,1,135,2|0,0:3|0:0,0:0:0:0:
240,290,612140,1,8,0:0:0:0:
240,290,612311,2,0,B|197:294|197:294|157:313|157:313|105:302,1,135
85,265,612653,2,0,P|41:257|0:272,2,90,2|8|0,0:3|0:0|0:0,0:0:0:0:
280,358,613165,6,0,B|307:374|372:365|372:365|349:326|317:273|251:294,1,233.999989288331,4|8,0:1|0:0,0:0:0:0:
286,205,613678,6,0,P|371:233|433:298,1,180,0|2,0:0|0:3,0:0:0:0:
437,302,614191,1,8,0:0:0:0:
374,79,614533,6,0,B|345:83|316:68|316:68|360:139|489:90,1,215.999993408203,4|8,0:1|0:0,0:0:0:0:
459,192,615046,6,0,P|371:198|285:167,1,180,0|2,0:0|0:3,0:0:0:0:
281,163,615559,1,8,0:0:0:0:
128,286,615900,6,0,B|145:220|121:167|121:167|165:171|204:158,1,198.000006042481,4|8,0:1|0:0,0:0:0:0:
230,55,616413,6,0,P|187:78|59:64,1,180,0|2,0:0|0:3,0:0:0:0:
56,61,616926,1,8,0:0:0:0:
285,143,617268,6,0,P|321:174|346:142,1,90,2|0,1:3|0:0,0:0:0:0:
224,152,617610,2,0,P|257:175|284:144,1,90,8|0,1:2|0:0,0:0:0:0:
164,161,617952,6,0,P|197:184|224:153,1,90,2|0,1:3|0:0,0:0:0:0:
182,62,618123,2,0,P|148:38|121:69,1,90,2|0,1:3|0:0,0:0:0:0:
103,166,618294,1,8,1:2:0:0:
60,76,618465,2,0,P|87:45|121:69,1,90,2|0,1:3|0:0,0:0:0:0:
164,161,618636,6,0,L|180:255,1,90,2|0,0:3|0:0,0:0:0:0:
103,370,618977,1,8,0:0:0:0:
238,319,619148,2,0,P|294:307|351:323,1,90,0|2,0:0|0:0,0:0:0:0:
485,349,619490,2,0,L|473:259,1,90,2|8,0:3|0:0,0:0:0:0:
412,193,619832,2,0,L|326:221,1,90,0|2,0:0|0:3,0:0:0:0:
490,83,620174,6,0,L|500:173,2,90,0|8|0,0:0|0:0|0:0,0:0:0:0:
436,12,620687,1,2,0:0:0:0:
330,120,620858,1,2,0:3:0:0:
152,40,621029,2,0,P|192:22|236:31,1,90,8|0,0:0|0:0,0:0:0:0:
224,228,621371,5,2,0:3:0:0:
224,228,621541,1,0,0:0:0:0:
403,172,621712,1,8,0:0:0:0:
317,180,621883,2,0,P|336:227|393:259,1,90,0|2,0:0|0:0,0:0:0:0:
490,164,622225,1,2,0:3:0:0:
353,96,622396,1,8,0:0:0:0:
368,6,622567,1,0,0:0:0:0:
403,172,622738,6,0,B|408:214|367:251|367:251|328:227|317:179,1,180,2|8,0:3|0:0,0:0:0:0:
324,320,623251,2,0,P|373:333|411:320,1,90,0|2,0:0|0:0,0:0:0:0:
228,273,623593,2,0,L|230:374,1,90,2|8,0:3|0:0,0:0:0:0:
229,362,623935,1,0,0:0:0:0:
73,248,624106,6,0,B|55:212|60:184|60:184|153:178|164:258|117:315,1,233.999989288331,4|8,0:1|0:0,0:0:0:0:
201,171,624618,6,0,P|141:122|23:115,1,180,0|2,0:0|0:3,0:0:0:0:
37,112,625131,1,8,0:0:0:0:
219,245,625473,6,0,B|286:253|286:253|357:217|357:217|443:220,1,215.999993408203,4|8,0:1|0:0,0:0:0:0:
350,320,625986,6,0,L|284:142,1,180,0|2,0:0|0:3,0:0:0:0:
285,146,626499,1,8,0:0:0:0:
77,140,626841,6,0,B|56:112|56:112|65:234|65:234|89:266,1,198.000006042481,4|8,0:1|0:0,0:0:0:0:
165,270,627353,6,0,B|171:242|137:204|137:204|136:187|136:187|165:149|144:103,1,180,0|2,0:0|0:3,0:0:0:0:
140,98,627866,1,8,0:0:0:0:
421,54,628208,6,0,L|446:148,1,90,2|0,0:3|0:0,0:0:0:0:
281,228,628550,2,0,L|233:44,1,180,8|2,0:0|0:0,0:0:0:0:
346,118,629063,1,2,0:3:0:0:
171,165,629234,1,8,0:0:0:0:
156,171,629405,1,0,0:0:0:0:
141,177,629576,6,0,B|124:187|124:187|184:194|184:194|226:178|226:178|300:188,1,180,2|8,0:3|0:0,0:0:0:0:
434,135,630089,2,0,B|394:121|394:121|343:117,1,90,0|2,0:0|0:0,0:0:0:0:
183,98,630430,1,2,0:3:0:0:
236,268,630601,1,8,0:0:0:0:
270,69,630772,1,0,0:0:0:0:
447,152,630943,6,0,B|458:185|454:212|454:212|407:264|407:264|403:303|415:321,1,180,2|8,0:3|0:0,0:0:0:0:
498,298,631456,1,0,0:0:0:0:
363,180,631627,1,2,0:0:0:0:
271,323,631798,1,2,0:3:0:0:
498,298,631969,1,8,0:0:0:0:
338,265,632140,1,0,0:0:0:0:
450,154,632311,6,0,P|413:104|296:117,1,180,2|8,0:3|0:0,0:0:0:0:
274,195,632824,1,0,0:0:0:0:
363,180,632994,1,0,0:0:0:0:
248,41,633165,1,2,0:3:0:0:
210,259,633336,2,0,L|236:380,1,90,8|0,0:0|0:0,0:0:0:0:
101,237,633678,6,0,B|92:191|92:191|108:130,1,90,2|0,0:3|0:0,0:0:0:0:
248,41,634020,2,0,B|283:20|283:20|258:118|258:118|218:147,1,180,8|2,0:0|0:0,0:0:0:0:
292,205,634533,1,2,0:3:0:0:
360,96,634704,2,0,L|379:7,1,90,8|0,0:0|0:0,0:0:0:0:
429,157,635046,5,2,1:3:0:0:
227,140,635388,2,0,L|208:51,1,90,8|0,1:0|0:0,0:0:0:0:
157,199,635730,1,2,1:3:0:0:
314,178,636071,2,0,L|333:89,1,90,8|0,1:0|0:0,0:0:0:0:
384,237,636413,5,2,1:3:0:0:
384,237,636584,1,2,0:0:0:0:
154,227,636755,1,8,1:0:0:0:
407,157,637097,5,2,1:3:0:0:
407,157,637268,1,2,0:0:0:0:
131,145,637439,1,8,1:0:0:0:
430,77,637781,5,2,1:3:0:0:
384,237,637952,1,2,1:3:0:0:
131,145,638123,1,8,1:0:0:0:
349,36,638294,5,2,1:3:0:0:
303,196,638465,1,2,1:3:0:0:
187,77,638636,1,2,1:3:0:0:
432,0,638806,1,8,1:0:0:0:
260,24,638977,5,2,1:3:0:0:
379,149,639148,1,2,1:3:0:0:
133,271,639319,1,8,1:0:0:0:
187,77,639490,5,2,1:3:0:0:
51,229,639661,1,2,1:3:0:0:
248,340,639832,1,8,1:0:0:0:
127,180,640003,5,2,1:3:0:0:
408,208,640174,1,8,1:0:0:0:
408,208,640516,6,0,B|344:184|312:200|263:225|263:225|216:248|185:258|105:236|79:163|119:88|156:65|202:68|227:69|261:89|272:113,1,540,2|2,0:0|0:0,0:0:0:0:
371,63,645986,6,0,B|395:134|468:184|468:184|309:268|309:268|326:178|296:120|232:120|212:138,1,540,2|2,0:0|0:0,0:0:0:0:
110,227,650943,6,0,L|77:183,2,53.9999983520508,0|0|0,0:0|0:0|0:0,0:0:0:0:
77,336,651456,2,0,P|121:240|223:214,1,215.999993408203,2|0,0:0|0:0,0:0:0:0:
235,328,652311,6,0,L|191:360,2,53.9999983520508,0|0|0,0:0|0:0|0:0,0:0:0:0:
344,359,652824,2,0,P|248:314|222:212,1,215.999993408203,2|0,0:0|0:0,0:0:0:0:
335,202,653678,6,0,L|367:245,2,53.9999983520508,0|0|0,0:0|0:0|0:0,0:0:0:0:
366,91,654191,2,0,P|321:186|219:212,1,215.999993408203,2|0,0:0|0:0,0:0:0:0:
210,99,655046,6,0,L|253:66,2,53.9999983520508,0|0|0,0:0|0:0|0:0,0:0:0:0:
99,68,655559,2,0,P|194:112|220:214,1,215.999993408203,2|0,0:0|0:0,0:0:0:0:
128,296,656413,6,0,L|51:291,1,53.9999983520508,0|0,0:0|0:0,0:0:0:0:
204,355,656755,1,0,0:0:0:0:
285,296,656926,2,0,B|333:289|333:289|368:303|368:303|429:273|496:307,1,215.999993408203,2|0,0:0|0:0,0:0:0:0:
448,161,657781,6,0,L|525:156,1,53.9999983520508,0|0,0:0|0:0,0:0:0:0:
372,220,658123,1,0,0:0:0:0:
291,161,658294,2,0,B|243:154|243:154|208:168|208:168|147:138|80:172,1,215.999993408203,2|0,0:0|0:0,0:0:0:0:
140,312,659148,6,0,P|148:286|149:260,1,53.9999983520508,0|0,0:0|0:0,0:0:0:0:
50,270,659490,1,0,0:0:0:0:
203,363,659661,2,0,L|430:354,1,215.999993408203,2|0,0:0|0:0,0:0:0:0:
355,237,660516,6,0,P|346:211|346:184,1,53.9999983520508,0|0,0:0|0:0,0:0:0:0:
445,194,660858,1,0,0:0:0:0:
293,289,661029,2,0,L|66:280,1,215.999993408203,2|0,0:0|0:0,0:0:0:0:
92,139,661883,6,0,L|161:148,1,53.9999983520508,0|0,0:0|0:0,0:0:0:0:
267,82,662225,2,0,L|198:91,1,53.9999983520508,0|2,0:0|0:0,0:0:0:0:
213,88,662738,1,0,0:0:0:0:
213,88,663080,1,0,0:0:0:0:
230,183,663251,6,0,L|299:174,1,53.9999983520508,0|0,0:0|0:0,0:0:0:0:
405,240,663593,2,0,L|336:231,1,53.9999983520508,0|2,0:0|0:0,0:0:0:0:
351,234,664106,1,0,0:0:0:0:
351,234,664447,1,0,0:0:0:0:
266,269,664618,6,0,L|197:278,1,53.9999983520508,0|0,0:0|0:0,0:0:0:0:
91,212,664960,2,0,L|160:221,1,53.9999983520508,0|2,0:0|0:0,0:0:0:0:
145,218,665473,1,0,0:0:0:0:
145,218,665815,1,0,0:0:0:0:
234,183,665986,6,0,L|303:192,1,53.9999983520508,0|0,0:0|0:0,0:0:0:0:
409,126,666328,2,0,L|340:135,1,53.9999983520508,0|2,0:0|0:0,0:0:0:0:
355,132,666841,1,0,0:0:0:0:
355,132,667183,1,0,0:0:0:0:
351,266,667353,6,0,L|360:336,1,53.9999983520508,0|0,0:0|0:0,0:0:0:0:
256,356,667695,1,0,0:0:0:0:
155,319,667866,1,2,1:2:0:0:
49,84,668721,6,0,L|134:92,1,72,0|8,1:0|0:0,0:0:0:0:
256,205,669234,1,0,1:0:0:0:
463,84,670089,6,0,L|378:92,1,72,0|8,1:0|0:0,0:0:0:0:
256,205,670601,1,0,1:0:0:0:
52,91,670943,6,0,P|128:73|211:95,1,144,8|0,0:0|0:0,0:0:0:0:
256,205,671456,1,0,1:0:0:0:
135,261,671627,2,0,P|125:197|129:164,1,72,8|0,0:0|0:0,0:0:0:0:
281,120,671969,6,0,L|338:129,3,36,2|0|0|0,0:0|0:0|0:0|0:0,0:0:0:0:
422,206,672311,2,0,L|361:213,3,36,2|0|0|0,0:0|0:0|0:0|0:0,0:0:0:0:
304,302,672653,2,0,L|361:311,3,36,2|0|2|0,0:0|0:0|0:0|0:0,0:0:0:0:
445,350,672994,1,8,0:0:0:0:
445,350,673336,6,0,P|486:278|467:172,1,180,2|8,1:2|0:0,0:0:0:0:
294,140,673849,1,0,0:0:0:0:
294,140,673935,1,0,0:0:0:0:
294,140,674020,2,0,P|350:170|399:173,1,90,0|0,0:0|1:0,0:0:0:0:
378,52,674362,1,8,0:0:0:0:
200,97,674533,6,0,L|224:291,1,180,2|0,0:0|0:0,0:0:0:0:
120,220,675046,2,0,P|58:206|6:217,1,90,8|0,0:0|0:0,0:0:0:0:
317,248,675388,2,0,P|361:249|404:236,1,90,0|0,0:0|1:0,0:0:0:0:
200,97,675730,1,8,0:0:0:0:
352,161,675900,6,0,P|415:120|415:14,1,180,2|0,0:0|0:0,0:0:0:0:
273,3,676413,1,8,0:0:0:0:
182,132,676584,1,0,0:0:0:0:
184,172,676670,1,0,0:0:0:0:
186,212,676755,1,0,0:0:0:0:
188,252,676841,1,0,0:0:0:0:
190,292,676926,1,0,1:0:0:0:
315,348,677097,2,0,L|429:354,1,90,8|0,0:0|0:0,0:0:0:0:
485,212,677439,6,0,P|404:172|301:211,1,180,0|8,1:0|0:0,0:0:0:0:
190,292,677952,2,0,B|181:324|226:347|263:296|250:244|239:204|196:165,1,180,0|0,0:0|1:0,0:0:0:0:
83,76,678465,2,0,P|136:92|200:84,1,90,8|0,0:0|0:0,0:0:0:0:
411,21,678806,6,0,L|226:33,1,180,2|8,1:2|0:0,0:0:0:0:
117,166,679319,1,0,0:0:0:0:
117,166,679405,1,0,0:0:0:0:
117,166,679490,2,0,L|121:270,1,90,0|0,0:0|1:0,0:0:0:0:
256,330,679832,1,8,0:0:0:0:
391,255,680003,6,0,L|400:70,1,180,2|0,0:0|0:0,0:0:0:0:
159,115,680516,2,0,P|248:132|332:64,1,180,8|0,0:0|0:0,0:0:0:0:
238,220,681029,2,0,P|219:266|233:328,1,90,0|8,1:0|0:0,0:0:0:0:
384,155,681371,6,0,P|403:42|327:-7,1,180,2|0,0:0|0:0,0:0:0:0:
337,239,681883,2,0,L|455:233,1,90,8|0,0:0|0:0,0:0:0:0:
175,239,682225,2,0,L|57:233,1,90,0|0,0:0|1:0,0:0:0:0:
256,157,682567,1,8,0:0:0:0:
328,337,682738,1,0,0:0:0:0:
184,337,682909,6,0,B|43:343|43:343|86:311,1,180,0|8,1:0|0:0,0:0:0:0:
256,157,683422,2,0,B|290:156|340:125|340:125|346:162|374:199,1,135,0|0,0:0|0:0,0:0:0:0:
353,166,683764,1,0,1:0:0:0:
487,32,683935,2,0,L|365:40,1,90,8|0,0:0|0:0,0:0:0:0:
152,54,684277,6,0,P|234:86|321:31,1,180,2|8,1:2|0:0,0:0:0:0:
442,170,684789,1,0,0:0:0:0:
442,170,684875,1,0,0:0:0:0:
442,170,684960,2,0,L|320:164,1,90,0|0,0:0|1:0,0:0:0:0:
157,175,685302,1,8,0:0:0:0:
300,252,685473,6,0,B|367:252|367:252|407:262|407:262|484:264,1,180,2|0,0:0|0:0,0:0:0:0:
308,334,685986,2,0,L|204:334,1,90,8|0,0:0|0:0,0:0:0:0:
81,192,686328,2,0,L|177:192,1,90,0|0,0:0|1:0,0:0:0:0:
308,50,686670,1,8,0:0:0:0:
48,95,686841,6,0,B|90:114|124:99|124:99|149:110|149:110|179:92|226:104,1,180,2|0,0:0|0:0,0:0:0:0:
357,192,687353,1,8,0:0:0:0:
250,288,687524,1,0,0:0:0:0:
211,302,687610,1,0,0:0:0:0:
171,309,687695,1,0,0:0:0:0:
131,299,687781,1,0,0:0:0:0:
94,280,687866,1,0,1:0:0:0:
171,106,688037,2,0,P|183:170|173:206,1,90,8|0,0:0|0:0,0:0:0:0:
115,45,688379,6,0,L|309:66,1,180,0|8,1:0|0:0,0:0:0:0:
425,180,688892,2,0,B|376:193|341:158|341:158|286:183|237:151,1,180,2|0,0:0|1:0,0:0:0:0:
71,267,689405,2,0,P|124:265|178:244,1,90,8|0,0:0|0:0,0:0:0:0:
412,281,689747,6,0,P|310:288|236:328,1,180,2|8,1:2|0:0,0:0:0:0:
163,164,690259,1,0,0:0:0:0:
163,164,690345,1,0,0:0:0:0:
163,164,690430,2,0,L|158:254,1,90,0|0,0:0|1:0,0:0:0:0:
37,204,690772,1,8,0:0:0:0:
109,82,690943,6,0,B|168:60|214:89|214:89|238:77|238:77|292:85,1,180,2|0,0:0|0:0,0:0:0:0:
469,198,691456,2,0,P|369:189|264:190,1,180,8|0,0:0|0:0,0:0:0:0:
423,95,691969,2,0,P|473:86|536:106,1,90,0|8,1:0|0:0,0:0:0:0:
364,268,692311,6,0,P|266:294|186:231,1,180,2|0,0:0|0:0,0:0:0:0:
287,103,692824,2,0,B|302:145|302:145|288:190,1,90,8|0,0:0|0:0,0:0:0:0:
122,153,693165,2,0,L|128:59,1,90,0|0,0:0|1:0,0:0:0:0:
202,256,693507,2,0,L|207:345,1,90,8|0,0:0|0:0,0:0:0:0:
310,381,693849,5,0,1:0:0:0:
410,320,694020,1,0,0:0:0:0:
405,203,694191,1,8,0:0:0:0:
301,148,694362,1,2,0:0:0:0:
272,161,694447,1,0,0:0:0:0:
240,167,694533,1,2,0:0:0:0:
208,163,694618,1,0,0:0:0:0:
179,149,694704,1,0,0:0:0:0:
88,222,694875,2,0,P|107:281|102:321,1,90,10|8,0:0|0:0,0:0:0:0:
105,308,695131,1,0,0:0:0:0:
113,315,695217,6,0,P|189:304|301:307,1,180,2|8,1:2|0:0,0:0:0:0:
441,320,695730,1,0,0:0:0:0:
470,175,695900,2,0,L|456:80,1,90,0|0,0:0|1:0,0:0:0:0:
363,18,696242,1,8,0:0:0:0:
178,155,696413,6,0,P|240:175|351:114,1,180,2|0,0:0|0:0,0:0:0:0:
504,263,696926,2,0,P|422:251|317:251,1,180,8|0,0:0|0:0,0:0:0:0:
151,324,697439,2,0,P|192:314|244:269,1,90,0|8,1:0|0:0,0:0:0:0:
145,73,697781,6,0,P|119:156|173:250,1,180,2|0,0:0|0:0,0:0:0:0:
238,150,698294,1,8,0:0:0:0:
39,78,698465,1,0,0:0:0:0:
40,118,698550,1,0,0:0:0:0:
41,158,698636,1,0,0:0:0:0:
42,198,698721,1,0,0:0:0:0:
43,238,698806,1,0,1:0:0:0:
165,360,698977,2,0,L|156:240,1,90,8|0,0:0|0:0,0:0:0:0:
318,338,699319,6,0,P|261:267|305:169,1,180,0|8,1:0|0:0,0:0:0:0:
440,239,699832,1,0,0:0:0:0:
440,239,699918,1,0,0:0:0:0:
440,239,700003,2,0,B|388:259|388:259|334:243,1,90,0|0,0:0|1:0,0:0:0:0:
421,103,700345,2,0,B|473:83|473:83|527:99,1,90,8|0,0:0|0:0,0:0:0:0:
331,30,700687,6,0,P|226:63|147:12,1,180,2|8,1:2|0:0,0:0:0:0:
36,161,701200,1,0,0:0:0:0:
162,137,701371,1,0,0:0:0:0:
347,245,701541,1,0,1:0:0:0:
220,221,701712,1,8,0:0:0:0:
305,135,701883,6,0,B|371:132|371:132|419:145|419:145|499:143,1,180,2|0,0:0|0:0,0:0:0:0:
389,50,702396,1,8,0:0:0:0:
347,245,702567,1,0,0:0:0:0:
371,276,702653,1,0,0:0:0:0:
406,295,702738,1,0,0:0:0:0:
445,300,702824,1,0,0:0:0:0:
484,289,702909,1,0,1:0:0:0:
483,143,703080,1,8,0:0:0:0:
305,135,703251,6,0,L|88:126,1,180,2|0,0:0|0:0,0:0:0:0:
17,255,703764,2,0,P|86:225|183:311,1,180,8|0,0:0|0:0,0:0:0:0:
87,321,704277,1,0,1:0:0:0:
25,155,704447,2,0,L|35:56,1,90,8|0,0:0|0:0,0:0:0:0:
174,62,704789,6,0,B|257:98|257:98|376:43,1,180,2|8,1:2|0:0,0:0:0:0:
259,182,705302,1,2,0:0:0:0:
261,222,705388,1,0,0:0:0:0:
263,262,705473,1,0,0:0:0:0:
265,302,705559,1,0,0:0:0:0:
267,342,705644,1,2,1:2:0:0:
362,259,705815,2,0,P|409:241|477:249,1,90,10|8,0:0|0:0,0:0:0:0:
166,280,706157,6,0,P|121:278|79:261,1,90,2|2,1:2|0:0,0:0:0:0:
62,127,706499,2,0,P|107:129|149:146,1,90,10|0,0:0|0:0,0:0:0:0:
329,226,706841,2,0,L|207:201,1,90,0|2,0:0|1:2,0:0:0:0:
364,127,707183,2,0,L|486:152,1,90,10|2,0:0|0:0,0:0:0:0:
303,32,707524,6,0,P|218:54|126:1,1,180,2|8,1:2|0:0,0:0:0:0:
13,137,708037,2,0,P|98:115|190:168,1,180,2|0,0:0|1:0,0:0:0:0:
89,312,708550,2,0,P|79:269|87:225,1,90,10|0,0:0|0:0,0:0:0:0:
209,352,708892,6,0,P|294:330|386:383,1,180,2|8,1:2|0:0,0:0:0:0:
499,247,709405,2,0,P|414:269|322:216,1,180,2|0,0:0|1:0,0:0:0:0:
422,71,709918,2,0,P|432:114|425:159,1,90,10|0,0:0|0:0,0:0:0:0:
167,160,710259,6,0,B|215:164|244:199|244:199|264:155|308:138,1,180,2|8,1:2|0:0,0:0:0:0:
168,258,710772,2,0,B|119:262|90:297|90:297|70:253|26:236,1,180,2|0,0:0|1:0,0:0:0:0:
168,355,711285,2,0,L|281:347,1,90,10|8,0:0|0:0,0:0:0:0:
477,255,711627,6,0,P|391:236|297:276,1,180,2|8,1:2|0:0,0:0:0:0:
398,351,712140,1,2,0:0:0:0:
457,168,712311,2,0,L|446:75,1,90,2|0,0:0|1:0,0:0:0:0:
315,121,712653,2,0,L|304:28,1,90,10|0,0:0|0:0,0:0:0:0:
225,213,712994,6,0,P|183:148|211:53,1,180,2|8,1:2|0:0,0:0:0:0:
375,180,713507,1,2,0:0:0:0:
264,296,713678,2,0,P|197:302|157:280,1,90,0|2,0:0|1:2,0:0:0:0:
375,180,714020,2,0,P|348:118|357:73,1,90,10|0,0:0|0:0,0:0:0:0:
495,190,714362,6,0,L|487:373,1,180,2|10,1:2|0:0,0:0:0:0:
264,296,714875,2,0,B|221:288|221:288|372:284,1,180,2|0,0:0|1:0,0:0:0:0:
168,202,715388,2,0,L|59:199,1,90,10|2,0:0|0:0,0:0:0:0:
241,69,715730,5,0,1:0:0:0:
389,85,715900,1,0,1:0:0:0:
316,186,716071,5,8,0:0:0:0:
168,202,716242,1,2,0:0:0:0:
93,53,716413,5,2,1:2:0:0:
241,69,716584,1,8,0:0:0:0:
168,202,716755,5,8,0:0:0:0:
20,218,716926,1,2,1:2:0:0:
241,69,717097,5,4,1:0:0:0:
168,202,717268,1,2,1:3:0:0:
241,69,717439,1,8,1:0:0:0:
324,202,717610,2,0,P|317:283|217:326,1,180,2|2,0:0|0:3,0:0:0:0:
112,329,718123,1,8,0:0:0:0:
194,236,718294,2,0,P|216:234|239:236,1,45,2|0,0:0|0:0,0:0:0:0:
413,287,718465,5,2,1:3:0:0:
381,131,718636,1,2,1:3:0:0:
413,287,718806,1,8,1:0:0:0:
239,236,718977,2,0,P|158:243|115:343,1,180,2|2,0:0|0:3,0:0:0:0:
144,151,719490,2,0,P|126:94|91:66,1,90,10|0,0:0|0:0,0:0:0:0:
0,300,719832,5,2,1:3:0:0:
54,150,720003,1,2,1:3:0:0:
0,300,720174,1,8,1:0:0:0:
149,250,720345,2,0,P|211:243|294:254,1,135,2|0,0:0|0:0,0:0:0:0:
369,263,720687,2,0,P|316:265|272:243,1,90,2|8,0:3|0:0,0:0:0:0:
347,133,721029,2,0,L|337:177,1,45,2|0,0:0|0:0,0:0:0:0:
290,352,721200,5,2,1:3:0:0:
248,167,721371,1,2,1:3:0:0:
290,352,721541,1,8,1:0:0:0:
411,232,721712,2,0,P|431:173|445:98,1,135,2|0,0:0|0:0,0:0:0:0:
441,56,722054,1,2,0:3:0:0:
237,77,722225,1,10,0:0:0:0:
344,140,722396,1,2,0:0:0:0:
290,352,722567,5,2,1:3:0:0:
454,277,722738,1,2,1:3:0:0:
290,352,722909,1,8,1:0:0:0:
223,164,723080,2,0,P|280:129|345:141,1,135,2|0,0:0|0:0,0:0:0:0:
383,223,723422,2,0,P|339:230|297:218,1,90,2|8,0:3|0:0,0:0:0:0:
435,149,723764,1,2,0:0:0:0:
268,48,723935,5,2,1:3:0:0:
100,132,724106,1,2,1:3:0:0:
268,48,724277,1,8,1:0:0:0:
227,214,724447,2,0,P|161:268|62:280,1,180,2|2,0:0|0:3,0:0:0:0:
191,129,724960,2,0,P|234:122|285:142,1,90,10|0,0:0|0:0,0:0:0:0:
426,293,725302,5,0,1:3:0:0:
223,343,725473,1,2,1:3:0:0:
426,293,725644,1,8,1:0:0:0:
284,216,725815,2,0,P|215:211|145:225,1,135,2|0,0:0|0:0,0:0:0:0:
64,205,726157,2,0,P|113:222|172:218,1,90,2|8,0:3|0:0,0:0:0:0:
291,126,726499,2,0,P|314:121|336:122,1,45,2|0,0:0|0:0,0:0:0:0:
413,174,726670,5,2,1:3:0:0:
212,86,726841,1,2,1:3:0:0:
413,174,727012,1,8,1:0:0:0:
314,288,727183,2,0,P|226:270|151:221,1,180,2|2,0:0|0:3,0:0:0:0:
195,354,727695,2,0,P|256:372|316:373,1,90,10|0,0:0|0:0,0:0:0:0:
328,191,728037,6,0,L|318:115,1,45,2|0,1:3|0:0,0:0:0:0:
151,221,728208,2,0,L|156:265,1,45,2|0,1:3|0:0,0:0:0:0:
328,191,728379,1,8,1:2:0:0:
239,113,728550,2,0,L|189:112,1,45,2|0,0:0|0:0,0:0:0:0:
108,141,728721,1,0,0:0:0:0:
108,141,728806,1,0,0:0:0:0:
108,141,728892,2,0,L|84:47,1,90,2|8,0:3|0:0,0:0:0:0:
62,215,729234,1,2,0:0:0:0:
62,215,729319,1,0,0:0:0:0:
62,215,729405,6,0,L|55:269,1,45,2|0,1:3|0:0,0:0:0:0:
234,242,729576,2,0,L|228:197,1,45,2|0,1:3|0:0,0:0:0:0:
50,203,729747,1,8,1:2:0:0:
128,317,729918,2,0,L|187:323,1,45,2|0,0:0|0:0,0:0:0:0:
147,227,730089,1,0,0:0:0:0:
149,218,730174,1,0,0:0:0:0:
151,209,730259,1,2,0:3:0:0:
325,238,730430,2,0,P|309:295|270:327,1,90,10|0,0:0|0:0,0:0:0:0:
411,214,730772,6,0,P|409:190|395:150,1,45,2|0,1:3|0:0,0:0:0:0:
255,180,730943,2,0,P|256:156|271:116,1,45,2|0,1:3|0:0,0:0:0:0:
373,85,731114,1,8,1:2:0:0:
233,32,731285,2,0,P|209:33|169:48,1,45,2|0,0:0|0:0,0:0:0:0:
113,87,731456,1,0,0:0:0:0:
113,87,731541,1,0,0:0:0:0:
113,87,731627,2,0,L|131:181,1,90,2|8,0:3|0:0,0:0:0:0:
79,253,731969,1,2,0:0:0:0:
79,253,732054,1,0,0:0:0:0:
79,253,732140,6,0,L|73:313,1,45,2|0,1:3|0:0,0:0:0:0:
215,260,732311,2,0,L|211:216,1,45,2|0,1:3|0:0,0:0:0:0:
67,241,732482,1,8,1:2:0:0:
160,333,732653,2,0,P|219:350|262:338,1,90,2|0,0:0|0:0,0:0:0:0:
289,170,732994,1,2,0:3:0:0:
130,179,733165,1,10,0:0:0:0:
207,80,733336,1,0,0:0:0:0:
207,80,733422,1,0,0:0:0:0:
207,80,733507,6,0,L|270:107,1,45,2|0,1:3|0:0,0:0:0:0:
289,170,733678,2,0,L|226:197,1,45,2|0,1:3|0:0,0:0:0:0:
207,267,733849,1,8,1:0:0:0:
345,242,734020,2,0,L|444:205,1,90,2|0,0:0|0:0,0:0:0:0:
338,94,734362,2,0,L|425:115,1,90,2|8,0:3|0:0,0:0:0:0:
289,170,734704,1,2,0:0:0:0:
279,169,734789,1,0,0:0:0:0:
270,169,734875,6,0,L|186:163,1,45,2|0,1:3|0:0,0:0:0:0:
135,159,735046,2,0,L|51:153,1,45,2|0,1:3|0:0,0:0:0:0:
3,152,735217,1,8,1:0:0:0:
32,325,735388,2,0,B|48:362|48:362|94:311|48:226,1,180,2|2,0:0|0:3,0:0:0:0:
149,248,735900,2,0,P|158:289|149:357,1,90,10|0,0:0|0:0,0:0:0:0:
307,266,736242,6,0,P|309:231|302:200,1,45,2|0,1:3|0:0,0:0:0:0:
272,137,736413,2,0,P|242:117|212:108,1,45,2|0,1:3|0:0,0:0:0:0:
144,107,736584,1,8,1:0:0:0:
361,147,736755,2,0,P|415:141|455:113,1,90,2|0,0:0|0:0,0:0:0:0:
326,64,737097,1,2,0:3:0:0:
307,220,737268,1,8,0:0:0:0:
466,212,737439,1,2,0:0:0:0:
273,136,737610,5,2,1:3:0:0:
466,212,737781,1,2,1:3:0:0:
273,136,737952,1,8,1:0:0:0:
222,254,738123,1,0,0:0:0:0:
222,254,738208,1,0,0:0:0:0:
222,254,738294,1,2,0:0:0:0:
184,129,738465,1,2,0:3:0:0:
311,270,738636,2,0,P|286:318|246:342,1,90,8|0,0:0|0:0,0:0:0:0:
140,206,738977,5,2,1:3:0:0:
326,181,739148,1,2,1:3:0:0:
140,206,739319,1,8,1:0:0:0:
268,101,739490,2,0,L|326:87,1,45,2|0,0:0|0:0,0:0:0:0:
396,122,739661,1,0,0:0:0:0:
233,191,739832,1,2,0:3:0:0:
213,30,740003,1,8,0:0:0:0:
115,120,740174,2,0,P|89:126|47:124,1,45,2|0,0:0|0:0,0:0:0:0:
1,69,740345,5,2,1:3:0:0:
43,215,740516,1,2,1:3:0:0:
1,69,740687,1,8,1:0:0:0:
166,195,740858,2,0,P|170:240|86:343,1,180,2|2,0:0|0:3,0:0:0:0:
254,177,741371,2,0,P|311:177|347:213,1,90,10|0,0:0|0:0,0:0:0:0:
387,327,741712,5,2,1:3:0:0:
413,150,741883,1,2,1:3:0:0:
387,327,742054,1,8,1:0:0:0:
216,245,742225,2,0,P|173:179|192:124,1,135,2|0,0:0|0:0,0:0:0:0:
254,177,742567,2,0,P|221:134|180:132,1,90,2|8,0:3|0:0,0:0:0:0:
59,182,742909,1,2,0:0:0:0:
204,41,743080,5,2,1:3:0:0:
42,92,743251,1,2,1:3:0:0:
204,41,743422,1,8,1:0:0:0:
254,177,743593,2,0,B|268:210|264:235|264:235|335:237|369:154,1,180,2|2,0:0|0:3,0:0:0:0:
176,223,744106,2,0,P|190:287|219:312,1,90,10|0,0:0|0:0,0:0:0:0:
340,307,744447,5,2,1:3:0:0:
340,307,744618,1,2,1:3:0:0:
381,85,744789,1,8,1:0:0:0:
266,113,744960,2,0,B|195:122|195:122|93:106,1,135,2|0,0:0|0:0,0:0:0:0:
151,36,745302,2,0,B|195:42|195:42|255:38,1,90,2|8,0:3|0:0,0:0:0:0:
407,0,745644,1,2,0:0:0:0:
340,165,745815,5,2,1:3:0:0:
340,165,745986,1,2,1:3:0:0:
151,36,746157,1,8,1:0:0:0:
84,189,746328,2,0,B|79:231|92:245|92:245|160:276|229:241,1,180,2|2,0:0|0:3,0:0:0:0:
56,328,746841,2,0,P|19:301|1:261,1,90,10|0,0:0|0:0,0:0:0:0:
52,103,747183,5,2,1:3:0:0:
52,103,747353,1,2,1:3:0:0:
269,164,747524,1,8,1:0:0:0:
203,55,747695,2,0,P|160:39|116:44,1,90,2|0,0:0|0:0,0:0:0:0:
52,103,747952,1,0,0:0:0:0:
64,121,748037,2,0,P|108:136|160:126,1,90,2|8,0:3|0:0,0:0:0:0:
293,75,748379,2,0,P|318:72|346:76,1,45,2|0,0:0|0:0,0:0:0:0:
406,133,748550,5,2,1:3:0:0:
406,133,748721,1,2,1:3:0:0:
319,345,748892,1,8,1:0:0:0:
188,261,749063,2,0,L|99:247,1,90,2|0,0:0|0:0,0:0:0:0:
52,317,749405,1,2,0:3:0:0:
77,166,749576,1,10,0:0:0:0:
228,191,749747,1,0,0:0:0:0:
203,342,749918,5,2,1:3:0:0:
346,288,750089,1,2,1:3:0:0:
228,191,750259,1,8,1:0:0:0:
371,137,750430,2,0,P|416:126|469:138,1,90,2|0,0:0|0:0,0:0:0:0:
495,217,750772,2,0,P|450:228|397:216,1,90,2|8,0:3|0:0,0:0:0:0:
282,118,751114,1,2,0:0:0:0:
163,245,751285,6,0,L|167:310,1,45,2|0,1:3|0:0,0:0:0:0:
211,367,751456,2,0,L|208:322,1,45,2|0,1:3|0:0,0:0:0:0:
198,201,751627,1,8,1:0:0:0:
350,269,751798,2,0,P|411:203|367:135,1,180,2|2,0:0|0:3,0:0:0:0:
270,247,752311,2,0,P|315:274|376:246,1,90,10|0,0:0|0:0,0:0:0:0:
254,81,752653,6,0,L|187:77,1,45,2|0,1:3|0:0,0:0:0:0:
122,99,752824,2,0,L|166:101,1,45,2|0,1:3|0:0,0:0:0:0:
294,114,752994,1,8,1:0:0:0:
183,226,753165,1,2,0:0:0:0:
183,226,753251,1,0,0:0:0:0:
183,226,753336,1,0,0:0:0:0:
37,131,753507,1,2,0:3:0:0:
21,336,753678,1,8,0:0:0:0:
72,237,753849,1,2,0:0:0:0:
231,298,754020,6,0,P|260:302|304:296,1,45,2|0,1:3|0:0,0:0:0:0:
358,267,754191,2,0,P|329:263|285:269,1,45,2|0,1:3|0:0,0:0:0:0:
191,265,754362,1,8,1:0:0:0:
365,278,754533,2,0,B|406:176|357:197|376:95,1,180,2|2,0:0|0:3,0:0:0:0:
288,212,755046,2,0,P|248:222|187:213,1,90,10|0,0:0|0:0,0:0:0:0:
77,136,755388,5,2,1:3:0:0:
31,288,755559,1,2,1:3:0:0:
77,136,755730,1,8,1:0:0:0:
199,217,755900,2,0,P|144:229|93:221,1,90,2|0,0:0|0:0,0:0:0:0:
238,117,756242,2,0,P|293:105|344:113,1,90,2|8,0:3|0:0,0:0:0:0:
457,184,756584,2,0,P|426:187|399:181,1,45,2|0,0:0|0:0,0:0:0:0:
321,121,756755,5,2,1:3:0:0:
316,271,756926,1,2,1:3:0:0:
321,121,757097,1,8,1:0:0:0:
199,217,757268,1,2,0:0:0:0:
199,217,757353,1,0,0:0:0:0:
199,217,757439,1,0,0:0:0:0:
153,57,757610,1,2,0:3:0:0:
109,247,757781,2,0,L|96:351,1,90,10|0,0:0|0:0,0:0:0:0:
25,275,758037,1,0,0:0:0:0:
26,263,758123,6,0,L|39:188,1,45,2|0,1:3|0:0,0:0:0:0:
100,156,758294,2,0,L|87:81,1,45,2|0,1:3|0:0,0:0:0:0:
22,55,758465,1,8,1:0:0:0:
162,53,758636,1,2,0:0:0:0:
92,111,758806,1,0,0:0:0:0:
232,109,758977,1,2,0:3:0:0:
22,169,759148,2,0,P|21:231|44:264,1,90,8|2,0:0|0:0,0:0:0:0:
144,314,759490,5,2,1:3:0:0:
144,314,759661,1,2,1:3:0:0:
92,111,759832,1,8,1:0:0:0:
318,79,760003,1,2,1:3:0:0:
302,240,760174,1,2,0:0:0:0:
157,63,760345,1,2,1:3:0:0:
141,224,760516,1,8,1:0:0:0:
302,240,760687,1,2,0:0:0:0:
318,79,760858,5,4,0:0:0:0:
396,44,761034,1,0,0:0:0:0:
453,107,761205,1,0,0:0:0:0:
328,164,761376,2,0,L|184:173,1,135.000005149842,2|0,0:2|0:0,0:0:0:0:
412,182,761889,2,0,L|321:188,1,67.5000025749208,2|0,0:2|0:0,0:0:0:0:
453,107,762231,5,0,0:0:0:0:
328,164,762402,2,0,L|337:308,1,135.000005149842,2|0,0:2|0:0,0:0:0:0:
362,274,762829,1,0,0:0:0:0:
362,274,762915,2,0,L|368:365,1,67.5000025749208,2|0,0:2|0:0,0:0:0:0:
226,196,763257,2,0,L|232:287,1,67.5000025749208,2|0,0:2|0:0,0:0:0:0:
145,228,763599,5,2,0:2:0:0:
149,313,763769,1,0,0:0:0:0:
235,336,763940,1,0,0:0:0:0:
226,196,764111,2,0,B|220:141|220:141|223:118|223:118|217:62,1,135.000005149842,2|0,0:2|0:0,0:0:0:0:
267,263,764624,2,0,L|260:192,1,67.5000025749208,2|0,0:2|0:0,0:0:0:0:
319,12,764966,5,0,0:0:0:0:
374,91,765137,2,0,P|309:106|249:79,1,135.000005149842,2|0,0:2|0:0,0:0:0:0:
136,166,765650,1,2,0:2:0:0:
145,181,765735,1,0,0:0:0:0:
157,193,765821,1,0,0:0:0:0:
171,202,765906,1,0,0:0:0:0:
187,208,765992,2,0,L|191:241,1,33.7500012874604,2|0,0:2|0:0,0:0:0:0:
254,302,766163,2,0,L|258:335,1,33.7500012874604
169,326,766334,5,2,0:2:0:0:
339,278,766505,1,0,0:0:0:0:
254,302,766675,1,0,0:0:0:0:
424,254,766846,2,0,P|437:191|413:123,1,135.000005149842,2|0,0:2|0:0,0:0:0:0:
339,278,767359,2,0,L|420:273,1,67.5000025749208,2|0,0:2|0:0,0:0:0:0:
414,125,767701,5,0,0:0:0:0:
319,260,767872,2,0,L|184:267,1,135.000005149842,2|0,0:2|0:0,0:0:0:0:
218,286,768299,1,0,0:0:0:0:
218,286,768385,2,0,P|223:320|217:352,1,67.5000025749208,2|0,0:2|0:0,0:0:0:0:
91,232,768727,2,0,P|84:265|89:298,1,67.5000025749208,2|0,0:2|0:0,0:0:0:0:
184,266,769069,5,2,0:2:0:0:
96,134,769240,1,0,0:0:0:0:
246,189,769411,1,2,0:2:0:0:
91,232,769581,1,0,0:0:0:0:
191,106,769752,5,2,0:2:0:0:
281,281,769923,1,0,0:0:0:0:
345,73,770094,1,2,0:2:0:0:
282,308,770265,1,0,0:0:0:0:
376,189,770436,5,2,0:2:0:0:
168,92,770607,1,0,0:0:0:0:
430,62,770778,1,2,0:2:0:0:
191,106,770949,1,0,0:0:0:0:
378,216,771120,5,2,0:2:0:0:
445,139,771291,1,2,0:2:0:0:
472,332,771462,1,2,0:2:0:0:
333,111,771633,1,2,0:2:0:0:
282,308,771804,6,0,L|271:207,1,99.0000030212403,4|0,0:0|0:0,0:0:0:0:
456,41,772146,2,0,L|445:139,1,99.0000030212403,8|0,0:0|0:0,0:0:0:0:
457,156,772402,1,0,0:0:0:0:
469,173,772487,1,0,0:0:0:0:
200,183,772658,1,2,0:3:0:0:
385,237,772829,2,0,L|395:335,1,99.0000030212403,8|0,0:0|0:0,0:0:0:0:
132,241,773171,6,0,P|113:203|119:145,1,99.0000030212403,2|0,0:3|0:0,0:0:0:0:
456,41,773513,2,0,P|461:89|441:134,1,99.0000030212403,8|0,0:0|0:0,0:0:0:0:
425,149,773769,1,0,0:0:0:0:
410,164,773855,1,0,0:0:0:0:
395,335,774026,1,2,0:3:0:0:
200,183,774197,2,0,L|210:84,1,99.0000030212403,8|0,0:0|0:0,0:0:0:0:
262,345,774539,6,0,P|219:361|160:349,1,99.0000030212403,2|0,0:3|0:0,0:0:0:0:
30,141,774881,1,8,0:0:0:0:
208,266,775052,1,0,0:0:0:0:
208,266,775137,1,0,0:0:0:0:
208,266,775222,1,0,0:0:0:0:
369,76,775393,1,2,0:3:0:0:
119,204,775564,1,8,0:0:0:0:
63,37,775735,1,0,0:0:0:0:
0,245,775906,6,0,L|8:351,1,99.0000030212403,2|0,0:3|0:0,0:0:0:0:
215,167,776248,2,0,L|207:273,1,99.0000030212403,8|0,0:0|0:0,0:0:0:0:
219,286,776505,1,0,0:0:0:0:
230,306,776590,1,0,0:0:0:0:
311,130,776761,1,2,0:3:0:0:
341,339,776932,2,0,P|385:358|434:357,1,99.0000030212403,8|0,0:0|0:0,0:0:0:0:
508,119,777274,6,0,L|310:130,1,198.000006042481,4|8,0:2|0:0,0:0:0:0:
237,263,777787,1,0,0:0:0:0:
261,257,777872,1,0,0:0:0:0:
285,258,777957,1,0,0:0:0:0:
309,264,778043,1,0,0:0:0:0:
330,277,778128,1,2,0:3:0:0:
113,256,778299,1,8,0:0:0:0:
271,357,778470,1,0,0:0:0:0:
83,342,778641,6,0,P|27:292|61:182,1,198.000006042481,2|8,0:3|0:0,0:0:0:0:
190,30,779154,2,0,L|195:81,1,49.5000015106202
239,160,779325,1,0,0:0:0:0:
239,160,779411,1,0,0:0:0:0:
239,160,779496,1,2,0:3:0:0:
196,363,779667,2,0,L|206:264,1,99.0000030212403,8|0,0:0|0:0,0:0:0:0:
392,28,780009,6,0,L|412:233,1,198.000006042481,2|8,0:3|0:0,0:0:0:0:
193,79,780522,1,0,0:0:0:0:
217,70,780607,1,0,0:0:0:0:
241,69,780693,1,0,0:0:0:0:
266,73,780778,1,0,0:0:0:0:
288,84,780864,1,2,0:3:0:0:
179,216,781034,1,8,0:0:0:0:
411,225,781205,1,0,0:0:0:0:
230,296,781376,6,0,B|184:322|135:300|135:300|88:278|35:298,1,198.000006042481,2|8,0:3|0:0,0:0:0:0:
293,364,781889,2,0,P|311:340|319:307,1,49.5000015106202
296,234,782060,1,0,0:0:0:0:
296,234,782146,1,0,0:0:0:0:
296,234,782231,1,2,0:3:0:0:
484,280,782402,1,8,0:0:0:0:
348,70,782573,1,8,0:0:0:0:
179,216,782744,5,4,0:0:0:0:
114,73,782915,1,0,0:0:0:0:
76,262,783086,1,8,0:0:0:0:
241,120,783257,5,0,0:0:0:0:
241,120,783342,1,0,0:0:0:0:
241,120,783428,1,0,0:0:0:0:
447,203,783599,1,2,0:3:0:0:
210,289,783769,1,8,0:0:0:0:
334,106,783940,5,0,0:0:0:0:
334,106,784026,1,0,0:0:0:0:
334,106,784111,1,2,0:3:0:0:
447,203,784282,1,0,0:0:0:0:
423,2,784453,1,8,0:0:0:0:
241,120,784624,5,0,0:0:0:0:
242,157,784710,1,0,0:0:0:0:
244,194,784795,1,0,0:0:0:0:
245,231,784881,1,0,0:0:0:0:
247,268,784966,1,2,0:3:0:0:
295,45,785137,2,0,P|247:28|196:36,1,99.0000030212403,8|0,0:0|0:0,0:0:0:0:
48,197,785479,5,2,0:3:0:0:
245,231,785650,1,0,0:0:0:0:
129,312,785821,1,8,0:0:0:0:
119,89,785992,5,0,0:0:0:0:
119,89,786077,1,0,0:0:0:0:
119,89,786163,1,0,0:0:0:0:
31,317,786334,1,2,0:3:0:0:
20,93,786505,1,8,0:0:0:0:
129,312,786675,5,0,0:0:0:0:
129,312,786761,1,0,0:0:0:0:
129,312,786846,1,2,0:3:0:0:
198,156,787017,1,0,0:0:0:0:
253,361,787188,1,8,0:0:0:0:
321,204,787359,6,0,P|328:177|342:155,1,49.5000015106202
410,108,787530,1,0,0:0:0:0:
410,108,787616,1,0,0:0:0:0:
410,108,787701,1,2,0:3:0:0:
247,49,787872,2,0,L|148:43,1,99.0000030212403,8|0,0:0|0:0,0:0:0:0:
32,196,788214,5,4,0:2:0:0:
129,312,788385,1,0,0:0:0:0:
197,123,788556,1,8,0:0:0:0:
253,361,788727,5,0,0:0:0:0:
253,361,788812,1,0,0:0:0:0:
253,361,788898,1,0,0:0:0:0:
129,312,789069,1,2,0:3:0:0:
323,269,789240,1,8,0:0:0:0:
247,49,789411,5,0,0:0:0:0:
247,49,789496,1,0,0:0:0:0:
247,49,789581,1,2,0:3:0:0:
172,241,789752,1,0,0:0:0:0:
120,31,789923,1,8,0:0:0:0:
279,170,790094,5,0,0:0:0:0:
308,192,790180,1,0,0:0:0:0:
343,203,790265,1,0,0:0:0:0:
380,203,790351,1,0,0:0:0:0:
415,192,790436,1,2,0:3:0:0:
341,10,790607,2,0,L|356:108,1,99.0000030212403,8|0,0:0|0:0,0:0:0:0:
263,271,790949,5,2,0:3:0:0:
437,299,791120,1,0,0:0:0:0:
220,364,791291,1,8,0:0:0:0:
188,183,791462,5,0,0:0:0:0:
188,183,791547,1,0,0:0:0:0:
188,183,791633,1,0,0:0:0:0:
126,377,791804,1,2,0:3:0:0:
73,153,791975,1,8,0:0:0:0:
263,271,792146,5,0,0:0:0:0:
263,271,792231,1,0,0:0:0:0:
263,271,792316,1,2,0:3:0:0:
351,15,792487,1,0,0:0:0:0:
183,12,792658,1,8,0:0:0:0:
400,175,792829,6,0,L|460:187,1,49.5000015106202
512,258,793000,1,0,0:0:0:0:
512,258,793086,1,0,0:0:0:0:
512,258,793171,1,2,0:3:0:0:
498,100,793342,1,8,0:0:0:0:
395,346,793513,1,8,0:0:0:0:
281,186,793684,6,0,L|271:81,1,99.0000030212403,4|0,0:0|0:0,0:0:0:0:
351,15,794026,1,8,0:0:0:0:
374,215,794197,2,0,P|317:275|210:255,1,198.000006042481,0|2,0:0|0:3,0:0:0:0:
127,129,794710,1,8,0:0:0:0:
82,295,794881,1,0,0:0:0:0:
281,186,795052,5,2,0:3:0:0:
31,194,795222,1,0,0:0:0:0:
251,289,795393,1,8,0:0:0:0:
9,304,795564,1,0,0:0:0:0:
9,304,795650,1,0,0:0:0:0:
9,304,795735,1,0,0:0:0:0:
281,186,795906,1,2,0:3:0:0:
127,129,796077,2,0,L|117:25,1,99.0000030212403,8|0,0:0|0:0,0:0:0:0:
426,0,796419,6,0,L|416:98,1,99.0000030212403,2|0,0:3|0:0,0:0:0:0:
486,300,796761,1,8,0:0:0:0:
281,186,796932,2,0,P|195:138|101:156,1,198.000006042481,0|2,0:0|0:3,0:0:0:0:
85,51,797445,1,8,0:0:0:0:
7,202,797616,1,0,0:0:0:0:
176,279,797787,6,0,L|186:377,1,99.0000030212403,2|0,0:3|0:0,0:0:0:0:
281,186,798128,1,8,0:0:0:0:
92,240,798299,1,0,0:0:0:0:
92,240,798385,1,0,0:0:0:0:
92,240,798470,1,0,0:0:0:0:
261,317,798641,1,2,0:3:0:0:
267,141,798812,2,0,L|282:288,1,148.50000453186,8|0,0:0|0:0,0:0:0:0:
261,317,799154,6,0,P|359:303|438:358,1,198.000006042481,4|8,0:2|0:0,0:0:0:0:
407,184,799667,1,0,0:0:0:0:
409,159,799752,1,0,0:0:0:0:
412,134,799838,1,0,0:0:0:0:
414,110,799923,1,0,0:0:0:0:
417,85,800009,1,2,0:3:0:0:
306,163,800180,1,8,0:0:0:0:
253,19,800351,1,0,0:0:0:0:
185,257,800522,6,0,P|140:281|87:280,1,99.0000030212403,2|0,0:3|0:0,0:0:0:0:
130,46,800864,1,8,0:0:0:0:
0,114,801034,2,0,L|59:126,1,49.5000015106202
120,186,801205,1,0,0:0:0:0:
120,186,801291,1,0,0:0:0:0:
120,186,801376,1,2,0:3:0:0:
306,163,801547,1,8,0:0:0:0:
232,335,801718,1,0,0:0:0:0:
377,218,801889,6,0,P|388:125|310:72,1,198.000006042481,2|8,0:3|0:0,0:0:0:0:
312,279,802402,1,0,0:0:0:0:
331,293,802487,1,0,0:0:0:0:
354,302,802573,1,0,0:0:0:0:
379,305,802658,1,0,0:0:0:0:
403,301,802744,1,2,0:3:0:0:
495,223,802915,1,8,0:0:0:0:
306,163,803086,1,0,0:0:0:0:
485,82,803257,5,2,0:3:0:0:
256,41,803428,1,0,0:0:0:0:
398,155,803599,1,8,0:0:0:0:
403,301,803769,2,0,L|406:373,1,49.5000015106202
319,381,803940,1,0,0:0:0:0:
319,381,804026,1,0,0:0:0:0:
319,381,804111,1,2,0:3:0:0:
495,320,804282,1,8,0:0:0:0:
264,243,804453,1,8,0:0:0:0:
466,173,804624,6,0,P|486:140|482:75,1,99.0000030212403,4|0,0:0|0:0,0:0:0:0:
321,15,804966,1,8,0:0:0:0:
204,119,805137,2,0,B|251:93|251:93|402:111,1,198.000006042481,0|2,0:0|0:3,0:0:0:0:
428,260,805650,1,8,0:0:0:0:
484,81,805821,1,0,0:0:0:0:
331,185,805992,5,2,0:3:0:0:
127,175,806163,1,0,0:0:0:0:
286,53,806334,1,8,0:0:0:0:
207,249,806505,1,0,0:0:0:0:
207,249,806590,1,0,0:0:0:0:
207,249,806675,1,0,0:0:0:0:
428,260,806846,1,2,0:3:0:0:
219,117,807017,2,0,B|193:74|193:74|198:19,1,99.0000030212403,8|0,0:0|0:0,0:0:0:0:
478,5,807359,6,0,B|483:54|483:54|457:97,1,99.0000030212403,2|0,0:3|0:0,0:0:0:0:
197,25,807701,1,8,0:0:0:0:
365,230,807872,2,0,L|393:34,1,198.000006042481,0|2,0:0|0:3,0:0:0:0:
197,25,808385,1,8,0:0:0:0:
344,108,808556,1,0,0:0:0:0:
151,143,808727,6,0,L|35:151,1,99.0000030212403,2|0,0:3|0:0,0:0:0:0:
197,25,809069,1,8,0:0:0:0:
295,191,809240,1,0,0:0:0:0:
295,191,809325,1,0,0:0:0:0:
295,191,809411,1,0,0:0:0:0:
482,204,809581,1,2,0:3:0:0:
438,366,809752,2,0,P|467:321|457:228,1,148.50000453186,8|0,0:0|0:0,0:0:0:0:
482,204,810094,6,0,B|381:196|381:196|343:166|343:166|294:161,1,198.000006042481,4|8,0:2|0:0,0:0:0:0:
100,180,810607,1,0,0:0:0:0:
116,161,810693,1,0,0:0:0:0:
127,139,810778,1,0,0:0:0:0:
131,115,810864,1,0,0:0:0:0:
130,90,810949,1,2,0:3:0:0:
15,99,811120,1,8,0:0:0:0:
211,177,811291,1,0,0:0:0:0:
58,254,811462,6,0,L|52:360,1,99.0000030212403,2|0,0:3|0:0,0:0:0:0:
182,275,811804,1,8,0:0:0:0:
306,357,811975,2,0,L|298:297,1,49.5000015106202
343,232,812146,1,0,0:0:0:0:
343,232,812231,1,0,0:0:0:0:
343,232,812316,1,2,0:3:0:0:
182,275,812487,1,8,0:0:0:0:
385,307,812658,1,0,0:0:0:0:
301,157,812829,6,0,L|101:145,1,198.000006042481,2|8,0:3|0:0,0:0:0:0:
360,94,813342,1,0,0:0:0:0:
384,93,813428,1,0,0:0:0:0:
409,92,813513,1,0,0:0:0:0:
434,91,813599,1,0,0:0:0:0:
458,90,813684,1,2,0:3:0:0:
343,232,813855,1,8,0:0:0:0:
479,351,814026,1,0,0:0:0:0:
264,336,814197,5,2,0:3:0:0:
217,130,814368,1,0,0:0:0:0:
139,315,814539,1,8,0:0:0:0:
92,109,814710,2,0,L|80:53,1,49.5000015106202
156,7,814881,1,0,0:0:0:0:
156,7,814966,1,0,0:0:0:0:
156,7,815052,1,2,0:3:0:0:
273,37,815222,1,8,0:0:0:0:
168,200,815393,1,0,0:0:0:0:
280,157,815564,5,4,0:0:0:0:
50,71,826505,6,0,B|134:35|134:35|180:115,1,180,2|2,0:3|0:3,0:0:0:0:
178,111,827872,2,0,B|94:147|94:147|49:70,1,180,2|2,0:3|0:3,0:0:0:0:
462,71,829240,6,0,B|378:35|378:35|332:115,1,180,2|2,0:3|0:3,0:0:0:0:
334,111,830607,2,0,B|418:147|418:147|462:70,1,180,2|2,0:3|0:3,0:0:0:0:
54,317,831975,6,0,B|108:335|108:335|136:283,1,116.999994644165,2|2,0:3|0:3,0:0:0:0:
136,282,832658,2,0,B|82:264|82:264|54:316,1,116.999994644165,2|2,0:3|0:3,0:0:0:0:
458,317,833342,6,0,B|403:335|403:335|375:283,1,116.999994644165,2|2,0:3|0:3,0:0:0:0:
375,284,834026,2,0,B|429:265|429:265|458:316,1,116.999994644165,2|2,0:3|0:3,0:0:0:0:
203,102,834710,6,0,L|196:166,1,58.4999973220826,2|2,0:3|0:3,0:0:0:0:
303,29,835052,2,0,L|316:111,1,62.9999980773926,2|2,0:3|0:3,0:0:0:0:
121,98,835393,6,0,L|110:195,1,67.5000025749208,2|2,0:3|0:3,0:0:0:0:
385,0,835735,2,0,L|398:89,1,72,2|2,0:3|0:3,0:0:0:0:
248,289,836077,6,0,P|265:297|283:299,1,36,2|2,3:0|0:3,0:0:0:0:
266,195,836248,2,0,P|274:211|287:224,1,36,2|2,3:0|0:3,0:3:0:0:
343,131,836419,2,0,P|339:149|341:167,1,36,2|2,3:0|0:3,0:0:0:0:
442,136,836590,2,0,P|427:146|418:162,1,36,2|2,3:0|0:3,0:0:0:0:
354,285,836761,5,2,3:0:0:0:
351,267,836846,1,2,0:3:0:0:
357,250,836932,1,2,3:0:0:0:
370,238,837017,1,2,0:3:0:0:
388,234,837103,1,8,0:0:0:0:
388,234,837445,6,0,P|326:220|228:217,1,135,4|0,0:3|0:0,0:0:0:0:
180,269,837787,2,0,B|141:288|141:288|90:277,1,90,8|0,0:0|0:0,0:0:0:0:
85,58,838128,1,2,0:0:0:0:
107,79,838214,1,0,0:0:0:0:
114,109,838299,1,2,0:3:0:0:
0,175,838470,2,0,B|46:170|46:170|88:196,1,90,8|0,0:0|0:0,0:0:0:0:
248,336,838812,6,0,P|270:299|262:212,1,90,2|0,0:3|0:0,0:0:0:0:
222,10,839154,1,8,0:0:0:0:
114,109,839325,2,0,L|190:101,1,45
351,70,839496,1,2,0:0:0:0:
337,41,839581,1,0,0:0:0:0:
311,23,839667,1,2,0:3:0:0:
175,104,839838,2,0,L|278:93,1,90,8|0,0:0|0:0,0:0:0:0:
500,138,840180,6,0,L|397:127,1,90,2|0,0:3|0:0,0:0:0:0:
206,228,840522,1,8,0:0:0:0:
376,291,840693,2,0,L|385:232,1,45
288,188,840864,1,2,0:0:0:0:
291,219,840949,1,0,0:0:0:0:
294,250,841034,1,2,0:3:0:0:
277,103,841205,1,8,0:0:0:0:
206,228,841376,1,0,0:0:0:0:
136,55,841547,6,0,P|196:32|254:43,1,90,2|0,0:3|0:0,0:0:0:0:
470,122,841889,2,0,P|429:102|385:99,1,90,8|0,0:0|0:0,0:0:0:0:
152,141,842231,1,2,0:0:0:0:
136,168,842316,1,0,0:0:0:0:
120,195,842402,2,0,L|84:198,2,22.5,2|0|0,0:3|0:0|0:0,0:0:0:0:
206,228,842573,2,0,B|254:224|254:224|298:199,1,90,8|0,0:0|0:0,0:0:0:0:
492,207,842915,6,0,P|492:277|465:351,1,135,4|0,0:3|0:0,0:0:0:0:
392,384,843257,2,0,L|284:374,1,90,8|0,0:0|0:0,0:0:0:0:
253,163,843599,1,2,0:0:0:0:
276,183,843684,1,0,0:0:0:0:
285,213,843769,1,2,0:3:0:0:
212,364,843940,2,0,B|204:315|204:315|237:269,1,90,8|0,0:0|0:0,0:0:0:0:
369,176,844282,6,0,P|397:97|389:32,1,135,2|0,0:3|0:0,0:0:0:0:
314,0,844624,2,0,L|210:8,1,90,8|0,0:0|0:0,0:0:0:0:
103,104,844966,1,2,0:0:0:0:
126,124,845052,1,0,0:0:0:0:
157,125,845137,1,2,0:3:0:0:
57,25,845308,2,0,B|20:54|20:54|10:124,1,90,8|0,0:0|0:0,0:0:0:0:
37,290,845650,6,0,P|106:306|194:299,1,135,2|0,0:3|0:0,0:0:0:0:
249,273,845992,1,8,0:0:0:0:
231,142,846163,2,0,L|239:207,1,45
265,357,846334,1,2,0:0:0:0:
290,374,846419,1,0,0:0:0:0:
321,372,846505,1,2,0:3:0:0:
407,212,846675,2,0,B|361:203|361:203|299:229,1,90,8|0,0:0|0:0,0:0:0:0:
512,384,847017,6,0,P|513:302|498:234,1,135,2|0,0:3|0:0,0:0:0:0:
486,156,847359,1,8,0:0:0:0:
422,299,847530,1,0,0:0:0:0:
266,91,847701,1,2,0:0:0:0:
298,84,847787,1,0,0:0:0:0:
329,86,847872,2,0,P|349:95|366:109,1,45,2|0,0:3|0:0,0:0:0:0:
306,181,848043,2,0,B|264:202|264:202|190:189,1,90,8|0,0:0|0:0,0:0:0:0:
46,42,848385,6,0,P|94:37|178:57,1,135,4|0,0:3|0:0,0:0:0:0:
252,110,848727,1,8,0:0:0:0:
75,128,848898,2,0,P|67:152|69:195,1,45
176,228,849069,1,2,0:0:0:0:
176,196,849154,1,0,0:0:0:0:
159,168,849240,1,2,0:3:0:0:
0,269,849411,2,0,L|112:260,1,90,8|0,0:0|0:0,0:0:0:0:
334,206,849752,6,0,P|432:218|497:248,1,135,2|0,0:3|0:0,0:0:0:0:
494,321,850094,2,0,B|448:325|448:325|377:288,1,90,8|0,0:0|0:0,0:0:0:0:
351,70,850436,1,2,0:0:0:0:
376,89,850522,1,0,0:0:0:0:
386,118,850607,1,2,0:3:0:0:
249,245,850778,2,0,B|237:200|237:200|261:135,1,90,8|0,0:0|0:0,0:0:0:0:
483,45,851120,6,0,P|414:63|325:69,1,135,2|0,0:3|0:0,0:0:0:0:
265,38,851462,1,8,0:0:0:0:
378,223,851633,2,0,P|346:216|301:199,1,45
252,159,851804,1,2,0:0:0:0:
221,163,851889,1,0,0:0:0:0:
199,186,851975,1,2,0:3:0:0:
189,358,852146,2,0,B|194:309|194:309|160:257,1,90,8|0,0:0|0:0,0:0:0:0:
0,88,852487,6,0,P|65:103|148:104,1,135,2|0,0:3|0:0,0:0:0:0:
230,87,852829,2,0,B|183:77|183:77|129:107,1,90,8|0,0:0|0:0,0:0:0:0:
46,188,853171,1,2,0:0:0:0:
50,219,853257,1,0,0:0:0:0:
54,250,853342,2,0,L|60:290,2,22.5,2|0|0,0:3|0:0|0:0,0:0:0:0:
136,209,853513,2,0,B|180:203|180:203|216:230,1,90,8|0,0:0|0:0,0:0:0:0:
402,368,853855,6,0,L|410:203,1,135,4|0,0:3|0:0,0:0:0:0:
414,147,854197,1,8,0:0:0:0:
217,231,854368,2,0,L|224:284,1,45
333,181,854539,1,2,0:0:0:0:
308,161,854624,1,0,0:0:0:0:
274,159,854710,1,2,0:3:0:0:
146,319,854881,2,0,B|99:324|99:324|33:284,1,90,8|0,0:0|0:0,0:0:0:0:
98,21,855222,6,0,P|129:92|135:186,1,135,2|0,0:3|0:0,0:0:0:0:
122,235,855564,1,8,0:0:0:0:
0,124,855735,2,0,L|57:118,1,45
206,213,855906,1,2,0:0:0:0:
237,218,855992,1,0,0:0:0:0:
265,204,856077,1,2,0:3:0:0:
280,54,856248,1,8,0:0:0:0:
253,306,856419,1,0,0:0:0:0:
259,336,856505,1,0,0:0:0:0:
265,366,856590,6,0,P|351:384|415:382,1,135,2|0,0:3|0:0,0:0:0:0:
449,312,856932,2,0,L|455:213,1,90,8|0,0:0|0:0,0:0:0:0:
347,93,857274,1,2,0:0:0:0:
332,121,857359,1,0,0:0:0:0:
337,152,857445,1,2,0:3:0:0:
512,148,857616,2,0,B|471:126|471:126|395:135,1,90,8|0,0:0|0:0,0:0:0:0:
237,230,857958,5,2,0:3:0:0:
237,230,858128,1,2,0:3:0:0:
188,24,858299,1,8,0:0:0:0:
217,147,858470,1,2,0:3:0:0:
131,100,858641,5,2,0:3:0:0:
131,100,858812,1,2,0:3:0:0:
333,51,858983,1,8,0:0:0:0:
333,51,859325,6,0,B|309:88|309:88|321:162,1,90,4|0,0:0|0:0,0:0:0:0:
432,283,859667,2,0,P|358:230|329:224,1,90,8|0,0:0|0:0,0:0:0:0:
328,225,859923,1,0,0:0:0:0:
297,233,860009,1,2,0:0:0:0:
336,328,860180,1,2,0:3:0:0:
496,140,860351,2,0,B|450:132|450:132|392:155,1,90,8|0,0:0|0:0,0:0:0:0:
227,316,860693,6,0,P|143:303|87:276,1,135,2|0,0:3|0:0,0:0:0:0:
44,208,861034,1,8,0:0:0:0:
212,171,861205,1,0,0:0:0:0:
231,195,861291,1,0,0:0:0:0:
233,226,861376,2,0,P|201:219|164:190,1,45,2|0,0:0|0:0,0:0:0:0:
107,98,861547,1,2,0:3:0:0:
287,62,861718,2,0,B|310:100|310:100|302:162,1,90,8|0,0:0|0:0,0:0:0:0:
314,175,861975,1,0,0:0:0:0:
323,204,862060,6,0,P|397:222|470:222,1,135,2|0,0:3|0:0,0:0:0:0:
512,148,862402,1,8,0:0:0:0:
429,31,862573,1,0,0:0:0:0:
422,61,862658,1,0,0:0:0:0:
415,91,862744,2,0,L|424:157,1,45,2|0,0:0|0:0,0:0:0:0:
454,321,862915,1,2,0:3:0:0:
323,204,863086,1,8,0:0:0:0:
455,223,863257,1,0,0:0:0:0:
296,295,863428,6,0,L|139:308,1,135,2|0,0:3|0:0,0:0:0:0:
82,267,863769,2,0,P|58:196|69:149,1,90,8|0,0:0|0:0,0:0:0:0:
149,46,864111,1,2,0:0:0:0:
148,76,864197,1,0,0:0:0:0:
132,103,864282,2,0,L|94:109,2,22.5,2|0|0,0:3|0:0|0:0,0:0:0:0:
237,45,864453,2,0,P|290:57|331:100,1,90,8|0,0:0|0:0,0:0:0:0:
336,104,864710,1,0,0:0:0:0:
344,134,864795,6,0,P|332:185|330:288,1,135,4|0,0:3|0:0,0:0:0:0:
357,348,865137,1,8,0:0:0:0:
510,302,865308,1,0,0:0:0:0:
492,275,865393,1,0,0:0:0:0:
462,265,865479,2,0,P|437:268|409:278,1,45,2|0,0:0|0:0,0:0:0:0:
261,335,865650,1,2,0:3:0:0:
244,135,865821,1,8,0:0:0:0:
328,267,865992,1,0,0:0:0:0:
144,224,866163,6,0,L|129:69,1,135,2|0,0:3|0:0,0:0:0:0:
121,0,866505,1,8,0:0:0:0:
236,241,866675,1,0,0:0:0:0:
262,224,866761,1,0,0:0:0:0:
273,194,866846,2,0,L|276:139,1,45,2|0,0:0|0:0,0:0:0:0:
211,38,867017,1,2,0:3:0:0:
365,181,867188,2,0,B|410:185|410:185|474:149,1,90,8|0,0:0|0:0,0:0:0:0:
200,28,867530,6,0,P|91:44|37:67,1,135,2|0,0:3|0:0,0:0:0:0:
6,118,867872,1,8,0:0:0:0:
134,268,868043,1,0,0:0:0:0:
165,262,868128,1,0,0:0:0:0:
190,244,868214,2,0,P|163:226|119:223,1,45,2|0,0:0|0:0,0:0:0:0:
4,206,868385,1,2,0:3:0:0:
255,308,868556,2,0,B|282:271|282:271|275:208,1,90,8|0,0:0|0:0,0:0:0:0:
353,0,868898,6,0,P|337:64|337:142,1,135,2|0,0:3|0:0,0:0:0:0:
383,210,869240,2,0,L|499:200,2,90,8|0|2,0:0|0:0|0:0,0:0:0:0:
198,135,869752,2,0,L|134:131,1,45,2|0,0:3|0:0,0:0:0:0:
277,227,869923,1,8,0:0:0:0:
212,49,870094,1,0,0:0:0:0:
72,260,870265,6,0,P|190:282|235:274,1,135,4|0,0:3|0:0,0:0:0:0:
277,227,870607,2,0,B|325:221|325:221|390:257,1,90,8|0,0:0|0:0,0:0:0:0:
384,263,870864,1,0,0:0:0:0:
394,292,870949,1,2,0:0:0:0:
370,139,871120,1,2,0:3:0:0:
309,314,871291,1,8,0:0:0:0:
482,220,871462,2,0,P|464:203|418:185,1,45
215,160,871633,6,0,P|122:182|60:216,1,135,2|0,0:3|0:0,0:0:0:0:
3,258,871975,2,0,L|-10:139,1,90,8|0,0:0|0:0,0:0:0:0:
3,138,872231,1,0,0:0:0:0:
13,108,872316,1,2,0:0:0:0:
18,347,872487,1,2,0:3:0:0:
178,261,872658,2,0,B|223:255|223:255|288:289,1,90,8|0,0:0|0:0,0:0:0:0:
285,296,872915,1,0,0:0:0:0:
301,322,873000,6,0,P|389:317|458:296,1,135,2|0,0:3|0:0,0:0:0:0:
508,250,873342,1,8,0:0:0:0:
331,168,873513,1,0,0:0:0:0:
327,199,873599,1,0,0:0:0:0:
344,225,873684,2,0,P|369:221|407:202,1,45,2|0,0:0|0:0,0:0:0:0:
487,141,873855,1,2,0:3:0:0:
323,10,874026,1,8,0:0:0:0:
493,52,874197,2,0,P|431:71|418:82,1,45
232,213,874368,6,0,P|121:198|77:180,1,135,2|0,0:3|0:0,0:0:0:0:
28,141,874710,1,8,0:0:0:0:
184,73,874881,2,0,L|177:130,1,45
160,253,875052,1,2,0:0:0:0:
155,284,875137,1,0,0:0:0:0:
151,315,875222,2,0,L|116:312,2,22.5,2|0|0,0:3|0:0|0:0,0:0:0:0:
243,302,875393,2,0,B|289:305|289:305|354:359,1,90,8|0,0:0|0:0,0:0:0:0:
492,123,875735,6,0,P|402:135|328:167,1,135,4|0,0:3|0:0,0:0:0:0:
291,202,876077,1,8,0:0:0:0:
299,13,876248,1,0,0:0:0:0:
326,28,876334,1,0,3:0:0:0:
353,42,876419,2,0,L|286:51,1,45,2|0,0:0|3:0,0:0:0:0:
145,57,876590,1,2,0:3:0:0:
360,150,876761,1,8,0:0:0:0:
132,51,876932,1,0,0:0:0:0:
432,86,877103,6,0,P|448:162|448:248,1,135,2|0,0:3|0:0,0:0:0:0:
434,308,877445,1,8,0:0:0:0:
239,192,877616,1,0,0:0:0:0:
242,160,877701,1,0,3:0:0:0:
265,138,877787,2,0,L|272:205,1,45,2|0,0:0|3:0,0:0:0:0:
289,327,877958,1,2,0:3:0:0:
360,150,878128,1,8,0:0:0:0:
166,277,878299,1,0,0:0:0:0:
134,282,878385,1,0,3:0:0:0:
103,286,878470,6,0,P|6:260|-10:248,1,90,2|0,0:3|0:0,0:0:0:0:
100,106,878812,1,8,0:0:0:0:
81,195,878983,6,0,P|33:168|1:126,1,80.9999975280763,0|2,0:0|0:0,0:0:0:0:
134,26,879325,1,2,0:3:0:0:
163,40,879411,1,0,0:0:0:0:
179,67,879496,2,0,B|218:87|218:87|280:75,1,80.9999975280763,8|0,0:0|0:0,0:0:0:0:
456,145,879838,6,0,P|418:155|364:160,1,67.5000025749208,0|2,3:0|0:0,0:0:0:0:
254,200,880180,2,0,P|287:215|329:223,1,59.3999998187256,8|2,0:0|0:0,0:0:0:0:
309,220,880522,6,0,P|226:262|262:352,1,202.500007724762,2|0,0:0|0:0,0:0:0:0:
380,293,880864,6,0,B|328:281|343:298|291:288,1,90,10|0,0:0|0:0,0:0:0:0:
291,288,881205,6,0,P|204:277|116:294,1,135,4|0,0:0|0:0,0:0:0:0:
108,347,881547,2,0,P|144:361|196:356,1,90,8|0,0:0|0:0,0:0:0:0:
157,282,881804,1,0,3:0:0:0:
156,278,881889,2,0,L|150:193,1,45,2|0,0:0|3:0,0:0:0:0:
79,180,882060,1,2,0:3:0:0:
291,288,882231,2,0,P|365:307|443:293,1,135,8|0,0:0|3:0,0:0:0:0:
402,222,882573,6,0,P|356:222|295:195,1,90,2|0,0:3|0:0,0:0:0:0:
340,81,882915,2,0,P|384:80|427:95,1,90,8|0,0:0|0:0,0:0:0:0:
448,103,883171,1,0,3:0:0:0:
467,114,883257,1,2,0:0:0:0:
485,126,883342,1,0,3:0:0:0:
501,141,883428,2,0,P|503:172|489:200,1,45,2|0,0:3|0:0,0:0:0:0:
267,132,883599,2,0,P|251:86|268:30,1,90,8|0,0:0|0:0,0:0:0:0:
200,174,883855,1,0,3:0:0:0:
200,174,883940,6,0,P|150:174|99:136,1,90,2|0,0:3|0:0,0:0:0:0:
332,220,884282,2,0,B|331:268|287:294|287:294|299:337|260:378,1,180,8|2,0:0|0:0,0:0:0:0:
370,329,884710,1,0,3:0:0:0:
370,329,884795,2,0,P|397:286|411:256,1,45,2|0,0:3|0:0,0:0:0:0:
376,141,884966,1,8,0:0:0:0:
243,215,885137,1,0,0:0:0:0:
243,215,885222,1,0,3:0:0:0:
243,215,885308,6,0,P|176:237|95:219,1,135,2|0,0:3|0:0,0:0:0:0:
72,224,885650,2,0,P|186:253|282:206,1,225,8|0,0:0|3:0,0:0:0:0:
328,110,886163,2,0,P|299:115|269:107,1,45,2|0,0:3|0:0,0:0:0:0:
205,70,886334,1,8,0:0:0:0:
345,21,886505,2,0,P|367:18|390:21,1,45,0|0,0:0|3:0,0:0:0:0:
474,67,886675,6,0,B|489:5|526:173|413:205,1,180,2|8,0:3|0:0,0:0:0:0:
290,281,887188,1,0,0:0:0:0:
267,280,887274,1,0,3:0:0:0:
244,279,887359,1,2,0:0:0:0:
221,278,887445,1,0,3:0:0:0:
198,277,887530,1,2,0:3:0:0:
335,358,887701,2,0,P|375:306|369:240,1,135,8|0,0:0|3:0,0:0:0:0:
349,91,888043,6,0,P|296:130|230:124,1,135,2|0,0:3|0:0,0:0:0:0:
69,120,888385,2,0,P|142:88|240:137,1,180,8|2,0:0|0:0,0:0:0:0:
319,148,888812,1,0,3:0:0:0:
309,159,888898,2,0,P|257:147|215:96,1,90,2|8,0:3|0:0,0:0:0:0:
274,2,889240,2,0,P|276:27|270:46,1,45,0|0,0:0|3:0,0:0:0:0:
230,123,889411,5,2,0:3:0:0:
230,123,889752,2,0,B|221:180|221:180|229:264|229:264|246:305,1,180,8|2,0:0|0:0,0:0:0:0:
255,318,890180,1,0,3:0:0:0:
266,337,890265,1,2,0:3:0:0:
142,293,890436,2,0,L|128:150,1,135,8|0,0:0|3:0,0:0:0:0:
15,134,890778,6,0,P|68:116|134:178,1,135,2|0,0:3|0:0,0:0:0:0:
279,190,891120,2,0,P|195:212|127:158,1,180,8|2,0:0|0:0,0:0:0:0:
175,87,891547,1,0,3:0:0:0:
177,84,891633,2,0,P|175:56|166:36,1,45,2|0,0:3|0:0,0:0:0:0:
83,18,891804,1,8,0:0:0:0:
263,37,891975,2,0,L|334:47,1,45,0|0,0:0|3:0,0:0:0:0:
451,64,892146,6,0,B|479:53|491:96|426:155|324:110,1,180,2|8,0:3|0:0,0:0:0:0:
177,84,892658,2,0,L|191:153,1,45,0|0,0:0|3:0,0:0:0:0:
203,215,892829,2,0,L|217:284,1,45,2|0,0:0|3:0,0:0:0:0:
229,346,893000,1,2,0:3:0:0:
62,240,893171,2,0,B|49:200|49:200|64:154|64:154|52:104,1,135,8|0,0:0|3:0,0:0:0:0:
0,274,893513,6,0,B|53:275|53:275|63:235,1,90,2|0,0:3|0:0,0:0:0:0:
118,40,893855,1,8,0:0:0:0:
201,88,894026,1,0,0:0:0:0:
223,87,894111,1,0,3:0:0:0:
245,86,894197,2,0,L|298:82,1,45,2|0,0:0|3:0,0:0:0:0:
370,30,894368,1,2,0:3:0:0:
377,165,894539,2,0,L|352:261,1,90,8|0,0:0|0:0,0:0:0:0:
283,305,894795,1,0,3:0:0:0:
280,308,894881,5,2,0:3:0:0:
280,308,895222,2,0,B|241:319|190:316|190:316|204:280|247:239,1,180,8|2,0:0|0:0,0:0:0:0:
328,238,895650,1,0,3:0:0:0:
328,238,895735,2,0,P|358:244|404:240,1,45,2|0,0:3|0:0,0:0:0:0:
458,220,895906,1,8,0:0:0:0:
276,160,896077,1,0,0:0:0:0:
253,161,896163,1,0,3:0:0:0:
230,162,896248,5,2,0:3:0:0:
140,165,896419,1,0,0:0:0:0:
251,72,896590,2,0,B|318:59|318:59|406:73|406:73|484:61,1,225,8|0,0:0|3:0,0:0:0:0:
497,130,897103,2,0,L|393:147,1,90,2|8,0:3|0:0,0:0:0:0:
251,72,897445,2,0,L|188:68,1,45,0|0,0:0|3:0,0:0:0:0:
47,162,897616,6,0,B|30:164|11:156|11:156|43:226|99:221|126:200,1,180,2|8,0:3|0:0,0:0:0:0:
131,26,898128,1,0,0:0:0:0:
131,26,898214,1,0,3:0:0:0:
131,26,898299,1,2,0:0:0:0:
206,151,898470,1,2,0:3:0:0:
387,114,898641,2,0,P|436:103|511:125,1,90,8|0,0:0|0:0,0:0:0:0:
394,124,898898,1,0,3:0:0:0:
387,114,898983,6,0,P|379:65|398:-10,1,90,2|0,0:3|0:0,0:0:0:0:
254,138,899325,2,0,P|335:181|401:132,1,180,8|2,0:0|0:0,0:0:0:0:
248,128,899752,1,0,3:0:0:0:
240,119,899838,2,0,P|226:166|240:222,1,90,2|8,0:3|0:0,0:0:0:0:
320,307,900180,2,0,P|326:281|323:256,1,45,0|0,0:0|3:0,0:0:0:0:
313,168,900351,5,2,3:0:0:0:
133,158,900693,1,2,3:0:0:0:
325,119,901034,1,2,3:0:0:0:
121,109,901376,1,2,3:0:0:0:
337,70,901718,5,2,3:0:0:0:
121,109,901889,1,2,3:0:0:0:
325,119,902060,1,2,3:0:0:0:
133,158,902231,1,2,3:0:0:0:
313,168,902402,1,2,3:0:0:0:
145,207,902573,1,2,3:0:0:0:
225,24,902744,1,8,1:2:0:0:
225,24,903086,6,0,B|265:17|265:17|231:68|231:68|137:72,1,180,4|8,0:0|0:0,0:0:0:0:
156,162,903599,2,0,B|278:159|278:159|323:100,1,180,0|2,0:0|0:3,0:0:0:0:
346,246,904111,2,0,L|231:246,1,90,8|0,0:0|0:0,0:0:0:0:
285,333,904368,1,0,3:0:0:0:
298,333,904453,6,0,L|427:329,1,90,2|0,0:3|0:0,0:0:0:0:
512,329,904795,1,8,0:0:0:0:
450,263,904966,1,0,0:0:0:0:
387,330,905137,1,2,0:0:0:0:
512,329,905308,1,2,0:3:0:0:
389,196,905479,1,8,0:0:0:0:
328,262,905650,1,0,0:0:0:0:
328,262,905735,1,0,3:0:0:0:
328,262,905821,5,2,0:3:0:0:
387,330,905992,1,0,0:0:0:0:
476,175,906163,2,0,P|448:130|410:107,1,90,8|0,0:0|0:0,0:0:0:0:
396,106,906419,1,0,3:0:0:0:
404,85,906505,1,2,0:0:0:0:
418,67,906590,1,0,3:0:0:0:
434,52,906675,1,2,0:3:0:0:
388,195,906846,2,0,P|329:167|306:102,1,135,8|0,0:0|3:0,0:0:0:0:
307,27,907188,6,0,P|250:48|225:109,1,90,2|0,0:3|0:0,0:0:0:0:
265,229,907530,2,0,P|166:273|71:220,1,225,8|0,0:0|3:0,0:0:0:0:
151,185,908043,2,0,P|171:192|191:184,1,45,2|0,0:3|0:0,0:0:0:0:
269,138,908214,2,0,P|335:172|355:227,1,135,8|0,0:0|3:0,0:0:0:0:
345,331,908556,6,0,B|324:344|308:339|308:339|358:276|443:327,1,180,2|8,0:3|0:0,0:0:0:0:
491,207,909069,2,0,P|468:128|401:36,1,180,0|2,0:0|0:3,0:0:0:0:
245,35,909581,1,8,0:0:0:0:
290,131,909752,1,0,0:0:0:0:
302,164,909838,1,0,3:0:0:0:
314,197,909923,5,2,0:3:0:0:
380,123,910094,1,0,0:0:0:0:
202,114,910265,1,8,0:0:0:0:
224,202,910436,1,0,0:0:0:0:
314,197,910607,1,2,0:0:0:0:
130,58,910778,1,2,0:3:0:0:
168,274,910949,1,8,0:0:0:0:
69,172,911120,2,0,L|103:108,1,45,0|0,0:0|3:0,0:0:0:0:
130,58,911291,5,2,0:3:0:0:
243,60,911462,1,0,0:0:0:0:
356,62,911633,1,8,0:0:0:0:
298,132,911804,1,0,0:0:0:0:
298,154,911889,1,0,3:0:0:0:
298,177,911975,1,2,0:0:0:0:
298,199,912060,1,0,3:0:0:0:
298,222,912146,1,2,0:3:0:0:
453,142,912316,2,0,P|415:84|330:63,1,135,8|0,0:0|3:0,0:0:0:0:
298,132,912658,6,0,P|219:138|123:82,1,180,2|8,0:3|0:0,0:0:0:0:
187,224,913171,2,0,P|221:231|257:231,1,45,0|0,0:0|3:0,0:0:0:0:
317,221,913342,2,0,P|339:218|361:213,1,45,2|0,0:0|3:0,0:0:0:0:
440,172,913513,1,2,0:3:0:0:
301,328,913684,2,0,P|255:330|170:322,1,90,8|0,0:0|0:0,0:0:0:0:
259,117,914026,6,0,B|262:160|262:160|225:141|225:141|216:44,1,180,2|8,0:3|0:0,0:0:0:0:
346,98,914539,1,0,0:0:0:0:
350,133,914624,1,0,3:0:0:0:
354,168,914710,2,0,L|360:222,1,45,2|0,0:0|3:0,0:0:0:0:
283,297,914881,2,0,L|278:252,1,45,2|0,0:3|0:0,0:0:0:0:
259,117,915052,2,0,B|214:75|157:119|157:119|171:136,1,135,8|0,0:0|3:0,0:0:0:0:
89,175,915393,6,0,P|68:127|77:83,1,90,2|0,0:3|0:0,0:0:0:0:
221,16,915735,1,8,0:0:0:0:
157,119,915906,1,0,0:0:0:0:
4,32,916077,1,2,0:0:0:0:
23,237,916248,1,2,0:3:0:0:
157,119,916419,2,0,P|217:101|278:116,1,90,8|0,0:0|0:0,0:0:0:0:
301,161,916675,1,0,3:0:0:0:
301,161,916761,6,0,P|376:181|481:162,1,180,2|8,0:3|0:0,0:0:0:0:
477,59,917274,1,0,0:0:0:0:
477,59,917359,1,0,3:0:0:0:
477,59,917445,1,2,0:0:0:0:
322,71,917616,1,2,0:3:0:0:
434,256,917787,2,0,P|428:312|363:362,1,135,8|0,0:0|3:0,0:0:0:0:
347,274,918128,6,0,P|289:252|158:259,1,180,2|8,0:3|0:0,0:0:0:0:
29,246,918641,1,0,0:0:0:0:
17,226,918727,1,0,3:0:0:0:
11,205,918812,1,2,0:0:0:0:
10,182,918898,1,0,3:0:0:0:
15,160,918983,1,2,0:3:0:0:
182,343,919154,2,0,P|136:333|85:293,1,90,8|0,0:0|0:0,0:0:0:0:
250,250,919496,6,0,B|276:212|290:304|152:256,1,135,2|0,0:3|0:0,0:0:0:0:
154,256,919838,1,8,0:0:0:0:
172,170,920009,1,0,0:0:0:0:
190,84,920180,1,2,0:0:0:0:
86,196,920351,1,2,0:3:0:0:
257,143,920522,1,8,0:0:0:0:
105,108,920693,1,0,0:0:0:0:
91,104,920778,1,0,3:0:0:0:
77,100,920864,5,2,0:3:0:0:
190,84,921034,1,0,0:0:0:0:
303,68,921205,1,8,0:0:0:0:
287,156,921376,1,0,0:0:0:0:
271,244,921547,1,2,0:0:0:0:
181,173,921718,1,2,0:3:0:0:
91,103,921889,1,8,0:0:0:0:
75,216,922060,1,0,0:0:0:0:
303,68,922231,5,2,0:3:0:0:
394,142,922402,1,0,0:0:0:0:
419,257,922573,1,8,0:0:0:0:
287,183,922744,1,0,0:0:0:0:
275,176,922829,1,0,3:0:0:0:
262,169,922915,1,2,0:0:0:0:
411,26,923086,1,2,0:3:0:0:
419,257,923257,1,8,0:0:0:0:
496,132,923428,1,0,0:0:0:0:
503,120,923513,1,0,3:0:0:0:
510,107,923599,6,0,P|516:157|507:236,1,90,2|0,0:3|0:0,0:0:0:0:
262,169,923940,2,0,P|256:121|271:82,1,90,8|0,0:0|0:0,0:0:0:0:
419,257,924282,2,0,P|417:302|360:337,1,90,2|2,0:0|0:3,0:0:0:0:
119,345,924624,2,0,P|126:267|173:303,1,135,8|0,0:0|0:0,0:0:0:0:
191,336,924966,6,0,B|220:306|255:301|311:282|341:305|347:358|370:373|410:379|450:368|500:325|507:296|498:257|491:229|481:199|453:169|416:159|362:161|329:195|299:230|321:296,1,630,4|0,0:1|0:0,0:0:0:0:
41,278,927701,6,0,B|31:257|25:233|33:204|37:178|59:168|96:166|129:163|157:156|163:122|163:102|158:66|145:44|144:21|109:2|82:0|49:3|32:10|7:27|-15:46|-15:80|-10:104|-10:125|-1:154|26:160|52:175|89:170|123:173|143:215,1,630
72,94,930436,6,0,B|47:76|21:78|21:78|63:35|131:22|184:43|184:43|210:73|210:73|262:94|329:79|369:38|369:38|403:65|459:68|498:44|498:44|490:73|456:87,1,630,2|0,0:3|0:0,0:0:0:0:
326,189,933171,6,0,B|306:211|281:216|281:216|419:239,1,180
491,255,934197,1,0,0:0:0:0:
500,341,934539,1,0,0:0:0:0:
420,376,934881,1,0,0:0:0:0:
361,310,935222,1,0,0:0:0:0:
407,237,935564,1,0,0:0:0:0:
500,341,935906,5,2,0:3:0:0:
361,310,936248,2,0,L|270:308,1,90,8|0,0:0|0:0,0:0:0:0:
271,308,936761,1,8,0:0:0:0:
40,223,937274,5,2,0:3:0:0:
31,309,937445,1,2,0:3:0:0:
40,223,937616,2,0,L|129:221,1,90,8|0,0:0|0:0,0:0:0:0:
129,221,938128,1,8,0:0:0:0:
415,143,938641,5,2,0:3:0:0:
435,38,938983,2,0,P|445:94|415:143,1,116.999994644165,8|0,0:0|0:0,0:0:0:0:
495,213,939496,2,0,P|441:193|414:142,1,116.999994644165,8|0,0:0|0:0,0:0:0:0:
313,176,940009,5,2,0:3:0:0:
415,142,940180,1,2,0:3:0:0:
250,90,940351,2,0,B|213:81|213:81|116:98,1,116.999994644165,8|0,0:0|0:0,0:0:0:0:
20,99,940864,2,0,B|57:108|57:108|154:91,1,116.999994644165,8|0,0:0|0:0,0:0:0:0:
136,30,941376,6,0,P|127:62|134:95,1,67.5000025749208,2|0,3:0|0:0,0:0:0:0:
233,196,941718,2,0,L|217:63,1,135.000005149842,8|0,0:0|0:0,0:0:0:0:
431,8,942231,2,0,L|414:141,1,135.000005149842,8|0,0:0|0:0,0:0:0:0:
233,196,942744,5,2,0:3:0:0:
217,63,942915,1,2,0:3:0:0:
414,141,943086,2,0,L|397:274,1,135.000005149842,8|0,0:0|0:0,0:0:0:0:
275,303,943599,2,0,P|329:268|403:277,1,135.000005149842,8|0,0:0|0:0,0:0:0:0:
208,289,944111,6,0,L|275:303,1,67.5000025749208,2|0,3:0|0:0,0:0:0:0:
162,379,944453,2,0,P|118:331|114:257,1,135.000005149842,8|0,0:0|0:0,0:0:0:0:
95,130,944966,2,0,L|112:263,1,135.000005149842,8|0,0:0|0:0,0:0:0:0:
208,289,945479,5,2,0:3:0:0:
234,193,945650,1,2,0:3:0:0:
138,167,945821,1,2,0:3:0:0:
112,263,945992,1,2,0:3:0:0:
208,289,946163,5,2,0:3:0:0:
220,291,946248,1,2,0:3:0:0:
232,293,946334,1,2,0:3:0:0:
245,292,946419,1,2,0:3:0:0:
257,290,946505,1,2,0:3:0:0:
270,287,946590,1,2,0:3:0:0:
281,281,946675,1,2,0:3:0:0:
292,275,946761,1,2,0:3:0:0:
301,267,946846,6,0,L|321:108,1,135,4|0,0:1|0:0,0:0:0:0:
354,33,947188,2,0,L|342:129,1,90,8|0,0:0|0:0,0:0:0:0:
234,193,947530,1,2,0:3:0:0:
392,221,947701,2,0,B|431:175|431:175|447:56,1,180,8|0,0:0|0:0,0:0:0:0:
263,77,948214,5,2,0:3:0:0:
392,221,948385,1,2,0:3:0:0:
203,261,948556,2,0,P|158:261|111:277,1,90,8|0,0:0|0:0,0:0:0:0:
302,336,948898,1,2,0:3:0:0:
97,358,949069,2,0,P|37:307|56:214,1,180,8|0,0:0|0:0,0:0:0:0:
231,25,949581,6,0,P|246:91|217:148,1,135,2|0,0:3|0:0,0:0:0:0:
202,260,949923,2,0,P|192:217|205:174,1,90,8|0,0:0|0:0,0:0:0:0:
343,69,950265,1,2,0:3:0:0:
155,79,950436,2,0,B|21:85|21:85|77:135,1,180,8|0,0:0|0:0,0:0:0:0:
202,260,950949,5,2,0:3:0:0:
336,164,951120,1,2,0:3:0:0:
252,335,951291,2,0,P|208:349|152:336,1,90,8|0,0:0|0:0,0:0:0:0:
238,122,951633,1,2,0:3:0:0:
342,319,951804,2,0,B|411:315|411:315|449:284|449:284|516:281,1,180,8|0,0:0|0:0,0:0:0:0:
427,25,952316,6,0,L|437:159,1,135,4|0,0:0|0:0,0:0:0:0:
336,217,952658,2,0,P|369:187|413:178,1,90,8|0,0:0|0:0,0:0:0:0:
299,32,953000,1,2,0:3:0:0:
228,190,953171,2,0,P|162:242|71:232,1,180,8|0,0:0|0:0,0:0:0:0:
116,34,953684,5,2,0:3:0:0:
71,232,953855,1,2,0:3:0:0:
228,190,954026,2,0,L|321:180,1,90,8|0,0:0|0:0,0:0:0:0:
387,41,954368,1,2,0:3:0:0:
340,265,954539,2,0,B|210:280|210:280|148:260,1,180,8|0,0:0|0:0,0:0:0:0:
292,358,955052,6,0,L|426:342,1,135,2|0,0:3|0:0,0:0:0:0:
464,235,955393,2,0,P|448:276|445:321,1,90,8|0,0:0|0:0,0:0:0:0:
405,136,955735,1,2,0:3:0:0:
340,265,955906,2,0,B|238:277|238:277|187:257|187:257|165:260,1,180,8|0,0:0|0:0,0:0:0:0:
7,304,956419,5,2,0:3:0:0:
168,343,956590,1,2,0:3:0:0:
122,185,956761,2,0,P|108:143|111:92,1,90,8|0,0:0|0:0,0:0:0:0:
25,206,957103,1,2,0:3:0:0:
206,127,957274,2,0,P|296:120|372:173,1,180,8|0,0:0|0:0,0:0:0:0:
470,362,957787,6,0,P|433:310|440:241,1,135,4|0,0:1|0:0,0:0:0:0:
473,127,958128,2,0,L|447:218,1,90,8|0,0:0|0:0,0:0:0:0:
386,57,958470,1,2,0:3:0:0:
303,209,958641,2,0,B|261:227|215:209|215:209|176:193|128:210,1,180,8|0,0:0|0:0,0:0:0:0:
346,302,959154,5,2,0:3:0:0:
260,116,959325,1,2,0:3:0:0:
176,296,959496,2,0,P|126:308|79:297,1,90,8|0,0:0|0:0,0:0:0:0:
21,82,959838,1,2,0:3:0:0:
127,210,960009,2,0,B|151:148|151:148|138:27,1,180,8|0,0:0|0:0,0:0:0:0:
260,116,960522,6,0,P|321:94|395:104,1,135,2|0,0:3|0:0,0:0:0:0:
490,158,960864,2,0,P|446:147|411:121,1,90,8|0,0:0|0:0,0:0:0:0:
502,32,961205,1,2,0:3:0:0:
337,218,961376,2,0,B|359:336|359:336|421:363,1,180,8|0,0:0|0:0,0:0:0:0:
262,357,961889,5,2,0:3:0:0:
441,270,962060,1,2,0:3:0:0:
277,159,962231,2,0,P|234:149|187:152,1,90,8|0,0:0|0:0,0:0:0:0:
330,55,962573,1,2,0:3:0:0:
219,273,962744,2,0,B|144:274|144:274|109:249|109:249|48:250,1,180,8|0,0:0|0:0,0:0:0:0:
262,357,963257,6,0,P|307:305|300:230,1,135,4|0,0:0|0:0,0:0:0:0:
316,128,963599,2,0,P|300:169|303:222,1,90,8|0,0:0|0:0,0:0:0:0:
441,270,963940,1,2,0:3:0:0:
219,273,964111,2,0,L|203:87,1,180,8|0,0:0|0:0,0:0:0:0:
300,45,964624,5,2,0:3:0:0:
106,141,964795,1,2,0:3:0:0:
297,213,964966,2,0,P|340:224|399:219,1,90,8|0,0:0|0:0,0:0:0:0:
497,318,965308,1,2,0:3:0:0:
219,273,965479,2,0,P|128:259|38:286,1,180,8|0,0:0|0:0,0:0:0:0:
310,347,965992,6,0,L|294:193,1,135,2|0,0:3|0:0,0:0:0:0:
283,97,966334,2,0,L|294:209,1,90,8|0,0:0|0:0,0:0:0:0:
219,273,966675,1,2,0:3:0:0:
373,151,966846,2,0,P|464:149|524:212,1,180,8|0,0:0|0:0,0:0:0:0:
488,44,967359,5,2,0:3:0:0:
421,253,967530,1,2,0:3:0:0:
283,97,967701,2,0,L|294:209,1,90,8|2,0:0|0:3,0:0:0:0:
293,194,967958,1,2,0:3:0:0:
294,203,968043,1,2,0:3:0:0:
295,212,968128,1,2,0:3:0:0:
296,221,968214,1,2,0:3:0:0:
297,230,968299,1,2,0:3:0:0:
298,239,968385,1,2,0:3:0:0:
299,248,968470,1,2,0:3:0:0:
300,257,968556,1,2,0:3:0:0:
300,266,968641,1,2,0:3:0:0:
301,275,968727,6,0,P|251:298|188:295,1,112.5,4|0,0:1|0:0,0:0:0:0:
412,195,969069,2,0,P|435:245|432:308,1,112.5,8|0,0:0|0:0,0:0:0:0:
498,112,969411,1,2,3:0:0:0:
291,186,969581,2,0,L|170:180,1,112.5,8|0,0:0|0:0,0:0:0:0:
14,314,969923,1,0,0:0:0:0:
42,311,970009,1,0,0:0:0:0:
70,309,970094,5,2,3:0:0:0:
236,337,970265,1,2,3:0:0:0:
178,180,970436,2,0,P|155:130|158:67,1,112.5,8|0,0:0|0:0,0:0:0:0:
47,222,970778,1,2,3:0:0:0:
255,108,970949,2,0,P|302:96|386:107,1,112.5,8|0,0:0|0:0,0:0:0:0:
478,273,971291,1,0,0:0:0:0:
478,273,971376,1,0,0:0:0:0:
478,273,971462,6,0,L|489:150,1,112.5,2|0,3:0|0:0,0:0:0:0:
168,68,971804,2,0,L|178:180,1,112.5,8|0,0:0|0:0,0:0:0:0:
283,22,972146,1,2,3:0:0:0:
250,251,972316,2,0,P|196:280|129:269,1,112.5,8|0,0:0|0:0,0:0:0:0:
24,149,972658,1,0,0:0:0:0:
27,121,972744,1,0,0:0:0:0:
30,93,972829,5,2,3:0:0:0:
73,337,973000,1,2,0:0:0:0:
178,180,973171,1,10,0:0:0:0:
10,240,973342,5,2,3:0:0:0:
250,251,973513,1,2,0:0:0:0:
27,267,973684,1,10,0:0:0:0:
113,81,973855,5,2,3:0:0:0:
139,278,974026,1,2,0:0:0:0:
265,33,974197,6,0,L|250:155,1,112.5,4|0,0:0|0:0,0:0:0:0:
475,327,974539,2,0,L|461:215,1,112.5,8|0,0:0|0:0,0:0:0:0:
437,33,974881,1,2,3:0:0:0:
319,214,975052,2,0,P|277:239|193:224,1,112.5,8|0,0:0|0:0,0:0:0:0:
21,284,975393,1,0,0:0:0:0:
49,284,975479,1,0,0:0:0:0:
76,291,975564,5,2,3:0:0:0:
263,347,975735,1,2,3:0:0:0:
118,194,975906,2,0,P|93:152|108:68,1,112.5,8|0,0:0|0:0,0:0:0:0:
304,22,976248,1,2,3:0:0:0:
185,126,976419,2,0,L|305:138,1,112.5,8|0,0:0|0:0,0:0:0:0:
478,284,976761,1,0,0:0:0:0:
478,284,976846,1,0,0:0:0:0:
478,284,976932,6,0,P|423:278|369:298,1,112.5,2|0,3:0|0:0,0:0:0:0:
108,211,977274,2,0,P|163:205|217:225,1,112.5,8|0,0:0|0:0,0:0:0:0:
144,348,977616,1,2,3:0:0:0:
15,151,977787,2,0,P|-8:96|3:39,1,112.5,8|0,0:0|0:0,0:0:0:0:
221,36,978128,1,0,0:0:0:0:
217,63,978214,1,0,0:0:0:0:
213,91,978299,5,2,3:0:0:0:
185,279,978470,1,2,3:0:0:0:
112,85,978641,1,2,0:0:0:0:
316,118,978812,5,2,3:0:0:0:
105,121,978983,1,2,3:0:0:0:
276,213,979154,5,10,0:0:0:0:
278,226,979325,1,2,0:0:0:0:
279,240,979496,1,2,0:0:0:0:
426,350,979667,6,0,L|442:235,1,112.5,4|0,0:1|0:0,0:0:0:0:
176,196,980009,2,0,L|191:307,1,112.5,8|0,0:0|0:0,0:0:0:0:
38,348,980351,1,2,0:3:0:0:
105,121,980522,2,0,P|154:97|211:99,1,112.5,8|0,0:0|0:0,0:0:0:0:
398,100,980864,1,0,0:0:0:0:
401,72,980949,1,0,0:0:0:0:
405,45,981034,5,2,0:3:0:0:
475,232,981205,1,2,0:3:0:0:
296,263,981376,2,0,L|177:280,1,112.5,8|0,0:0|0:0,0:0:0:0:
154,38,981718,1,2,0:3:0:0:
3,171,981889,2,0,L|114:186,1,112.5,8|0,0:0|0:0,0:0:0:0:
401,72,982231,1,0,0:0:0:0:
401,72,982316,1,0,0:0:0:0:
401,72,982402,6,0,P|343:66|286:88,1,112.5,2|0,0:3|0:0,0:0:0:0:
347,304,982744,2,0,L|360:193,1,112.5,8|0,0:0|0:0,0:0:0:0:
256,0,983086,1,2,0:3:0:0:
124,185,983257,2,0,P|176:202|232:196,1,112.5,8|0,0:0|0:0,0:0:0:0:
49,128,983599,1,0,0:0:0:0:
34,151,983684,1,0,0:0:0:0:
30,179,983769,5,2,0:3:0:0:
232,196,983940,1,2,0:0:0:0:
73,270,984111,1,10,0:0:0:0:
188,104,984282,5,2,0:3:0:0:
174,279,984453,1,2,0:0:0:0:
136,36,984624,1,10,0:0:0:0:
325,105,984795,6,0,P|357:116|396:113,1,67.5,2|0,0:3|0:0,0:0:0:0:
426,45,985137,6,0,L|417:164,1,112.5,4|0,0:1|0:0,0:0:0:0:
188,104,985479,2,0,L|197:223,1,112.5,8|0,0:0|0:0,0:0:0:0:
272,35,985821,1,2,0:3:0:0:
118,175,985992,2,0,P|69:196|7:192,1,112.5,8|0,0:0|0:0,0:0:0:0:
45,72,986334,1,0,0:0:0:0:
48,44,986419,1,0,0:0:0:0:
52,16,986505,5,2,0:3:0:0:
82,278,986675,1,2,0:3:0:0:
188,104,986846,2,0,P|243:100|295:122,1,112.5,8|0,0:0|0:0,0:0:0:0:
421,157,987188,1,2,0:3:0:0:
222,231,987359,2,0,P|229:286|259:332,1,112.5,8|0,0:0|0:0,0:0:0:0:
474,236,987701,1,0,0:0:0:0:
474,236,987787,1,0,0:0:0:0:
474,236,987872,6,0,P|506:190|511:134,1,112.5,2|0,0:3|0:0,0:0:0:0:
278,10,988214,2,0,L|296:127,1,112.5,8|0,0:0|0:0,0:0:0:0:
329,310,988556,1,2,0:3:0:0:
161,285,988727,2,0,P|117:252|94:201,1,112.5,8|0,0:0|0:0,0:0:0:0:
278,10,989069,1,0,0:0:0:0:
282,37,989154,1,0,0:0:0:0:
286,65,989240,5,2,0:3:0:0:
329,310,989411,1,2,0:3:0:0:
474,236,989581,2,0,P|506:190|511:134,1,112.5,8|2,0:0|0:3,0:0:0:0:
506,122,989838,1,2,3:0:0:0:
499,109,989923,1,2,3:0:0:0:
490,98,990008,1,2,3:0:0:0:
479,89,990094,1,2,3:0:0:0:
467,82,990179,1,2,3:0:0:0:
454,77,990265,1,2,3:0:0:0:
440,74,990350,1,2,3:0:0:0:
426,73,990436,1,2,3:0:0:0:
412,75,990521,1,2,3:0:0:0:
399,82,990607,6,0,B|355:106|355:106|253:100,1,135,4|0,0:1|0:0,0:0:0:0:
151,112,990949,2,0,L|264:118,1,90,8|0,0:0|0:0,0:0:0:0:
278,10,991291,1,2,0:3:0:0:
226,218,991462,2,0,L|46:206,1,180,8|0,0:0|0:0,0:0:0:0:
17,56,991975,5,2,0:3:0:0:
46,206,992146,1,2,0:3:0:0:
162,106,992316,2,0,P|203:90|253:89,1,90,8|0,0:0|0:0,0:0:0:0:
109,23,992658,1,2,0:3:0:0:
278,10,992829,2,0,P|333:77|300:156,1,180,8|0,0:0|0:0,0:0:0:0:
246,351,993342,6,0,L|225:215,1,135,2|0,0:3|0:0,0:0:0:0:
109,190,993684,2,0,P|150:209|195:209,1,90,8|0,0:0|0:0,0:0:0:0:
338,301,994026,1,2,0:3:0:0:
154,300,994197,2,0,B|117:297|93:287|93:287|56:288|23:312|23:312|51:312|81:327,1,180,8|0,0:0|0:0,0:0:0:0:
246,351,994710,5,2,0:3:0:0:
430,352,994881,1,2,0:3:0:0:
272,238,995052,2,0,P|256:202|259:151,1,90,8|0,0:0|0:0,0:0:0:0:
363,50,995393,1,2,0:3:0:0:
186,107,995564,2,0,P|171:179|203:283,1,180,8|0,0:0|0:0,0:0:0:0:
343,181,996077,6,0,L|481:190,1,135,4|0,0:0|0:0,0:0:0:0:
496,295,996419,2,0,P|493:250|504:207,1,90,8|0,0:0|0:0,0:0:0:0:
474,49,996761,1,2,0:3:0:0:
409,235,996932,2,0,P|326:264|262:210,1,180,8|0,0:0|0:0,0:0:0:0:
138,60,997445,5,2,0:3:0:0:
108,243,997616,1,2,0:3:0:0:
31,34,997787,2,0,L|42:140,1,90,8|0,0:0|0:0,0:0:0:0:
67,334,998128,1,2,0:3:0:0:
45,159,998299,2,0,B|83:128|136:141|136:141|165:182|221:178,1,180,8|0,0:0|0:0,0:0:0:0:
306,13,998812,6,0,P|243:31|210:88,1,135,2|0,0:3|0:0,0:0:0:0:
330,112,999154,2,0,L|241:99,1,90,8|0,0:0|0:0,0:0:0:0:
75,69,999496,1,2,0:3:0:0:
207,178,999667,2,0,L|391:207,1,180,8|0,0:0|0:0,0:0:0:0:
254,286,1000180,5,2,0:3:0:0:
76,257,1000351,1,2,0:3:0:0:
236,367,1000522,2,0,P|277:368|324:331,1,90,8|0,0:0|0:0,0:0:0:0:
384,206,1000864,5,2,0:3:0:0:
217,47,1001034,1,8,0:0:0:0:
164,271,1001205,2,0,L|140:377,1,90,8|0,0:0|0:0,0:0:0:0:
234,190,1001547,6,0,P|179:225|108:211,1,135,4|0,0:1|0:0,0:0:0:0:
85,101,1001889,2,0,L|109:207,1,90,8|0,0:0|0:0,0:0:0:0:
217,47,1002231,1,2,0:3:0:0:
391,156,1002402,2,0,P|304:139|234:191,1,180,8|0,0:0|0:0,0:0:0:0:
152,320,1002915,5,2,0:3:0:0:
93,135,1003086,1,2,0:3:0:0:
65,325,1003257,2,0,P|77:274|116:241,1,90,8|0,0:0|0:0,0:0:0:0:
255,115,1003599,1,2,0:3:0:0:
152,320,1003769,2,0,B|279:339|279:339|331:319,1,180,8|0,0:0|0:0,0:0:0:0:
499,209,1004282,6,0,B|452:203|452:203|352:240,1,135,2|0,0:3|0:0,0:0:0:0:
268,192,1004624,2,0,P|295:222|342:243,1,90,8|0,0:0|0:0,0:0:0:0:
395,96,1004966,1,2,0:3:0:0:
220,260,1005137,2,0,P|187:210|241:112,1,180,8|0,0:0|0:0,0:0:0:0:
447,207,1005650,5,2,0:3:0:0:
268,192,1005821,1,2,0:3:0:0:
345,355,1005992,2,0,P|388:370|439:359,1,90,8|0,0:0|0:0,0:0:0:0:
362,147,1006334,1,2,0:3:0:0:
259,295,1006505,2,0,B|217:313|171:295|171:295|132:279|84:296,1,180,8|0,0:0|0:0,0:0:0:0:
244,79,1007017,6,0,P|251:144|216:202,1,135,4|0,0:0|0:0,0:0:0:0:
331,220,1007359,2,0,P|293:197|249:193,1,90,8|0,0:0|0:0,0:0:0:0:
60,217,1007701,1,2,0:3:0:0:
244,79,1007872,2,0,P|320:42|419:55,1,180,8|0,0:0|0:0,0:0:0:0:
249,192,1008385,5,2,0:3:0:0:
131,43,1008556,1,2,0:3:0:0:
60,217,1008727,2,0,P|26:182|17:139,1,90,8|0,0:0|0:0,0:0:0:0:
131,43,1009069,1,2,0:3:0:0:
156,193,1009240,2,0,L|141:378,1,180,8|0,0:0|0:0,0:0:0:0:
367,289,1009752,6,0,P|307:279|249:314,1,121.499996292114,2|0,0:3|0:0,0:0:0:0:
249,192,1010094,2,0,L|241:298,1,80.9999975280763,8|0,0:0|0:0,0:0:0:0:
294,110,1010436,1,2,0:3:0:0:
156,193,1010607,2,0,P|85:234|5:215,1,161.999995056153,8|0,0:0|0:0,0:0:0:0:
201,111,1011120,5,2,0:3:0:0:
339,213,1011291,1,2,0:3:0:0:
182,281,1011462,2,0,L|120:243,1,72,8|2,0:0|0:3,0:0:0:0:
126,231,1011718,1,2,0:3:0:0:
130,218,1011804,1,2,0:3:0:0:
133,205,1011889,1,2,0:3:0:0:
133,192,1011975,1,2,0:3:0:0:
132,178,1012060,1,2,0:3:0:0:
130,165,1012146,1,2,0:3:0:0:
125,152,1012231,1,2,0:3:0:0:
120,140,1012316,1,2,0:3:0:0:
112,129,1012402,1,2,0:3:0:0:
104,119,1012487,6,0,P|161:93|246:102,1,125.999996154785,4|0,0:0|0:0,0:0:0:0:
139,314,1013000,2,0,P|132:251|167:173,1,125.999996154785,4|0,0:0|0:0,0:0:0:0:
336,340,1013513,6,0,P|274:327|211:270,1,125.999996154785,4|0,0:0|0:0,0:0:0:0:
421,161,1014026,2,0,P|390:216|316:258,1,125.999996154785,4|0,0:0|0:0,0:0:0:0:
305,67,1014539,6,0,P|347:113|356:137,1,62.9999980773926,4|0,0:0|0:0,0:0:0:0:
224,39,1014881,1,2,0:3:0:0:
455,49,1015052,1,4,0:0:0:0:
339,251,1015222,1,4,0:0:0:0:
408,265,1017958,6,0,L|266:282,1,125.999996154785,4|0,0:0|0:0,0:0:0:0:
373,60,1018470,2,0,L|345:200,1,125.999996154785,4|0,0:0|0:0,0:0:0:0:
166,44,1018983,6,0,L|290:113,1,125.999996154785,4|0,0:0|0:0,0:0:0:0:
82,236,1019496,2,0,L|186:138,1,125.999996154785,4|0,0:0|0:0,0:0:0:0:
212,326,1020009,6,0,L|160:255,1,62.9999980773926,4|0,0:0|0:0,0:0:0:0:
301,342,1020351,1,2,0:3:0:0:
174,150,1020522,1,4,0:0:0:0:
74,351,1020693,1,4,0:0:0:0:
419,198,1022060,6,0,P|403:172|406:203,1,83.9999974365235,0|0,3:0|3:0,0:0:0:0:
383,282,1022402,2,0,P|363:275|323:244,1,62.9999980773926,0|0,3:0|3:0,0:0:0:0:
505,150,1022744,2,0,P|511:171|511:195,2,41.9999987182618,8|8|8,0:3|0:3|0:3,0:0:0:0:
334,117,1023086,2,0,P|349:100|370:88,2,41.9999987182618,2|2|2,0:3|0:3|0:3,0:0:0:0:
273,238,1023428,6,0,L|282:322,1,76.5000014591217,4|0,0:0|0:0,0:0:0:0:
281,314,1023769,1,8,0:0:0:0:
243,147,1023940,6,0,L|341:167,1,76.5000014591217,4|0,0:0|0:0,0:0:0:0:
317,162,1024282,1,8,0:0:0:0:
144,140,1024453,6,0,L|194:44,1,76.5000014591217,4|0,0:0|0:0,0:0:0:0:
179,72,1024795,1,8,0:0:0:0:
106,224,1024966,6,0,L|40:157,1,76.5000014591217,4|0,0:0|0:0,0:0:0:0:
52,169,1025308,1,8,0:0:0:0:
199,237,1025479,5,4,0:0:0:0:
146,307,1025650,1,8,0:0:0:0:
164,140,1025821,5,2,0:3:0:0:
220,380,1025992,1,4,0:0:0:0:
398,214,1026163,1,4,0:0:0:0:
141,132,1028898,6,0,P|181:106|214:114,1,76.5000014591217,4|0,0:0|0:0,0:0:0:0:
207,110,1029240,1,8,0:0:0:0:
163,282,1029411,6,0,P|151:236|168:207,1,76.5000014591217,4|0,0:0|0:0,0:0:0:0:
162,213,1029752,1,8,0:0:0:0:
313,308,1029923,6,0,P|266:305|244:279,1,76.5000014591217,4|0,0:0|0:0,0:0:0:0:
247,287,1030265,1,8,0:0:0:0:
384,172,1030436,6,0,P|367:217|335:230,1,76.5000014591217,4|0,0:0|0:0,0:0:0:0:
343,229,1030778,1,8,0:0:0:0:
333,61,1030949,5,4,0:0:0:0:
413,96,1031120,1,8,0:0:0:0:
244,98,1031291,5,2,0:3:0:0:
480,21,1031462,1,4,0:0:0:0:
446,259,1031633,1,4,0:0:0:0:
221,243,1033000,5,2,0:0:0:0:
206,98,1033171,2,0,L|211:152,1,38.2500007295609,2|0,0:3|0:0,0:0:0:0:
222,152,1033342,2,0,L|207:12,1,114.750002188683,8|0,0:0|0:0,0:0:0:0:
208,20,1033684,5,2,0:0:0:0:
390,52,1033855,2,0,P|349:66|333:65,1,38.2500007295609,2|0,0:3|0:0,0:0:0:0:
338,56,1034026,2,0,P|407:70|440:133,1,114.750002188683,8|0,0:0|0:0,0:0:0:0:
452,184,1034368,5,2,0:3:0:0:
449,198,1034710,1,2,0:3:0:0:
446,213,1035052,1,2,0:3:0:0:
443,227,1035393,1,2,0:3:0:0:
323,157,1035735,5,2,0:3:0:0:
335,164,1036077,1,2,0:3:0:0:
348,171,1036419,1,2,0:3:0:0:
361,178,1036761,1,2,0:3:0:0:
275,283,1037103,5,2,0:3:0:0:
285,273,1037445,1,2,0:3:0:0:
296,263,1037787,1,2,0:3:0:0:
306,253,1038128,1,2,0:3:0:0:
379,368,1038470,5,2,0:3:0:0:
372,355,1038812,1,2,0:3:0:0:
366,341,1039154,1,2,0:3:0:0:
360,329,1039496,1,2,0:3:0:0:
196,300,1039838,6,0,P|178:326|169:380,1,62.9999980773926,0|2,0:3|0:3,0:0:0:0:
197,289,1040180,2,0,P|174:311|156:363,1,62.9999980773926,2|2,0:3|0:3,0:0:0:0:
201,279,1040522,2,0,P|175:297|148:344,1,62.9999980773926,2|2,0:3|0:3,0:0:0:0:
207,270,1040864,2,0,P|178:283|143:325,1,62.9999980773926,2|2,0:3|0:3,0:0:0:0:
318,300,1041205,6,0,P|336:326|345:380,1,62.9999980773926,2|2,0:3|0:3,0:0:0:0:
316,289,1041547,2,0,P|338:311|356:363,1,62.9999980773926,2|2,0:3|0:3,0:0:0:0:
312,279,1041889,2,0,P|337:297|364:344,1,62.9999980773926,2|2,0:3|0:3,0:0:0:0:
306,270,1042231,2,0,P|334:283|369:325,1,62.9999980773926,2|2,0:3|0:3,0:0:0:0:
256,106,1042573,5,8,0:0:0:0:
256,106,1042915,2,0,L|256:185,1,67.5,0|0,3:0|0:0,0:0:0:0:
257,189,1043257,1,0,0:0:0:0:
158,87,1043428,6,0,L|169:147,2,53.9999983520508,0|2|0,3:0|0:0|0:0,0:0:0:0:
354,87,1043940,2,0,L|343:147,2,53.9999983520508,0|2|0,3:0|0:0|0:0,0:0:0:0:
81,40,1044453,6,0,P|70:62|64:96,1,38.2500007295609,2|2,0:0|0:0,0:0:0:0:
137,195,1044624,1,8,0:0:0:0:
141,180,1044710,1,8,0:0:0:0:
132,168,1044795,1,8,0:0:0:0:
113,167,1044881,1,8,0:0:0:0:
99,186,1044966,1,8,0:0:0:0:
105,212,1045052,1,8,0:0:0:0:
138,233,1045137,1,8,0:0:0:0:
185,222,1045222,1,8,0:0:0:0:
207,183,1045308,6,0,B|199:133|199:133|233:70,1,99.0000030212403,4|0,0:0|0:0,0:0:0:0:
421,2,1045650,1,8,0:0:0:0:
324,91,1045821,1,0,0:0:0:0:
310,85,1045906,2,0,P|341:68|384:58,1,49.5000015106202,0|2,3:0|0:0,0:0:0:0:
470,80,1046077,1,0,3:0:0:0:
482,88,1046163,1,2,0:3:0:0:
402,153,1046334,1,8,0:0:0:0:
421,2,1046505,1,0,0:0:0:0:
383,240,1046675,6,0,P|322:274|220:260,1,148.50000453186,2|0,0:3|0:0,0:0:0:0:
166,222,1047017,1,8,0:0:0:0:
294,106,1047188,1,0,0:0:0:0:
308,110,1047274,1,0,3:0:0:0:
322,114,1047359,2,0,L|256:126,1,49.5000015106202,2|0,0:0|3:0,0:0:0:0:
182,138,1047530,1,2,0:3:0:0:
388,49,1047701,2,0,B|417:90|417:90|407:155,1,99.0000030212403,8|0,0:0|0:0,0:0:0:0:
212,298,1048043,5,2,0:3:0:0:
199,289,1048128,2,0,P|225:269|309:266,1,99.0000030212403
369,306,1048385,2,0,P|394:304|427:293,1,49.5000015106202,8|0,0:0|0:0,0:0:0:0:
484,230,1048556,1,0,0:0:0:0:
322,114,1048727,2,0,L|313:182,2,49.5000015106202,2|0|2,0:0|3:0|0:3,0:0:0:0:
459,12,1049069,2,0,P|497:54|503:174,1,148.50000453186,8|0,0:0|0:0,0:0:0:0:
484,230,1049411,6,0,B|441:204|441:204|373:212,1,99.0000030212403,2|2,0:0|0:3,0:0:0:0:
199,289,1049752,1,8,0:0:0:0:
355,348,1049923,1,0,0:0:0:0:
367,340,1050009,2,0,P|331:323|303:317,1,49.5000015106202,0|2,3:0|0:0,0:0:0:0:
158,370,1050180,1,0,3:0:0:0:
162,384,1050265,1,2,0:3:0:0:
266,184,1050436,2,0,B|184:163|208:230|78:183,1,148.50000453186,8|0,0:0|0:0,0:0:0:0:
46,145,1050778,6,0,L|37:30,1,99.0000030212403,2|0,0:3|0:0,0:0:0:0:
316,19,1051120,1,8,0:0:0:0:
163,114,1051291,1,0,0:0:0:0:
150,106,1051376,2,0,P|210:80|258:80,1,99.0000030212403,0|0,3:0|3:0,0:0:0:0:
330,105,1051633,1,2,0:3:0:0:
209,199,1051804,2,0,P|279:203|325:227,1,99.0000030212403,8|0,0:0|0:0,0:0:0:0:
465,371,1052146,6,0,P|432:306|449:197,1,148.50000453186,2|0,0:3|0:0,0:0:0:0:
481,152,1052487,1,8,0:0:0:0:
336,324,1052658,1,0,0:0:0:0:
321,326,1052744,1,0,3:0:0:0:
306,328,1052829,2,0,L|245:337,1,49.5000015106202,2|0,0:0|3:0,0:0:0:0:
143,240,1053000,2,0,L|204:247,1,49.5000015106202,2|0,0:3|0:0,0:0:0:0:
330,219,1053171,2,0,B|357:176|357:176|345:90,1,99.0000030212403,8|0,0:0|0:0,0:0:0:0:
141,98,1053513,5,2,0:3:0:0:
245,171,1053684,2,0,L|240:105,1,49.5000015106202
237,28,1053855,1,8,0:0:0:0:
153,249,1054026,1,0,0:0:0:0:
165,257,1054111,1,0,3:0:0:0:
177,265,1054197,2,0,P|212:261|248:245,2,49.5000015106202,2|0|2,0:0|3:0|0:3,0:0:0:0:
22,166,1054539,5,8,0:0:0:0:
229,128,1054710,1,0,0:0:0:0:
236,140,1054795,2,0,P|174:133|138:103,1,99.0000030212403
61,30,1055052,2,0,L|66:98,1,49.5000015106202,2|0,0:3|0:0,0:0:0:0:
75,244,1055222,1,8,0:0:0:0:
300,237,1055393,5,2,0:3:0:0:
309,225,1055479,2,0,P|241:240|225:254,1,49.5000015106202,0|2,3:0|0:0,0:0:0:0:
143,306,1055650,1,0,3:0:0:0:
138,320,1055735,1,2,0:3:0:0:
266,371,1055906,1,8,0:0:0:0:
173,228,1056077,1,2,0:3:0:0:
50,348,1056248,5,2,0:3:0:0:
103,167,1056419,2,0,B|145:138|145:138|220:144,1,99.0000030212403,0|8,0:0|0:0,0:0:0:0:
391,291,1056761,2,0,P|364:288|335:278,1,49.5000015106202,0|0,0:0|3:0,0:0:0:0:
283,177,1056932,2,0,P|283:151|302:103,1,49.5000015106202,2|0,0:0|3:0,0:0:0:0:
397,178,1057103,1,2,0:3:0:0:
257,259,1057274,1,8,0:0:0:0:
470,136,1057445,1,0,0:0:0:0:
243,268,1057616,6,0,P|194:272|144:246,1,99.0000030212403,2|0,0:3|0:0,0:0:0:0:
128,29,1057958,1,8,0:0:0:0:
140,20,1058043,2,0,P|152:50|146:98,1,49.5000015106202
94,177,1058214,1,0,3:0:0:0:
81,184,1058299,2,0,P|83:149|101:113,1,49.5000015106202,2|0,0:0|3:0,0:0:0:0:
237,24,1058470,1,2,0:3:0:0:
24,71,1058641,1,8,0:0:0:0:
251,21,1058812,1,0,0:0:0:0:
10,75,1058983,6,0,P|-15:135|-11:228,1,148.50000453186,2|0,0:3|0:0,0:0:0:0:
13,305,1059325,1,8,0:0:0:0:
263,258,1059496,1,0,0:0:0:0:
251,248,1059581,1,0,3:0:0:0:
238,240,1059667,2,0,P|208:225|171:223,1,49.5000015106202,2|0,0:0|3:0,0:0:0:0:
73,239,1059838,1,2,0:3:0:0:
268,347,1060009,1,8,0:0:0:0:
193,132,1060180,1,0,0:0:0:0:
178,136,1060265,1,0,0:0:0:0:
163,140,1060351,6,0,B|202:171|202:171|280:160,1,99.0000030212403,2|2,0:0|0:3,0:0:0:0:
482,85,1060693,1,8,0:0:0:0:
338,41,1060864,1,0,0:0:0:0:
335,55,1060949,1,0,3:0:0:0:
333,69,1061034,2,0,L|325:145,1,49.5000015106202,2|0,0:0|3:0,0:0:0:0:
314,229,1061205,1,2,0:3:0:0:
512,162,1061376,2,0,B|468:136|468:136|405:142,1,99.0000030212403,8|0,0:0|0:0,0:0:0:0:
189,276,1061718,5,2,0:3:0:0:
179,287,1061804,2,0,L|190:160,1,99.0000030212403
199,46,1062060,2,0,L|194:104,1,49.5000015106202,8|0,0:0|0:0,0:0:0:0:
268,249,1062231,2,0,P|315:232|334:219,2,49.5000015106202,0|0|2,0:0|3:0|0:0,0:0:0:0:
93,216,1062573,1,2,0:3:0:0:
256,343,1062744,1,8,0:0:0:0:
105,127,1062915,1,0,0:0:0:0:
40,350,1063086,6,0,P|129:303|198:311,1,148.50000453186,2|0,0:3|0:0,0:0:0:0:
256,343,1063428,1,8,0:0:0:0:
204,165,1063599,2,0,P|185:216|186:245,1,49.5000015106202,0|0,0:0|3:0,0:0:0:0:
330,298,1063769,1,2,0:0:0:0:
344,295,1063855,1,0,3:0:0:0:
358,292,1063940,2,0,L|444:281,1,49.5000015106202,2|0,0:3|0:0,0:0:0:0:
315,205,1064111,1,8,0:0:0:0:
411,376,1064282,1,0,0:0:0:0:
487,184,1064453,6,0,P|410:160|363:185,1,99.0000030212403,2|0,0:3|0:0,0:0:0:0:
185,269,1064795,1,8,0:0:0:0:
141,151,1064966,1,0,0:0:0:0:
141,135,1065052,1,0,3:0:0:0:
142,120,1065137,2,0,L|146:56,2,49.5000015106202,2|0|2,0:0|3:0|0:3,0:0:0:0:
129,341,1065479,1,8,0:0:0:0:
9,195,1065650,2,0,P|56:177|78:178,1,49.5000015106202
225,192,1065821,5,2,0:3:0:0:
64,266,1065992,1,2,0:3:0:0:
142,120,1066163,1,8,0:0:0:0:
220,362,1066334,1,0,0:0:0:0:
231,370,1066419,2,0,P|262:322|262:259,1,99.0000030212403,2|0,3:0|3:0,0:0:0:0:
225,192,1066675,1,2,0:3:0:0:
210,190,1066761,1,2,0:3:0:0:
195,189,1066846,2,0,P|168:228|162:272,1,49.5000015106202,8|0,0:0|0:0,0:0:0:0:
323,197,1067017,2,0,P|312:157|298:133,1,49.5000015106202,2|0,0:3|0:0,0:0:0:0:
67,116,1067188,5,2,0:3:0:0:
61,129,1067274,2,0,P|109:125|179:77,1,99.0000030212403
204,29,1067530,2,0,P|259:13|292:14,1,49.5000015106202,8|0,0:0|0:0,0:0:0:0:
390,135,1067701,2,0,B|299:146|334:94|225:107,1,148.50000453186,0|0,0:0|3:0,0:0:0:0:
262,196,1068043,1,2,0:3:0:0:
469,215,1068214,2,0,B|418:209|368:247,1,99.0000030212403,8|0,0:0|0:0,0:0:0:0:
309,289,1068470,1,0,0:0:0:0:
295,298,1068556,6,0,B|245:303|245:303|190:275,1,99.0000030212403,2|0,0:3|0:0,0:0:0:0:
94,118,1068898,1,8,0:0:0:0:
107,111,1068983,2,0,P|129:151|133:197,1,49.5000015106202
127,323,1069154,1,0,3:0:0:0:
113,317,1069240,1,2,0:0:0:0:
230,252,1069411,1,2,0:3:0:0:
220,263,1069496,1,0,0:0:0:0:
210,274,1069581,2,0,P|208:217|243:151,1,99.0000030212403,8|0,0:0|0:0,0:0:0:0:
451,48,1069923,5,2,0:3:0:0:
460,59,1070009,2,0,L|324:53,1,99.0000030212403
244,91,1070265,2,0,P|274:101|299:119,1,49.5000015106202,8|0,0:0|0:0,0:0:0:0:
387,229,1070436,2,0,P|458:231|519:161,1,148.50000453186,0|0,0:0|3:0,0:0:0:0:
428,151,1070778,1,2,0:3:0:0:
308,308,1070949,2,0,L|296:190,1,99.0000030212403,8|0,0:0|0:0,0:0:0:0:
299,121,1071205,1,0,0:0:0:0:
313,115,1071291,5,2,0:0:0:0:
216,254,1071462,1,2,0:3:0:0:
179,82,1071633,1,8,0:0:0:0:
187,69,1071718,2,0,P|212:117|204:188,1,99.0000030212403,0|0,0:0|3:0,0:0:0:0:
136,211,1071975,2,0,L|76:215,1,49.5000015106202,2|0,0:0|3:0,0:0:0:0:
0,178,1072146,1,2,0:3:0:0:
129,300,1072316,1,8,0:0:0:0:
91,79,1072487,2,0,P|79:103|76:136,1,49.5000015106202,0|0,2:0|2:0,2:0:0:0:
217,239,1072658,5,2,0:3:0:0:
227,228,1072744,2,0,B|183:202|183:202|107:215,1,99.0000030212403
52,250,1073000,2,0,P|37:309|41:331,1,49.5000015106202,8|0,0:0|0:0,0:0:0:0:
181,365,1073171,2,0,B|276:375|235:326|345:348,1,148.50000453186,0|0,0:0|3:0,0:0:0:0:
409,366,1073513,1,2,0:3:0:0:
381,120,1073684,2,0,P|409:161|416:213,1,99.0000030212403,8|0,0:0|0:0,0:0:0:0:
196,282,1074026,5,0,0:0:0:0:
144,85,1074197,1,0,0:0:0:0:
268,192,1074368,1,8,0:0:0:0:
278,204,1074453,2,0,L|266:87,1,99.0000030212403,0|0,0:0|3:0,0:0:0:0:
231,1,1074710,2,0,P|197:3|158:16,2,49.5000015106202,2|0|2,0:0|3:0|0:3,0:0:0:0:
383,69,1075052,1,8,0:0:0:0:
221,87,1075222,2,0,P|281:114|297:128,1,49.5000015106202
412,242,1075393,5,2,0:3:0:0:
401,252,1075479,2,0,P|375:180|381:131,1,99.0000030212403
383,69,1075735,1,8,0:0:0:0:
181,219,1075906,1,0,0:0:0:0:
167,211,1075992,2,0,P|199:158|310:189,1,148.50000453186,0|2,3:0|0:3,0:0:0:0:
466,138,1076419,2,0,B|421:163|421:163|345:155,1,99.0000030212403,8|0,0:0|0:0,0:0:0:0:
72,136,1076761,5,2,0:0:0:0:
188,11,1076932,1,2,0:3:0:0:
167,211,1077103,5,8,0:0:0:0:
360,67,1077274,1,2,0:3:0:0:
345,61,1077359,1,0,3:0:0:0:
330,55,1077445,2,0,P|275:67|248:84,1,49.5000015106202,2|0,0:0|3:0,0:0:0:0:
225,136,1077616,1,2,0:3:0:0:
430,256,1077787,5,8,0:0:0:0:
324,151,1077958,1,2,0:3:0:0:
226,314,1078128,5,2,0:3:0:0:
238,321,1078214,2,0,P|233:250|207:213,1,99.0000030212403
142,173,1078470,2,0,P|132:119|136:93,1,49.5000015106202,8|0,0:0|0:0,0:0:0:0:
201,44,1078641,2,0,P|140:71|40:55,1,148.50000453186,0|0,0:0|3:0,0:0:0:0:
0,0,1078983,1,2,0:3:0:0:
50,200,1079154,2,0,P|117:171|165:180,1,99.0000030212403,8|0,0:0|0:0,0:0:0:0:
402,335,1079496,6,0,P|359:331|297:291,1,99.0000030212403,2|0,0:3|0:0,0:0:0:0:
270,84,1079838,1,8,0:0:0:0:
282,76,1079923,2,0,P|304:140|301:161,1,49.5000015106202
231,259,1080094,1,0,3:0:0:0:
220,269,1080180,2,0,P|219:206|246:159,1,99.0000030212403,2|2,0:0|0:3,0:0:0:0:
382,62,1080522,1,8,0:0:0:0:
374,210,1080693,2,0,L|298:201,1,49.5000015106202
93,110,1080864,5,2,0:3:0:0:
82,99,1080949,2,0,L|225:87,1,99.0000030212403
270,84,1081205,1,8,0:0:0:0:
43,9,1081376,1,0,0:0:0:0:
29,15,1081462,2,0,P|-6:74|5:160,1,148.50000453186,0|2,3:0|0:3,0:0:0:0:
229,232,1081889,1,8,0:0:0:0:
61,208,1082060,2,0,L|142:220,1,49.5000015106202
346,148,1082231,6,0,L|271:153,1,49.5000015106202,2|0,0:0|0:0,0:0:0:0:
182,158,1082402,1,2,0:3:0:0:
302,384,1082573,1,8,0:0:0:0:
423,251,1082744,1,0,0:0:0:0:
411,241,1082829,1,0,3:0:0:0:
398,232,1082915,2,0,P|365:233|326:253,1,49.5000015106202,2|0,0:0|3:0,0:0:0:0:
267,310,1083086,1,2,0:3:0:0:
510,293,1083257,2,0,B|516:240|516:240|492:185,1,99.0000030212403,8|0,0:0|0:0,0:0:0:0:
208,73,1083599,6,0,B|294:98|262:46|378:79,1,148.50000453186,2|0,0:3|0:0,0:0:0:0:
432,123,1083940,1,8,0:0:0:0:
205,232,1084111,2,0,P|268:185|327:182,1,99.0000030212403,0|2,0:0|0:0,0:0:0:0:
371,188,1084368,1,0,3:0:0:0:
383,195,1084453,1,2,0:3:0:0:
121,296,1084624,2,0,L|112:180,1,99.0000030212403,8|0,0:0|0:0,0:0:0:0:
320,62,1084966,5,2,0:3:0:0:
286,180,1085137,1,2,0:3:0:0:
155,90,1085308,1,8,0:0:0:0:
145,78,1085393,2,0,P|210:84|243:109,1,99.0000030212403,0|0,0:0|0:3,0:0:0:0:
286,180,1085650,1,2,0:3:0:0:
251,1,1085821,1,2,0:3:0:0:
223,247,1085992,1,8,0:0:0:0:
375,88,1086163,2,0,P|344:92|303:106,1,49.5000015106202
145,199,1086334,5,2,0:3:0:0:
145,199,1086505,1,2,0:3:0:0:
313,267,1086675,5,8,0:0:0:0:
313,267,1086846,1,2,0:3:0:0:
272,134,1087017,5,2,0:3:0:0:
272,134,1087188,1,2,0:3:0:0:
196,339,1087359,5,8,0:0:0:0:
196,339,1087530,1,2,0:3:0:0:
393,247,1087701,5,2,3:0:0:0:
368,237,1087787,1,0,3:0:0:0:
345,232,1087872,1,2,3:0:0:0:
321,233,1087958,1,0,3:0:0:0:
297,240,1088043,1,8,3:2:0:0:
273,247,1088128,1,0,3:0:0:0:
248,247,1088214,1,2,3:0:0:0:
224,242,1088299,1,0,3:0:0:0:
201,233,1088385,6,0,P|173:222|139:198,1,49.5000015106202,2|0,3:0|3:0,0:0:0:0:
74,4,1088556,2,0,P|85:26|92:49,1,49.5000015106202,2|0,3:0|3:0,0:0:0:0:
106,139,1088727,5,8,0:0:0:0:
106,139,1089069,6,0,L|111:61,1,67.5,2|2,0:3|0:3,0:0:0:0:
112,48,1089411,5,4,0:1:0:0:
11,137,1089581,1,0,0:0:0:0:
13,159,1089667,1,0,0:0:0:0:
15,181,1089752,1,0,0:0:0:0:
18,204,1089838,1,0,0:0:0:0:
20,226,1089923,1,2,0:3:0:0:
197,168,1090094,1,8,0:0:0:0:
108,274,1090265,6,0,L|100:329,1,45
96,355,1090436,1,0,0:0:0:0:
20,226,1090607,1,2,0:3:0:0:
204,293,1090778,1,8,0:0:0:0:
287,229,1090949,1,0,0:0:0:0:
297,209,1091034,1,0,0:0:0:0:
303,187,1091120,1,0,0:0:0:0:
305,165,1091205,1,0,0:0:0:0:
302,142,1091291,1,2,0:3:0:0:
212,49,1091462,2,0,L|115:46,1,90,8|0,0:0|0:0,0:0:0:0:
375,84,1091804,6,0,L|472:81,1,90,2|0,0:3|0:0,0:0:0:0:
289,12,1092146,1,8,0:0:0:0:
302,142,1092316,1,0,0:0:0:0:
305,165,1092402,1,0,0:0:0:0:
303,187,1092487,1,0,0:0:0:0:
297,209,1092573,1,0,0:0:0:0:
287,229,1092658,1,2,0:3:0:0:
158,296,1092829,1,8,0:0:0:0:
307,335,1093000,1,0,0:0:0:0:
307,335,1093086,1,0,0:0:0:0:
307,335,1093171,6,0,L|399:343,1,90,0|2,0:0|0:3,0:0:0:0:
475,223,1093513,1,8,0:0:0:0:
287,229,1093684,1,0,0:0:0:0:
275,229,1093769,1,0,0:0:0:0:
264,230,1093855,1,0,0:0:0:0:
253,231,1093940,1,0,0:0:0:0:
242,231,1094026,1,2,0:3:0:0:
41,196,1094197,2,0,P|23:159|28:106,1,90,8|0,0:0|0:0,0:0:0:0:
36,97,1094453,1,0,0:0:0:0:
46,83,1094539,5,2,0:3:0:0:
218,47,1094710,1,0,0:0:0:0:
114,143,1094881,1,8,0:0:0:0:
280,133,1095052,1,0,0:0:0:0:
302,131,1095137,1,0,0:0:0:0:
324,129,1095222,1,0,0:0:0:0:
347,128,1095308,1,0,0:0:0:0:
369,126,1095393,1,2,0:3:0:0:
443,40,1095564,1,8,0:0:0:0:
430,223,1095735,6,0,L|424:287,1,45
363,323,1095906,2,0,P|323:311|273:317,1,90,0|2,0:0|0:3,0:0:0:0:
108,356,1096248,1,8,0:0:0:0:
194,210,1096419,2,0,P|207:183|210:156,1,45
194,134,1096590,1,0,0:0:0:0:
194,134,1096675,1,0,0:0:0:0:
194,134,1096761,1,2,0:3:0:0:
343,29,1096932,2,0,L|438:26,1,90,8|0,0:0|0:0,0:0:0:0:
195,55,1097274,6,0,L|105:52,1,90,2|0,0:3|0:0,0:0:0:0:
80,234,1097616,1,8,0:0:0:0:
11,169,1097787,1,0,0:0:0:0:
29,155,1097872,1,0,0:0:0:0:
49,146,1097958,1,0,0:0:0:0:
71,142,1098043,1,0,0:0:0:0:
94,142,1098128,1,2,0:3:0:0:
213,262,1098299,5,8,0:0:0:0:
283,152,1098470,1,0,0:0:0:0:
280,118,1098556,1,0,0:0:0:0:
278,84,1098641,1,0,0:0:0:0:
275,51,1098727,1,0,0:0:0:0:
273,17,1098812,1,2,0:3:0:0:
187,119,1098983,5,8,0:0:0:0:
389,81,1099154,1,0,0:0:0:0:
432,79,1099240,1,0,0:0:0:0:
473,101,1099325,1,0,0:0:0:0:
498,136,1099411,1,0,0:0:0:0:
505,180,1099496,1,2,0:3:0:0:
453,342,1099667,1,8,0:0:0:0:
408,176,1099838,1,2,0:3:0:0:
356,339,1100009,6,0,P|314:353|262:347,1,90,2|0,0:3|0:0,0:0:0:0:
191,200,1100351,1,8,0:0:0:0:
339,194,1100522,2,0,L|403:202,1,45
416,183,1100693,1,0,0:0:0:0:
416,183,1100778,1,0,0:0:0:0:
416,183,1100864,1,2,0:3:0:0:
464,44,1101034,2,0,L|362:51,1,90,8|0,0:0|0:0,0:0:0:0:
267,198,1101376,5,0,0:0:0:0:
103,179,1101547,1,2,0:3:0:0:
200,46,1101718,1,8,0:0:0:0:
182,224,1101889,2,0,L|178:277,1,45
194,304,1102060,1,0,0:0:0:0:
194,304,1102146,1,0,0:0:0:0:
194,304,1102231,1,2,0:3:0:0:
360,191,1102402,2,0,L|356:99,1,90,8|0,0:0|0:0,0:0:0:0:
103,179,1102744,6,0,L|99:268,1,90,2|0,0:3|0:0,0:0:0:0:
4,333,1103086,1,8,0:0:0:0:
49,108,1103257,1,0,0:0:0:0:
67,95,1103342,1,0,0:0:0:0:
89,88,1103428,1,0,0:0:0:0:
111,87,1103513,1,0,0:0:0:0:
133,93,1103599,1,2,0:3:0:0:
207,211,1103769,1,8,0:0:0:0:
273,73,1103940,6,0,L|277:12,1,45
249,4,1104111,1,0,0:0:0:0:
133,93,1104282,1,2,0:3:0:0:
315,143,1104453,1,8,0:0:0:0:
207,211,1104624,1,0,0:0:0:0:
207,222,1104710,1,0,0:0:0:0:
208,233,1104795,1,0,0:0:0:0:
208,244,1104881,1,0,0:0:0:0:
209,255,1104966,1,2,0:3:0:0:
298,343,1105137,2,0,L|398:348,1,90,8|0,0:0|0:0,0:0:0:0:
406,341,1105393,1,0,0:0:0:0:
425,335,1105479,5,2,0:3:0:0:
306,239,1105650,1,0,0:0:0:0:
492,228,1105821,1,8,0:0:0:0:
396,128,1105992,1,0,0:0:0:0:
385,108,1106077,1,0,0:0:0:0:
378,86,1106163,1,0,0:0:0:0:
377,64,1106248,1,0,0:0:0:0:
380,42,1106334,1,2,0:3:0:0:
478,69,1106505,1,8,0:0:0:0:
403,207,1106675,6,0,L|406:268,1,45
339,309,1106846,2,0,P|296:296|248:300,1,90,0|2,0:0|0:3,0:0:0:0:
38,270,1107188,1,8,0:0:0:0:
177,166,1107359,2,0,L|172:227,1,45
150,246,1107530,1,0,0:0:0:0:
150,246,1107616,1,0,0:0:0:0:
150,246,1107701,1,2,0:3:0:0:
43,133,1107872,2,0,L|32:39,1,90,8|0,0:0|0:0,0:0:0:0:
296,17,1108214,6,0,L|285:106,1,90,2|0,0:3|0:0,0:0:0:0:
266,271,1108556,1,8,0:0:0:0:
357,163,1108727,1,0,0:0:0:0:
375,149,1108812,1,0,0:0:0:0:
395,141,1108898,1,0,0:0:0:0:
418,137,1108983,1,0,0:0:0:0:
440,139,1109069,1,2,0:3:0:0:
433,263,1109240,5,8,0:0:0:0:
357,163,1109411,1,0,0:0:0:0:
352,129,1109496,1,0,0:0:0:0:
348,96,1109581,1,0,0:0:0:0:
343,62,1109667,1,0,0:0:0:0:
339,29,1109752,1,2,0:3:0:0:
467,3,1109923,5,8,0:0:0:0:
357,163,1110094,1,0,0:0:0:0:
328,197,1110180,1,0,0:0:0:0:
289,218,1110265,1,0,0:0:0:0:
244,222,1110351,1,0,0:0:0:0:
202,207,1110436,1,2,0:3:0:0:
149,57,1110607,1,8,0:0:0:0:
97,261,1110778,1,2,0:3:0:0:
263,128,1110949,5,2,0:3:0:0:
263,128,1111291,1,2,0:3:0:0:
308,124,1111633,2,0,L|255:128,1,45,2|2,0:0|0:3,0:0:0:0:
263,128,1111975,5,12,0:1:0:0:
404,223,1112146,1,0,0:0:0:0:
426,220,1112231,1,0,0:0:0:0:
448,217,1112316,1,0,0:0:0:0:
315,300,1112487,1,2,0:3:0:0:
495,291,1112658,1,8,0:0:0:0:
398,140,1112829,1,0,0:0:0:0:
395,117,1112915,1,0,0:0:0:0:
392,95,1113000,1,0,0:0:0:0:
389,73,1113086,1,0,0:0:0:0:
386,50,1113171,1,2,0:3:0:0:
300,158,1113342,1,8,0:0:0:0:
201,99,1113513,1,0,0:0:0:0:
201,99,1113599,1,0,0:0:0:0:
201,99,1113684,6,0,L|206:6,1,90,2|0,0:3|0:0,0:0:0:0:
20,119,1114026,1,8,0:0:0:0:
128,165,1114197,1,0,0:0:0:0:
137,185,1114282,1,0,0:0:0:0:
140,207,1114368,1,0,0:0:0:0:
138,229,1114453,1,0,0:0:0:0:
130,250,1114539,1,2,0:3:0:0:
245,171,1114710,1,8,0:0:0:0:
58,213,1114881,6,0,L|7:219,1,45
130,250,1115052,2,0,L|229:260,1,90,0|2,0:0|0:3,0:0:0:0:
320,169,1115393,1,8,0:0:0:0:
377,305,1115564,1,0,0:0:0:0:
376,316,1115650,1,0,0:0:0:0:
375,327,1115735,1,0,0:0:0:0:
375,338,1115821,1,0,0:0:0:0:
374,349,1115906,1,2,0:3:0:0:
461,195,1116077,2,0,P|474:157|469:106,1,90,8|0,0:0|0:0,0:0:0:0:
461,94,1116334,1,0,0:0:0:0:
453,80,1116419,5,2,0:3:0:0:
349,173,1116590,1,0,0:0:0:0:
321,36,1116761,1,8,0:0:0:0:
217,129,1116932,1,0,0:0:0:0:
194,133,1117017,1,0,0:0:0:0:
172,132,1117103,1,0,0:0:0:0:
150,127,1117188,1,0,0:0:0:0:
129,118,1117274,1,2,0:3:0:0:
20,28,1117445,1,8,0:0:0:0:
40,184,1117616,6,0,L|47:239,1,45
113,282,1117787,2,0,P|152:267|200:271,1,90,0|2,0:0|0:3,0:0:0:0:
272,133,1118128,1,8,0:0:0:0:
294,303,1118299,2,0,L|287:358,1,45
319,384,1118470,1,0,0:0:0:0:
319,384,1118556,1,0,0:0:0:0:
319,384,1118641,1,2,0:3:0:0:
447,276,1118812,2,0,L|437:183,1,90,8|0,0:0|0:0,0:0:0:0:
282,43,1119154,6,0,L|272:132,1,90,2|0,0:3|0:0,0:0:0:0:
251,269,1119496,1,8,0:0:0:0:
57,182,1119667,1,0,0:0:0:0:
78,175,1119752,1,0,0:0:0:0:
100,173,1119838,1,0,0:0:0:0:
122,176,1119923,1,0,0:0:0:0:
143,184,1120009,1,2,0:3:0:0:
91,349,1120180,5,8,0:0:0:0:
57,182,1120351,1,0,0:0:0:0:
51,148,1120436,1,0,0:0:0:0:
45,115,1120522,1,0,0:0:0:0:
39,82,1120607,1,0,0:0:0:0:
33,49,1120693,1,2,0:3:0:0:
143,184,1120864,5,8,0:0:0:0:
288,65,1121034,1,0,0:0:0:0:
323,37,1121120,1,0,0:0:0:0:
365,22,1121205,1,0,0:0:0:0:
410,22,1121291,1,0,0:0:0:0:
452,36,1121376,1,2,0:3:0:0:
483,202,1121547,1,8,0:0:0:0:
323,145,1121718,1,2,0:3:0:0:
354,311,1121889,6,0,P|316:340|267:347,1,90,2|0,0:3|0:0,0:0:0:0:
323,145,1122231,1,8,0:0:0:0:
483,202,1122402,2,0,P|502:222|513:245,1,45
507,283,1122573,1,0,0:0:0:0:
507,283,1122658,1,0,0:0:0:0:
507,283,1122744,1,2,0:3:0:0:
281,256,1122915,2,0,L|179:261,1,90,8|0,0:0|0:0,0:0:0:0:
35,171,1123257,5,0,0:0:0:0:
196,180,1123428,1,2,0:3:0:0:
107,317,1123599,1,8,0:0:0:0:
118,129,1123769,2,0,L|121:76,1,45
95,54,1123940,1,0,0:0:0:0:
95,54,1124026,1,0,0:0:0:0:
95,54,1124111,1,2,0:3:0:0:
266,30,1124282,2,0,P|307:45|355:45,1,90,8|0,0:0|0:0,0:0:0:0:
509,168,1124624,6,0,P|464:168|422:183,1,90,2|0,0:3|0:0,0:0:0:0:
346,333,1124966,1,8,0:0:0:0:
194,241,1125137,1,0,0:0:0:0:
216,239,1125222,1,0,0:0:0:0:
238,241,1125308,1,0,0:0:0:0:
260,246,1125393,1,0,0:0:0:0:
280,255,1125479,1,2,0:3:0:0:
422,182,1125650,1,8,0:0:0:0:
288,140,1125821,6,0,L|234:134,1,45
218,110,1125992,1,0,0:0:0:0:
155,205,1126163,1,2,0:3:0:0:
148,20,1126334,1,8,0:0:0:0:
46,174,1126505,1,0,0:0:0:0:
37,180,1126590,1,0,0:0:0:0:
29,189,1126675,1,0,0:0:0:0:
22,198,1126761,1,0,0:0:0:0:
17,208,1126846,1,2,0:3:0:0:
210,319,1127017,2,0,L|119:316,1,90,8|0,0:0|0:0,0:0:0:0:
101,305,1127274,1,0,0:0:0:0:
82,294,1127359,5,2,0:3:0:0:
240,229,1127530,1,0,0:0:0:0:
251,382,1127701,1,8,0:0:0:0:
344,269,1127872,1,0,0:0:0:0:
364,260,1127958,1,0,0:0:0:0:
386,255,1128043,1,0,0:0:0:0:
408,252,1128128,1,0,0:0:0:0:
431,253,1128214,1,2,0:3:0:0:
501,143,1128385,1,8,0:0:0:0:
362,144,1128556,6,0,L|304:150,1,45
245,108,1128727,2,0,P|226:68|232:18,1,90,0|2,0:0|0:3,0:0:0:0:
350,50,1129069,1,8,0:0:0:0:
150,94,1129240,2,0,P|140:115|137:140,1,45
157,180,1129411,1,0,0:0:0:0:
157,180,1129496,1,0,0:0:0:0:
157,180,1129581,1,2,0:3:0:0:
60,335,1129752,2,0,L|40:241,1,90,8|0,0:0|0:0,0:0:0:0:
274,148,1130094,6,0,L|255:236,1,90,2|0,0:3|0:0,0:0:0:0:
390,369,1130436,1,8,0:0:0:0:
379,176,1130607,1,0,0:0:0:0:
374,153,1130693,1,0,0:0:0:0:
369,131,1130778,1,0,0:0:0:0:
364,109,1130864,1,0,0:0:0:0:
360,87,1130949,1,2,0:3:0:0:
468,32,1131120,1,8,0:0:0:0:
441,229,1131291,1,0,0:0:0:0:
283,107,1131462,6,0,P|242:92|191:97,1,90,8|0,0:0|0:0,0:0:0:0:
175,106,1131718,1,0,0:0:0:0:
154,117,1131804,1,0,0:0:0:0:
173,320,1131975,6,0,P|206:291|227:245,1,90,8|0,0:0|0:0,0:0:0:0:
227,226,1132231,1,0,0:0:0:0:
228,203,1132316,1,0,0:0:0:0:
43,118,1132487,5,8,0:0:0:0:
48,151,1132573,1,0,0:0:0:0:
63,181,1132658,1,0,0:0:0:0:
86,205,1132744,1,0,0:0:0:0:
115,222,1132829,6,0,L|222:228,1,90,4|2,0:1|0:0,0:0:0:0:
204,227,1133684,1,2,0:0:0:0:
354,139,1134197,6,0,L|340:278,1,135,2|2,0:0|0:0,0:0:0:0:
296,359,1134881,2,0,L|304:296,1,45
276,262,1135222,6,0,P|301:314|340:272,1,135
357,246,1135564,6,0,P|399:237|446:251,1,90,0|2,0:0|0:0,0:0:0:0:
443,249,1136419,1,2,0:0:0:0:
349,111,1136932,6,0,L|357:248,1,135,2|2,0:0|0:0,0:0:0:0:
324,336,1137616,2,0,L|320:271,1,45
282,250,1137958,6,0,P|336:290|349:231,1,135
353,199,1138299,6,0,P|299:185|274:204,1,90,0|2,0:0|0:0,0:0:0:0:
274,203,1139154,1,2,0:0:0:0:
208,188,1139667,6,0,B|272:203|272:203|343:184,1,135,2|2,0:0|0:0,0:0:0:0:
272,120,1140351,2,0,L|216:110,1,45
16,116,1140693,6,0,B|55:128|55:128|109:120|109:120|148:129,1,135
154,135,1141034,5,0,0:0:0:0:
109,206,1141376,1,2,0:0:0:0:
77,49,1141889,1,2,0:0:0:0:
77,49,1142060,2,0,L|143:57,1,45
141,144,1142402,5,2,0:0:0:0:
141,144,1142573,2,0,L|49:133,2,90,0|2|0,0:0|0:0|0:0,0:0:0:0:
214,96,1143428,2,0,L|206:20,1,67.5
206,18,1143769,5,4,0:1:0:0:
206,18,1144111,1,8,0:0:0:0:
350,61,1144453,1,8,0:0:0:0:
206,18,1144624,1,2,0:3:0:0:
350,61,1144795,1,8,0:0:0:0:
206,18,1144966,1,2,0:3:0:0:
193,212,1145137,5,8,0:0:0:0:
193,212,1145479,1,8,0:0:0:0:
111,79,1145821,1,8,0:0:0:0:
193,212,1145992,1,2,0:3:0:0:
111,79,1146163,1,8,0:0:0:0:
193,212,1146334,1,2,0:3:0:0:
370,145,1146505,6,0,L|498:155,1,90,8|0,0:0|0:0,0:0:0:0:
193,212,1146846,2,0,L|65:222,1,90,8|0,0:0|0:0,0:0:0:0:
111,79,1147188,1,8,0:0:0:0:
9,243,1147359,1,2,0:3:0:0:
17,55,1147530,1,8,0:0:0:0:
103,219,1147701,1,2,0:3:0:0:
298,112,1147872,6,0,P|348:97|405:112,1,90,8|0,0:0|0:0,0:0:0:0:
190,177,1148214,2,0,P|175:127|190:70,1,90,8|0,0:0|0:0,0:0:0:0:
283,212,1148556,1,8,0:0:0:0:
103,219,1148727,1,2,0:3:0:0:
298,112,1148898,1,8,0:0:0:0:
83,76,1149069,1,2,0:3:0:0:
190,305,1149240,5,8,0:0:0:0:
190,305,1149581,1,8,0:0:0:0:
190,305,1149923,1,8,0:0:0:0:
290,263,1150094,1,2,0:3:0:0:
390,221,1150265,1,8,0:0:0:0:
490,179,1150436,1,2,0:3:0:0:
190,53,1150607,5,8,0:0:0:0:
190,53,1150949,1,8,0:0:0:0:
190,53,1151291,1,8,0:0:0:0:
290,95,1151462,1,2,0:3:0:0:
390,137,1151633,1,8,0:0:0:0:
490,179,1151804,1,2,0:3:0:0:
190,305,1151975,5,8,0:0:0:0:
190,305,1152316,1,2,0:0:0:0:
172,146,1152487,2,0,P|167:95|175:51,1,90,2|0,0:0|0:0,0:0:0:0:
138,231,1152829,2,0,P|96:259|54:275,1,90,2|0,0:0|0:0,0:0:0:0:
226,220,1153171,2,0,P|272:241|306:270,1,90,2|0,0:0|0:0,0:0:0:0:
256,192,1153428,12,0,1154368,0:0:0:0:
192,162,1154710,6,0,P|261:224|254:129,1,198.000006042481,4|8,0:0|0:0,0:0:0:0:
235,82,1155222,2,0,L|229:15,1,49.5000015106202
414,9,1155393,2,0,B|535:25,1,99.0000030212403,2|2,0:2|0:3,0:0:0:0:
333,68,1155735,1,8,0:0:0:0:
482,119,1155906,2,0,L|418:100,1,49.5000015106202,2|2,0:2|0:2,0:0:0:0:
333,68,1156077,5,2,0:3:0:0:
464,219,1156248,2,0,L|387:198,1,49.5000015106202,2|2,0:2|0:2,0:0:0:0:
188,143,1156419,6,0,L|318:177,1,135.000005149842,8|0,0:0|0:0,0:0:0:0:
356,287,1156675,1,0,0:0:0:0:
344,284,1156761,6,0,L|276:271,1,49.5000015106202,2|2,0:2|0:2,0:0:0:0:
200,248,1156932,1,2,0:3:0:0:
188,143,1157103,6,0,P|113:204|199:248,1,229.500004377365,8|0,0:0|2:0,0:0:0:0:
318,177,1157445,6,0,L|311:114,1,49.5000015106202,2|0,0:3|0:0,0:0:0:0:
193,93,1157616,2,0,L|188:143,1,49.5000015106202
163,356,1157787,1,8,0:0:0:0:
52,219,1157958,1,0,0:0:0:0:
62,181,1158043,1,0,0:0:0:0:
72,143,1158128,2,0,L|88:62,1,49.5000015106202,2|2,0:2|0:2,0:0:0:0:
197,248,1158299,1,2,0:3:0:0:
17,323,1158470,1,8,0:0:0:0:
259,328,1158641,2,0,L|305:328,2,24.7500007553101,2|2|2,0:2|0:2|0:2,0:0:0:0:
108,290,1158812,5,2,0:3:0:0:
172,150,1158983,1,2,0:2:0:0:
235,10,1159154,1,8,0:0:0:0:
304,149,1159325,2,0,L|335:214,1,49.5000015106202
424,97,1159496,2,0,L|468:3,1,99.0000030212403,2|2,0:2|0:3,0:0:0:0:
507,119,1159838,6,0,B|472:184|472:184|393:164|393:164|424:96,1,229.500004377365,8|0,0:0|2:0,0:0:0:0:
466,7,1160180,5,2,0:3:0:0:
303,34,1160351,2,0,L|352:26,1,49.5000015106202
466,7,1160522,1,8,0:0:0:0:
263,158,1160693,2,0,L|312:150,1,49.5000015106202
395,163,1160864,2,0,B|324:174|324:174|303:132,1,99.0000030212403,2|2,0:2|0:3,0:0:0:0:
512,98,1161205,1,8,0:0:0:0:
454,301,1161376,2,0,L|431:246,1,49.5000015106202,2|2,0:2|0:2,0:0:0:0:
395,163,1161547,5,2,0:3:0:0:
435,255,1161718,1,2,0:2:0:0:
466,7,1161889,1,8,0:0:0:0:
512,98,1162060,1,0,0:0:0:0:
283,33,1162231,1,2,0:2:0:0:
512,98,1162402,1,2,0:3:0:0:
236,122,1162573,1,8,0:0:0:0:
373,185,1162744,2,0,L|328:164,1,49.5000015106202
236,122,1162915,5,2,0:3:0:0:
232,343,1163257,1,8,0:0:0:0:
131,315,1163428,2,0,B|139:291|139:291|152:308,1,45,2|0,0:2|0:0,0:0:0:0:
325,297,1163769,2,0,B|317:274|317:274|305:294,1,45,2|8,0:3|0:0,0:0:0:0:
120,198,1164111,2,0,B|128:174|128:174|141:191,1,45,2|2,0:2|0:3,0:0:0:0:
336,172,1164453,2,0,B|328:149|328:149|316:169,1,45,2|8,0:2|0:0,0:0:0:0:
110,88,1164795,2,0,B|118:64|118:64|131:81,1,45,2|2,0:2|0:3,0:0:0:0:
345,50,1165137,2,0,B|337:27|337:27|325:47,1,45,2|8,0:3|0:0,0:0:0:0:
266,259,1165479,1,2,0:3:0:0:
106,90,1165650,6,0,P|156:20|213:89,1,198.000006042481,4|8,0:0|0:0,0:0:0:0:
167,218,1166163,2,0,L|187:157,1,49.5000015106202
214,84,1166334,2,0,P|252:49|321:91,1,99.0000030212403,2|2,0:2|0:3,0:0:0:0:
423,192,1166675,1,8,0:0:0:0:
346,310,1166846,2,0,P|345:285|347:261,1,49.5000015106202,2|2,0:2|0:2,0:0:0:0:
423,192,1167017,5,2,0:3:0:0:
246,306,1167188,2,0,P|244:280|246:256,1,49.5000015106202,2|2,0:2|0:2,0:0:0:0:
329,162,1167359,6,0,P|329:94|313:29,1,135.000005149842,8|0,0:0|0:0,0:0:0:0:
244,21,1167616,1,0,0:0:0:0:
251,18,1167701,6,0,P|279:17|309:28,1,49.5000015106202,2|2,0:2|0:2,0:0:0:0:
428,78,1167872,1,2,0:3:0:0:
225,172,1168043,6,0,P|163:87|243:20,1,229.500004377365,8|0,0:0|2:0,0:0:0:0:
239,97,1168385,5,2,0:3:0:0:
219,97,1168470,1,0,0:0:0:0:
199,97,1168556,1,0,0:0:0:0:
179,97,1168641,1,0,0:0:0:0:
159,97,1168727,1,8,0:0:0:0:
177,193,1168898,1,0,0:0:0:0:
168,145,1168983,1,0,0:0:0:0:
159,97,1169069,1,2,0:2:0:0:
258,254,1169240,1,2,0:3:0:0:
77,37,1169411,1,8,0:0:0:0:
9,196,1169581,2,0,L|6:225,2,24.7500007553101,2|2|2,0:2|0:2|0:2,0:0:0:0:
168,144,1169752,5,2,0:3:0:0:
9,196,1169923,1,2,0:2:0:0:
77,37,1170094,1,8,0:0:0:0:
106,224,1170265,2,0,L|113:274,1,49.5000015106202
168,144,1170436,2,0,L|179:42,1,99.0000030212403,2|2,0:2|0:3,0:0:0:0:
278,67,1170778,6,0,B|293:127|293:127|255:175|255:175|187:177|187:177|155:122,1,229.500004377365,8|0,0:0|2:0,0:0:0:0:
221,111,1171120,5,2,0:3:0:0:
239,245,1171291,2,0,L|177:246,1,49.5000015106202
30,248,1171462,1,8,0:0:0:0:
221,111,1171633,1,0,0:0:0:0:
270,111,1171718,1,0,0:0:0:0:
319,111,1171804,1,0,0:0:0:0:
448,242,1171975,2,0,L|386:243,1,49.5000015106202,2|0,0:3|0:0,0:0:0:0:
239,245,1172146,1,8,0:0:0:0:
320,331,1172316,2,0,L|382:330,1,49.5000015106202
490,327,1172487,5,2,0:3:0:0:
346,157,1172658,2,0,L|284:158,1,49.5000015106202
137,160,1172829,1,8,0:0:0:0:
137,160,1173171,6,0,L|218:150,1,49.5000015106202,2|0,0:3|0:0,0:0:0:0:
245,72,1173342,2,0,L|326:62,1,49.5000015106202,2|0,0:3|0:0,0:0:0:0:
370,0,1173513,1,8,0:0:0:0:
370,0,1173855,6,0,L|289:10,1,49.5000015106202,2|0,0:3|0:0,0:0:0:0:
245,72,1174026,2,0,L|164:82,1,49.5000015106202,2|0,0:3|0:0,0:0:0:0:
137,160,1174197,1,8,0:0:0:0:
137,160,1174539,6,0,L|218:170,1,49.5000015106202,2|0,0:3|0:0,0:0:0:0:
245,248,1174710,2,0,L|326:258,1,49.5000015106202,2|0,0:3|0:0,0:0:0:0:
370,320,1174881,1,8,0:0:0:0:
370,320,1175222,6,0,L|289:310,1,49.5000015106202,2|0,0:3|0:0,0:0:0:0:
245,248,1175393,2,0,L|164:238,1,49.5000015106202,2|0,0:3|0:0,0:0:0:0:
137,160,1175564,1,8,0:0:0:0:
389,76,1175735,1,2,0:3:0:0:
370,320,1175906,1,2,0:3:0:0:
370,320,1176590,6,0,L|368:179,1,99.0000030212403,4|0,0:0|0:0,0:0:0:0:
360,67,1176932,1,8,0:0:0:0:
375,226,1177103,1,0,0:0:0:0:
366,70,1177274,2,0,L|367:120,1,49.5000015106202,2|2,0:2|0:2,0:0:0:0:
380,232,1177445,1,2,0:3:0:0:
457,28,1177616,1,8,0:0:0:0:
470,179,1177787,2,0,L|467:130,1,49.5000015106202,2|2,0:2|0:2,0:0:0:0:
450,23,1177958,5,2,0:3:0:0:
275,67,1178128,2,0,L|213:61,1,49.5000015106202,2|2,0:2|0:2,0:0:0:0:
185,28,1178299,6,0,L|327:40,1,135.000005149842,8|0,0:0|0:0,0:0:0:0:
365,136,1178556,1,0,0:0:0:0:
365,136,1178641,6,0,L|312:131,1,49.5000015106202,2|2,0:2|0:2,0:0:0:0:
167,111,1178812,1,2,0:3:0:0:
101,187,1178983,6,0,P|192:207|160:110,1,229.500004377365,8|0,0:0|2:0,0:0:0:0:
163,108,1179325,5,2,0:3:0:0:
271,37,1179496,2,0,P|295:33|319:38,1,49.5000015106202
445,75,1179667,1,8,0:0:0:0:
445,75,1179838,2,0,P|448:99|443:123,1,49.5000015106202
407,249,1180009,1,2,0:2:0:0:
407,249,1180180,2,0,P|383:252|359:247,1,49.5000015106202,2|0,0:3|0:0,0:0:0:0:
233,211,1180351,1,8,0:0:0:0:
319,154,1180522,2,0,L|361:146,2,24.7500007553101,2|2|2,0:2|0:2|0:2,0:0:0:0:
183,123,1180693,5,2,0:3:0:0:
139,244,1180864,1,2,0:2:0:0:
95,365,1181034,1,8,0:0:0:0:
216,321,1181205,1,0,0:0:0:0:
265,317,1181291,1,0,0:0:0:0:
314,323,1181376,1,2,0:2:0:0:
139,244,1181547,2,0,P|113:233|71:237,1,49.5000015106202,2|0,0:3|0:0,0:0:0:0:
215,320,1181718,6,0,P|234:225|139:244,1,229.500004377365,8|0,0:0|2:0,0:0:0:0:
98,303,1182060,5,2,0:3:0:0:
57,138,1182231,2,0,L|78:76,1,49.5000015106202
24,235,1182402,1,8,0:0:0:0:
189,131,1182573,2,0,L|174:85,1,49.5000015106202
223,229,1182744,1,2,0:2:0:0:
24,235,1182915,2,0,L|3:297,1,49.5000015106202,2|0,0:3|0:0,0:0:0:0:
57,138,1183086,1,8,0:0:0:0:
223,229,1183257,2,0,L|244:291,1,49.5000015106202,2|2,0:2|0:2,0:0:0:0:
189,131,1183428,5,2,0:3:0:0:
124,273,1183599,1,2,0:2:0:0:
30,40,1183769,1,8,0:0:0:0:
123,190,1183940,1,0,0:0:0:0:
265,64,1184111,1,2,0:2:0:0:
201,211,1184282,1,2,0:3:0:0:
30,40,1184453,1,8,0:0:0:0:
168,88,1184624,2,0,L|111:68,1,49.5000015106202
30,40,1184795,5,2,0:3:0:0:
70,276,1185137,1,8,0:0:0:0:
123,190,1185308,2,0,P|153:184|150:204,1,45,2|0,0:2|0:0,0:0:0:0:
200,356,1185650,2,0,P|184:369|169:355,1,45,2|8,0:3|0:0,0:0:0:0:
255,186,1185992,2,0,P|285:180|282:200,1,45,2|2,0:2|0:3,0:0:0:0:
332,352,1186334,2,0,P|315:365|300:350,1,45,2|8,0:2|0:0,0:2:0:0:
387,182,1186675,2,0,P|417:176|414:196,1,45,2|2,0:2|0:3,0:0:0:0:
464,348,1187017,2,0,P|447:361|432:346,1,45,2|8,0:3|0:0,0:0:0:0:
512,178,1187359,1,2,0:3:0:0:
255,207,1187530,6,0,L|189:213,1,45,4|2,0:0|2:0,0:0:0:0:
203,212,1187872,6,0,L|336:199,1,116.999994644165,8|2,0:0|2:0,0:0:0:0:
451,265,1188214,6,0,L|517:271,1,45,2|2,0:3|2:0,0:0:0:0:
503,270,1188556,6,0,L|373:255,1,116.999994644165,8|2,0:0|2:0,0:0:0:0:
452,93,1188898,6,0,L|518:99,1,45,2|2,0:3|2:0,0:0:0:0:
504,98,1189240,6,0,L|374:85,1,116.999994644165,8|2,0:0|2:0,0:0:0:0:
256,151,1189581,6,0,L|190:157,1,45,2|2,0:3|2:0,0:0:0:0:
204,156,1189923,6,0,L|334:143,1,116.999994644165,8|2,0:0|2:0,0:0:0:0:
267,271,1190265,6,0,P|242:279|211:269,1,45,2|2,0:3|2:0,0:0:0:0:
217,274,1190607,6,0,P|278:280|323:236,1,116.999994644165,8|2,0:0|2:0,0:0:0:0:
130,255,1190949,6,0,P|122:280|132:311,1,45,2|2,0:3|2:0,0:0:0:0:
127,305,1191291,6,0,P|121:244|165:199,1,116.999994644165,8|2,0:0|2:0,0:0:0:0:
97,83,1191633,6,0,P|72:75|41:85,1,45,2|2,0:3|2:0,0:0:0:0:
47,80,1191975,6,0,P|108:74|153:118,1,116.999994644165,8|2,0:0|2:0,0:0:0:0:
283,154,1192316,6,0,P|258:162|227:152,1,45,2|2,0:3|2:0,0:0:0:0:
233,157,1192658,6,0,P|294:163|339:119,1,116.999994644165,8|2,0:0|2:0,0:0:0:0:
171,17,1193000,5,2,0:3:0:0:
89,342,1193342,1,8,0:0:0:0:
253,342,1193684,5,2,0:3:0:0:
171,17,1194026,1,8,0:0:0:0:
335,17,1194368,5,2,0:3:0:0:
253,342,1194710,1,8,0:0:0:0:
415,342,1195052,5,2,0:3:0:0:
335,17,1195393,5,8,0:0:0:0:
206,194,1195564,1,2,0:3:0:0:
414,126,1195735,1,2,0:3:0:0:
206,59,1195906,1,2,0:3:0:0:
335,236,1196077,1,8,0:0:0:0:
335,236,1196419,5,2,0:3:0:0:
107,207,1196590,1,2,0:3:0:0:
245,24,1196761,1,8,0:0:0:0:
259,284,1196932,1,2,0:3:0:0:
103,117,1197103,1,2,0:3:0:0:
325,65,1197274,1,2,0:3:0:0:
169,273,1197445,1,8,0:0:0:0:
157,45,1197616,1,2,0:3:0:0:
359,149,1197787,1,2,0:3:0:0:
293,162,1198128,6,0,L|364:148,1,67.5,0|0,2:0|2:0,0:0:0:0:
364,148,1198470,5,4,0:1:0:0:
386,328,1198812,2,0,L|376:237,1,90,8|0,0:1|0:1,0:1:0:0:
364,148,1199154,1,2,0:2:0:0:
352,58,1199325,1,2,0:3:0:0:
172,101,1199496,2,0,L|277:78,1,90,8|0,0:1|0:0,0:0:0:0:
435,37,1199838,5,2,0:3:0:0:
452,125,1200009,2,0,L|435:37,1,90,0|8,0:0|0:1,0:0:0:0:
364,148,1200351,2,0,L|344:343,1,180,0|2,0:0|0:3,0:0:0:0:
469,213,1200864,2,0,L|452:125,1,90,8|0,0:1|0:0,0:0:0:0:
257,170,1201205,6,0,P|169:184|53:166,1,180,2|8,0:3|0:1,0:0:0:0:
0,131,1201718,1,0,0:0:0:0:
76,83,1201889,1,2,0:0:0:0:
3,221,1202060,1,2,0:3:0:0:
170,269,1202231,2,0,P|125:270|81:264,1,90,8|0,0:1|0:0,0:0:0:0:
243,322,1202573,6,0,B|331:343|331:343|445:319,1,180,2|8,0:3|0:1,0:0:0:0:
421,90,1203086,2,0,B|333:69|333:69|245:87,1,180,0|2,0:0|0:3,0:0:0:0:
331,251,1203599,2,0,B|335:202|335:202|331:161,1,90,8|0,0:1|0:0,0:0:0:0:
181,26,1203940,5,6,0:3:0:0:
150,202,1204282,2,0,L|166:114,1,90,8|0,0:1|0:0,0:0:0:0:
251,84,1204624,1,2,0:0:0:0:
336,56,1204795,1,2,0:3:0:0:
368,232,1204966,2,0,L|353:144,1,90,8|0,0:1|0:0,0:0:0:0:
296,287,1205308,6,0,P|378:323|449:270,1,180,2|8,0:3|0:1,0:0:0:0:
251,209,1205821,2,0,P|213:250|207:299,1,90,0|2,0:0|0:0,0:0:0:0:
342,208,1206163,1,2,0:3:0:0:
246,362,1206334,2,0,P|202:373|150:353,1,90,8|0,0:1|0:0,0:0:0:0:
105,169,1206675,6,0,B|109:132|109:132|140:281,1,180,2|8,0:3|0:1,0:0:0:0:
160,360,1207188,1,0,0:0:0:0:
224,297,1207359,1,2,0:0:0:0:
288,234,1207530,1,2,0:3:0:0:
404,283,1207701,2,0,P|325:271|277:208,1,135,8|0,0:1|0:0,0:0:0:0:
293,199,1208043,6,0,P|332:178|377:183,1,90,2|0,0:3|0:0,0:0:0:0:
491,262,1208385,1,8,0:1:0:0:
404,283,1208556,1,0,0:0:0:0:
420,104,1208727,1,2,0:3:0:0:
403,294,1208898,1,2,0:3:0:0:
346,55,1209069,1,8,0:1:0:0:
293,199,1209240,1,0,0:0:0:0:
236,132,1209411,6,0,P|243:93|263:63,1,67.5,2|0,0:3|0:0,0:0:0:0:
312,29,1209752,6,0,P|256:70|145:31,1,180,8|2,0:1|0:0,0:0:0:0:
80,90,1210265,1,2,0:3:0:0:
309,115,1210436,2,0,P|320:66|309:23,1,90,8|0,0:1|0:0,0:0:0:0:
414,140,1210778,6,0,B|423:198|423:198|399:252|399:252|406:323,1,180,2|8,0:3|0:1,0:0:0:0:
317,355,1211291,2,0,B|306:234|306:234|333:183,1,180,0|2,0:0|0:3,0:0:0:0:
224,302,1211804,2,0,L|128:306,1,90,8|0,0:1|0:0,0:0:0:0:
58,167,1212146,5,2,0:3:0:0:
110,94,1212316,1,0,0:0:0:0:
138,208,1212487,2,0,L|44:159,1,90,8|0,0:1|0:0,0:0:0:0:
110,94,1212829,1,2,0:0:0:0:
162,21,1213000,1,2,0:3:0:0:
190,135,1213171,2,0,L|96:86,1,90,8|0,0:1|0:0,0:0:0:0:
305,180,1213513,6,0,P|381:175|477:121,1,180,2|8,0:3|0:1,0:0:0:0:
471,233,1214026,2,0,P|395:228|299:174,1,180,0|2,0:0|0:3,0:0:0:0:
261,257,1214539,2,0,P|295:206|311:151,1,90,8|0,0:1|0:0,0:0:0:0:
360,357,1214881,5,2,0:3:0:0:
456,270,1215052,1,0,3:0:0:0:
454,278,1215137,1,0,3:0:0:0:
452,286,1215222,1,8,0:1:0:0:
413,193,1215393,1,0,0:0:0:0:
362,267,1215564,1,2,0:0:0:0:
324,185,1215735,1,2,0:3:0:0:
270,357,1215906,1,8,0:1:0:0:
232,275,1216077,1,0,0:0:0:0:
413,193,1216248,6,0,L|526:206,1,90,2|0,0:3|0:0,0:0:0:0:
232,275,1216590,2,0,L|111:261,1,90,8|0,0:1|0:0,0:0:0:0:
154,92,1216932,1,2,0:3:0:0:
325,185,1217103,1,2,0:3:0:0:
142,264,1217274,1,8,0:1:0:0:
142,264,1217616,5,2,0:3:0:0:
243,112,1217787,1,2,0:3:0:0:
318,324,1217958,1,8,0:1:0:0:
464,186,1218128,1,2,0:3:0:0:
325,185,1218299,1,2,0:3:0:0:
186,184,1218470,1,2,0:3:0:0:
387,51,1218641,1,8,0:1:0:0:
387,51,1218983,5,2,0:3:0:0:
332,216,1219154,1,2,0:3:0:0:
508,178,1219325,1,8,0:1:0:0:
460,345,1219496,1,2,0:3:0:0:
331,215,1219667,1,2,0:3:0:0:
300,354,1220009,6,0,L|314:284,1,67.5000025749208
331,215,1220351,1,0,0:0:0:0:
