osu file format v14

[General]
AudioFilename: 02-Maduk-Life feat. Hebe Vrijhof.mp3
AudioLeadIn: 0
PreviewTime: 82311
Countdown: 0
SampleSet: None
StackLeniency: 0.7
Mode: 0
LetterboxInBreaks: 0
WidescreenStoryboard: 0

[Editor]
Bookmarks: 21968,43911,64140,65854,68597,71340,74083,76826,87797,109740,111111,128940,130311,131683,149168,153626
DistanceSpacing: 1.5
BeatDivisor: 2
GridSize: 32
TimelineZoom: 1.7

[Metadata]
Title:Life (ft. Hebe Vrijhof)
TitleUnicode:Life (ft. Hebe Vrijhof)
Artist:Maduk
ArtistUnicode:Maduk
Creator:ErunamoJAZZ
Version:Normal
Source:
Tags:DnB Drum and Bass Summer Slammers 2013 Viper Recordings
BeatmapID:1086250
BeatmapSetID:496456

[Difficulty]
HPDrainRate:4
CircleSize:3.5
OverallDifficulty:4
ApproachRate:6
SliderMultiplier:0.9
SliderTickRate:1

[Events]
//Background and Video events
0,0,"sports.jpg",0,0
//Break Periods
2,66397,67547
2,69140,70290
2,71540,73033
2,74626,75776
//Storyboard Layer 0 (Background)
//Storyboard Layer 1 (Fail)
//Storyboard Layer 2 (Pass)
//Storyboard Layer 3 (Foreground)
//Storyboard Sound Samples

[TimingPoints]
26,342.857142857143,4,1,0,60,1,0
9626,-100,4,1,0,60,0,0
9968,-100,4,1,0,60,0,0
43911,-100,4,3,0,60,0,0
76826,-100,4,1,0,60,0,0
87454,-100,4,1,0,60,0,0
87797,-90.9090909090909,4,1,0,80,0,1
109397,-100,4,1,0,80,0,1
109740,-100,4,1,0,60,0,0
153626,-100,4,1,0,55,0,0
153968,-100,4,1,0,50,0,0
154311,-100,4,1,0,45,0,0
154654,-100,4,1,0,40,0,0
154997,-100,4,1,0,35,0,0
155340,-100,4,1,0,20,0,0

[Colours]
Combo1 : 22,159,233
Combo2 : 255,124,28
Combo3 : 28,222,22
Combo4 : 224,41,78

[HitObjects]
322,93,26,6,0,P|299:132|260:152,1,90,2|0,0:2|0:0,0:0:0:0:
199,155,540,2,0,P|256:194|281:262,1,135,0|0,3:0|3:0,0:0:0:0:
164,268,1397,1,0,0:0:0:0:
404,236,2768,6,0,P|416:200|460:164,1,90,2|0,0:2|0:0,0:0:0:0:
504,136,3283,2,0,P|464:84|384:68,1,135,0|0,3:0|3:0,0:0:0:0:
288,108,4140,2,0,P|228:80|184:8,2,135,0|0|0,0:0|2:0|3:0,2:2:0:0:
356,204,5511,6,0,P|344:264|304:312,1,90,2|0,0:2|0:0,0:0:0:0:
280,320,6026,2,0,P|220:284|128:288,1,135,0|0,3:1|3:0,0:0:0:0:
60,348,6883,1,0,0:0:0:0:
212,172,8254,6,0,P|216:128|195:83,1,90,2|0,0:2|0:0,0:0:0:0:
140,92,8768,2,0,P|104:116|48:116,1,90,0|0,3:0|2:0,0:0:0:0:
12,84,9283,2,0,L|-4:40,2,45,0|0|0,3:0|2:0|3:0,2:2:0:0:
72,312,10311,6,0,B|120:328|160:312|160:312|200:296|248:312,1,180,2|2,0:2|0:2,0:0:0:0:
364,340,11340,1,0,0:0:0:0:
364,340,11511,2,0,P|368:297|345:245,1,90,0|0,3:0|2:0,0:0:0:0:
316,203,12026,2,0,P|289:168|281:112,1,90,2|0,3:2|0:0,0:0:0:0:
500,56,13740,6,0,P|516:96|508:152,1,90,2|0,0:2|0:0,0:0:0:0:
472,184,14254,2,0,P|404:204|359:272,1,135,0|0,3:1|3:0,0:0:0:0:
470,302,15111,1,0,3:0:0:0:
256,208,16483,5,2,0:2:0:0:
183,116,16826,2,0,L|197:73,1,45,0|0,0:0|3:0,0:0:0:0:
314,73,17340,2,0,L|329:115,1,45,0|2,2:0|3:2,0:0:0:0:
256,208,17854,1,0,0:0:0:0:
56,336,19226,6,0,P|32:296|32:228,1,90,2|0,0:2|0:0,0:0:0:0:
56,204,19740,2,0,P|124:183|170:116,1,135,0|0,3:0|3:0,0:0:0:0:
56,84,20597,1,0,3:0:0:0:
268,180,21283,2,0,P|316:180|372:152,1,90,2|2,1:2|3:2,2:2:0:0:
448,96,21968,6,0,P|488:164|484:240,1,135,2|0,0:2|0:0,0:0:0:0:
460,268,22654,2,0,P|416:272|372:308,1,90,8|0,0:2|0:0,0:0:0:0:
284,368,23340,2,0,P|224:332|192:272,1,135,0|0,0:0|0:0,0:0:0:0:
212,220,24026,2,0,P|248:184|264:128,1,90,8|0,0:2|0:0,0:0:0:0:
148,120,24711,6,0,P|106:98|52:56,1,90,0|8,0:0|0:0,0:0:0:0:
32,32,25226,2,0,P|52:104|28:184,1,135,0|0,0:0|0:0,0:0:0:0:
0,272,26083,1,0,0:0:0:0:
0,272,26254,2,0,P|36:298|76:318,1,90,0|0,0:0|0:0,0:0:0:0:
132,300,26768,2,0,P|152:264|192:220,1,90,8|0,0:2|0:0,0:0:0:0:
256,136,27454,5,0,0:0:0:0:
328,227,27797,1,0,0:0:0:0:
328,227,27968,2,0,P|357:260|380:300,1,90,0|0,0:0|0:0,0:0:0:0:
404,352,28483,1,0,0:0:0:0:
484,268,28826,2,0,P|476:204|500:132,1,135,0|0,0:0|0:0,0:0:0:0:
512,80,29511,2,0,P|460:76|412:40,1,90,8|0,0:2|0:0,0:0:0:0:
312,68,30197,6,0,P|288:116|284:168,1,90,0|8,0:0|0:0,0:0:0:0:
288,212,30711,2,0,P|244:140|168:112,1,135,0|0,0:0|0:0,0:0:0:0:
88,140,31568,1,0,0:0:0:0:
88,140,31740,2,0,L|37:223,1,90,0|0,0:0|0:0,0:0:0:0:
57,274,32254,2,0,L|85:336,2,45,8|0|0,0:2|0:0|0:0,0:0:0:0:
166,230,32940,5,0,0:0:0:0:
200,117,33283,2,0,L|181:75,1,45,0|0,0:0|0:0,0:0:0:0:
224,36,33626,2,0,L|320:80,1,90,8|0,0:2|0:0,0:0:0:0:
412,124,34311,2,0,L|476:92,1,45,0|0,0:0|0:1,0:0:0:0:
504,208,34826,1,0,0:1:0:0:
504,208,34997,2,0,L|460:304,1,90,8|0,0:2|0:0,0:0:0:0:
368,352,35683,6,0,P|320:344|272:296,1,90,0|8,0:0|0:0,0:0:0:0:
256,272,36197,2,0,P|320:244|360:168,1,135,0|0,0:0|0:1,0:0:0:0:
344,76,37054,1,0,0:0:0:0:
344,76,37226,2,0,P|312:48|244:32,1,90,0|0,0:0|0:0,0:0:0:0:
236,84,37740,2,0,P|196:100|136:80,1,90,8|0,0:2|0:0,0:0:0:0:
44,40,38426,5,0,0:0:0:0:
24,156,38768,1,0,0:0:0:0:
24,156,38940,2,0,L|8:276,1,90,0|0,0:0|0:0,0:0:0:0:
0,304,39454,1,0,0:0:0:0:
104,360,39797,1,0,0:0:0:0:
104,360,39968,2,0,P|136:336|192:336,1,90,0|0,0:0|0:0,0:0:0:0:
240,356,40483,2,0,P|288:356|332:328,1,90,8|0,0:2|0:0,0:0:0:0:
356,224,41168,6,0,P|332:182|285:158,1,90,0|8,0:0|0:0,0:0:0:0:
244,132,41683,2,0,P|248:84|296:40,1,90,0|0,0:0|0:0,0:0:0:0:
332,60,42197,2,0,L|400:36,1,45,0|0,0:0|0:0,0:0:0:0:
432,28,42540,1,0,0:0:0:0:
432,28,42711,2,0,P|442:76|472:133,1,90,0|0,0:0|0:0,0:0:0:0:
479,169,43226,2,0,L|460:236,2,45,2|0|2,0:2|0:0|0:2,0:0:0:0:
363,161,43911,5,4,3:2:0:0:
257,210,44254,1,2,3:2:0:0:
44,108,44940,1,0,3:0:0:0:
148,160,45283,2,0,L|248:108,1,90,2|0,0:2|0:0,0:0:0:0:
285,118,45797,2,0,L|420:192,1,135,2|0,0:2|0:0,0:0:0:0:
472,276,46654,6,0,P|432:292|392:356,1,90,2|0,0:2|0:0,0:0:0:0:
296,272,47340,2,0,B|256:252|256:252|216:272,1,90,2|0,0:2|0:0,0:0:0:0:
110,326,48026,2,0,P|81:292|40:276,1,90,2|2,0:2|0:2,0:0:0:0:
68,104,48883,2,0,P|108:104|164:72,1,90,2|0,0:2|0:0,0:0:0:0:
200,48,49397,5,2,0:2:0:0:
236,160,49740,2,0,P|280:240|356:304,1,180,2|2,0:2|0:2,0:0:0:0:
464,300,50768,1,2,0:2:0:0:
508,192,51111,1,2,0:2:0:0:
464,84,51454,2,0,P|428:60|380:48,1,90,2|2,0:2|0:2,0:0:0:0:
293,123,52140,6,0,P|230:163|165:164,1,135,2|2,0:2|0:2,0:0:0:0:
122,57,52997,2,0,P|85:82|61:120,1,90,2|0,0:2|0:0,0:0:0:0:
57,177,53511,2,0,P|69:224|113:268,1,90,2|2,0:2|0:2,0:0:0:0:
171,165,54197,2,0,P|200:201|213:259,1,90,2|0,0:2|0:2,0:0:0:0:
162,348,54883,5,2,0:2:0:0:
79,265,55226,1,2,0:2:0:0:
119,34,55911,1,2,0:2:0:0:
229,75,56254,2,0,P|277:67|326:39,1,90,2|0,0:2|0:0,0:0:0:0:
365,21,56768,2,0,P|401:80|473:130,1,135,2|2,0:2|0:2,0:0:0:0:
472,236,57625,6,0,P|452:280|416:328,1,90,2|0,0:2|0:0,0:0:0:0:
312,324,58311,2,0,P|304:276|284:216,1,90,0|0,0:0|0:2,0:0:0:0:
219,147,58997,2,0,P|207:104|200:60,1,90,0|2,0:0|0:2,0:0:0:0:
83,69,59683,1,0,0:0:0:0:
83,69,59854,2,0,P|58:106|40:148,1,90,2|0,0:2|0:0,0:0:0:0:
80,192,60368,6,0,P|104:224|124:280,1,90,2|2,0:2|0:2,0:0:0:0:
36,348,61054,2,0,L|-12:332,2,45,0|0|2,0:0|0:0|0:2,0:0:0:0:
152,372,61740,1,2,0:2:0:0:
232,288,62083,1,0,0:0:0:0:
331,350,62426,2,0,P|370:357|434:332,1,90,2|2,0:2|0:2,0:0:0:0:
371,232,63111,6,0,L|401:80,1,135,2|0,0:2|0:2,0:0:0:0:
256,201,64140,1,2,0:2:0:0:
141,232,64483,2,0,L|114:99,1,135,2|0,0:2|0:2,0:0:0:0:
125,42,65168,2,0,B|161:22|161:22|197:62|249:50,1,135,2|0,0:2|0:0,0:0:0:0:
300,28,65854,5,4,0:1:0:0:
312,144,66197,1,4,0:1:0:0:
312,144,68597,5,0,1:0:0:0:
256,244,68940,1,0,1:0:0:0:
256,244,71340,5,0,1:0:0:0:
256,244,74083,5,0,1:0:0:0:
140,264,74426,1,0,1:0:0:0:
140,264,76826,6,0,P|128:220|68:184,1,90,4|0,0:0|0:0,0:0:0:0:
44,168,77340,2,0,B|40:120|76:88|76:88|136:72,1,135,8|8,0:2|0:2,0:0:0:0:
236,68,78197,2,0,P|260:112|320:136,1,90,8|0,0:2|0:0,0:0:0:0:
350,120,78711,2,0,B|397:137|409:184|409:184|388:242,1,135,8|8,0:2|0:2,0:0:0:0:
334,326,79568,6,0,P|290:330|230:298,1,90,8|0,0:2|0:0,0:0:0:0:
236,256,80083,2,0,P|236:216|204:168,1,90,8|0,0:2|0:0,0:0:0:0:
156,152,80597,1,8,0:2:0:0:
52,207,80940,2,0,P|36:247|39:297,1,90,8|0,0:2|0:0,0:0:0:0:
84,329,81454,2,0,P|127:322|168:294,1,90,8|0,0:2|0:0,0:0:0:0:
189,244,81968,1,8,0:2:0:0:
284,176,82311,6,0,L|340:208,2,45,8|0|0,0:2|0:0|0:0,0:0:0:0:
232,148,82826,2,0,L|154:103,1,90,8|0,0:2|0:0,0:0:0:0:
104,76,83340,1,8,0:2:0:0:
16,152,83683,2,0,L|-4:94,2,45,8|0|0,0:2|0:0|0:2,0:0:0:0:
36,205,84197,2,0,L|66:291,1,90,8|0,0:2|0:0,0:0:0:0:
82,345,84711,1,8,0:2:0:0:
187,296,85054,6,0,B|234:265|312:293|323:364|323:364|404:286|483:292|483:292|520:211|520:211|412:200|346:247,1,630,0|8,0:0|0:2,0:0:0:0:
293,140,87797,6,0,P|280:89|253:47,1,99.0000030212403,4|8,0:0|0:2,0:0:0:0:
182,37,88311,2,0,P|142:68|119:113,1,99.0000030212403
147,180,88826,2,0,P|192:195|242:193,1,99.0000030212403,8|0,0:2|0:0,0:0:0:0:
390,178,89511,1,8,0:2:0:0:
445,320,89854,2,0,B|421:366|365:369|365:369|345:353|336:325,1,148.50000453186
352,255,90540,6,0,P|305:260|266:305,1,99.0000030212403,0|8,0:0|0:2,0:0:0:0:
232,360,91054,2,0,P|205:333|203:263,1,99.0000030212403
239,212,91568,2,0,P|200:199|134:237,1,99.0000030212403,8|0,0:2|0:0,0:0:0:0:
105,361,92254,1,8,0:2:0:0:
24,236,92597,1,0,0:0:0:0:
42,88,92940,1,8,0:2:0:0:
60,65,93111,1,0,0:0:0:0:
84,46,93283,6,0,P|121:23|186:38,1,99.0000030212403,0|8,0:0|0:2,0:0:0:0:
140,96,93797,2,0,P|190:103|238:68,1,99.0000030212403
248,6,94311,2,0,P|288:30|302:101,1,99.0000030212403,8|0,0:2|0:0,0:0:0:0:
343,222,94997,1,8,0:2:0:0:
439,109,95340,1,0,0:0:0:0:
503,242,95683,1,8,0:2:0:0:
511,270,95854,1,0,0:0:0:0:
511,299,96026,6,0,P|502:344|443:378,1,99.0000030212403,0|8,0:0|0:2,0:0:0:0:
401,332,96540,1,0,0:0:0:0:
401,332,96711,2,0,P|364:305|312:304,1,99.0000030212403,0|8,0:0|0:2,0:0:0:0:
238,319,97226,1,0,0:0:0:0:
238,319,97397,2,0,P|221:273|254:216,1,99.0000030212403,0|8,0:0|0:2,0:0:0:0:
314,99,98083,1,0,0:0:0:0:
461,82,98426,2,0,L|466:154,1,49.5000015106202,8|0,0:2|0:0,0:0:0:0:
470,205,98768,6,0,L|519:234,2,49.5000015106202,0|0|8,0:0|0:0|0:2,0:0:0:0:
401,174,99283,2,0,P|371:206|305:219,1,99.0000030212403
265,169,99797,2,0,P|231:139|178:123,1,99.0000030212403,8|0,0:2|0:0,0:0:0:0:
158,270,100483,1,8,0:2:0:0:
11,251,100825,2,0,B|-3:200|18:154|18:154|47:150|76:164,1,148.50000453186
135,188,101511,6,0,P|139:142|103:95,1,99.0000030212403,0|8,0:0|0:2,0:0:0:0:
41,69,102026,2,0,P|61:42|131:26,1,99.0000030212403
189,54,102540,2,0,P|208:94|263:118,1,99.0000030212403,8|0,0:2|0:0,0:0:0:0:
381,40,103225,1,8,0:2:0:0:
456,167,103568,1,0,0:0:0:0:
318,222,103911,1,8,0:2:0:0:
313,251,104083,1,0,0:0:0:0:
306,279,104254,6,0,P|279:319|216:328,1,99.0000030212403,0|8,0:0|0:2,0:0:0:0:
236,257,104768,2,0,P|203:226|149:220,1,99.0000030212403
79,239,105283,2,0,P|82:190|134:147,1,99.0000030212403,8|0,0:2|0:0,0:0:0:0:
232,64,105968,1,8,0:2:0:0:
348,155,106311,1,0,0:0:0:0:
228,242,106654,1,8,0:2:0:0:
217,268,106825,1,0,0:0:0:0:
214,297,106997,6,0,P|230:347|297:374,1,99.0000030212403,0|8,0:0|0:2,0:0:0:0:
289,300,107511,2,0,P|316:260|372:242,1,99.0000030212403
431,271,108025,1,8,0:2:0:0:
460,265,108197,1,0,0:0:0:0:
486,251,108368,2,0,P|504:212|490:140,1,99.0000030212403
394,52,109054,1,0,0:0:0:0:
241,59,109397,1,0,0:0:0:0:
241,59,109568,6,0,P|182:94|134:153,1,135,0|4,0:0|0:2,0:0:0:0:
84,248,110426,2,0,L|40:236,2,45,0|0|8,0:0|0:0|0:2,0:0:0:0:
116,296,110940,1,0,0:0:0:0:
144,348,111111,2,0,P|184:352|236:324,1,90,0|8,0:0|0:2,0:0:0:0:
296,236,111797,2,0,P|332:212|400:224,1,90,0|8,0:0|0:2,0:0:0:0:
416,256,112311,1,0,0:0:0:0:
412,316,112483,6,0,P|376:340|308:328,1,90,0|8,0:3|0:2,0:0:0:0:
280,312,112997,1,0,0:0:0:0:
180,252,113340,2,0,L|140:300,2,45,0|8|0,0:0|0:2|0:0,0:0:0:0:
220,208,113854,2,0,B|240:180|240:180|244:172|244:172|252:168|252:168|292:124,1,90,0|8,0:0|0:2,0:0:0:0:
356,52,114540,2,0,L|344:-4,2,45,0|0|8,0:0|0:0|0:2,0:0:0:0:
372,108,115054,1,0,0:0:0:0:
384,164,115226,6,0,P|380:252|284:324,1,180,4|0,0:3|0:0,0:0:0:0:
212,272,116254,2,0,P|184:264|140:268,1,45,8|0,0:2|0:0,0:0:0:0:
120,296,116597,2,0,P|116:320|120:348,2,45,0|0|8,0:0|0:0|0:2,0:0:0:0:
120,236,117111,1,0,0:0:0:0:
144,184,117283,2,0,P|144:140|104:80,1,90,0|8,0:0|0:2,0:0:0:0:
28,32,117968,5,0,0:0:0:0:
0,84,118140,2,0,P|0:128|40:188,2,90,0|0|0,0:0|0:0|0:0,0:0:0:0:
32,36,118997,2,0,L|88:16,1,45,8|0,0:2|0:0,0:0:0:0:
128,48,119340,2,0,L|176:72,2,45,2|0|8,0:3|0:0|0:2,0:0:0:0:
96,160,120026,2,0,B|136:180|136:180|164:236,1,90,2|8,0:3|0:2,0:0:0:0:
136,276,120540,1,0,0:0:0:0:
152,332,120711,6,0,P|188:356|272:352,1,90,0|8,0:0|0:2,0:0:0:0:
344,324,121397,2,0,L|368:372,2,45,0|0|8,0:0|0:0|0:2,0:0:0:0:
364,268,121911,1,0,0:0:0:0:
347,211,122083,2,0,P|319:164|327:108,1,90,0|8,0:0|0:2,0:0:0:0:
432,96,122768,2,0,P|460:144|452:200,1,90,0|8,0:0|0:2,0:0:0:0:
456,236,123282,1,0,0:0:0:0:
436,292,123454,6,0,L|344:324,1,90,0|8,0:0|0:2,0:0:0:0:
312,276,123968,1,0,0:0:0:0:
200,312,124311,2,0,L|124:292,2,45,0|8|0,0:0|0:2|0:0,0:0:0:0:
212,256,124826,2,0,P|188:212|184:152,1,90,0|8,0:0|0:2,0:0:0:0:
288,124,125511,2,0,P|312:120|344:104,2,45,0|0|8,0:0|0:0|0:2,0:0:0:0:
256,76,126025,1,0,0:0:0:0:
200,60,126197,6,0,P|113:80|66:169,1,180,4|0,0:3|0:1,0:0:0:0:
68,270,127226,2,0,P|48:282|8:290,2,45,8|0|0,0:2|0:0|0:0,0:0:0:0:
120,240,127740,1,0,0:0:0:0:
120,240,127911,2,0,B|164:236|164:236|176:292|240:304,1,135,8|0,0:2|0:0,0:0:0:0:
280,300,128597,2,0,P|292:272|320:260,1,45,8|2,0:2|0:3,0:0:0:0:
360,260,128940,5,0,0:0:0:0:
416,268,129111,2,0,P|432:292|459:311,2,45,2|8|2,0:3|0:1|0:3,0:0:0:0:
424,208,129626,2,0,P|456:176|448:120,1,90,2|8,0:3|0:1,0:0:0:0:
420,88,130140,1,2,0:3:0:0:
368,64,130311,2,0,P|356:44|352:16,2,45,2|0|2,0:2|0:0|0:2,0:0:0:0:
264,116,130997,2,0,B|240:100|240:100|204:108|168:88,1,90,2|2,0:2|0:2,0:0:0:0:
80,32,131683,5,4,0:1:0:0:
28,136,132026,1,8,0:2:0:0:
28,136,132197,2,0,P|56:184|52:240,1,90,2|0,0:2|0:0,0:0:0:0:
48,276,132711,1,8,0:2:0:0:
164,264,133054,2,0,L|220:292,1,45,0|0,0:0|0:0,0:0:0:0:
256,308,133397,2,0,P|320:272|404:268,1,135,8|0,0:2|0:0,0:0:0:0:
436,288,134083,1,8,0:2:0:0:
444,172,134426,6,0,P|448:124|428:68,1,90,2|8,0:2|0:2,0:0:0:0:
380,80,134940,2,0,P|340:84|264:68,1,90,2|0,0:2|0:0,0:0:0:0:
256,32,135454,1,8,0:2:0:0:
144,68,135797,2,0,L|130:21,2,45,0|0|8,0:0|0:0|0:2,0:0:0:0:
141,243,136654,2,0,L|190:201,1,45,0|8,0:0|0:2,0:0:0:0:
265,138,137168,5,2,0:2:0:0:
356,64,137511,1,8,0:2:0:0:
356,64,137683,2,0,P|404:64|456:100,1,90,2|0,0:2|0:0,0:0:0:0:
408,132,138197,2,0,P|408:196|460:268,1,135,8|0,0:2|0:0,0:0:0:0:
488,292,138883,2,0,P|440:348|348:372,1,135,8|0,0:2|0:0,0:0:0:0:
328,372,139568,1,8,0:2:0:0:
267,271,139911,6,0,P|279:231|267:175,1,90,2|8,0:2|0:2,0:0:0:0:
218,158,140426,2,0,P|190:120|188:61,1,90,2|0,0:2|0:0,0:0:0:0:
205,23,140940,1,8,0:2:0:0:
313,68,141283,2,0,L|323:14,2,45,0|0|8,0:0|0:2|0:2,0:0:0:0:
428,92,141968,2,0,B|428:116|416:132|416:132|428:184,1,90,2|8,0:2|0:2,0:0:0:0:
468,288,142654,6,0,P|424:296|352:264,1,90,2|8,0:2|0:2,0:0:0:0:
336,248,143168,2,0,P|316:212|316:148,1,90,2|2,0:2|0:2,0:0:0:0:
336,108,143683,1,8,0:2:0:0:
220,84,144026,2,0,L|240:24,2,45,0|0|8,0:0|0:0|0:2,0:0:0:0:
136,236,144883,2,0,L|123:192,1,45,0|8,0:0|0:2,0:0:0:0:
44,108,145397,6,0,P|36:156|0:204,1,90,2|8,0:2|0:2,0:0:0:0:
20,248,145911,2,8,B|60:268|72:316|72:316|128:304,1,135,2|8,0:2|0:2,0:0:0:0:
176,296,146597,1,0,0:0:0:0:
232,280,146768,2,0,L|292:268,2,45,0|0|8,0:0|0:0|0:2,0:0:0:0:
252,104,147626,2,0,L|300:96,1,45,0|8,0:0|0:2,0:0:0:0:
368,188,148140,5,2,0:2:0:0:
456,264,148483,2,0,L|420:328,1,45,8|2,0:2|0:2,0:0:0:0:
316,303,148997,2,0,L|293:263,1,45,2|8,0:2|0:2,0:0:0:0:
224,168,149511,2,0,L|156:160,1,45,0|0,0:0|0:0,0:0:0:0:
120,152,149854,2,0,P|136:68|192:32,1,135,8|0,0:2|0:0,0:0:0:0:
228,24,150540,1,8,0:2:0:0:
324,92,150883,6,0,P|348:208|256:300,1,225,2|2,0:2|0:2,0:0:0:0:
228,288,151911,2,0,P|208:300|180:332,2,45,8|0|0,0:2|0:0|0:0,0:0:0:0:
224,168,152597,1,8,0:2:0:0:
228,52,152940,2,0,P|208:40|180:8,2,45,0|0|8,0:0|0:0|0:2,0:0:0:0:
256,192,153454,12,0,155683,2:0:0:0:
