osu file format v14

[General]
AudioFilename: 02-Maduk-Life feat. Hebe Vrijhof.mp3
AudioLeadIn: 0
PreviewTime: 82311
Countdown: 0
SampleSet: Normal
StackLeniency: 0.7
Mode: 0
LetterboxInBreaks: 0
WidescreenStoryboard: 0

[Editor]
Bookmarks: 21968,43911,64140,65854,68597,71340,74083,76826,87797,109740,111111,128940,130311,131683,149168,153626
DistanceSpacing: 1.2
BeatDivisor: 4
GridSize: 32
TimelineZoom: 1.7

[Metadata]
Title:Life (ft. Hebe Vrijhof)
TitleUnicode:Life (ft. Hebe Vrijhof)
Artist:Maduk
ArtistUnicode:Maduk
Creator:ErunamoJAZZ
Version:Insane
Source:
Tags:DnB Drum and Bass Summer Slammers 2013 Viper Recordings
BeatmapID:1056688
BeatmapSetID:496456

[Difficulty]
HPDrainRate:6
CircleSize:4
OverallDifficulty:8
ApproachRate:9
SliderMultiplier:1.4
SliderTickRate:1

[Events]
//Background and Video events
0,0,"sports.jpg",0,0
//Break Periods
//Storyboard Layer 0 (Background)
//Storyboard Layer 1 (Fail)
//Storyboard Layer 2 (Pass)
//Storyboard Layer 3 (Foreground)
//Storyboard Sound Samples

[TimingPoints]
26,342.857142857143,4,1,0,60,1,0
9626,-133.333333333333,4,1,0,60,0,0
9968,-100,4,1,0,60,0,0
43911,-100,4,3,0,60,0,0
76826,-100,4,1,0,60,0,0
87454,-142.857142857143,4,1,0,60,0,0
87797,-83.3333333333333,4,1,0,80,0,1
109740,-100,4,1,0,60,0,0
153626,-100,4,1,0,55,0,0
153968,-100,4,1,0,50,0,0
154311,-100,4,1,0,45,0,0
154654,-100,4,1,0,40,0,0
154997,-100,4,1,0,35,0,0
155340,-100,4,1,0,20,0,0

[Colours]
Combo1 : 22,159,233
Combo2 : 255,124,28
Combo3 : 28,222,22
Combo4 : 224,41,78

[HitObjects]
488,192,26,6,0,B|456:226|456:226|455:169|424:142,1,140,2|0,0:2|0:0,0:0:0:0:
423,142,540,1,0,3:0:0:0:
316,44,1054,1,0,3:0:0:0:
316,44,1397,1,0,0:0:0:0:
420,212,2083,1,0,2:0:0:0:
256,320,2768,6,0,P|188:352|112:332,1,140,2|0,0:2|0:0,0:0:0:0:
126,340,3283,1,0,3:0:0:0:
8,252,3797,1,0,3:0:0:0:
8,252,4140,1,0,0:0:0:0:
45,109,4654,2,0,P|109:121|85:73,1,140,0|0,2:0|2:0,2:0:0:0:
34,39,5168,1,0,3:0:0:0:
129,17,5511,6,0,B|181:5|181:5|209:45|269:45,1,140,2|0,0:2|0:0,0:0:0:0:
254,43,6026,1,0,3:1:0:0:
408,36,6540,1,0,3:0:0:0:
408,36,6883,1,0,0:0:0:0:
484,216,7568,1,0,2:0:0:0:
293,169,8254,6,0,P|222:185|166:239,1,140,2|0,0:2|0:0,0:0:0:0:
172,229,8768,1,0,3:0:0:0:
304,336,9111,1,0,2:0:0:0:
304,336,9283,1,0,3:0:0:0:
304,336,9454,1,0,2:0:0:0:
304,336,9626,2,0,B|328:340|328:340|344:332|344:332|388:352|420:336,1,105.000004005432,0|0,3:0|2:0,2:0:0:0:
480,280,10311,2,0,P|496:308|500:360,2,70,2|2|0,0:2|2:2|2:0,0:0:0:0:
432,196,10997,6,0,B|376:180|344:140|344:140|304:152,1,140,2|0,0:2|0:0,0:0:0:0:
311,149,11511,1,0,3:0:0:0:
224,192,11854,1,0,2:0:0:0:
224,192,12026,1,2,3:2:0:0:
136,148,12368,1,0,0:0:0:0:
59,328,13054,1,0,2:0:0:0:
83,133,13740,6,0,B|135:145|135:145|164:104|223:105,1,140,2|0,0:2|0:0,0:0:0:0:
208,105,14255,1,0,3:1:0:0:
255,190,14597,1,0,2:0:0:0:
274,235,14769,1,0,3:0:0:0:
296,278,14940,1,0,2:0:0:0:
321,319,15111,2,0,B|359:341|390:331|390:331|396:288|426:261|488:266|496:307,2,210,0|0|0,3:0|3:0|3:0,2:0:0:0:
316,150,16483,6,0,P|364:108|460:124,1,140,2|0,0:2|0:0,0:0:0:0:
436,109,16997,1,0,3:0:0:0:
399,199,17340,1,0,2:0:0:0:
399,199,17511,1,2,3:2:0:0:
256,112,17854,1,0,0:0:0:0:
256,308,18540,1,0,2:0:0:0:
142,147,19226,6,0,P|96:187|68:275,1,140,2|0,0:2|0:0,0:0:0:0:
68,259,19740,1,0,3:0:0:0:
164,284,20083,1,0,2:0:0:0:
210,269,20254,1,0,3:0:0:0:
255,287,20426,1,0,2:0:0:0:
283,326,20597,2,0,P|358:332|421:276,1,140,0|0,3:0|3:0,2:0:0:0:
469,218,21283,2,0,B|441:194|435:159|435:159|401:190|365:182,1,140,2|2,1:2|3:2,2:0:0:0:
103,102,21968,6,0,P|86:131|36:159,1,70,2|0,0:2|0:0,0:0:0:0:
21,75,22311,1,0,0:0:0:0:
87,22,22483,1,0,0:0:0:0:
166,48,22654,1,8,0:2:0:0:
256,192,22997,1,0,0:0:0:0:
384,300,23340,6,0,P|451:289|495:237,1,140
315,251,23854,1,0,0:0:0:0:
249,303,24026,2,0,P|181:292|137:240,1,140,8|0,0:2|0:0,0:0:0:0:
386,112,24711,6,0,B|331:115|331:115|291:107|291:107|247:111,1,140,0|8,0:0|0:0,0:0:0:0:
120,55,25226,2,0,L|190:48,1,70,0|8,0:0|0:2,0:0:0:0:
247,111,25568,1,0,0:0:0:0:
213,188,25740,1,0,0:0:0:0:
130,205,25911,1,0,0:0:0:0:
36,300,26083,6,0,L|104:284,1,70
187,268,26426,1,0,0:0:0:0:
159,347,26597,1,0,0:0:0:0:
242,351,26768,2,0,B|287:298|287:298|278:226,1,140,8|0,0:2|0:0,0:0:0:0:
440,180,27454,6,0,B|451:211|451:211|473:240,1,70
376,144,27797,1,0,0:0:0:0:
512,161,27968,1,0,0:0:0:0:
447,107,28140,2,0,B|431:74|431:74|405:52,1,70,8|0,0:2|0:0,0:0:0:0:
324,32,28483,1,0,0:0:0:0:
260,188,28826,5,0,0:0:0:0:
120,280,29168,2,0,P|139:308|170:330,1,70
252,321,29511,2,0,P|321:304|410:334,1,140,8|0,0:2|0:0,0:0:0:0:
335,43,30197,6,0,B|352:84|352:84|380:119|380:119|400:165,1,140,0|8,0:0|0:0,0:0:0:0:
511,242,30711,2,0,L|483:177,1,70,0|8,0:0|0:2,0:0:0:0:
430,243,31054,1,0,0:0:0:0:
400,165,31226,1,0,0:0:0:0:
341,225,31397,1,0,0:0:0:0:
258,213,31568,6,0,L|217:132,1,70
299,109,31911,2,0,L|258:28,1,70
128,56,32254,1,8,0:2:0:0:
160,133,32426,1,0,0:0:0:0:
193,209,32597,2,0,L|163:272,1,70
333,209,32940,6,0,L|402:65,1,140
393,82,33454,1,0,0:0:0:0:
410,221,33626,2,0,B|437:244|437:244|481:256,1,70,8|0,0:2|0:0,0:0:0:0:
453,335,33968,2,0,B|418:328|418:328|374:340,1,70
341,265,34311,5,0,0:0:0:0:
171,265,34483,1,0,0:1:0:0:
256,120,34826,5,0,0:1:0:0:
256,120,34997,2,0,B|271:155|255:187|255:187|239:219|255:255,1,140,8|0,0:2|0:0,0:0:0:0:
496,114,35683,6,0,P|445:67|378:48,1,140,0|8,0:0|0:0,0:0:0:0:
240,48,36197,2,0,P|264:68|328:76,1,70,0|8,0:0|0:2,0:0:0:0:
378,48,36540,1,0,0:1:0:0:
368,132,36711,1,0,0:1:0:0:
356,216,36883,1,0,0:1:0:0:
344,300,37054,6,0,B|380:296|380:296|420:272,2,70
280,244,37568,1,0,0:0:0:0:
196,228,37740,2,0,B|165:243|165:243|137:275,1,70,8|0,0:2|0:0,0:0:0:0:
218,309,38083,1,0,0:0:0:0:
296,40,38426,6,0,B|208:40|208:40|152:28,1,140
157,29,38940,1,0,0:0:0:0:
104,92,39111,2,0,L|54:141,1,70,8|0,0:2|0:0,0:0:0:0:
128,184,39454,2,0,L|152:268,1,70
180,328,39797,6,0,L|229:278,1,70
229,278,40311,1,0,0:0:0:0:
360,328,40483,2,0,P|424:348|512:316,1,140,8|0,0:2|0:0,0:0:0:0:
472,52,41168,6,0,L|440:196,1,140,0|8,0:0|0:0,0:0:0:0:
396,56,41683,2,0,L|380:124,1,70,0|8,0:0|0:2,0:0:0:0:
336,196,42026,1,0,0:0:0:0:
256,224,42197,1,0,0:0:0:0:
176,196,42368,1,0,0:0:0:0:
132,124,42540,6,0,L|116:56,1,70
132,260,42883,2,0,L|116:328,1,70
208,132,43226,2,0,L|284:100,1,70,2|0,0:2|0:0,0:0:0:0:
208,252,43568,2,0,L|284:284,1,70,2|0,0:2|0:0,0:0:0:0:
384,192,43911,5,4,3:2:0:0:
482,192,44254,1,2,3:2:0:0:
284,192,44940,2,0,L|212:192,1,70,0|0,3:0|3:0,0:0:0:0:
157,130,45283,6,0,P|129:191|157:253,1,140,2|0,0:2|0:0,0:0:0:0:
214,192,45797,1,2,0:2:0:0:
424,56,46311,1,0,0:0:0:0:
484,112,46483,1,0,0:0:0:0:
448,248,46654,6,0,P|392:288|312:288,1,140,2|0,0:2|0:0,0:0:0:0:
259,235,47168,1,0,0:0:0:0:
259,235,47340,2,0,P|202:194|133:191,1,140,2|0,0:2|0:0,0:0:0:0:
289,146,47854,1,0,0:0:0:0:
289,146,48026,6,0,P|345:105|414:102,2,140,2|2|0,0:2|0:2|0:0,0:0:0:0:
256,56,48883,2,0,P|228:32|172:20,1,70,2|0,0:2|0:0,0:0:0:0:
112,28,49226,1,0,0:0:0:0:
52,84,49397,5,2,0:2:0:0:
181,191,49740,1,2,0:2:0:0:
112,240,49911,1,0,0:0:0:0:
195,359,50083,1,0,0:0:0:0:
120,323,50254,1,0,0:0:0:0:
256,227,50426,1,2,0:2:0:0:
265,311,50597,1,0,0:0:0:0:
348,306,50768,6,0,L|435:341,1,70,2|0,0:2|0:0,0:0:0:0:
478,279,51111,2,0,L|413:252,1,70,2|0,0:2|0:0,0:0:0:0:
331,225,51454,1,2,0:2:0:0:
433,92,51797,1,2,0:2:0:0:
463,170,51968,1,2,0:2:0:0:
350,85,52140,5,2,0:2:0:0:
277,127,52311,2,0,P|248:108|228:80,1,70,0|0,0:2|0:2,0:0:0:0:
208,176,52654,2,0,P|173:180|139:173,1,70,2|0,0:2|0:2,0:0:0:0:
221,254,52997,2,0,P|279:267|366:225,1,140,2|0,0:2|0:0,0:0:0:0:
272,356,53511,6,0,P|201:337|118:355,1,140,2|2,0:2|0:2,0:0:0:0:
52,200,54197,2,0,P|88:144|92:52,1,140,2|0,0:2|0:2,0:0:0:0:
174,221,54883,5,2,0:2:0:0:
174,221,55226,1,2,0:2:0:0:
454,35,55911,2,0,P|472:62|480:105,1,70,2|0,0:2|0:0,0:0:0:0:
420,157,56254,6,0,P|356:126|325:63,1,140,2|0,0:2|0:0,0:0:0:0:
256,115,56768,2,0,P|160:146|55:84,1,210,2|2,0:2|0:2,0:0:0:0:
132,47,57454,1,0,0:2:0:0:
256,115,57626,6,0,P|284:181|259:246,1,140,2|0,0:2|0:0,0:0:0:0:
179,259,58140,2,0,B|185:306|237:340|283:325|283:325|312:315|335:317|353:339,1,210,2|0,0:2|0:2,0:0:0:0:
502,263,58997,6,0,P|528:198|500:134,1,140,0|2,0:0|0:2,0:0:0:0:
502,136,59683,1,0,0:0:0:0:
447,199,59854,2,0,P|425:166|421:117,1,70,2|0,0:2|0:0,0:0:0:0:
459,62,60197,1,0,0:0:0:0:
383,25,60368,5,2,0:2:0:0:
226,85,60711,1,2,0:2:0:0:
178,16,60883,1,0,0:0:0:0:
162,140,61054,1,0,0:0:0:0:
95,91,61226,1,0,0:0:0:0:
119,212,61397,1,2,0:2:0:0:
40,187,61568,1,0,0:0:0:0:
110,295,61740,5,2,0:2:0:0:
168,355,61911,2,0,P|240:367|308:329,1,140,2|0,0:2|0:0,0:0:0:0:
339,264,62426,1,2,0:2:0:0:
209,158,62768,1,2,0:2:0:0:
198,74,62940,1,2,0:2:0:0:
330,29,63111,5,2,0:3:0:0:
414,26,63283,2,0,P|447:33|483:68,1,70,2|0,0:2|0:2,0:0:0:0:
408,108,63626,2,0,P|410:141|442:183,1,70,0|2,0:2|0:2,0:0:0:0:
510,321,64140,2,0,L|440:329,1,70,2|2,0:2|0:2,0:0:0:0:
356,322,64483,6,0,B|312:268|228:261,1,140,2|0,0:2|0:0,0:2:0:0:
150,253,64997,2,0,L|96:296,1,70,0|2,0:2|0:2,0:0:0:0:
38,234,65340,1,2,0:2:0:0:
38,234,65683,1,0,0:0:0:0:
108,113,65854,5,4,0:1:0:0:
256,34,66197,1,4,0:1:0:0:
256,202,66540,2,0,P|290:216|335:256,1,70
425,363,67054,2,0,P|478:288|469:154,1,210
385,32,67911,1,0,0:0:0:0:
385,32,68083,1,0,0:0:0:0:
283,165,68426,1,0,0:0:0:0:
207,314,68597,6,0,P|157:275|120:205,1,140,0|0,1:0|1:0,0:0:0:0:
161,44,69283,1,0,0:0:0:0:
161,44,69454,1,0,0:0:0:0:
14,126,69797,2,0,B|50:193|122:209|122:209|142:308,1,210
284,355,70654,1,0,0:0:0:0:
284,355,70826,1,0,0:0:0:0:
469,258,71168,1,0,0:0:0:0:
411,101,71340,5,0,1:0:0:0:
411,101,71683,2,0,P|346:85|276:53,1,140
207,11,72197,1,0,0:0:0:0:
65,100,72540,2,0,B|85:209|156:154|183:263,1,210
30,328,73397,1,0,0:0:0:0:
30,328,73568,1,0,0:0:0:0:
196,351,73911,1,0,0:0:0:0:
351,286,74083,6,0,P|340:216|290:139,1,140,0|0,1:0|1:0,0:0:0:0:
184,40,74768,1,0,0:0:0:0:
99,34,74940,1,0,0:0:0:0:
43,192,75283,1,0,0:0:0:0:
104,248,75454,6,0,B|141:257|178:248|178:248|201:258|201:258|225:252|246:257,1,140
406,269,76140,1,0,0:0:0:0:
465,209,76311,1,0,0:0:0:0:
417,47,76654,1,0,0:0:0:0:
256,96,76826,6,0,B|200:88|200:88|180:132|120:140,1,140,4|0,0:0|0:0,0:0:0:0:
136,220,77340,2,0,P|151:251|176:275,1,70,8|0,0:2|0:0,0:0:0:0:
256,300,77683,1,0,0:0:0:0:
336,276,77854,2,0,P|361:252|376:220,1,70,8|0,0:2|0:0,0:0:0:0:
400,84,78197,6,0,P|468:116|512:196,1,140,8|0,0:2|0:0,0:0:0:0:
480,248,78711,2,0,P|452:276|432:324,1,70,8|0,0:2|0:0,0:0:0:0:
376,360,79054,1,0,0:0:0:0:
292,348,79225,2,0,P|248:332|224:308,1,70,8|0,0:2|0:0,0:0:0:0:
132,216,79568,6,0,P|80:276|0:288,1,140,8|0,0:2|0:0,0:0:0:0:
40,207,80082,2,0,P|66:178|69:124,1,70,8|0,0:2|0:0,0:0:0:0:
18,83,80425,1,0,0:0:0:0:
68,16,80596,2,0,P|100:16|152:36,1,70,8|0,0:2|0:0,0:0:0:0:
264,84,80940,6,0,P|312:128|296:216,1,140,8|0,0:2|0:0,0:0:0:0:
232,164,81454,2,0,P|192:160|152:132,1,70,8|0,0:2|0:0,0:0:0:0:
192,68,81797,1,0,0:0:0:0:
252,12,81968,2,0,P|292:16|332:44,1,70,8|0,0:2|0:0,0:0:0:0:
380,156,82311,6,0,B|408:136|408:136|448:132,2,70,8|0|0,0:2|0:0|0:0,0:0:0:0:
132,156,82826,2,0,B|104:136|104:136|64:132,2,70,8|0|0,0:2|0:0|0:0,0:0:0:0:
256,220,83340,1,8,0:2:0:0:
256,80,83511,1,0,0:0:0:0:
168,272,83683,6,0,P|156:308|132:336,1,70,8|0,0:2|0:0,0:0:0:0:
344,272,84026,2,0,P|356:308|380:336,1,70,8|0,0:2|0:0,0:0:0:0:
164,196,84368,2,0,P|128:208|64:204,1,70,8|0,0:2|0:0,0:0:0:0:
348,196,84711,2,0,P|384:208|448:204,1,70,8|0,0:2|0:0,0:0:0:0:
184,120,85054,5,0,0:0:0:0:
328,120,85226,1,0,0:0:0:0:
212,40,85397,1,0,0:0:0:0:
300,40,85568,1,0,0:0:0:0:
256,112,85740,1,0,0:0:0:0:
256,188,85911,1,0,0:0:0:0:
256,260,86083,1,0,0:0:0:0:
276,320,86254,1,0,0:0:0:0:
316,360,86426,5,0,0:0:0:0:
364,367,86597,1,0,0:0:0:0:
405,355,86768,1,0,0:0:0:0:
430,330,86940,1,0,0:0:0:0:
447,305,87111,1,0,0:0:0:0:
453,286,87283,1,0,0:0:0:0:
459,267,87454,2,0,P|464:240|456:204,1,48.9999985046387,8|0,0:2|0:0,0:0:0:0:
320,40,87797,6,0,P|242:13|144:18,1,167.999994873047,4|8,0:0|0:2,0:0:0:0:
18,194,88311,2,0,P|34:273|86:355,1,167.999994873047
305,379,88826,2,0,P|365:324|410:238,1,167.999994873047,8|0,0:2|0:0,0:0:0:0:
398,21,89340,6,0,P|355:22|318:41,1,83.9999974365235,0|8,0:0|0:2,0:0:0:0:
282,134,89683,1,0,0:0:0:0:
255,231,89854,1,0,0:0:0:0:
376,101,90026,1,0,0:0:0:0:
211,61,90197,1,8,0:2:0:0:
282,134,90368,1,0,0:0:0:0:
176,286,90540,6,0,P|141:309|87:317,2,83.9999974365235,0|0|8,0:0|0:0|0:2,0:0:0:0:
211,61,91054,2,0,P|128:53|55:93,1,167.999994873047
176,286,91568,2,0,P|244:332|326:333,1,167.999994873047,8|0,0:2|0:0,0:0:0:0:
464,220,92083,6,0,P|486:184|486:143,2,83.9999974365235,0|8|0,0:0|0:2|0:0,0:0:0:0:
389,150,92597,1,0,0:0:0:0:
434,60,92768,1,0,0:0:0:0:
290,162,92940,1,8,0:2:0:0:
350,241,93111,1,0,0:0:0:0:
189,169,93283,6,0,L|113:208,1,83.9999974365235
23,251,93626,1,8,0:2:0:0:
150,94,93797,2,0,L|188:168,1,83.9999974365235
240,255,94140,1,0,0:0:0:0:
145,289,94311,2,0,L|112:366,1,83.9999974365235,8|0,0:2|0:0,0:0:0:0:
280,175,94654,6,0,L|312:97,1,83.9999974365235
256,14,94997,1,8,0:2:0:0:
357,3,95168,1,0,0:0:0:0:
368,179,95340,1,0,0:0:0:0:
412,88,95511,1,0,0:0:0:0:
426,264,95683,2,0,P|463:276|524:268,1,83.9999974365235,8|0,0:2|0:0,0:0:0:0:
288,241,96026,6,0,P|196:245|119:299,1,167.999994873047,0|8,0:0|0:2,0:0:0:0:
174,375,96540,1,0,0:0:0:0:
288,241,96711,2,0,P|310:199|306:152,1,83.9999974365235
262,73,97054,1,8,0:2:0:0:
288,241,97226,1,0,0:0:0:0:
262,73,97397,6,0,P|220:51|173:55,1,83.9999974365235
94,97,97740,1,8,0:2:0:0:
262,73,97911,1,0,0:0:0:0:
94,97,98083,2,0,P|72:139|76:186,1,83.9999974365235
262,73,98426,1,8,0:2:0:0:
212,276,98597,1,0,0:0:0:0:
412,213,98768,5,0,0:0:0:0:
142,295,98940,2,0,P|99:287|58:266,1,83.9999974365235,0|8,0:0|0:2,0:0:0:0:
394,285,99283,1,0,0:0:0:0:
200,203,99454,2,0,P|167:180|135:137,1,83.9999974365235
341,83,99797,1,8,0:2:0:0:
293,171,99968,1,0,0:0:0:0:
456,244,100140,6,0,P|476:208|480:156,1,83.9999974365235
436,76,100483,1,8,0:2:0:0:
272,16,100654,1,0,0:0:0:0:
215,181,100826,2,0,P|185:216|126:234,1,83.9999974365235
66,176,101169,1,8,0:2:0:0:
86,77,101340,1,0,0:0:0:0:
73,287,101511,6,0,P|129:342|241:364,1,167.999994873047,0|8,0:0|0:2,0:0:0:0:
372,286,102026,2,0,P|358:327|322:365,1,83.9999974365235
330,194,102368,1,0,0:0:0:0:
271,276,102540,1,8,0:2:0:0:
229,186,102711,1,0,0:0:0:0:
430,202,102883,6,0,P|441:152|431:108,1,83.9999974365235
302,27,103226,2,0,P|343:20|383:32,1,83.9999974365235,8|0,0:2|0:0,0:0:0:0:
234,104,103568,2,0,P|223:144|228:185,1,83.9999974365235
384,33,103911,1,8,0:2:0:0:
430,202,104083,1,0,0:0:0:0:
347,357,104254,6,0,P|301:362|255:348,1,83.9999974365235
180,297,104597,1,8,0:2:0:0:
353,265,104768,2,0,P|394:244|425:207,1,83.9999974365235
437,117,105111,1,0,0:0:0:0:
287,211,105283,2,0,P|241:203|201:176,1,83.9999974365235,8|0,0:2|0:0,0:0:0:0:
356,90,105626,6,0,P|334:54|301:28,1,83.9999974365235
217,83,105968,1,8,0:2:0:0:
356,90,106140,1,0,0:0:0:0:
142,15,106311,2,0,P|105:75|117:189,1,167.999994873047,0|8,0:0|0:2,0:0:0:0:
172,248,106826,1,0,0:0:0:0:
347,264,106997,6,0,P|391:240|435:186,1,83.9999974365235
364,36,107340,2,0,P|327:54|297:84,1,83.9999974365235,8|0,0:2|0:0,0:0:0:0:
165,264,107683,2,0,P|121:240|77:186,1,83.9999974365235
147,36,108026,2,0,P|184:55|215:84,1,83.9999974365235,8|0,0:2|0:0,0:0:0:0:
256,173,108368,5,0,0:0:0:0:
256,274,108540,1,0,0:0:0:0:
256,274,108626,1,0,0:0:0:0:
256,274,108711,1,0,0:0:0:0:
324,124,108883,5,0,0:0:0:0:
307,101,108968,1,0,0:0:0:0:
284,85,109054,1,0,0:0:0:0:
256,79,109140,1,0,0:0:0:0:
228,85,109225,1,0,0:0:0:0:
205,101,109311,1,0,0:0:0:0:
188,124,109397,1,0,0:0:0:0:
256,173,109568,1,0,0:0:0:0:
200,320,109740,6,0,P|256:360|312:320,1,140,0|4,1:0|0:2,2:0:0:0:
256,40,110254,1,0,0:0:0:0:
183,83,110426,2,0,P|152:100|118:105,1,70
44,64,110768,1,8,0:2:0:0:
118,105,110940,1,0,0:0:0:0:
148,184,111111,6,0,P|132:256|60:312,1,140,0|8,0:0|0:2,0:0:0:0:
364,184,111626,2,0,P|380:256|452:312,1,140
394,105,112140,1,8,0:2:0:0:
468,64,112312,1,0,0:0:0:0:
394,105,112483,6,0,P|359:100|328:83,1,70,0|0,0:3|0:0,0:0:0:0:
256,36,112826,1,8,0:2:0:0:
172,148,112997,1,0,0:0:0:0:
224,212,113168,1,0,0:0:0:0:
304,184,113340,2,0,P|308:220|284:276,1,70,0|8,0:0|0:2,0:0:0:0:
232,300,113683,1,0,0:0:0:0:
88,336,113854,6,0,P|48:272|48:188,1,140,0|8,0:0|0:2,0:0:0:0:
88,136,114368,1,0,0:0:0:0:
172,148,114540,2,0,P|204:136|240:108,1,70
292,176,114883,2,0,P|312:148|328:96,1,70,8|0,0:2|0:0,0:0:0:0:
364,256,115226,6,0,P|394:281|433:297,1,70,4|0,0:3|0:0,0:0:0:0:
296,300,115568,2,0,P|272:320|232:336,1,70,8|0,0:2|0:0,0:0:0:0:
376,180,115911,1,0,0:0:0:0:
404,100,116083,1,0,0:0:0:0:
344,41,116254,1,8,0:2:0:0:
263,67,116426,1,0,0:0:0:0:
256,150,116597,6,0,P|224:174|173:182,1,70
190,34,116940,1,8,0:2:0:0:
116,135,117111,2,0,P|108:101|114:66,2,70
122,219,117626,1,8,0:2:0:0:
55,270,117797,1,0,0:0:0:0:
199,252,117969,6,0,P|229:268|254:293,1,70
302,361,118311,1,8,0:2:0:0:
386,355,118483,2,0,P|434:303|447:229,1,140
447,152,118997,1,8,0:2:0:0:
406,78,119169,1,0,0:0:0:0:
260,56,119340,6,0,L|181:72,1,70,2|0,0:3|0:0,0:0:0:0:
363,151,119683,2,0,L|294:165,1,70,8|0,0:2|0:0,0:0:0:0:
406,78,120026,2,0,L|474:63,1,70,2|0,0:3|0:0,0:0:0:0:
256,240,120369,2,0,L|187:254,1,70,8|0,0:2|0:0,0:0:0:0:
88,352,120711,5,0,0:0:0:0:
20,68,121054,1,8,0:2:0:0:
96,104,121226,1,0,0:0:0:0:
172,136,121397,2,0,L|256:88,1,70
304,56,121740,1,8,0:2:0:0:
232,12,121911,1,0,0:0:0:0:
244,192,122083,6,0,L|252:356,1,140,0|8,0:0|0:2,0:0:0:0:
328,299,122597,2,0,L|323:207,2,70
388,172,123111,1,8,0:2:0:0:
452,120,123283,1,0,0:0:0:0:
504,184,123455,6,0,L|512:268,1,70
452,120,123798,1,8,0:2:0:0:
376,88,123968,2,0,L|300:52,2,70
388,172,124483,1,8,0:2:0:0:
322,226,124654,1,0,0:0:0:0:
196,304,124826,6,0,L|64:196,1,140,0|8,0:0|0:2,0:0:0:0:
12,256,125340,1,0,0:0:0:0:
87,215,125511,2,0,L|164:172,1,70
224,144,125855,1,8,0:2:0:0:
156,96,126026,1,0,0:0:0:0:
296,192,126198,6,0,L|356:232,1,70,4|0,0:3|0:0,0:0:0:0:
380,152,126540,2,0,L|440:192,1,70,8|0,0:2|0:0,0:0:0:0:
428,276,126883,1,0,0:1:0:0:
428,276,127054,1,0,0:0:0:0:
356,320,127226,1,8,0:2:0:0:
356,320,127398,1,0,0:0:0:0:
272,316,127569,6,0,P|240:300|192:304,1,70
132,336,127911,1,8,0:2:0:0:
132,336,127997,1,0,0:0:0:0:
132,336,128083,1,0,0:0:0:0:
76,276,128254,2,0,L|40:236,2,35
166,159,128597,5,8,0:2:0:0:
206,299,128768,1,2,0:3:0:0:
347,258,128940,1,0,0:0:0:0:
307,117,129111,2,0,P|319:85|356:53,1,70,2|8,0:3|0:1,0:0:0:0:
388,132,129454,1,2,0:3:0:0:
472,148,129626,2,0,P|459:179|422:211,1,70,2|0,0:3|0:0,0:0:0:0:
288,200,129968,1,8,0:1:0:0:
232,64,130140,1,2,0:3:0:0:
344,336,130311,5,2,0:2:0:0:
196,320,130483,1,0,0:0:0:0:
196,320,130568,1,0,0:0:0:0:
196,320,130654,1,2,0:2:0:0:
132,188,130826,1,0,0:0:0:0:
120,168,130911,1,0,0:0:0:0:
108,148,130997,2,0,L|48:136,1,35,2|0,0:2|0:0,0:0:0:0:
88,68,131168,2,0,L|53:61,2,35,0|0|2,0:0|0:0|0:2,0:0:0:0:
228,20,131511,1,0,0:0:0:0:
296,152,131683,6,0,P|372:160|440:116,1,140,4|8,0:1|0:2,0:0:0:0:
448,48,132197,2,0,P|483:66|512:111,1,70,2|0,0:2|0:0,0:0:0:0:
512,172,132540,1,0,0:0:0:0:
472,244,132711,2,0,P|434:258|392:258,1,70,8|0,0:2|0:0,0:0:0:0:
320,248,133054,6,0,P|296:216|260:192,1,70
188,180,133397,1,8,0:2:0:0:
124,236,133568,1,0,0:0:0:0:
124,236,133654,1,0,0:0:0:0:
124,236,133740,1,0,0:0:0:0:
44,208,133911,1,0,0:0:0:0:
108,156,134083,2,0,L|92:72,1,70,8|0,0:2|0:0,0:0:0:0:
232,28,134426,6,0,P|304:28|388:68,1,140,2|8,0:2|0:2,0:0:0:0:
412,124,134940,1,2,0:2:0:0:
428,208,135111,1,0,0:0:0:0:
432,232,135197,1,0,0:0:0:0:
436,256,135283,1,0,0:0:0:0:
484,324,135454,2,0,P|456:340|408:336,1,70,8|0,0:2|0:0,0:0:0:0:
356,284,135797,6,0,P|324:260|276:260,1,70
292,340,136140,1,8,0:2:0:0:
212,312,136311,1,0,0:0:0:0:
197,290,136397,1,0,0:0:0:0:
183,269,136483,1,0,0:0:0:0:
140,196,136654,1,0,0:0:0:0:
92,268,136826,2,0,L|44:344,1,70,8|0,0:2|0:0,0:0:0:0:
52,180,137168,6,0,B|36:136|4:108|4:108|64:96,1,140,2|8,0:2|0:2,0:0:0:0:
140,84,137682,1,2,0:2:0:0:
204,136,137854,2,0,L|204:176,2,35
260,72,138196,2,0,P|296:60|344:60,1,70,8|0,0:2|0:0,0:0:0:0:
379,123,138540,6,0,P|399:151|426:174,1,70
460,96,138882,1,8,0:2:0:0:
432,177,139053,1,0,0:0:0:0:
425,200,139139,1,0,0:0:0:0:
419,223,139225,1,0,0:0:0:0:
351,272,139396,1,0,0:0:0:0:
411,330,139568,2,0,P|443:330|487:302,1,70,8|0,0:2|0:0,0:0:0:0:
426,174,139911,6,0,P|374:122|284:96,1,140,2|8,0:2|0:2,0:0:0:0:
228,95,140425,1,2,0:2:0:0:
226,179,140597,1,0,0:0:0:0:
204,187,140683,1,0,0:0:0:0:
180,195,140768,1,0,0:0:0:0:
119,253,140940,2,0,P|124:288|145:319,1,70,8|0,0:2|0:0,0:0:0:0:
224,340,141283,6,0,L|289:316,1,70
368,288,141625,1,8,0:2:0:0:
468,184,141796,1,0,0:0:0:0:
468,184,141882,1,0,0:0:0:0:
468,184,141968,2,0,L|402:207,1,70,2|0,0:2|0:0,0:0:0:0:
270,179,142311,2,0,L|335:155,1,70,8|0,0:2|0:0,0:0:0:0:
188,204,142654,6,0,P|112:196|52:132,1,140,2|8,0:2|0:2,0:0:0:0:
56,72,143168,1,2,0:2:0:0:
128,28,143340,1,0,0:0:0:0:
152,36,143426,1,0,0:0:0:0:
176,44,143511,1,2,0:2:0:0:
252,76,143682,2,0,L|256:160,1,70,8|0,0:2|0:0,0:0:0:0:
234,227,144026,6,0,P|202:241|168:248,1,70
175,163,144368,1,8,0:2:0:0:
96,196,144539,1,0,0:0:0:0:
83,216,144625,1,0,0:0:0:0:
71,237,144711,1,0,0:0:0:0:
120,304,144882,1,0,0:0:0:0:
80,380,145054,2,0,P|54:360|37:311,1,70,8|0,0:2|0:0,0:0:0:0:
168,248,145397,6,0,P|239:228|329:251,1,140,2|8,0:2|0:2,0:0:0:0:
364,296,145911,2,0,L|416:360,1,70,2|0,0:2|0:0,0:0:0:0:
480,308,146254,1,2,0:2:0:0:
428,244,146425,2,8,L|440:168,1,70,8|0,0:2|0:0,0:2:0:0:
378,62,146768,6,0,L|368:132,1,70
280,172,147111,1,8,0:2:0:0:
196,120,147282,1,0,0:0:0:0:
196,120,147368,1,0,0:0:0:0:
196,120,147454,1,0,0:0:0:0:
116,172,147626,1,0,0:0:0:0:
32,120,147797,2,0,L|25:50,1,70,8|0,0:2|0:0,0:0:0:0:
40,204,148140,6,0,B|57:236|86:256|122:253|122:253|116:314,1,140,2|8,0:2|0:2,0:0:0:0:
172,356,148654,1,2,0:2:0:0:
340,356,148997,1,2,0:2:0:0:
393,291,149168,2,0,B|390:253|390:253|426:256|455:236|472:204,1,140,8|0,0:2|0:0,0:0:0:0:
468,120,149683,5,0,0:0:0:0:
396,76,149854,1,8,0:2:0:0:
316,104,150025,1,0,0:0:0:0:
316,104,150111,1,0,0:0:0:0:
316,104,150197,1,0,0:0:0:0:
256,160,150368,1,0,0:0:0:0:
256,244,150540,2,0,L|256:332,1,70,8|0,0:2|0:0,0:0:0:0:
256,160,150883,6,0,P|212:92|148:64,1,140,2|8,0:2|0:2,0:0:0:0:
80,90,151397,1,2,0:2:0:0:
92,256,151740,1,2,0:2:0:0:
176,268,151911,2,0,P|212:260|244:236,1,70,8|0,0:2|0:0,0:0:0:0:
256,160,152254,5,0,0:0:0:0:
256,160,152426,1,0,0:0:0:0:
320,216,152597,1,8,0:2:0:0:
460,124,152940,1,0,0:0:0:0:
460,124,153026,1,0,0:0:0:0:
460,124,153111,2,0,L|477:205,1,70,0|8,0:0|0:2,0:0:0:0:
256,192,153454,12,0,155683,2:0:0:0:
