osu file format v14

[General]
AudioFilename: 02-Maduk-Life feat. Hebe Vrijhof.mp3
AudioLeadIn: 0
PreviewTime: 82311
Countdown: 0
SampleSet: Normal
StackLeniency: 0.7
Mode: 0
LetterboxInBreaks: 0
WidescreenStoryboard: 0

[Editor]
Bookmarks: 21968,43911,64140,65854,68597,71340,74083,76826,87797,109740,111111,128940,130311,131683,149168,153626
DistanceSpacing: 1.2
BeatDivisor: 4
GridSize: 32
TimelineZoom: 1.7

[Metadata]
Title:Life (ft. Hebe Vrijhof)
TitleUnicode:Life (ft. Hebe Vrijhof)
Artist:Maduk
ArtistUnicode:Maduk
Creator:ErunamoJAZZ
Version:Hard
Source:
Tags:DnB Drum and Bass Summer Slammers 2013 Viper Recordings
BeatmapID:1060464
BeatmapSetID:496456

[Difficulty]
HPDrainRate:5
CircleSize:4
OverallDifficulty:6
ApproachRate:8
SliderMultiplier:1.2
SliderTickRate:1

[Events]
//Background and Video events
0,0,"sports.jpg",0,0
//Break Periods
//Storyboard Layer 0 (Background)
//Storyboard Layer 1 (Fail)
//Storyboard Layer 2 (Pass)
//Storyboard Layer 3 (Foreground)
//Storyboard Sound Samples

[TimingPoints]
26,342.857142857143,4,1,0,60,1,0
9626,-100,4,1,0,60,0,0
9968,-100,4,1,0,60,0,0
43911,-100,4,3,0,60,0,0
76826,-100,4,1,0,60,0,0
87454,-142.857142857143,4,1,0,60,0,0
87797,-83.3333333333333,4,1,0,80,0,1
109740,-100,4,1,0,60,0,0
153626,-100,4,1,0,55,0,0
153968,-100,4,1,0,50,0,0
154311,-100,4,1,0,45,0,0
154654,-100,4,1,0,40,0,0
154997,-100,4,1,0,35,0,0
155340,-100,4,1,0,20,0,0

[Colours]
Combo1 : 22,159,233
Combo2 : 255,124,28
Combo3 : 28,222,22
Combo4 : 224,41,78

[HitObjects]
18,163,26,6,0,B|61:167|113:133|113:133|138:160,1,120,2|0,0:2|0:0,0:0:0:0:
174,93,540,1,0,3:0:0:0:
182,308,1054,2,0,P|124:321|67:305,1,120,0|0,3:0|0:0,0:0:0:0:
353,338,2768,6,0,P|354:271|324:213,1,120,2|0,0:2|0:0,0:0:0:0:
261,239,3283,1,0,3:0:0:0:
471,191,3797,2,0,P|501:142|492:66,1,120,0|0,3:0|0:0,0:0:0:0:
282,69,4654,1,0,2:0:0:0:
282,69,5168,1,0,3:0:0:0:
381,172,5511,6,0,P|331:205|268:212,1,120,2|0,0:2|0:0,0:0:0:0:
256,141,6026,1,0,3:1:0:0:
62,45,6540,2,0,B|42:36|42:36|67:89|37:155,1,120,0|0,3:0|0:0,0:0:0:0:
244,340,8254,6,0,P|277:290|344:285,1,120,2|0,0:2|0:0,0:0:0:0:
315,351,8768,1,0,3:0:0:0:
173,325,9111,2,0,L|92:308,2,60,0|0|0,2:0|3:0|2:0,0:0:0:0:
204,259,9626,6,0,B|148:248|148:248|108:236|102:208,1,120,0|0,3:0|2:0,2:2:0:0:
256,208,10140,1,0,0:0:0:0:
308,259,10311,2,0,B|364:248|364:248|404:236|410:208,1,120,2|0,0:2|2:0,0:0:0:0:
511,107,10997,6,0,P|460:67|383:63,1,120,2|0,0:2|0:0,0:0:0:0:
342,91,11511,2,0,P|282:117|218:106,1,120,0|0,3:0|2:0,0:0:0:0:
163,79,12026,1,2,3:2:0:0:
163,79,12368,1,0,0:0:0:0:
163,79,13740,6,0,P|115:112|108:170,1,120,2|0,0:2|0:0,0:0:0:0:
173,202,14254,2,0,P|220:235|227:293,1,120,0|0,3:1|2:0,0:0:0:0:
157,274,14768,2,0,L|79:282,1,60,0|0,3:0|2:0,0:0:0:0:
57,219,15111,1,0,3:0:0:0:
243,108,15626,6,0,B|276:104|296:83|296:83|323:98|367:93,1,120,0|0,3:0|0:0,0:0:0:0:
415,55,16140,1,0,3:0:0:0:
506,166,16483,5,2,0:2:0:0:
446,297,16826,1,0,0:0:0:0:
446,297,16997,2,0,P|374:295|310:257,1,120,0|0,3:0|2:0,0:0:0:0:
284,220,17511,1,2,3:2:0:0:
144,254,17854,1,0,0:0:0:0:
144,254,19226,6,0,P|142:191|90:137,1,120,2|0,0:2|0:0,0:0:0:0:
63,91,19740,2,0,P|111:68|197:91,1,120,0|0,3:0|2:0,0:0:0:0:
219,134,20254,1,0,3:0:0:0:
285,105,20426,1,0,2:0:0:0:
241,47,20597,5,0,3:0:0:0:
172,326,21283,2,0,B|203:329|226:307|226:307|269:356|339:347,1,180,2|0,1:2|0:0,2:2:0:0:
441,331,21968,6,0,P|471:316|499:280,2,60,2|0|0,0:2|0:0|0:0,0:0:0:0:
381,288,22483,1,0,0:0:0:0:
377,216,22654,1,8,0:2:0:0:
239,174,22997,1,0,0:0:0:0:
225,317,23340,6,0,P|113:338|54:283,1,180,0|0,0:0|0:0,0:0:0:0:
50,231,24026,2,0,L|94:164,2,60,8|0|0,0:2|0:0|0:0,0:0:0:0:
192,250,24711,6,0,L|272:132,1,120,0|8,0:0|0:0,0:0:0:0:
242,80,25226,2,0,L|142:12,1,120,0|0,0:0|0:0,0:0:0:0:
269,13,25740,2,0,L|336:57,1,60,0|0,0:0|0:0,0:0:0:0:
432,102,26083,6,0,L|259:150,1,180,0|0,0:0|0:0,0:0:0:0:
190,172,26768,1,8,0:2:0:0:
54,219,27111,1,0,0:0:0:0:
163,313,27454,6,0,P|228:339|319:326,1,120,0|0,0:0|0:0,0:0:0:0:
341,305,27968,2,0,L|377:228,1,60,0|8,0:0|0:2,0:0:0:0:
435,377,28483,1,0,0:0:0:0:
507,252,28826,6,0,P|473:157|400:111,1,180,0|0,0:0|0:0,0:0:0:0:
338,112,29511,1,8,0:2:0:0:
452,24,29854,1,0,0:0:0:0:
309,42,30197,6,0,P|246:47|181:31,1,120,0|8,0:0|0:0,0:0:0:0:
123,61,30711,2,0,L|89:131,2,60,0|8|0,0:0|0:2|0:0,0:0:0:0:
61,22,31226,1,0,0:0:0:0:
29,86,31397,1,0,0:0:0:0:
41,156,31568,6,0,L|69:240,1,60,0|0,0:0|0:0,0:0:0:0:
110,348,32083,1,0,0:0:0:0:
167,305,32254,2,0,L|233:249,1,60,8|0,0:2|0:0,0:0:0:0:
255,323,32597,2,0,L|321:267,1,60,0|0,0:0|0:0,0:0:0:0:
408,290,32940,6,0,L|306:376,1,120,0|0,0:0|0:0,0:0:0:0:
244,357,33454,2,0,P|219:333|174:321,1,60,0|8,0:0|0:2,0:0:0:0:
53,345,33969,1,0,0:0:0:0:
105,210,34312,6,0,P|185:192|264:126,1,180,0|0,0:0|0:1,0:0:0:0:
252,59,34998,2,0,P|210:51|171:21,2,60,8|0|0,0:2|0:0|0:0,0:0:0:0:
395,75,35683,6,0,P|380:133|318:186,1,120,0|8,0:0|0:0,0:0:0:0:
306,240,36198,2,0,P|335:259|363:295,2,60,0|8|0,0:0|0:2|0:1,0:0:0:0:
237,263,36712,2,0,P|200:274|159:262,1,60,0|0,0:1|0:1,0:0:0:0:
197,201,37055,6,0,P|200:121|284:39,1,180,0|0,0:0|0:0,0:0:0:0:
333,36,37740,1,8,0:2:0:0:
408,158,38083,1,0,0:0:0:0:
314,267,38426,6,0,P|384:302|470:280,1,120,0|0,0:0|0:0,0:0:0:0:
480,255,38940,2,0,L|514:201,2,60,0|8|0,0:0|0:2|0:0,0:0:0:0:
411,229,39455,1,0,0:0:0:0:
314,121,39798,6,0,P|232:147|172:246,1,180,0|0,0:0|0:0,0:0:0:0:
173,291,40483,1,8,0:2:0:0:
314,267,40826,1,0,0:0:0:0:
177,220,41169,6,0,P|116:192|83:133,1,120,0|8,0:0|0:0,0:0:0:0:
84,77,41683,2,0,P|101:52|111:17,2,60,0|8|0,0:0|0:2|0:0,0:0:0:0:
22,115,42198,1,0,0:0:0:0:
25,186,42369,1,0,0:0:0:0:
87,149,42540,6,0,P|115:158|140:175,1,60,0|0,0:0|0:0,0:0:0:0:
256,260,43055,1,0,0:0:0:0:
256,188,43226,2,0,P|280:171|309:161,1,60,2|0,0:2|0:0,0:0:0:0:
426,175,43568,2,0,P|401:191|372:201,1,60,2|0,0:2|0:0,0:0:0:0:
296,49,43911,6,0,P|350:72|371:126,1,120,4|2,3:2|3:2,0:0:0:0:
96,44,44940,1,0,3:0:0:0:
224,108,45283,6,0,P|190:159|132:184,1,120,2|0,0:2|0:0,0:0:0:0:
64,184,45797,1,2,0:2:0:0:
256,284,46311,2,0,L|280:338,1,60
316,240,46654,6,0,P|292:186|313:132,1,120,2|0,0:2|0:0,0:0:0:0:
373,94,47168,1,0,0:0:0:0:
373,94,47340,2,0,P|430:99|466:145,1,120,2|0,0:2|0:0,0:0:0:0:
473,220,47854,1,0,0:0:0:0:
473,220,48026,6,0,P|438:267|380:275,1,120,2|2,0:2|0:2,0:0:0:0:
320,144,48711,2,0,B|272:96|209:121|209:121|191:88|146:81,1,180,0|0,0:2|0:0,0:0:0:0:
145,155,49397,6,0,P|106:207|27:239,1,120,2|2,0:2|0:2,0:0:0:0:
14,96,50083,1,0,0:0:0:0:
136,20,50426,1,2,0:2:0:0:
248,116,50768,6,0,L|314:71,1,60,2|0,0:2|0:0,0:0:0:0:
326,148,51111,2,0,L|375:114,1,60,2|0,0:2|0:0,0:0:0:0:
422,169,51454,2,0,L|297:256,1,120,2|2,0:2|0:2,0:0:0:0:
375,114,51968,1,2,0:2:0:0:
475,220,52140,6,0,L|328:324,1,180,2|2,0:2|0:2,0:0:0:0:
184,324,52997,2,0,L|85:255,1,120,2|0,0:2|0:0,0:0:0:0:
112,188,53511,6,0,L|224:264,1,120,2|2,0:2|0:2,0:0:0:0:
148,124,54197,1,2,0:2:0:0:
148,124,54883,6,0,P|208:124|252:72,1,120,2|2,0:2|0:2,0:0:0:0:
248,83,55911,2,0,P|264:111|308:140,1,60,2|0,0:2|0:0,0:0:0:0:
344,168,56254,5,2,0:2:0:0:
276,296,56597,2,0,P|236:308|200:304,1,60,0|2,0:0|0:2,0:0:0:0:
36,192,57283,1,2,0:2:0:0:
180,192,57626,6,0,L|300:192,1,120,2|0,0:2|0:0,0:0:0:0:
164,264,58140,2,0,B|274:264|274:264|284:267|284:267|293:264|293:264|356:264,1,180,2|0,0:2|0:2,0:0:0:0:
468,192,58997,5,0,0:0:0:0:
508,52,59340,1,2,0:2:0:0:
368,84,59683,2,0,L|320:28,1,60,0|2,0:0|0:2,0:0:0:0:
244,156,60197,1,0,0:0:0:0:
316,140,60368,6,0,L|424:262,1,120,2|2,0:2|0:2,0:0:0:0:
488,120,61054,1,0,0:0:0:0:
488,264,61397,1,2,0:2:0:0:
372,352,61740,6,0,P|336:360|292:360,1,60,2|2,0:2|0:2,0:0:0:0:
256,320,62083,2,0,P|220:276|136:248,1,120,0|2,0:0|0:2,0:0:0:0:
52,344,62768,2,0,P|32:320|24:272,1,60,2|2,0:2|0:2,0:0:0:0:
52,228,63111,6,0,P|84:184|88:112,1,120,2|0,0:2|0:0,0:0:0:0:
48,60,63626,1,0,0:2:0:0:
264,32,64140,2,0,P|259:62|225:111,1,60,2|2,0:2|0:2,0:0:0:0:
285,152,64483,6,0,P|339:147|417:180,1,120,2|0,0:2|0:0,0:0:0:0:
456,216,64997,2,0,L|496:160,2,60,0|2|2,0:2|0:2|0:2,0:0:0:0:
456,216,65683,1,0,0:0:0:0:
388,244,65854,6,0,P|333:248|255:215,1,120,4|4,0:1|0:1,0:0:0:0:
348,104,66540,2,0,B|380:52|380:52|264:20|264:20|280:92|220:140|160:112|160:112|108:84|61:115|51:160,1,480
122,173,68083,1,0,0:0:0:0:
191,376,68597,6,0,P|255:344|287:292,1,120,0|0,1:0|1:0,0:0:0:0:
157,232,69283,2,0,B|133:176|133:176|85:212|57:268|57:268|-23:208|1:108|1:108|39:117|82:102|96:56,1,480
26,36,70826,1,0,0:0:0:0:
229,108,71340,5,0,1:0:0:0:
360,44,71683,2,0,B|412:16|476:24|476:24|456:112|356:148|356:148|448:208|428:312,1,480,0|0,0:0|0:0,0:0:0:0:
288,276,73397,2,0,L|200:260,1,60
16,232,74083,5,0,1:0:0:0:
16,232,74426,1,0,1:0:0:0:
156,260,74768,2,0,P|92:360|0:380,2,180
160,116,76140,2,0,P|132:100|108:72,1,60
328,56,76826,6,0,P|384:60|452:104,1,120,4|0,0:0|0:0,0:0:0:0:
416,160,77340,2,0,P|360:156|292:112,1,120,8|0,0:2|0:0,0:0:0:0:
260,68,77854,1,8,0:2:0:0:
196,200,78197,6,0,P|182:259|231:316,1,120,8|0,0:2|0:0,0:0:0:0:
285,300,78711,2,0,P|298:240|249:183,1,120,8|0,0:2|0:0,0:0:0:0:
228,134,79226,1,8,0:2:0:0:
96,76,79568,6,0,P|35:88|25:157,1,120,8|0,0:2|0:0,0:0:0:0:
58,197,80083,2,0,P|118:184|128:115,1,120,8|0,0:2|0:0,0:0:0:0:
165,71,80596,1,8,0:2:0:0:
300,124,80940,6,0,P|360:168|384:236,1,120,8|0,0:2|0:0,0:0:0:0:
352,276,81454,2,0,P|412:276|452:208,1,120,8|0,0:2|0:0,0:0:0:0:
442,161,81968,1,8,0:2:0:0:
364,40,82311,6,0,P|340:56|320:80,1,60,8|0,0:2|0:0,0:0:0:0:
300,148,82654,1,0,0:0:0:0:
288,220,82826,2,0,P|244:272|188:284,1,120,8|0,0:2|0:0,0:0:0:0:
124,268,83340,1,8,0:2:0:0:
104,200,83511,1,0,0:0:0:0:
128,132,83683,6,0,P|148:120|192:120,1,60,8|0,0:2|0:0,0:0:0:0:
232,176,84026,1,0,0:2:0:0:
300,148,84197,2,0,P|352:152|416:200,1,120,8|0,0:2|0:0,0:0:0:0:
428,260,84711,1,8,0:2:0:0:
380,312,84883,1,0,0:0:0:0:
312,336,85054,6,0,L|244:328,1,60,0|0,0:0|0:0,0:0:0:0:
248,256,85397,2,0,L|180:228,1,60,0|0,0:0|0:0,0:0:0:0:
220,168,85740,2,0,L|168:108,1,60,0|0,0:0|0:0,0:0:0:0:
256,100,86083,2,0,L|256:36,1,60,0|0,0:0|0:0,0:0:0:0:
331,122,86426,6,0,L|292:168,1,60,0|0,0:0|0:0,0:0:0:0:
319,233,86769,2,0,L|264:256,1,60,0|0,0:0|0:0,0:0:0:0:
259,328,87112,2,0,L|200:336,1,60,0|0,0:0|0:0,0:0:0:0:
124,348,87454,1,8,0:2:0:0:
340,320,87797,6,0,B|407:311|407:311|424:276|468:264,1,143.999995605469,4|8,0:0|0:2,0:0:0:0:
464,119,88311,2,0,B|424:108|407:72|407:72|340:64,1,143.999995605469,0|0,0:0|0:0,0:0:0:0:
272,192,88826,6,0,L|416:192,2,143.999995605469,8|0|8,0:2|0:0|0:2,0:0:0:0:
232,24,89854,1,0,0:0:0:0:
144,173,90197,2,0,L|106:234,1,71.9999978027344,8|0,0:2|0:0,0:0:0:0:
36,288,90540,6,0,P|76:320|168:296,1,143.999995605469,0|8,0:0|0:2,0:0:0:0:
224,244,91054,2,0,P|264:212|356:236,1,143.999995605469,0|0,0:0|0:0,0:0:0:0:
296,296,91568,2,0,P|324:312|392:300,1,71.9999978027344,8|0,0:2|0:0,0:0:0:0:
428,256,91911,5,0,0:0:0:0:
504,100,92254,1,8,0:2:0:0:
336,144,92597,2,0,L|320:68,1,71.9999978027344,0|0,0:0|0:0,0:0:0:0:
392,20,92940,1,8,0:2:0:0:
321,73,93111,1,0,0:0:0:0:
236,60,93283,6,0,L|271:235,1,143.999995605469,0|8,0:0|0:2,0:0:0:0:
336,248,93797,2,0,P|280:284|188:244,1,143.999995605469,0|0,0:0|0:0,0:0:0:0:
184,184,94311,2,0,L|164:84,1,71.9999978027344,8|0,0:2|0:0,0:0:0:0:
84,96,94654,6,0,L|104:192,1,71.9999978027344,0|0,0:0|0:0,0:0:0:0:
169,113,94997,1,8,0:2:0:0:
236,60,95168,1,0,0:0:0:0:
321,73,95340,2,0,P|384:104|456:80,1,143.999995605469,0|8,0:0|0:2,0:0:0:0:
512,24,95854,1,0,0:0:0:0:
451,83,96026,6,0,L|496:152,1,71.9999978027344,0|0,0:0|0:0,0:0:0:0:
444,216,96368,1,8,0:2:0:0:
484,292,96540,1,0,0:0:0:0:
396,288,96711,2,0,P|312:296|264:352,1,143.999995605469,0|8,0:0|0:2,0:0:0:0:
256,248,97226,2,0,P|291:171|266:101,1,143.999995605469,0|0,0:0|0:0,0:0:0:0:
360,136,97740,6,0,P|380:180|424:212,1,71.9999978027344,8|0,0:2|0:0,0:0:0:0:
448,128,98083,1,0,0:0:0:0:
328,4,98426,1,8,0:2:0:0:
396,56,98597,1,0,0:0:0:0:
360,136,98768,5,0,0:0:0:0:
428,264,98940,2,0,P|360:284|284:260,1,143.999995605469
232,200,99454,2,0,P|184:148|92:136,1,143.999995605469,0|8,0:0|0:2,0:0:0:0:
72,208,99968,1,0,0:0:0:0:
119,278,100140,6,0,P|197:246|237:186,1,143.999995605469,0|8,0:0|0:2,0:0:0:0:
288,132,100654,1,0,0:0:0:0:
376,132,100826,2,0,L|428:209,1,71.9999978027344,0|0,0:0|0:0,0:0:0:0:
331,209,101168,2,0,L|383:286,1,71.9999978027344,8|0,0:2|0:0,0:0:0:0:
436,328,101511,6,0,P|452:292|492:252,2,71.9999978027344,0|0|8,0:0|0:0|0:2,0:0:0:0:
356,352,102025,2,0,P|276:332|192:360,1,143.999995605469,0|0,0:0|0:0,0:0:0:0:
132,348,102539,2,0,P|104:328|84:284,1,71.9999978027344,8|0,0:2|0:0,0:0:0:0:
68,212,102882,5,0,0:0:0:0:
240,216,103225,1,8,0:2:0:0:
372,104,103568,2,0,P|348:80|296:60,1,71.9999978027344,0|0,0:0|0:0,0:0:0:0:
228,48,103911,1,8,0:2:0:0:
144,76,104082,1,0,0:0:0:0:
88,144,104254,6,0,L|17:129,1,71.9999978027344,0|0,0:0|0:0,0:0:0:0:
100,228,104597,1,8,0:2:0:0:
112,312,104768,2,0,L|260:236,1,143.999995605469,0|0,0:0|0:0,0:0:0:0:
296,312,105282,2,0,P|319:280|322:223,1,71.9999978027344,8|0,0:2|0:0,0:0:0:0:
280,172,105626,6,0,P|250:162|189:180,1,71.9999978027344,0|0,0:0|0:0,0:0:0:0:
240,246,105968,1,8,0:2:0:0:
325,248,106139,1,0,0:0:0:0:
364,172,106311,2,0,P|344:112|252:88,1,143.999995605469,0|8,0:0|0:2,0:0:0:0:
188,88,106825,1,0,0:0:0:0:
100,92,106997,6,0,L|40:51,1,71.9999978027344,0|0,0:0|0:0,0:0:0:0:
140,168,107339,1,8,0:2:0:0:
88,236,107511,1,0,0:0:0:0:
172,248,107682,2,0,L|72:392,2,143.999995605469,0|8|0,0:0|0:2|0:0,0:0:0:0:
220,176,108540,6,0,L|248:140,2,35.9999989013672,0|0|0,0:0|0:0|0:0,0:0:0:0:
256,252,108883,1,0,0:0:0:0:
340,248,109054,2,0,P|380:260|420:304,1,71.9999978027344,0|0,0:0|0:0,0:0:0:0:
488,284,109397,2,0,P|476:248|480:192,1,71.9999978027344,0|0,0:0|0:0,0:0:0:0:
488,136,109740,5,0,1:0:0:0:
328,84,110083,2,0,P|292:142|232:148,1,120,4|0,0:2|0:0,0:0:0:0:
256,76,110597,2,0,L|266:12,2,60,0|8|0,0:0|0:2|0:0,0:0:0:0:
187,102,111111,6,0,L|68:83,1,120,0|8,0:0|0:2,0:0:0:0:
57,154,111626,1,0,0:0:0:0:
127,165,111797,2,0,L|159:239,1,60,0|0,0:0|0:0,0:0:0:0:
93,262,112140,1,8,0:2:0:0:
34,303,112311,1,0,0:0:0:0:
77,362,112483,6,0,L|211:383,1,120,0|8,0:3|0:2,0:0:0:0:
260,344,112997,2,0,L|278:225,1,120,0|0,0:0|0:0,0:0:0:0:
216,188,113511,1,8,0:2:0:0:
232,116,113683,1,0,0:0:0:0:
292,156,113854,6,0,L|360:128,2,60,0|0|8,0:0|0:0|0:2,0:0:0:0:
278,225,114368,1,0,0:0:0:0:
216,264,114540,2,0,L|140:244,2,60,0|0|8,0:0|0:0|0:2,0:0:0:0:
216,188,115054,1,0,0:0:0:0:
232,116,115226,6,0,L|364:64,1,120,4|8,0:3|0:2,0:0:0:0:
412,100,115740,1,0,0:0:0:0:
472,140,115911,2,0,L|432:216,1,60,0|0,0:0|0:0,0:0:0:0:
444,265,116254,2,0,L|471:318,1,60,8|0,0:2|0:0,0:0:0:0:
416,364,116597,5,0,0:0:0:0:
352,332,116768,1,0,0:0:0:0:
284,312,116940,2,0,P|267:337|226:364,2,60,8|0|0,0:2|0:0|0:0,0:0:0:0:
332,260,117454,1,0,0:0:0:0:
368,197,117626,2,0,P|380:176|416:152,1,60,8|0,0:2|0:0,0:0:0:0:
296,192,117968,5,0,0:0:0:0:
265,126,118140,2,0,P|228:127|191:141,1,60,0|8,0:0|0:2,0:0:0:0:
170,197,118483,2,0,P|139:250|61:252,1,120
98,188,118997,2,0,P|90:153|99:106,1,60,8|0,0:2|0:0,0:0:0:0:
168,52,119340,6,0,L|252:76,1,60,2|0,0:3|0:0,0:0:0:0:
187,131,119683,2,0,L|245:148,1,60,8|0,0:2|0:0,0:0:0:0:
292,92,120026,2,0,L|346:67,1,60,2|0,0:3|0:0,0:0:0:0:
372,136,120368,2,0,L|317:160,1,60,8|0,0:2|0:0,0:0:0:0:
245,148,120711,5,0,0:0:0:0:
256,292,121054,2,0,P|300:348|360:352,1,120,8|0,0:2|0:0,0:0:0:0:
404,316,121568,2,0,L|448:376,2,60,0|8|0,0:0|0:2|0:0,0:0:0:0:
456,268,122083,6,0,P|445:197|395:164,1,120,0|8,0:0|0:2,0:0:0:0:
340,160,122597,1,0,0:0:0:0:
272,180,122768,2,0,P|272:140|292:108,1,60,0|0,0:0|0:0,0:0:0:0:
344,88,123111,1,8,0:2:0:0:
416,96,123282,1,0,0:0:0:0:
476,140,123454,6,0,P|500:188|492:268,1,120,0|8,0:0|0:2,0:0:0:0:
444,304,123968,2,0,P|390:300|325:253,1,120,0|0,0:0|0:0,0:0:0:0:
296,204,124482,1,8,0:2:0:0:
304,132,124654,1,0,0:0:0:0:
236,160,124825,6,0,L|164:196,2,60,0|0|8,0:0|0:0|0:2,0:0:0:0:
244,88,125339,1,0,0:0:0:0:
312,60,125511,2,0,L|365:33,2,60,0|0|8,0:0|0:0|0:2,0:0:0:0:
304,132,126025,1,0,0:0:0:0:
296,204,126197,6,0,P|288:261|260:332,1,120,4|8,0:3|0:2,0:0:0:0:
204,356,126711,1,0,0:0:0:0:
144,316,126882,2,0,P|116:296|72:284,1,60,0|0,0:1|0:0,0:0:0:0:
52,348,127225,2,0,P|28:328|16:292,1,60,8|0,0:2|0:0,0:0:0:0:
42,234,127568,5,0,0:0:0:0:
112,217,127740,1,0,0:0:0:0:
63,164,127911,2,0,P|55:136|19:108,2,60,8|0|0,0:2|0:0|0:0,0:0:0:0:
42,234,128425,1,0,0:0:0:0:
92,287,128597,2,0,L|160:324,1,60,8|2,0:2|0:3,0:0:0:0:
260,308,128940,6,0,L|208:280,1,60,0|2,0:0|0:3,0:0:0:0:
242,216,129283,1,8,0:1:0:0:
198,159,129454,1,2,0:3:0:0:
269,149,129626,2,0,L|336:183,1,60,2|0,0:3|0:0,0:0:0:0:
228,89,129968,1,8,0:1:0:0:
156,95,130140,1,2,0:3:0:0:
299,82,130311,6,0,L|371:76,1,60,2|0,0:2|0:0,0:0:0:0:
392,90,130568,2,0,L|433:63,1,30,0|2,0:2|0:2,0:2:0:0:
477,114,130826,2,0,L|479:160,1,30
485,179,130997,2,0,L|523:206,1,30,2|0,0:2|0:0,0:0:0:0:
492,228,131168,2,0,L|512:303,2,60,0|2|0,0:0|0:2|0:0,0:0:0:0:
383,176,131683,6,0,P|316:174|256:132,1,120,4|8,0:1|0:2,0:0:0:0:
228,89,132197,1,2,0:2:0:0:
362,36,132540,1,0,0:0:0:0:
425,69,132711,2,0,L|436:148,1,60,8|0,0:2|0:0,0:0:0:0:
383,176,133054,5,0,0:0:0:0:
447,208,133226,2,0,L|458:287,2,60,0|8|0,0:0|0:2|0:0,0:0:0:0:
383,176,133740,1,0,0:0:0:0:
311,185,133911,2,0,L|232:196,1,60,0|8,0:0|0:2,0:0:0:0:
113,152,134426,6,0,P|106:212|135:277,1,120,2|8,0:2|0:2,0:0:0:0:
178,317,134940,1,2,0:2:0:0:
303,246,135283,1,0,0:0:0:0:
305,317,135454,2,0,L|377:365,2,60,8|0|0,0:2|0:0|0:0,0:0:0:0:
303,246,135969,6,0,L|375:202,2,60,0|8|0,0:0|0:2|0:0,0:0:0:0:
241,283,136483,1,0,0:0:0:0:
216,215,136654,2,0,L|191:138,1,60,0|8,0:0|0:2,0:0:0:0:
170,91,136997,1,0,0:0:0:0:
86,58,137168,6,0,P|55:101|51:171,1,120,2|8,0:2|0:2,0:0:0:0:
113,201,137683,2,0,P|105:260|68:306,1,120,2|0,0:2|0:0,0:0:0:0:
6,270,138197,1,8,0:2:0:0:
6,341,138368,1,0,0:0:0:0:
66,380,138540,6,0,P|91:378|129:350,2,60,0|0|8,0:0|0:0|0:2,0:0:0:0:
69,306,139054,1,0,0:0:0:0:
140,288,139226,2,0,P|124:256|96:236,2,60,0|0|8,0:0|0:0|0:2,0:0:0:0:
189,338,139740,1,0,0:0:0:0:
277,353,139911,6,0,P|335:365|402:341,1,120,2|8,0:2|0:2,0:0:0:0:
449,306,140425,1,2,0:2:0:0:
330,220,140768,1,0,0:0:0:0:
258,220,140939,2,0,P|264:188|300:155,1,60,8|0,0:2|0:0,0:0:0:0:
350,149,141283,5,0,0:0:0:0:
401,199,141454,2,0,P|419:177|415:126,2,60,0|8|0,0:0|0:2|0:0,0:0:0:0:
330,220,141968,1,2,0:2:0:0:
294,282,142140,2,0,P|314:291|364:283,2,60,0|8|0,0:0|0:2|0:0,0:0:0:0:
280,166,142654,6,0,P|252:106|181:77,1,120,2|8,0:2|0:2,0:0:0:0:
134,76,143168,1,2,0:2:0:0:
140,219,143511,1,2,0:2:0:0:
208,240,143682,2,0,P|191:270|150:289,1,60,8|0,0:2|0:0,0:0:0:0:
97,284,144026,6,0,L|52:348,2,60,0|0|8,0:0|0:0|0:2,0:0:0:0:
67,217,144540,1,0,0:0:0:0:
103,155,144711,2,0,L|58:91,1,60,0|0,0:0|0:0,0:0:0:0:
27,46,145054,1,8,0:2:0:0:
170,57,145397,6,0,P|226:65|296:37,1,120,2|8,0:2|0:2,0:0:0:0:
354,62,145911,2,0,P|398:96|473:107,1,120,2|2,0:2|0:2,0:0:0:0:
482,39,146426,1,8,0:2:0:0:
472,110,146597,1,0,0:0:0:0:
466,181,146768,6,0,L|458:249,2,60,0|0|8,0:0|0:0|0:2,0:0:0:0:
393,175,147283,2,0,L|376:315,1,120,0|0,0:0|0:0,0:0:0:0:
448,313,147797,1,8,0:2:0:0:
307,280,148140,6,0,P|244:276|176:305,1,120,2|8,0:2|0:2,0:0:0:0:
136,341,148654,1,2,0:2:0:0:
119,197,148997,1,2,0:2:0:0:
119,197,149168,2,0,P|153:144|162:71,1,120,8|0,0:2|0:0,0:0:0:0:
235,74,149683,5,0,0:0:0:0:
235,74,149854,2,0,P|287:108|360:117,1,120,8|0,0:2|0:0,0:0:0:0:
414,108,150368,2,0,L|450:41,1,60,0|8,0:0|0:2,0:0:0:0:
480,196,150883,6,0,B|461:215|427:224|427:224|393:232|374:252,1,120,2|8,0:2|0:2,0:0:0:0:
360,320,151397,1,2,0:2:0:0:
244,232,151740,1,2,0:2:0:0:
232,160,151911,2,0,L|276:116,1,60,8|0,0:2|0:0,0:0:0:0:
256,48,152254,5,0,0:0:0:0:
184,56,152426,2,0,L|160:-12,2,60,0|8|0,0:0|0:2|0:0,0:0:0:0:
168,128,152940,1,0,0:0:0:0:
168,128,153026,1,0,0:0:0:0:
168,128,153111,2,0,L|144:204,1,60,0|8,0:0|0:2,0:0:0:0:
256,192,153454,12,0,155683,2:0:0:0:
