osu file format v14

[General]
AudioFilename: 02-Maduk-Life feat. Hebe Vrijhof.mp3
AudioLeadIn: 0
PreviewTime: 82311
Countdown: 0
SampleSet: Normal
StackLeniency: 0.7
Mode: 0
LetterboxInBreaks: 0
WidescreenStoryboard: 0

[Editor]
Bookmarks: 21968,43911,64140,65854,68597,71340,74083,76826,87797,109740,111111,128940,130311,131683,149168,153626
DistanceSpacing: 1
BeatDivisor: 2
GridSize: 32
TimelineZoom: 1.2

[Metadata]
Title:Life (ft. Hebe Vrijhof)
TitleUnicode:Life (ft. Hebe Vrijhof)
Artist:Maduk
ArtistUnicode:Maduk
Creator:ErunamoJAZZ
Version:Easy
Source:
Tags:DnB Drum and Bass Summer Slammers 2013 Viper Recordings
BeatmapID:1087545
BeatmapSetID:496456

[Difficulty]
HPDrainRate:3
CircleSize:3
OverallDifficulty:2
ApproachRate:3
SliderMultiplier:0.8
SliderTickRate:1

[Events]
//Background and Video events
0,0,"sports.jpg",0,0
//Break Periods
2,66396,67157
2,69139,69900
2,71540,72643
2,74625,75386
//Storyboard Layer 0 (Background)
//Storyboard Layer 1 (Fail)
//Storyboard Layer 2 (Pass)
//Storyboard Layer 3 (Foreground)
//Storyboard Sound Samples

[TimingPoints]
26,342.857142857143,4,1,0,60,1,0
9626,-100,4,1,0,60,0,0
9968,-100,4,1,0,60,0,0
43911,-100,4,3,0,60,0,0
76826,-100,4,1,0,60,0,0
87454,-100,4,1,0,60,0,0
87797,-100,4,1,0,80,0,1
109740,-100,4,1,0,60,0,0
153626,-100,4,1,0,55,0,0
153968,-100,4,1,0,50,0,0
154311,-100,4,1,0,45,0,0
154654,-100,4,1,0,40,0,0
154997,-100,4,1,0,35,0,0
155340,-100,4,1,0,20,0,0

[Colours]
Combo1 : 22,159,233
Combo2 : 255,124,28
Combo3 : 28,222,22
Combo4 : 224,41,78

[HitObjects]
259,339,26,6,0,B|235:306|194:292|194:292|206:254|206:254|118:267|75:171|120:120,1,320,2|0,0:2|0:0,0:0:0:0:
256,48,2768,6,0,B|292:52|332:32|332:32|352:68|352:68|416:48|460:96|460:96|468:148|432:176,1,320,2|0,0:2|0:0,0:0:0:0:
276,200,5511,6,0,B|252:228|208:240|208:240|220:280|220:280|156:288|128:344|128:344|100:308|48:300,1,320,2|0,0:2|0:0,0:0:0:0:
28,148,8254,6,0,B|28:108|52:72|52:72|88:76|88:76|112:32|148:16|204:24,1,240,2|0,0:2|3:0,0:0:0:0:
256,68,9626,2,0,P|320:112|396:84,1,160,0|2,3:0|0:2,0:0:0:0:
496,208,10997,6,0,P|520:268|528:336,2,120,2|0|2,0:2|3:0|3:2,0:0:0:0:
442,148,12368,1,0,0:0:0:0:
139,44,13740,6,0,B|95:52|75:88|75:88|95:124|95:124|51:176|91:252,1,240,2|0,0:2|3:0,0:0:0:0:
116,308,15111,1,0,3:0:0:0:
432,360,16483,6,0,P|472:328|472:240,1,120,2|0,0:2|3:0,0:0:0:0:
452,188,17340,2,0,L|404:152,1,40,0|2,2:0|3:2,0:0:0:0:
400,88,17854,1,0,0:0:0:0:
195,334,19226,6,0,B|158:354|115:342|115:342|115:305|115:305|45:320|10:260,1,240,2|0,0:2|3:0,0:0:0:0:
48,191,20597,1,0,3:0:0:0:
48,30,21283,2,0,P|78:30|138:58,1,80,2|2,1:2|3:2,2:2:0:0:
193,87,21968,6,0,B|273:131|341:71|341:71|349:115|381:139,1,240,2|0,0:2|0:0,0:0:0:0:
449,99,23340,2,0,P|454:168|369:217,1,160,0|8,0:0|0:2,0:0:0:0:
312,187,24368,1,0,0:0:0:0:
240,224,24711,6,0,B|224:300|224:300|181:298|181:298|135:343|68:324,1,240
8,273,26083,2,0,P|-12:189|24:105,1,160,0|8,0:0|0:2,0:0:0:0:
77,75,27111,1,0,0:0:0:0:
156,88,27454,6,0,B|196:89|233:73|233:73|259:103|300:121,1,160,0|8,0:0|0:2,0:0:0:0:
316,198,28483,1,0,0:0:0:0:
380,245,28826,2,0,P|454:232|485:154,1,160,0|8,0:0|0:2,0:0:0:0:
457,85,29854,1,0,0:0:0:0:
400,26,30197,6,0,P|365:10|326:15,2,80,0|8|8,0:0|0:0|0:2,0:0:0:0:
352,91,31226,1,0,0:0:0:0:
308,157,31568,2,0,B|270:167|231:144|231:144|190:122|148:137,1,160,0|8,0:0|0:2,0:0:0:0:
112,203,32597,1,0,0:0:0:0:
112,283,32940,6,0,P|35:289|-12:255,2,120
180,243,34311,2,0,P|255:220|332:244,1,160,0|8,0:0|0:2,0:0:0:0:
388,300,35340,1,0,0:0:0:0:
468,292,35683,6,0,P|476:212|436:132,1,160,0|8,0:0|0:2,0:0:0:0:
388,84,36711,1,0,0:1:0:0:
328,136,37054,2,0,P|256:168|184:136,1,160,0|8,0:0|0:2,0:0:0:0:
125,84,38083,1,0,0:0:0:0:
56,124,38426,6,0,P|8:80|-8:12,2,120,0|0|0,0:0|0:0|0:0,0:0:0:0:
116,176,39797,2,0,P|104:216|64:260,1,80,0|0,0:0|0:0,0:0:0:0:
48,320,40483,2,0,P|92:336|128:368,1,80,8|0,0:2|0:0,0:0:0:0:
196,356,41168,6,0,P|264:304|308:152,1,240
284,84,42540,1,0,0:0:0:0:
140,13,43226,2,0,P|104:29|60:73,1,80,2|2,0:2|0:2,0:0:0:0:
105,128,43911,6,0,B|123:164|123:164|97:214,1,80,4|2,3:2|3:2,0:0:0:0:
28,337,44940,1,0,3:0:0:0:
100,369,45283,2,0,P|160:369|232:333,2,120,2|2|0,0:2|0:2|0:0,0:0:0:0:
92,289,46654,6,0,P|108:261|120:209,1,80,2|0,0:2|0:0,0:0:0:0:
164,149,47340,2,0,P|204:137|256:105,1,80,2|0,0:2|0:0,0:0:0:0:
316,125,48026,2,0,P|344:153|404:177,1,80,2|2,0:2|0:2,0:0:0:0:
457,190,48711,2,0,B|497:182|497:182|549:234|489:314,1,160,0|2,0:0|0:2,0:0:0:0:
436,332,49740,6,0,P|364:300|264:320,1,160,2|2,0:2|0:2,0:0:0:0:
207,321,50768,2,0,P|167:309|119:269,1,80,2|2,0:2|0:2,0:0:0:0:
88,224,51454,1,2,0:2:0:0:
176,92,52140,6,0,P|114:66|35:76,2,120,2|2|0,0:2|0:2|0:0,0:0:0:0:
232,148,53511,2,0,P|252:176|272:232,1,80,2|2,0:2|0:2,0:0:0:0:
348,232,54197,2,0,P|372:200|424:164,1,80,2|0,0:2|0:2,0:0:0:0:
464,124,54883,6,0,B|448:84|448:84|404:56,1,80,2|2,0:2|0:2,0:0:0:0:
256,44,55911,1,2,0:2:0:0:
244,124,56254,2,0,B|228:204|228:204|184:188|184:188|144:236|72:212,1,240,2|2,0:2|0:2,0:0:0:0:
16,172,57626,6,0,P|8:108|-28:44,2,120,2|2|0,0:2|0:2|0:2,0:0:0:0:
12,252,58997,2,0,P|24:284|80:324,1,80,0|2,0:0|0:2,0:0:0:0:
136,308,59683,2,0,P|168:288|240:280,1,80
256,212,60368,6,0,P|264:132|352:72,1,160,2|0,0:2|0:0,0:0:0:0:
400,80,61397,1,2,0:2:0:0:
448,144,61740,2,0,P|440:224|352:284,1,160,2|2,0:2|0:2,0:0:0:0:
304,280,62768,1,2,0:2:0:0:
256,212,63111,6,0,P|192:224|128:288,2,120,2|0|2,0:2|0:2|0:2,0:0:0:0:
336,200,64483,2,0,P|372:132|312:64,1,160,2|2,0:2|0:2,0:0:0:0:
173,106,65854,6,0,P|165:144|172:184,1,80,4|4,0:1|0:1,0:0:0:0:
339,184,68597,6,0,P|346:144|339:106,1,80,0|0,1:0|1:0,0:0:0:0:
256,76,71340,5,0,1:0:0:0:
256,156,74083,6,0,B|260:196|256:196|252:196|256:236,1,80,0|0,1:0|1:0,0:0:0:0:
296,152,76826,6,0,P|368:168|432:220,2,120,4|8|8,0:0|0:2|0:2,0:0:0:0:
216,152,78197,2,0,P|232:80|284:16,2,120,8|8|8,0:2|0:2|0:2,0:0:0:0:
216,232,79568,6,0,P|144:216|80:164,2,120,8|8|8,0:2|0:2|0:2,0:0:0:0:
296,232,80940,2,0,P|280:304|228:368,2,120,8|8|8,0:2|0:2|0:2,0:0:0:0:
303,152,82311,6,0,B|313:89|380:69|380:69|437:111|426:173,1,240,8|8,0:2|0:2,0:0:0:0:
422,253,83683,2,0,B|378:281|358:353|358:353|314:297|226:293,1,240,8|8,0:2|0:2,0:0:0:0:
178,289,85054,6,0,B|88:309|42:370|42:370|-19:323|-19:323|46:233|186:208|186:208|194:160|140:115,1,560,0|8,0:0|0:2,0:0:0:0:
98,85,87797,6,0,P|46:65|14:-3,2,120,4|0|8,0:0|0:0|0:2,0:0:0:0:
174,57,89168,1,0,0:0:0:0:
245,21,89511,1,8,0:2:0:0:
300,80,89854,2,0,P|324:116|376:140,1,80,0|8,0:0|0:2,0:0:0:0:
436,128,90540,6,0,P|468:92|488:4,2,120,0|0|8,0:0|0:0|0:2,0:0:0:0:
400,200,91911,2,0,P|424:236|472:264,1,80,0|8,0:0|0:2,0:0:0:0:
436,336,92597,2,0,P|392:338|344:366,1,80,0|8,0:0|0:2,0:0:0:0:
320,284,93283,6,0,P|300:228|228:180,2,120,0|0|8,0:0|0:0|0:2,0:0:0:0:
280,352,94654,2,0,P|240:368|184:364,1,80,0|8,0:0|0:2,0:0:0:0:
136,328,95340,2,0,P|120:288|124:232,1,80,0|8,0:0|0:2,0:0:0:0:
176,192,96026,6,0,P|224:148|232:72,2,120,0|0|8,0:0|0:0|0:2,0:0:0:0:
100,172,97397,2,0,P|60:196|36:256,1,80,0|8,0:0|0:2,0:0:0:0:
44,304,98083,1,0,0:0:0:0:
116,344,98426,1,8,0:2:0:0:
192,316,98768,6,0,P|248:308|324:348,2,120,0|0|8,0:0|0:0|0:2,0:0:0:0:
180,236,100140,2,0,P|208:208|228:168,1,80,0|8,0:0|0:2,0:0:0:0:
304,184,100826,2,0,P|314:222|338:259,1,80,0|8,0:0|0:2,0:0:0:0:
416,268,101511,6,0,P|464:232|488:148,2,120,0|0|8,0:0|0:0|0:2,0:0:0:0:
340,248,102883,1,0,0:0:0:0:
308,176,103226,1,8,0:2:0:0:
320,96,103568,2,0,P|292:60|240:36,1,80,0|8,0:0|0:2,0:0:0:0:
192,76,104254,6,0,P|140:112|64:120,2,120,0|0|8,0:0|0:0|0:2,0:0:0:0:
262,37,105626,2,0,P|289:60|319:121,1,80,0|8,0:0|0:2,0:0:0:0:
391,87,106311,2,0,P|409:118|419:184,1,80,0|8,0:0|0:2,0:0:0:0:
424,240,106997,6,0,P|444:296|500:344,2,120,0|0|8,0:0|0:0|0:2,0:0:0:0:
343,240,108368,2,0,P|327:280|287:316,2,80
344,160,109397,1,0,0:0:0:0:
268,132,109740,6,0,P|224:144|184:176,1,80,0|4,1:0|0:2,2:2:0:0:
156,232,110426,2,0,P|160:284|136:356,2,120,0|0|8,0:0|0:0|0:2,0:0:0:0:
117,161,111797,1,0,0:0:0:0:
50,115,112140,5,8,0:2:0:0:
66,36,112483,2,0,P|107:23|162:35,1,80,0|8,0:3|0:2,0:0:0:0:
209,71,113168,2,0,P|247:81|300:70,1,80,0|8,0:0|0:2,0:0:0:0:
364,52,113854,2,0,P|396:72|424:120,1,80,0|8,0:0|0:2,0:0:0:0:
436,184,114540,2,0,P|420:260|348:320,1,160,0|4,0:0|0:3,0:0:0:0:
284,328,115568,5,8,0:2:0:0:
216,284,115911,2,0,P|194:255|132:244,1,80,0|8,0:0|0:2,0:0:0:0:
83,278,116597,2,0,P|105:307|167:318,2,80,0|8|0,0:0|0:2|0:0,0:0:0:0:
88,196,117626,1,8,0:2:0:0:
80,116,117968,6,0,P|52:60|0:32,2,120,0|0|8,0:0|0:0|0:2,0:0:0:0:
153,148,119340,2,0,B|185:76|281:64|281:64|313:144,1,240,2|8,0:3|0:2,0:0:0:0:
324,216,120711,6,0,P|312:248|276:292,1,80,0|8,0:0|0:2,0:0:0:0:
336,344,121397,2,0,P|412:324|468:344,2,120,0|0|8,0:0|0:0|0:2,0:0:0:0:
256,360,122768,1,0,0:0:0:0:
204,300,123111,1,8,0:2:0:0:
124,284,123454,6,0,P|80:348|16:372,2,120,0|0|8,0:0|0:0|0:2,0:0:0:0:
108,204,124825,2,0,P|72:176|64:132,1,80,0|8,0:0|0:2,0:0:0:0:
88,68,125511,2,0,B|131:45|164:55|164:55|197:66|241:43,1,160,0|4,0:0|0:3,0:0:0:0:
316,12,126539,5,8,0:2:0:0:
387,45,126883,2,0,P|410:80|426:144,1,80,0|8,0:1|0:2,0:0:0:0:
384,184,127568,2,0,P|340:186|277:168,2,80,0|8|0,0:0|0:2|0:0,0:0:0:0:
464,184,128597,1,8,0:2:0:0:
512,248,128939,6,0,P|520:308|480:388,2,120,0|2|8,0:0|0:3|0:1,0:0:0:0:
452,192,130311,2,0,B|408:184|388:148|388:148|288:152|280:248,1,240,2|2,0:2|0:2,0:0:0:0:
256,320,131683,6,0,P|216:336|152:340,1,80,4|8,0:1|0:2,0:0:0:0:
104,320,132368,1,0,0:0:0:0:
60,256,132711,2,0,P|48:180|92:80,2,160,8|8|8,0:2|0:2|0:2,0:0:0:0:
101,325,134426,6,0,P|65:341|25:389,2,80,2|8|0,0:2|0:2|0:0,0:0:0:0:
180,312,135454,2,0,P|239:260|268:186,2,160,8|8|8,0:2|0:2|0:2,0:0:0:0:
124,252,137168,6,0,P|104:204|60:168,1,80,2|8,0:2|0:2,0:0:0:0:
28,128,137854,1,0,0:0:0:0:
88,76,138197,2,0,P|160:56|244:-4,2,160,8|8|8,0:2|0:2|0:2,0:0:0:0:
40,140,139911,6,0,P|72:160|104:196,1,80,2|8,0:2|0:2,0:0:0:0:
148,256,140597,1,0,0:0:0:0:
228,244,140940,2,0,P|300:212|392:212,1,160,8|8,0:2|0:2,0:0:0:0:
458,228,141968,2,0,P|483:192|489:133,1,80,2|8,0:2|0:2,0:0:0:0:
460,84,142654,6,0,P|408:48|328:32,2,120,2|2|8,0:2|0:2|0:2,0:0:0:0:
476,164,144026,1,0,0:0:0:0:
448,240,144368,2,0,P|380:280|292:284,1,160,8|8,0:2|0:2,0:0:0:0:
294,205,145397,6,8,P|262:89|138:101,1,240,2|8,0:2|0:2,0:0:0:0:
100,140,146768,1,0,0:0:0:0:
72,216,147111,2,0,P|108:272|208:312,1,160,8|8,0:2|0:2,0:0:0:0:
264,280,148140,6,0,P|328:296|380:364,2,120,2|2|8,0:2|0:2|0:2,0:0:0:0:
200,232,149511,1,0,0:0:0:0:
184,152,149854,2,0,P|240:100|336:100,1,160,8|8,0:2|0:2,0:0:0:0:
380,148,150883,6,0,B|420:148|452:120|452:120|512:192|460:272,1,240,2|8,0:2|0:2,0:0:0:0:
388,300,152254,2,0,P|352:304|308:328,1,80,0|8,0:0|0:2,0:0:0:0:
256,192,152940,12,0,155683,2:0:0:0:
