osu file format v14

[General]
AudioFilename: audio.mp3
AudioLeadIn: 0
PreviewTime: 76816
Countdown: 0
SampleSet: Soft
StackLeniency: 0.7
Mode: 0
LetterboxInBreaks: 0
WidescreenStoryboard: 1

[Editor]
Bookmarks: 11073,33016,52216,76902,98844,120787,130387,142730,164673,167416,186616,208559
DistanceSpacing: 0.8
BeatDivisor: 2
GridSize: 32
TimelineZoom: 1.7

[Metadata]
Title:Got Me Thinking (feat. Veela)
TitleUnicode:Got Me Thinking (feat. Veela)
Artist:Maduk
ArtistUnicode:Maduk
Creator:Asphyxia
Version:Normal
Source:
Tags:dnb drum and bass liquicity never give up english electronic Kyshiro Slips Tycani greenhue
BeatmapID:2645455
BeatmapSetID:1024635

[Difficulty]
HPDrainRate:3
CircleSize:3.3
OverallDifficulty:4
ApproachRate:5.5
SliderMultiplier:1.2
SliderTickRate:1

[Events]
//Background and Video events
0,0,"wallhaven-700077.jpg",0,0
//Break Periods
2,33094,42671
2,120865,130443
//Storyboard Layer 0 (Background)
//Storyboard Layer 1 (Fail)
//Storyboard Layer 2 (Pass)
//Storyboard Layer 3 (Foreground)
//Storyboard Layer 4 (Overlay)
//Storyboard Sound Samples

[TimingPoints]
-20,342.857142857143,4,1,0,100,1,0
10951,-100,4,2,4,50,0,0
11980,-100,4,2,4,50,0,0
12065,-100,4,2,4,5,0,0
12151,-100,4,2,4,50,0,0
12237,-100,4,2,4,5,0,0
12494,-100,4,2,4,50,0,0
12580,-100,4,2,4,5,0,0
12665,-100,4,2,4,50,0,0
12751,-100,4,2,4,5,0,0
12837,-100,4,2,4,50,0,0
12922,-100,4,2,4,5,0,0
13008,-100,4,2,4,50,0,0
13694,-100,4,2,4,50,0,0
14722,-100,4,2,4,50,0,0
14808,-100,4,2,4,5,0,0
14894,-100,4,2,4,50,0,0
14980,-100,4,2,4,5,0,0
15237,-100,4,2,4,50,0,0
15322,-100,4,2,4,5,0,0
15408,-100,4,2,4,50,0,0
15494,-100,4,2,4,5,0,0
15580,-100,4,2,4,50,0,0
15665,-100,4,2,4,5,0,0
15751,-100,4,2,4,50,0,0
16437,-100,4,2,4,50,0,0
17465,-100,4,2,4,50,0,0
17551,-100,4,2,4,5,0,0
17637,-100,4,2,4,50,0,0
17722,-100,4,2,4,5,0,0
17980,-100,4,2,4,50,0,0
18065,-100,4,2,4,5,0,0
18151,-100,4,2,4,50,0,0
18237,-100,4,2,4,5,0,0
18322,-100,4,2,4,50,0,0
18408,-100,4,2,4,5,0,0
18494,-100,4,2,4,50,0,0
19180,-100,4,2,4,50,0,0
20208,-100,4,2,4,50,0,0
20294,-100,4,2,4,5,0,0
20380,-100,4,2,4,50,0,0
20465,-100,4,2,4,5,0,0
20722,-100,4,2,4,50,0,0
20808,-100,4,2,4,5,0,0
20894,-100,4,2,4,50,0,0
20980,-100,4,2,4,5,0,0
21065,-100,4,2,4,50,0,0
21151,-100,4,2,4,5,0,0
21237,-100,4,2,4,50,0,0
21922,-100,4,2,4,50,0,0
22951,-100,4,2,4,50,0,0
23037,-100,4,2,4,5,0,0
23122,-100,4,2,4,50,0,0
23208,-100,4,2,4,5,0,0
23465,-100,4,2,4,50,0,0
23551,-100,4,2,4,5,0,0
23637,-100,4,2,4,50,0,0
23722,-100,4,2,4,5,0,0
23808,-100,4,2,4,50,0,0
23894,-100,4,2,4,5,0,0
23980,-100,4,2,4,50,0,0
24665,-100,4,2,4,50,0,0
25694,-100,4,2,4,50,0,0
25780,-100,4,2,4,5,0,0
25865,-100,4,2,4,50,0,0
25951,-100,4,2,4,5,0,0
26208,-100,4,2,4,50,0,0
26294,-100,4,2,4,5,0,0
26380,-100,4,2,4,50,0,0
26465,-100,4,2,4,5,0,0
26551,-100,4,2,4,50,0,0
26637,-100,4,2,4,5,0,0
26722,-100,4,2,4,50,0,0
27408,-100,4,2,4,50,0,0
28437,-100,4,2,4,50,0,0
28522,-100,4,2,4,5,0,0
28608,-100,4,2,4,50,0,0
28694,-100,4,2,4,5,0,0
28951,-100,4,2,4,50,0,0
29037,-100,4,2,4,5,0,0
29122,-100,4,2,4,50,0,0
29208,-100,4,2,4,5,0,0
29294,-100,4,2,4,50,0,0
29380,-100,4,2,4,5,0,0
29465,-100,4,2,4,50,0,0
30151,-100,4,2,4,50,0,0
31180,-100,4,2,4,50,0,0
31265,-100,4,2,4,5,0,0
31351,-100,4,2,4,50,0,0
31437,-100,4,2,4,5,0,0
31694,-100,4,2,4,50,0,0
31780,-100,4,2,4,5,0,0
31865,-100,4,2,4,50,0,0
31951,-100,4,2,4,5,0,0
32037,-100,4,2,4,50,0,0
32122,-100,4,2,4,5,0,0
32208,-100,4,2,4,50,0,0
32294,-100,4,2,4,5,0,0
32380,-100,4,2,4,50,0,0
32894,-100,4,2,3,50,0,0
43865,-100,4,2,3,60,0,0
54494,-100,4,2,5,60,0,0
54837,-100,4,2,5,60,0,0
76780,-100,4,2,5,75,0,1
98380,-100,4,2,5,40,0,0
98722,-100,4,2,5,75,0,1
120665,-100,4,2,5,40,0,0
131637,-100,4,2,3,50,0,0
142608,-100,4,2,5,75,0,1
164551,-100,4,2,5,50,0,0
166951,-100,4,2,5,50,0,0
167294,-100,4,2,5,75,0,1
186494,-100,4,2,5,60,0,0

[Colours]
Combo1 : 0,168,249
Combo2 : 187,233,255
Combo3 : 255,179,179
Combo4 : 255,200,145

[HitObjects]
462,92,10951,6,0,L|436:270,2,180,4|0|0,3:2|3:0|3:0,0:0:0:0:
470,45,12151,1,0,3:0:0:0:
384,83,12494,1,0,3:0:0:0:
384,83,12665,2,0,L|320:91,1,60,0|0,3:0|3:0,0:0:0:0:
286,61,13008,2,0,L|268:178,1,120,0|0,3:0|3:0,0:0:0:0:
190,236,13694,6,0,P|104:230|37:292,2,180,0|0|0,3:0|3:0|3:0,0:0:0:0:
220,272,14894,1,0,3:0:0:0:
298,215,15237,1,0,3:0:0:0:
298,215,15408,2,0,L|357:224,1,60,0|0,3:0|3:0,0:0:0:0:
399,246,15751,2,0,L|380:123,1,120,0|0,3:0|3:0,0:0:0:0:
300,79,16437,6,0,B|235:73|235:73|200:48|200:48|128:41,2,180,0|0|0,3:0|3:0|3:0,0:0:0:0:
342,56,17637,1,0,3:0:0:0:
395,142,17980,1,0,3:0:0:0:
395,142,18151,2,0,L|386:201,1,60,0|0,3:0|3:0,0:0:0:0:
416,238,18494,2,0,L|297:255,1,120,0|0,3:0|3:0,0:0:0:0:
206,294,19180,6,0,L|232:115,2,180,0|0|0,3:0|3:0|3:0,0:0:0:0:
198,341,20380,1,0,3:0:0:0:
115,292,20722,1,0,3:0:0:0:
115,292,20894,2,0,L|55:300,1,60,0|0,3:0|3:0,0:0:0:0:
14,325,21237,2,0,L|32:204,1,120,0|0,3:0|3:0,0:0:0:0:
73,119,21922,6,0,P|115:86|238:97,2,180,0|0|8,3:0|3:0|3:2,0:0:0:0:
61,165,23122,1,0,3:0:0:0:
153,206,23465,1,0,3:0:0:0:
153,206,23637,2,0,L|220:217,1,60,8|0,3:2|3:0,0:0:0:0:
250,186,23980,2,0,L|266:308,1,120,0|8,3:0|3:2,0:0:0:0:
359,322,24665,6,0,B|371:241|371:241|391:214|391:214|400:146,2,180,0|0|8,3:0|3:0|3:2,0:0:0:0:
366,369,25865,1,0,3:0:0:0:
276,349,26208,1,0,3:0:0:0:
276,349,26380,2,0,L|209:360,1,60,8|0,3:2|3:0,0:0:0:0:
171,375,26722,2,0,L|188:256,1,120,0|8,3:0|3:2,0:0:0:0:
171,161,27408,6,0,B|126:143|78:161|103:188|53:202|1:186,2,180,0|0|8,3:0|3:0|3:2,0:0:0:0:
215,182,28608,1,0,3:0:0:0:
294,127,28951,1,0,3:0:0:0:
294,127,29122,2,0,L|305:60,1,60,8|0,3:2|3:0,0:0:0:0:
280,25,29465,2,0,L|399:11,1,120,0|8,3:0|3:2,0:0:0:0:
467,79,30151,6,0,L|434:267,2,180,0|0|8,3:0|3:0|3:2,0:0:0:0:
475,32,31351,1,0,3:0:0:0:
383,62,31694,2,0,L|372:121,2,60,0|8|0,3:0|3:2|3:0,0:0:0:0:
384,19,32208,2,0,L|266:41,1,120,0|8,3:0|0:0,0:0:0:0:
173,68,32894,5,4,0:0:0:0:
42,32,43865,6,0,B|215:57|215:57|273:100|273:100|399:117,1,360,4|0,1:2|1:0,0:0:0:0:
441,37,45237,2,0,B|500:140|500:140|431:246,1,240,0|0,1:0|1:0,0:0:0:0:
382,323,46265,1,0,1:0:0:0:
301,271,46608,2,0,L|150:288,1,120,0|0,1:0|1:0,0:0:0:0:
127,204,47294,2,0,L|246:190,1,120,0|0,1:0|1:0,0:0:0:0:
342,181,47980,2,0,B|369:128|369:128|338:62,1,120,0|0,1:0|1:0,0:0:0:0:
248,57,48665,2,0,L|128:43,1,120,0|0,1:0|1:0,0:0:0:0:
35,20,49351,6,0,L|46:113,1,60,0|0,1:0|1:0,0:0:0:0:
49,127,49694,1,0,1:0:0:0:
58,222,50037,1,0,1:0:0:0:
151,204,50380,1,0,1:0:0:0:
216,273,50722,2,0,L|206:357,1,60,0|0,1:0|1:0,0:0:0:0:
178,369,51065,2,0,L|237:375,1,60,0|0,1:0|1:0,0:0:0:0:
277,348,51408,2,0,L|493:373,1,210,0|0,1:0|3:0,0:0:0:0:
485,372,54494,2,0,L|479:313,1,60,8|8,0:0|0:0,0:0:0:0:
435,333,54837,6,0,L|449:211,1,120,4|10,3:2|0:0,0:0:0:0:
493,195,55351,2,0,L|479:73,1,120,2|0,0:0|3:0,0:0:0:0:
498,31,55865,2,0,L|421:22,1,60,10|0,0:0|0:0,0:0:0:0:
366,88,56380,1,0,3:0:0:0:
366,88,56551,2,0,L|306:94,1,60,10|2,0:0|0:0,0:0:0:0:
265,119,56894,2,0,P|211:88|142:101,1,120,2|10,0:0|0:0,0:0:0:0:
193,182,57580,6,0,B|184:245|184:245|164:272|164:272|152:353,2,180,0|2|10,3:0|0:0|0:0,0:0:0:0:
168,140,58780,1,2,0:0:0:0:
79,176,59122,1,0,3:0:0:0:
79,176,59294,2,0,L|73:116,1,60,10|0,0:0|0:0,0:0:0:0:
47,75,59637,2,0,P|101:44|170:57,1,120,0|8,0:0|0:0,0:0:0:0:
236,102,60322,6,0,P|290:133|359:120,1,120,0|10,3:0|0:0,0:0:0:0:
392,113,60837,2,0,L|405:232,1,120,2|0,0:0|3:0,0:0:0:0:
363,257,61351,2,0,L|369:317,1,60,10|0,0:0|0:0,0:0:0:0:
275,328,61865,1,0,3:0:0:0:
275,328,62037,2,0,L|215:322,1,60,10|2,0:0|0:0,0:0:0:0:
193,278,62380,2,0,P|134:272|83:303,1,120,2|10,0:0|0:0,0:0:0:0:
5,333,63065,6,0,B|-13:288|5:240|32:265|46:215|30:163,2,180,0|2|10,3:0|0:0|0:0,0:0:0:0:
25,376,64265,1,2,0:0:0:0:
109,326,64608,1,0,3:0:0:0:
109,326,64780,2,0,L|169:332,1,60,8|0,0:0|0:0,0:0:0:0:
216,336,65122,1,0,0:0:0:0:
196,241,65465,2,0,L|190:181,1,60,8|2,0:0|0:0,0:0:0:0:
177,134,65808,6,0,L|296:147,1,120,0|10,3:0|0:0,0:0:0:0:
314,191,66322,2,0,L|433:204,1,120,2|0,0:0|3:0,0:0:0:0:
478,187,66837,2,0,L|472:127,1,60,8|0,0:0|0:0,0:0:0:0:
501,31,67351,1,0,3:0:0:0:
501,31,67522,2,0,L|441:37,1,60,10|2,0:0|0:0,0:0:0:0:
404,67,67865,2,0,L|285:54,1,120,2|10,0:0|0:0,0:0:0:0:
245,82,68380,1,2,0:0:0:0:
245,82,68551,6,0,B|182:72|182:72|155:52|155:52|74:40,2,180,0|2|10,3:0|0:0|0:0,0:0:0:0:
284,53,69751,1,2,0:0:0:0:
301,147,70094,1,0,3:0:0:0:
301,147,70265,2,0,L|307:206,1,60,10|2,0:0|0:0,0:0:0:0:
343,238,70608,2,0,P|294:271|224:249,1,120,2|10,0:0|0:0,0:0:0:0:
156,206,71294,6,0,L|141:335,1,120,0|10,3:0|0:0,0:0:0:0:
138,374,71808,2,0,L|9:359,1,120,2|0,0:0|3:0,0:0:0:0:
4,314,72322,2,0,L|10:254,1,60,10|0,0:0|0:0,0:0:0:0:
89,199,72837,1,0,3:0:0:0:
89,199,73008,2,0,L|83:139,1,60,10|2,0:0|0:0,0:0:0:0:
39,119,73351,2,0,P|73:74|153:77,1,120,0|10,0:0|0:0,0:0:0:0:
218,111,74037,6,0,L|224:171,1,60,0|2,3:0|0:0,0:0:0:0:
219,218,74380,2,0,L|279:224,1,60,8|2,0:0|0:0,0:0:0:0:
326,230,74722,2,0,L|305:357,1,120,0|0,3:0|3:0,0:0:0:0:
413,371,75408,2,0,L|503:387,1,60,0|0,3:0|0:0,0:0:0:0:
497,340,75751,2,0,L|491:280,1,60,8|8,3:2|0:0,0:0:0:0:
451,252,76094,2,0,L|457:192,2,60,8|0|8,0:0|3:2|0:0,0:0:0:0:
354,261,76780,6,0,P|297:289|217:266,1,120,4|8,3:2|0:0,0:0:0:0:
151,310,77465,2,0,P|155:246|215:188,1,120,0|8,0:0|0:0,0:0:0:0:
233,185,77980,1,2,0:0:0:0:
233,185,78151,2,0,L|216:66,1,120,0|8,3:0|0:0,0:0:0:0:
208,18,78665,1,2,0:0:0:0:
208,18,78837,2,0,L|148:9,1,60,2|0,0:0|3:0,0:0:0:0:
101,0,79180,1,8,0:0:0:0:
39,73,79522,6,0,B|8:125|8:125|43:191,1,120,0|8,3:0|0:0,0:0:0:0:
126,209,80208,2,0,B|153:261|153:261|122:313,1,120,0|8,0:0|0:0,0:0:0:0:
94,352,80722,1,2,0:0:0:0:
94,352,80894,2,0,L|154:343,1,60,0|2,3:0|0:0,0:0:0:0:
201,337,81237,1,8,0:0:0:0:
288,377,81580,1,2,0:0:0:0:
335,293,81922,2,0,L|326:233,1,60,8|2,0:0|0:0,0:0:0:0:
293,198,82265,6,0,P|347:167|416:180,1,120,0|8,3:0|0:0,0:0:0:0:
496,151,82951,2,0,P|495:213|450:266,1,120,0|8,0:0|0:0,0:0:0:0:
417,257,83465,1,2,0:0:0:0:
417,257,83637,2,0,L|400:376,1,120,0|8,3:0|0:0,0:0:0:0:
358,363,84151,1,2,0:0:0:0:
358,363,84322,2,0,L|282:373,1,60,0|2,0:0|3:2,0:0:0:0:
253,354,84665,1,8,0:0:0:0:
157,348,85008,6,0,L|38:365,1,120,0|8,3:0|0:0,0:0:0:0:
35,275,85694,1,0,0:0:0:0:
85,193,86037,1,8,0:0:0:0:
26,123,86380,1,0,3:0:0:0:
26,123,86551,2,0,L|38:56,2,60,2|8|2,0:0|0:0|0:0,0:0:0:0:
12,169,87065,2,0,L|130:152,1,120,0|8,0:0|0:0,0:0:0:0:
178,145,87580,1,2,0:0:0:0:
178,145,87751,6,0,P|232:170|327:146,1,120,0|8,3:0|0:0,0:0:0:0:
367,107,88437,2,0,L|384:226,1,120,0|8,0:0|0:0,0:0:0:0:
393,272,88951,1,2,0:0:0:0:
393,272,89122,2,0,L|453:281,1,60,0|2,3:0|0:0,0:0:0:0:
489,311,89465,1,8,0:0:0:0:
406,360,89808,2,0,L|287:377,1,120,0|8,0:0|0:0,0:0:0:0:
192,362,90494,6,0,B|171:329|171:329|188:228,1,120,0|8,3:0|0:0,0:0:0:0:
280,251,91180,2,0,B|301:218|301:218|287:138,1,120,0|8,0:0|0:0,0:0:0:0:
284,94,91694,1,2,0:0:0:0:
284,94,91865,1,0,3:0:0:0:
248,4,92208,2,0,L|188:14,1,60,8|2,0:0|0:0,0:0:0:0:
147,38,92551,2,0,L|87:28,1,60,0|2,0:0|3:2,0:0:0:0:
52,15,92894,2,0,L|62:75,1,60,8|2,0:0|0:0,0:0:0:0:
66,122,93237,6,0,L|49:241,1,120,0|8,3:0|0:0,0:0:0:0:
132,288,93922,2,0,L|149:169,1,120,0|8,0:0|0:0,0:0:0:0:
161,122,94437,1,2,0:0:0:0:
161,122,94608,2,0,L|220:113,1,60,2|2,3:2|0:0,0:0:0:0:
268,107,94951,1,8,0:0:0:0:
361,127,95294,2,0,L|369:67,1,60,0|2,0:0|3:2,0:0:0:0:
378,20,95637,1,8,0:0:0:0:
473,29,95980,5,0,3:0:0:0:
457,123,96322,1,8,0:0:0:0:
434,216,96665,2,0,L|442:275,1,60,0|2,0:0|3:2,0:0:0:0:
450,322,97008,1,8,0:0:0:0:
356,343,97351,2,0,L|297:335,1,60,0|0,3:0|3:0,0:0:0:0:
257,306,97694,2,0,L|198:314,1,60,8|0,3:2|3:0,0:0:0:0:
158,341,98037,2,0,L|99:333,2,60,0|0|8,3:0|3:0|3:2,0:0:0:0:
150,245,98722,5,4,3:2:0:0:
151,148,99065,2,0,L|92:156,1,60,8|2,0:0|0:0,0:0:0:0:
45,170,99408,2,0,L|53:111,1,60,0|2,0:0|3:2,0:0:0:0:
54,62,99751,2,0,L|173:45,1,120,8|0,0:0|3:0,0:0:0:0:
220,37,100265,1,2,0:0:0:0:
220,37,100437,2,0,L|279:45,1,60,8|2,0:0|0:0,0:0:0:0:
319,72,100780,2,0,L|438:55,1,120,2|8,0:0|0:0,0:0:0:0:
435,151,101465,5,0,3:0:0:0:
480,235,101808,1,8,0:0:0:0:
403,293,102151,2,0,L|395:352,2,60,0|2|8,0:0|3:2|0:0,0:0:0:0:
307,277,102837,2,0,L|299:218,2,60,0|2|8,3:0|0:0|0:0,0:0:0:0:
314,324,103351,1,2,0:0:0:0:
314,324,103522,2,0,L|195:307,1,120,0|8,0:0|0:0,0:0:0:0:
147,298,104037,1,2,0:0:0:0:
147,298,104208,6,0,L|88:306,1,60,0|2,3:0|0:0,0:0:0:0:
40,314,104551,2,0,L|48:255,1,60,8|2,0:0|0:0,0:0:0:0:
65,160,105065,1,2,3:2:0:0:
65,160,105237,2,0,L|57:101,1,60,8|2,0:0|0:0,0:0:0:0:
44,54,105580,2,0,L|163:71,1,120,0|8,3:0|0:0,0:0:0:0:
209,81,106094,1,2,0:0:0:0:
209,81,106265,2,0,P|239:115|231:200,1,120,0|8,0:0|0:0,0:0:0:0:
146,160,106951,5,0,3:0:0:0:
75,225,107294,2,0,L|67:284,1,60,8|2,0:0|0:0,0:0:0:0:
55,331,107637,2,0,L|114:339,1,60,0|2,0:0|3:2,0:0:0:0:
161,350,107980,1,8,0:0:0:0:
236,291,108322,2,0,L|314:303,1,60,0|0,3:0|0:0,0:0:0:0:
336,324,108665,2,0,L|395:332,1,60,8|2,0:0|0:0,0:0:0:0:
440,349,109008,2,0,L|423:230,1,120,0|8,0:0|0:0,0:0:0:0:
412,188,109522,1,2,0:0:0:0:
412,188,109694,6,0,L|471:196,2,60,0|2|8,3:0|0:0|0:0,0:0:0:0:
320,157,110380,2,0,L|328:98,2,60,0|2|8,0:0|3:2|0:0,0:0:0:0:
323,209,110894,1,2,0:0:0:0:
323,209,111065,2,0,L|204:226,1,120,0|8,3:0|0:0,0:0:0:0:
156,234,111580,1,2,0:0:0:0:
156,234,111751,2,0,L|173:115,1,120,2|8,0:0|0:0,0:0:0:0:
195,21,112437,5,0,3:0:0:0:
105,54,112780,1,8,0:0:0:0:
24,2,113122,2,0,L|16:61,1,60,0|2,0:0|3:2,0:0:0:0:
15,109,113465,2,0,L|32:228,1,120,8|0,0:0|3:0,0:0:0:0:
39,275,113980,1,2,0:0:0:0:
39,275,114151,2,0,P|87:301|168:266,1,120,8|0,0:0|0:0,0:0:0:0:
232,240,114837,2,0,L|240:299,1,60,8|2,0:0|0:0,0:0:0:0:
245,347,115180,6,0,L|304:355,1,60,0|2,3:0|0:0,0:0:0:0:
351,364,115522,2,0,L|410:372,1,60,8|2,0:0|0:0,0:0:0:0:
458,366,115865,2,0,L|443:238,1,120,0|8,0:0|0:0,0:0:0:0:
441,152,116551,2,0,L|461:86,1,60,0|2,3:0|0:0,0:0:0:0:
477,50,116894,2,0,P|422:20|358:37,1,120,8|0,0:0|0:0,0:0:0:0:
321,114,117580,1,8,0:0:0:0:
224,96,117922,5,0,3:0:0:0:
205,1,118265,1,8,0:0:0:0:
109,13,118608,2,0,L|43:4,1,60,0|2,0:0|3:2,0:0:0:0:
7,28,118951,2,0,L|15:88,1,60,8|2,2:0|2:0,2:0:0:0:
84,153,119465,2,0,L|143:144,1,60,2|2,3:2|3:2,0:0:0:0:
186,120,119808,1,2,3:2:0:0:
186,120,119980,2,0,L|172:247,2,120,2|2|0,3:2|3:2|3:0,0:0:0:0:
427,24,131637,6,0,B|373:108|415:218|481:168|517:278|472:355,1,360,0|0,1:0|1:0,0:0:0:0:
399,291,133008,2,0,P|263:336|221:143,1,360,0|0,1:0|1:0,0:0:0:0:
288,119,134380,1,0,1:0:0:0:
104,61,135065,1,0,1:0:0:0:
34,321,135751,1,0,1:0:0:0:
122,282,136094,2,0,L|247:301,1,120,0|0,1:0|1:0,0:0:0:0:
334,323,136780,1,0,1:0:0:0:
424,353,137122,6,0,B|433:264|433:264|422:235,1,120,0|0,1:0|1:0,0:0:0:0:
326,233,137808,2,0,B|315:204|315:204|327:95,1,120,0|0,1:0|1:0,0:0:0:0:
392,47,138494,2,0,B|335:20|335:20|269:44,1,120,0|0,1:0|1:0,0:0:0:0:
232,122,139180,2,0,B|175:149|175:149|109:125,1,120,0|0,1:0|1:0,0:0:0:0:
26,146,139865,2,0,L|35:86,1,60,0|0,1:0|1:0,0:0:0:0:
56,43,140208,2,0,L|116:34,1,60,0|0,1:0|1:0,0:0:0:0:
159,15,140551,2,0,L|276:37,1,120,0|0,1:0|1:0,0:0:0:0:
331,116,141237,2,0,L|352:256,1,120,0|0,1:0|1:0,0:0:0:0:
320,276,141751,1,0,1:0:0:0:
320,276,141922,2,0,L|204:257,1,90,0|0,1:0|3:0,0:0:0:0:
114,232,142608,6,0,P|107:168|156:101,1,120,4|8,3:2|0:0,0:0:0:0:
138,24,143294,2,0,P|196:49|229:125,1,120,0|8,0:0|0:0,0:0:0:0:
229,143,143808,1,2,0:0:0:0:
321,115,144151,2,0,L|381:106,1,60,0|8,3:0|0:0,0:0:0:0:
427,97,144494,1,2,0:0:0:0:
427,97,144665,2,0,L|409:215,1,120,0|8,0:0|0:0,0:0:0:0:
389,309,145351,6,0,B|319:317|319:317|294:333|294:333|214:342,2,180,0|2|8,3:0|0:0|0:0,0:0:0:0:
433,327,146551,1,2,0:0:0:0:
469,238,146894,1,0,3:0:0:0:
469,238,147065,2,0,L|460:177,1,60,10|2,0:0|0:0,0:0:0:0:
481,135,147408,2,0,L|363:117,1,120,0|8,0:0|0:0,0:0:0:0:
314,111,147922,1,2,0:0:0:0:
314,111,148094,6,0,P|259:137|199:126,1,120,0|8,3:0|0:0,0:0:0:0:
152,45,148780,2,0,P|93:35|40:61,1,120,0|8,0:0|0:0,0:0:0:0:
23,106,149294,1,2,0:0:0:0:
111,143,149637,2,0,L|119:202,1,60,0|8,3:0|0:0,0:0:0:0:
127,249,149980,1,2,0:0:0:0:
127,249,150151,2,0,L|109:367,1,120,0|8,0:0|0:0,0:0:0:0:
203,348,150837,6,0,B|248:330|296:348|271:375|321:389|373:373,2,180,0|2|8,3:0|0:0|0:0,0:0:0:0:
158,366,152037,1,2,0:0:0:0:
133,273,152380,2,0,L|73:264,1,60,0|8,3:0|0:0,0:0:0:0:
25,259,152722,1,2,0:0:0:0:
25,259,152894,2,0,L|7:141,1,120,2|8,0:0|0:0,0:0:0:0:
45,111,153408,1,2,0:0:0:0:
45,111,153580,6,0,P|91:78|164:88,1,120,0|8,3:0|0:0,0:0:0:0:
247,76,154265,2,0,P|293:109|366:99,1,120,0|8,0:0|0:0,0:0:0:0:
393,77,154780,1,2,0:0:0:0:
434,163,155122,1,2,3:2:0:0:
434,163,155294,2,0,L|425:223,1,60,8|2,0:0|0:0,0:0:0:0:
457,257,155637,2,0,L|339:275,1,120,2|8,0:0|0:0,0:0:0:0:
249,238,156322,6,0,B|204:220|156:238|181:265|131:279|79:263,2,180,0|2|8,3:0|0:0|0:0,0:0:0:0:
284,269,157522,1,2,0:0:0:0:
350,200,157865,1,0,3:0:0:0:
350,200,158037,2,0,L|341:140,1,60,8|2,0:0|0:0,0:0:0:0:
332,93,158380,2,0,P|381:65|456:83,1,120,0|8,0:0|0:0,0:0:0:0:
478,104,158894,1,2,0:0:0:0:
478,104,159065,6,0,L|460:222,1,120,0|8,3:0|0:0,0:0:0:0:
384,281,159751,2,0,L|366:163,1,120,0|8,0:0|0:0,0:0:0:0:
357,114,160265,1,2,0:0:0:0:
269,154,160608,1,0,3:0:0:0:
269,154,160780,2,0,L|209:145,1,60,10|2,0:0|0:0,0:0:0:0:
162,140,161122,2,0,P|106:170|35:149,1,120,2|8,0:0|0:0,0:0:0:0:
94,73,161808,5,0,3:0:0:0:
180,31,162151,1,8,0:0:0:0:
247,98,162494,1,0,3:0:0:0:
333,56,162837,2,0,L|407:73,1,60,8|2,0:0|0:0,0:0:0:0:
438,60,163180,2,0,L|451:118,1,60,0|8,3:0|0:0,0:0:0:0:
414,149,163522,2,0,L|400:207,1,60,8|8,3:2|0:0,0:0:0:0:
436,240,163865,2,0,L|449:298,2,60,8|0|8,0:0|3:2|0:0,0:0:0:0:
436,240,166951,2,0,L|449:298,1,60,8|8,0:0|0:0,0:0:0:0:
465,343,167294,5,4,3:2:0:0:
373,372,167637,2,0,L|313:363,1,60,8|2,0:0|0:0,0:0:0:0:
273,336,167980,2,0,L|213:345,1,60,0|2,0:0|3:2,0:0:0:0:
166,351,168322,1,8,0:0:0:0:
155,255,168665,2,0,L|148:189,1,60,0|2,3:0|0:0,0:0:0:0:
195,185,169008,2,0,L|186:125,1,60,8|2,0:0|0:0,0:0:0:0:
169,81,169351,2,0,L|341:106,1,120,2|8,0:0|0:0,0:0:0:0:
382,114,170037,6,0,L|373:54,2,60,0|2|8,3:0|0:0|0:0,0:0:0:0:
389,161,170551,1,2,0:0:0:0:
481,134,170894,1,2,3:2:0:0:
481,134,171065,2,0,L|472:194,1,60,8|2,0:0|0:0,0:0:0:0:
471,241,171408,2,0,L|480:301,1,60,0|2,3:0|0:0,0:0:0:0:
498,344,171751,2,0,L|438:335,1,60,8|2,0:0|0:0,0:0:0:0:
391,325,172094,2,0,P|338:347|271:331,1,120,0|8,0:0|0:0,0:0:0:0:
197,282,172780,5,0,3:0:0:0:
132,352,173122,2,0,L|72:343,1,60,8|2,0:0|0:0,0:0:0:0:
26,329,173465,2,0,L|17:269,1,60,0|2,0:0|3:2,0:0:0:0:
8,222,173808,1,8,0:0:0:0:
101,242,174151,2,0,L|172:258,1,60,0|2,3:0|0:0,0:0:0:0:
198,226,174494,2,0,L|189:166,1,60,8|2,0:0|0:0,0:0:0:0:
181,119,174837,2,0,L|353:144,1,120,0|8,0:0|0:0,0:0:0:0:
327,181,175351,1,2,0:0:0:0:
327,181,175522,6,0,L|387:190,2,60,0|2|8,3:0|0:0|0:0,0:0:0:0:
266,253,176208,2,0,L|206:244,2,60,2|2|8,0:0|3:2|0:0,0:0:0:0:
358,280,176894,1,0,3:0:0:0:
291,349,177237,2,0,L|231:340,1,60,8|2,0:0|0:0,0:0:0:0:
183,337,177580,2,0,P|132:364|64:354,1,120,0|8,0:0|0:0,0:0:0:0:
10,283,178265,6,0,P|12:225|54:171,1,120,0|8,3:0|0:0,0:0:0:0:
98,168,178780,1,2,0:0:0:0:
98,168,178951,2,0,L|270:193,1,120,0|8,0:0|0:0,0:0:0:0:
310,205,179637,1,0,3:0:0:0:
279,113,179980,2,0,L|270:53,1,60,8|2,0:0|0:0,0:0:0:0:
307,24,180322,2,0,P|373:17|423:54,1,120,0|8,0:0|0:0,0:0:0:0:
435,89,180837,1,2,0:0:0:0:
435,89,181008,5,0,3:0:0:0:
481,172,181351,2,0,L|472:232,1,60,8|2,0:0|0:0,0:0:0:0:
466,279,181694,2,0,L|406:288,1,60,0|2,0:0|3:2,0:0:0:0:
358,293,182037,1,8,0:0:0:0:
276,343,182380,2,0,L|202:351,1,60,0|2,3:0|0:0,0:0:0:0:
191,308,182722,2,0,L|182:248,1,60,8|2,0:0|0:0,0:0:0:0:
170,201,183065,2,0,P|107:190|45:235,1,120,0|8,0:0|0:0,0:0:0:0:
41,310,183751,5,0,3:0:0:0:
126,349,184094,2,0,L|186:340,1,60,8|2,0:0|0:0,0:0:0:0:
225,313,184437,2,0,L|285:322,1,60,0|2,0:0|3:2,0:0:0:0:
331,331,184780,1,8,0:0:0:0:
366,242,185122,2,0,L|304:231,1,60,0|8,3:0|0:0,0:0:0:0:
288,186,185465,2,0,L|297:126,1,60,8|8,3:2|0:0,0:0:0:0:
315,82,185808,2,0,L|375:91,1,60,8|0,0:0|3:0,0:0:0:0:
416,66,186151,1,8,0:0:0:0:
461,149,186494,6,0,B|485:209|485:209|456:268,1,120,4|10,3:2|0:0,0:0:0:0:
378,308,187180,2,0,B|354:248|354:248|383:189,1,120,2|8,0:0|0:0,0:0:0:0:
376,102,187865,2,0,L|257:84,1,120,2|8,3:2|0:0,0:0:0:0:
192,12,188551,2,0,L|73:30,1,120,2|8,0:0|0:0,0:0:0:0:
10,103,189237,1,2,3:2:0:0:
103,124,189580,1,10,0:0:0:0:
139,212,189922,2,0,L|130:272,2,60,2|0|8,0:0|3:0|0:0,0:0:0:0:
228,176,190608,2,0,L|219:116,2,60,2|0|10,3:2|0:0|0:0,0:0:0:0:
240,271,191294,2,0,P|320:291|360:271,1,120,2|8,0:0|0:0,0:0:0:0:
380,238,191808,1,0,0:0:0:0:
380,238,191980,5,2,3:2:0:0:
460,290,192322,1,10,0:0:0:0:
486,197,192665,1,2,0:0:0:0:
416,130,193008,1,10,0:0:0:0:
459,44,193351,2,0,B|403:16|403:16|341:38,1,120,0|8,3:0|0:0,0:0:0:0:
310,123,194037,2,0,B|254:151|254:151|192:129,1,120,2|8,0:0|0:0,0:0:0:0:
109,164,194722,2,0,L|100:104,2,60,2|0|8,3:2|0:0|0:0,0:0:0:0:
29,218,195408,2,0,L|20:278,2,60,2|0|8,0:0|3:0|0:0,0:0:0:0:
112,266,196094,2,0,L|252:292,1,120,0|10,3:0|0:0,0:0:0:0:
277,297,196608,1,0,3:0:0:0:
369,338,196951,1,0,3:0:0:0:
369,338,197122,2,0,L|379:278,1,60,8|2,0:0|0:0,0:0:0:0:
420,252,197465,6,0,P|449:190|425:128,1,120,0|8,3:2|0:0,0:0:0:0:
340,136,198151,2,0,P|328:78|356:26,1,120,0|10,0:0|0:0,0:0:0:0:
259,18,198837,2,0,L|140:36,1,120,2|8,3:2|0:0,0:0:0:0:
44,34,199522,1,2,0:0:0:0:
44,131,199865,1,8,0:0:0:0:
51,226,200208,2,0,L|41:292,2,60,2|2|8,3:2|0:0|0:0,0:0:0:0:
142,196,200894,2,0,L|150:136,2,60,2|0|10,0:0|3:0|0:0,0:0:0:0:
142,248,201408,1,0,0:0:0:0:
142,248,201580,6,0,L|261:266,1,120,2|8,3:2|0:0,0:0:0:0:
311,184,202265,1,2,0:0:0:0:
351,97,202608,2,0,L|417:87,1,60,8|0,0:0|0:0,0:0:0:0:
453,66,202951,2,0,L|435:184,1,120,2|8,3:2|0:0,0:0:0:0:
496,258,203637,2,0,L|478:377,1,120,2|10,0:0|0:0,0:0:0:0:
385,340,204322,1,0,3:0:0:0:
326,263,204665,1,8,0:0:0:0:
247,317,205008,1,2,0:0:0:0:
188,240,205351,1,10,0:0:0:0:
109,294,205694,6,0,L|49:302,1,60,0|2,3:0|0:0,0:0:0:0:
1,309,206037,2,0,L|9:249,1,60,8|2,0:0|0:0,0:0:0:0:
20,202,206380,2,0,L|80:194,1,60,2|0,0:0|3:0,0:0:0:0:
127,191,206722,1,8,0:0:0:0:
200,129,207065,2,0,L|192:69,2,60,0|8|8,3:0|0:0|3:2,0:0:0:0:
244,160,207580,1,8,0:0:0:0:
244,160,207751,2,0,L|252:220,2,60,8|0|8,0:0|3:0|3:2,0:0:0:0:
327,111,208437,1,0,0:0:0:0:
