osu file format v14

[General]
AudioFilename: audio.mp3
AudioLeadIn: 0
PreviewTime: 43618
Countdown: 0
SampleSet: Soft
StackLeniency: 0.7
Mode: 0
LetterboxInBreaks: 0
WidescreenStoryboard: 1

[Editor]
Bookmarks: 87254,103618
DistanceSpacing: 1
BeatDivisor: 4
GridSize: 32
TimelineZoom: 1.8

[Metadata]
Title:Ghost Assassin (feat. Veela)
TitleUnicode:Ghost Assassin (feat. Veela)
Artist:Maduk
ArtistUnicode:Maduk
Creator:Nymphe
Version:Normal
Source:
Tags:fa featured artists mappers' guild mpg quest kiyoshi guarden kang sae-byeok owc2022ro16dt1 osu world cup dnb drum and bass electronic english starcraft 2 alphabet venax aranel aistre actiol
BeatmapID:3856659
BeatmapSetID:1709438

[Difficulty]
HPDrainRate:3
CircleSize:3.5
OverallDifficulty:3.8
ApproachRate:5.6
SliderMultiplier:1
SliderTickRate:1

[Events]
//Background and Video events
0,0,"orkay.jpg",0,0
//Break Periods
2,87454,102508
2,152909,163871
//Storyboard Layer 0 (Background)
//Storyboard Layer 1 (Fail)
//Storyboard Layer 2 (Pass)
//Storyboard Layer 3 (Foreground)
//Storyboard Layer 4 (Overlay)
//Storyboard Sound Samples

[TimingPoints]
21800,340.909090909091,4,2,1,50,1,0
21800,-111.111111111111,4,2,1,50,0,0
32709,-125,4,2,1,60,0,0
38163,-100,4,2,1,70,0,0
43618,-90.9090909090908,4,2,1,80,0,0
64924,-90.9090909090908,4,2,2,80,0,0
65010,-90.9090909090908,4,2,1,80,0,0
65095,-90.9090909090908,4,2,1,80,0,0
65436,-100,4,2,1,80,0,0
65777,-100,4,2,2,80,0,0
66288,-100,4,2,1,80,0,0
87254,-100,4,2,1,40,0,0
103618,-100,4,2,1,50,0,0
104981,-100,4,2,1,60,0,0
108731,-100,4,2,1,70,0,0
109072,-90.9090909090908,4,2,1,80,0,0
128334,-90.9090909090908,4,2,2,80,0,0
128504,-90.9090909090908,4,2,1,80,0,0
128845,-90.9090909090908,4,2,2,80,0,0
129186,-90.9090909090908,4,2,1,80,0,0
129527,-90.9090909090908,4,2,3,80,0,0
129612,-90.9090909090908,4,2,1,80,0,0
130209,-90.9090909090908,4,2,4,80,0,0
130550,-90.9090909090908,4,2,2,80,0,0
130635,-90.9090909090908,4,2,5,80,0,0
130890,-100,4,2,1,70,0,0
131572,-100,4,2,1,70,0,0
152027,-100,4,2,1,70,0,0
152368,-100,4,2,1,70,0,0
152709,-100,4,2,3,50,0,0
153220,-100,4,2,1,50,0,0
154243,-100,4,2,6,50,0,0
154413,-100,4,2,1,50,0,0
155436,-100,4,2,6,50,0,0
155606,-100,4,2,1,50,0,0
155947,-100,4,2,6,50,0,0
156459,-100,4,2,1,50,0,0
156970,-100,4,2,6,50,0,0
157140,-100,4,2,1,50,0,0
158163,-100,4,2,6,50,0,0
158334,-100,4,2,1,50,0,0
158675,-100,4,2,6,50,0,0
159186,-100,4,2,1,50,0,0
159697,-100,4,2,6,50,0,0
160209,-100,4,2,1,50,0,0
160890,-100,4,2,6,50,0,0
161061,-100,4,2,1,50,0,0
161402,-100,4,2,6,50,0,0
161913,-100,4,2,1,50,0,0
162425,-100,4,2,6,50,0,0
162595,-100,4,2,1,50,0,0
163618,-100,4,2,6,55,0,0
163788,-100,4,2,1,55,0,0
164129,-100,4,2,6,55,0,0
164640,-100,4,2,1,55,0,0
164981,-125,4,2,1,55,0,0
165493,-125,4,2,6,55,0,0
165663,-125,4,2,1,55,0,0
166345,-125,4,2,6,55,0,0
166515,-125,4,2,1,55,0,0
168220,-125,4,2,6,55,0,0
168390,-125,4,2,1,55,0,0
169072,-125,4,2,6,60,0,0
169243,-125,4,2,1,60,0,0
169413,-125,4,2,6,60,0,0
169584,-125,4,2,1,60,0,0
169754,-125,4,2,6,60,0,0
170095,-125,4,2,1,60,0,0
170777,-125,4,2,6,60,0,0
171118,-125,4,2,1,60,0,0
171800,-125,4,2,6,60,0,0
171970,-125,4,2,1,60,0,0
172140,-125,4,2,6,60,0,0
173163,-111.111111111111,4,2,4,60,0,0
173248,-111.111111111111,4,2,5,60,0,0
173334,-111.111111111111,4,2,4,60,0,0
173419,-111.111111111111,4,2,5,60,0,0
174186,-111.111111111111,4,2,1,70,0,0
174527,-90.9090909090908,4,2,1,80,0,0
195834,-90.9090909090908,4,2,2,80,0,0
195919,-90.9090909090908,4,2,1,80,0,0
196004,-90.9090909090908,4,2,1,80,0,0
196345,-100,4,2,1,80,0,0
218163,-100,4,2,1,80,0,0

[Colours]
Combo1 : 199,210,185
Combo2 : 192,192,192
Combo3 : 167,173,218
Combo4 : 156,154,135

[HitObjects]
486,103,21799,6,0,P|447:73|391:81,1,100,6|8,1:2|2:2,0:0:0:0:
322,125,22481,1,0,0:0:0:0:
251,68,22822,1,10,2:2:0:0:
175,117,23163,2,0,L|187:206,1,89.9999972534181,2|10,1:2|2:2,0:0:0:0:
188,296,23845,2,0,P|156:297|126:283,2,44.999998626709,2|0|10,2:2|1:1|2:2,0:0:0:0:
264,343,24527,6,0,P|308:350|352:356,1,89.9999972534181,0|8,1:1|2:2,0:0:0:0:
439,383,25209,1,0,0:0:0:0:
499,317,25549,1,10,2:2:0:0:
445,244,25890,2,0,L|455:154,1,89.9999972534181,2|10,1:2|2:2,0:0:0:0:
423,70,26572,2,0,P|426:46|436:8,2,44.999998626709,2|2|8,2:2|1:2|2:2,0:0:0:0:
338,100,27254,6,0,P|294:108|252:80,1,89.9999972534181,0|8,1:1|2:2,0:0:0:0:
200,15,27936,1,0,0:0:0:0:
115,45,28277,1,10,2:2:0:0:
100,133,28618,2,0,P|111:178|115:228,1,89.9999972534181,2|8,1:2|2:2,0:0:0:0:
61,293,29299,2,0,P|52:321|51:353,1,44.999998626709,2|0,2:2|1:1,0:0:0:0:
59,380,29640,1,10,2:2:0:0:
148,382,29981,6,0,P|197:373|252:373,1,89.9999972534181,0|8,1:1|2:2,0:0:0:0:
326,382,30663,1,0,0:0:0:0:
393,323,31003,1,10,2:2:0:0:
343,247,31344,2,0,L|235:232,1,89.9999972534181,2|10,1:2|2:2,0:0:0:0:
166,210,32026,2,0,P|159:232|153:272,2,44.999998626709,2|2|8,2:2|1:2|2:2,0:0:0:0:
190,133,32709,6,0,B|243:151|295:117|286:71|279:67|272:64|297:-7|384:-21|433:50,1,320,0|2,1:1|1:2,0:0:0:0:
255,332,35436,6,0,P|148:343|100:367,1,160,0|0,1:1|1:1,0:0:0:0:
26,224,36799,2,0,P|36:167|70:57,1,160,2|2,1:2|1:2,0:0:0:0:
263,100,38163,6,0,P|300:61|298:7,2,100,0|0|0,3:3|3:3|3:3,0:0:0:0:
164,116,39186,1,2,3:2:0:0:
105,197,39527,2,0,L|123:312,1,100,2|2,3:2|3:2,0:0:0:0:
188,369,40209,2,0,P|225:380|278:349,1,100,2|2,3:2|3:2,0:0:0:0:
334,270,40890,5,0,3:3:0:0:
413,208,41231,1,0,3:3:0:0:
353,127,41572,1,0,3:3:0:0:
419,52,41913,1,0,3:3:0:0:
327,11,42254,6,0,L|257:19,1,50,0|0,3:3|3:3,0:0:0:0:
241,51,42595,2,0,L|171:43,1,50,0|0,3:3|3:3,0:0:0:0:
153,11,42936,2,0,L|103:16,1,50,0|0,3:3|3:3,0:0:0:0:
64,48,43277,1,8,2:1:0:0:
4,140,43618,6,0,P|-10:195|39:236,1,110.000003356934,6|10,3:2|2:1,0:0:0:0:
75,260,44129,1,2,2:2:0:0:
75,260,44299,2,0,P|127:250|192:243,1,110.000003356934,2|10,2:2|2:1,0:0:0:0:
291,264,44981,2,0,B|319:214|319:214|292:161,1,110.000003356934,2|10,2:2|2:1,0:0:0:0:
258,124,45493,1,2,2:2:0:0:
190,44,45834,1,2,3:2:0:0:
190,44,46004,1,8,2:1:0:0:
291,1,46345,6,0,P|353:8|411:21,1,110.000003356934,2|10,3:2|2:1,0:0:0:0:
457,34,46856,1,2,2:2:0:0:
457,34,47027,2,0,P|482:74|459:136,1,110.000003356934,2|10,2:2|2:1,0:0:0:0:
367,183,47709,1,2,2:2:0:0:
367,183,47879,2,0,L|383:297,1,110.000003356934,2|2,3:2|2:2,0:0:0:0:
320,384,48561,1,2,3:2:0:0:
320,384,48731,1,8,2:1:0:0:
237,311,49072,6,0,P|204:305|171:294,1,55.0000016784668,2|2,3:2|2:2,0:0:0:0:
139,265,49413,2,0,P|106:271|73:282,1,55.0000016784668,10|2,2:1|2:2,0:0:0:0:
39,308,49754,1,2,2:2:0:0:
39,308,49924,2,0,P|2:257|21:200,1,110.000003356934,2|2,3:2|2:2,0:0:0:0:
44,170,50436,1,2,3:2:0:0:
138,113,50777,1,10,2:1:0:0:
138,113,50947,2,0,P|148:79|153:47,1,55.0000016784668,2|0,2:2|0:0,0:0:0:0:
174,9,51288,2,0,P|235:7|277:45,1,110.000003356934,2|2,3:2|2:2,0:0:0:0:
285,89,51799,5,2,3:2:0:0:
363,146,52140,2,0,P|388:155|416:155,1,55.0000016784668,10|2,2:1|2:2,0:0:0:0:
466,133,52481,1,2,2:2:0:0:
466,133,52652,2,0,L|481:251,1,110.000003356934,2|2,3:2|2:2,0:0:0:0:
487,296,53163,1,2,3:2:0:0:
398,359,53504,1,10,2:1:0:0:
398,359,53674,2,0,L|319:339,1,55.0000016784668,2|0,2:2|3:3,0:0:0:0:
304,307,54015,2,0,P|272:262|295:201,1,110.000003356934,2|2,2:2|2:2,0:0:0:0:
330,180,54527,6,0,L|314:56,1,110.000003356934,2|10,3:2|2:1,0:0:0:0:
302,17,55038,1,2,2:2:0:0:
302,17,55208,2,0,B|247:4|247:4|187:43,1,110.000003356934,2|10,2:2|2:1,0:0:0:0:
98,71,55890,2,0,L|109:195,1,110.000003356934,2|8,2:2|2:1,0:0:0:0:
116,235,56402,1,2,2:2:0:0:
63,333,56743,1,2,3:2:0:0:
63,333,56913,1,8,2:1:0:0:
164,374,57254,6,0,B|216:367|216:367|221:369|221:369|286:361,1,110.000003356934,2|10,3:2|2:1,0:0:0:0:
316,329,57765,1,2,2:2:0:0:
316,329,57936,2,0,B|368:336|368:336|373:334|373:334|438:342,1,110.000003356934,2|10,2:2|2:1,0:0:0:0:
500,259,58618,2,0,P|522:206|491:157,1,110.000003356934,2|8,2:2|2:1,0:0:0:0:
448,141,59129,1,2,2:2:0:0:
368,217,59470,1,2,3:2:0:0:
368,217,59640,1,8,2:1:0:0:
265,177,59981,6,0,L|272:96,1,55.0000016784668,2|2,3:2|2:2,0:0:0:0:
315,90,60322,2,0,L|308:9,1,55.0000016784668,10|2,2:1|2:2,0:0:0:0:
262,7,60663,1,2,2:2:0:0:
151,5,61004,1,10,2:1:0:0:
78,87,61345,2,0,L|9:73,2,55.0000016784668,2|0|10,3:2|3:3|2:1,0:0:0:0:
109,132,61856,1,2,2:2:0:0:
46,222,62197,2,0,P|59:267|69:337,1,110.000003356934,0|2,3:3|2:2,0:0:0:0:
61,384,62709,5,0,3:3:0:0:
170,382,63049,2,0,L|233:366,1,55.0000016784668,8|2,2:1|3:2,0:0:0:0:
280,359,63390,1,2,2:2:0:0:
280,359,63560,2,0,P|312:319|290:248,1,110.000003356934,2|2,2:2|2:2,0:0:0:0:
267,221,64072,1,2,3:2:0:0:
157,215,64413,1,10,2:1:0:0:
157,215,64583,2,0,L|169:145,1,55.0000016784668,2|0,2:2|1:1,0:0:0:0:
177,106,64924,2,0,P|218:72|281:93,1,110.000003356934,2|0,3:2|1:1,0:0:0:0:
310,112,65436,5,2,2:3:0:0:
376,186,65777,2,0,L|435:177,1,50,12|0,2:2|0:0,0:0:0:0:
474,187,66118,2,0,P|504:229|488:284,1,100,2|8,2:2|2:1,0:0:0:0:
453,364,66799,2,0,L|354:345,1,100,2|10,2:2|2:1,0:0:0:0:
305,334,67311,1,2,2:2:0:0:
226,281,67652,1,2,3:2:0:0:
226,281,67822,1,8,2:1:0:0:
154,351,68163,6,0,P|79:353|37:291,1,150,2|0,3:2|0:0,0:0:0:0:
51,248,68845,2,0,L|69:149,1,100,2|8,2:2|2:1,0:0:0:0:
98,54,69526,2,0,P|151:44|198:77,1,100,2|8,2:2|2:1,0:0:0:0:
220,105,70038,1,2,2:2:0:0:
282,190,70379,1,2,3:2:0:0:
282,190,70549,1,8,2:1:0:0:
381,184,70890,6,0,P|434:116|407:45,1,150,2|0,3:2|0:0,0:0:0:0:
384,23,71572,2,0,L|272:2,1,100,2|8,2:2|2:1,0:0:0:0:
185,2,72253,1,2,3:2:0:0:
185,2,72425,2,0,P|152:42|161:103,1,100,2|2,3:2|2:2,0:0:0:0:
226,155,73106,1,2,3:2:0:0:
226,155,73276,1,8,2:1:0:0:
205,253,73618,6,0,B|129:274|129:274|60:228,1,150,2|0,3:2|0:0,0:0:0:0:
43,191,74300,2,0,L|61:77,1,100,2|8,2:2|2:1,0:0:0:0:
128,21,74981,1,2,3:2:0:0:
128,21,75152,2,0,P|177:14|219:46,1,100,2|2,2:2|2:2,0:0:0:0:
276,128,75834,1,2,2:2:0:0:
276,128,76004,1,8,2:1:0:0:
365,82,76345,6,0,P|441:76|490:139,1,150,2|0,3:2|0:0,0:0:0:0:
484,176,77027,2,0,P|474:225|463:288,1,100,2|8,2:2|2:1,0:0:0:0:
453,373,77708,1,2,2:2:0:0:
453,373,77880,2,0,P|402:360|355:355,1,100,2|2,3:2|2:2,0:0:0:0:
262,384,78561,1,2,3:2:0:0:
262,384,78731,1,8,2:1:0:0:
191,313,79072,6,0,P|200:241|211:165,1,150,2|0,3:2|0:0,0:0:0:0:
225,116,79754,2,0,P|176:90|120:105,1,100,2|8,2:2|2:1,0:0:0:0:
40,125,80435,1,2,2:2:0:0:
40,125,80607,2,0,L|22:223,1,100,2|2,3:2|2:2,0:0:0:0:
21,327,81288,1,2,3:2:0:0:
21,327,81458,1,8,2:1:0:0:
115,360,81800,6,0,P|185:376|246:322,1,150,2|0,3:2|0:0,0:0:0:0:
270,288,82481,2,0,P|320:260|371:283,1,100,2|8,2:2|2:1,0:0:0:0:
447,327,83163,1,2,3:2:0:0:
447,327,83335,2,0,L|465:229,1,100,2|2,2:2|2:2,0:0:0:0:
495,136,84016,1,2,3:2:0:0:
495,136,84186,1,8,2:1:0:0:
429,60,84527,6,0,P|379:21|287:37,1,150,2|2,3:2|3:2,0:0:0:0:
261,65,85209,2,0,L|282:177,1,100,2|8,2:2|2:1,0:0:0:0:
301,260,85890,1,2,3:2:0:0:
301,260,86062,2,0,P|245:275|190:254,1,100,2|2,2:2|2:2,0:0:0:0:
126,203,86743,1,2,3:2:0:0:
126,203,86913,1,8,2:1:0:0:
43,259,87254,5,6,2:2:0:0:
402,113,103618,6,0,P|411:54|428:4,2,100,2|0|2,3:2|3:3|3:2,0:0:0:0:
478,177,104640,1,0,3:3:0:0:
404,244,104981,2,0,P|346:239|310:198,1,100,2|2,3:2|3:2,0:0:0:0:
263,126,105663,2,0,P|216:119|154:115,1,100,0|0,3:3|3:3,0:0:0:0:
81,57,106345,5,2,3:2:0:0:
2,119,106686,1,0,3:3:0:0:
69,192,107027,1,2,3:2:0:0:
16,276,107368,1,0,3:3:0:0:
86,346,107709,6,0,L|153:334,1,50,0|0,3:3|3:3,0:0:0:0:
180,358,108050,2,0,L|251:353,1,50,0|0,3:3|3:3,0:0:0:0:
272,329,108390,2,0,L|339:341,1,50,0|0,3:3|3:3,0:0:0:0:
365,362,108732,1,8,2:1:0:0:
452,295,109072,6,0,B|488:224|488:224|445:147,1,165.000005035401,4|2,3:2|2:2,0:0:0:0:
395,128,109754,2,0,B|337:133|337:133|331:131|331:131|267:138,1,110.000003356934,2|10,2:2|2:1,0:0:0:0:
191,78,110436,2,0,P|161:125|180:191,1,110.000003356934,2|10,2:2|2:1,0:0:0:0:
211,211,110948,1,2,2:2:0:0:
211,211,111118,2,0,L|200:335,1,110.000003356934,2|10,2:2|2:1,0:0:0:0:
101,367,111800,6,0,P|47:383|-4:350,1,110.000003356934,0|8,3:3|2:1,0:0:0:0:
0,310,112311,1,2,2:2:0:0:
0,310,112481,2,0,L|14:198,1,110.000003356934,2|10,2:2|2:1,0:0:0:0:
25,91,113163,2,0,P|82:63|139:78,1,110.000003356934,2|10,2:2|2:1,0:0:0:0:
175,105,113675,1,2,2:2:0:0:
175,105,113845,1,2,2:2:0:0:
256,31,114186,1,10,2:1:0:0:
334,109,114527,6,0,B|390:115|390:115|396:120|396:120|443:126,1,110.000003356934,0|8,3:3|2:1,0:0:0:0:
499,137,115038,1,2,2:2:0:0:
499,137,115209,2,0,P|522:188|492:250,1,110.000003356934,2|10,2:2|2:1,0:0:0:0:
449,331,115890,2,0,L|334:313,1,110.000003356934,2|10,3:2|2:1,0:0:0:0:
297,278,116402,1,2,2:2:0:0:
297,278,116572,2,0,L|225:286,1,55.0000016784668,2|2,2:2|3:2,0:0:0:0:
203,323,116913,1,8,2:1:0:0:
139,232,117254,6,0,L|155:104,1,110.000003356934,0|8,3:3|2:1,0:0:0:0:
152,71,117765,1,2,2:2:0:0:
152,71,117936,2,0,B|101:42|101:42|44:56,1,110.000003356934,2|10,2:2|2:1,0:0:0:0:
4,154,118618,2,0,L|19:271,1,110.000003356934,2|10,3:2|2:1,0:0:0:0:
35,315,119129,1,2,2:2:0:0:
35,315,119300,1,2,3:2:0:0:
127,373,119640,1,8,2:1:0:0:
204,295,119981,6,0,P|259:286|311:324,1,110.000003356934,0|8,3:3|2:1,0:0:0:0:
332,360,120493,1,2,2:2:0:0:
332,360,120663,2,0,P|387:369|439:331,1,110.000003356934,2|10,2:2|2:1,0:0:0:0:
489,248,121344,2,0,L|477:129,1,110.000003356934,2|10,2:2|2:1,0:0:0:0:
479,86,121856,1,2,2:2:0:0:
479,86,122026,2,0,L|418:74,1,55.0000016784668,2|2,2:2|3:2,0:0:0:0:
370,65,122367,1,8,2:1:0:0:
277,5,122708,6,0,L|262:129,1,110.000003356934,0|8,3:3|2:1,0:0:0:0:
255,171,123219,1,2,2:2:0:0:
255,171,123390,2,0,P|192:185|140:157,1,110.000003356934,2|10,2:2|2:1,0:0:0:0:
51,123,124072,2,0,L|42:193,1,55.0000016784668,2|2,2:2|3:2,0:0:0:0:
8,219,124413,2,0,L|15:273,1,55.0000016784668,10|2,2:1|2:2,0:0:0:0:
47,318,124754,1,2,2:2:0:0:
149,277,125095,1,10,2:1:0:0:
218,362,125436,6,0,L|327:351,1,110.000003356934,0|8,3:3|2:1,0:0:0:0:
372,319,125947,1,2,2:2:0:0:
372,319,126118,2,0,L|362:248,1,55.0000016784668,2|2,2:2|3:2,0:0:0:0:
350,211,126459,1,10,2:1:0:0:
247,170,126800,2,0,L|269:44,1,110.000003356934,2|8,3:2|2:1,0:0:0:0:
282,9,127311,1,2,2:2:0:0:
282,9,127481,2,0,P|345:3|392:39,1,110.000003356934,2|10,2:2|2:1,0:0:0:0:
478,81,128163,6,0,B|477:137|477:137|475:139|475:139|474:213,1,110.000003356934,8|8,3:3|2:1,0:0:0:0:
475,249,128675,1,2,3:2:0:0:
475,249,128845,2,0,B|421:271|421:271|360:248,1,110.000003356934,10|10,2:3|2:1,0:0:0:0:
276,198,129527,2,0,L|253:331,1,110.000003356934,10|10,3:3|2:1,0:0:0:0:
234,358,130038,1,2,2:2:0:0:
234,358,130209,2,0,L|176:350,1,55.0000016784668,10|10,2:3|2:3,0:0:0:0:
144,307,130550,2,0,L|71:318,1,55.0000016784668,10|10,2:1|2:3,0:0:0:0:
44,293,130891,5,2,2:2:0:0:
5,201,131231,2,0,L|12:132,1,50,10|2,2:1|2:2,0:0:0:0:
22,102,131572,1,2,2:2:0:0:
103,44,131913,2,0,L|166:54,1,50,10|2,2:1|2:2,0:0:0:0:
188,87,132254,2,0,L|299:74,1,100,2|8,2:2|2:1,0:0:0:0:
364,10,132936,1,2,2:2:0:0:
441,73,133277,2,0,L|434:136,1,50,10|2,2:1|2:2,0:0:0:0:
403,160,133618,6,0,L|419:277,1,100,2|10,3:2|2:1,0:0:0:0:
434,311,134129,1,2,2:2:0:0:
434,311,134300,1,2,2:2:0:0:
349,363,134640,2,0,L|299:362,1,50,10|2,2:1|2:2,0:0:0:0:
270,320,134981,2,0,L|162:339,1,100,2|8,2:2|2:1,0:0:0:0:
78,374,135663,1,2,2:2:0:0:
23,290,136004,2,0,L|33:227,1,50,10|2,2:1|2:2,0:0:0:0:
48,193,136345,6,0,P|95:180|139:202,1,100,2|10,3:2|2:1,0:0:0:0:
178,242,136856,1,2,2:2:0:0:
178,242,137027,1,2,2:2:0:0:
258,183,137367,2,0,L|268:120,1,50,10|2,2:1|2:2,0:0:0:0:
274,83,137709,2,0,P|230:72|166:57,1,100,2|8,3:2|2:1,0:0:0:0:
87,14,138390,1,2,2:2:0:0:
35,99,138731,2,0,L|27:164,1,50,10|2,2:1|2:2,0:0:0:0:
3,191,139072,6,0,L|21:306,1,100,2|10,3:2|2:1,0:0:0:0:
35,342,139583,1,2,2:2:0:0:
35,342,139754,1,2,2:2:0:0:
132,321,140094,2,0,L|195:331,1,50,10|2,2:1|2:2,0:0:0:0:
222,357,140435,2,0,L|331:332,1,100,2|8,3:2|2:1,0:0:0:0:
418,364,141117,1,2,3:2:0:0:
485,290,141458,2,0,L|487:223,1,50,10|2,2:1|2:2,0:0:0:0:
485,189,141800,6,0,P|445:165|388:172,1,100,2|10,3:2|2:1,0:0:0:0:
355,201,142311,1,2,2:2:0:0:
355,201,142482,1,2,2:2:0:0:
280,266,142822,2,0,L|285:327,1,50,10|2,2:1|2:2,0:0:0:0:
294,364,143163,2,0,P|340:375|394:351,1,100,2|8,2:2|2:1,0:0:0:0:
476,311,143845,1,2,2:2:0:0:
411,234,144186,2,0,L|420:177,1,50,10|2,2:1|2:2,0:0:0:0:
459,155,144527,6,0,L|446:46,1,100,2|10,3:2|2:1,0:0:0:0:
422,18,145038,1,2,2:2:0:0:
422,18,145209,1,2,2:2:0:0:
335,67,145550,2,0,L|271:58,1,50,10|2,2:1|2:2,0:0:0:0:
249,25,145890,2,0,P|200:14|156:34,1,100,2|8,2:2|2:1,0:0:0:0:
72,90,146572,1,2,2:2:0:0:
144,159,146913,2,0,L|138:208,1,50,10|2,2:1|2:2,0:0:0:0:
97,237,147254,6,0,L|109:351,1,100,2|10,3:2|2:1,0:0:0:0:
139,381,147765,1,2,2:2:0:0:
139,381,147936,1,2,2:2:0:0:
235,357,148276,2,0,L|287:363,1,50,10|2,2:1|2:2,0:0:0:0:
321,328,148617,2,0,L|419:311,1,100,2|8,3:2|2:1,0:0:0:0:
490,239,149299,1,2,2:2:0:0:
432,156,149640,2,0,L|442:93,1,50,10|2,2:1|2:2,0:0:0:0:
458,60,149981,6,0,P|415:36|354:50,1,100,2|10,3:2|2:1,0:0:0:0:
329,75,150492,1,2,3:2:0:0:
329,75,150663,1,2,2:2:0:0:
256,143,151003,2,0,L|264:209,1,50,10|2,2:1|2:2,0:0:0:0:
269,242,151345,1,2,3:2:0:0:
227,333,151686,1,8,2:1:0:0:
132,300,152027,2,0,L|69:287,1,50,2|0,2:3|3:3,0:0:0:0:
35,274,152368,1,10,2:1:0:0:
11,176,152709,5,6,3:2:0:0:
311,29,164981,6,0,P|301:83|284:196,1,160,2|2,1:3|1:2,0:0:0:0:
304,346,166345,2,0,P|238:323|173:383,1,160,2|0,1:3|1:1,0:0:0:0:
26,315,167709,2,0,B|19:239|19:239|23:231|23:231|15:145,1,160,2|2,1:3|1:2,0:0:0:0:
97,18,169072,6,0,L|176:11,1,80,2|2,1:3|2:3,0:0:0:0:
218,79,169754,2,0,L|305:86,1,80,2|2,2:3|2:3,0:0:0:0:
377,79,170436,2,0,L|370:-8,2,80,2|2|2,2:3|2:3|2:3,0:0:0:0:
424,143,171459,1,2,2:3:0:0:
482,197,171800,6,0,P|472:248|466:289,1,80,2|2,2:3|2:3,0:0:0:0:
460,318,172311,1,2,2:3:0:0:
460,318,172481,2,0,P|414:331|375:312,1,80,2|2,2:3|2:3,0:0:0:0:
317,260,173163,6,0,L|267:267,1,44.999998626709,2|2,2:2|2:2,0:0:0:0:
240,297,173504,2,0,L|185:287,1,44.999998626709,2|2,2:2|2:2,0:0:0:0:
159,262,173845,2,0,L|109:269,1,44.999998626709,2|2,2:2|2:2,0:0:0:0:
78,295,174186,1,8,2:1:0:0:
18,202,174527,6,0,B|-4:147|-4:147|33:94,1,110.000003356934,6|8,3:2|2:1,0:0:0:0:
75,71,175038,1,0,0:0:0:0:
75,71,175209,2,0,L|198:85,1,110.000003356934,2|8,2:2|2:1,0:0:0:0:
236,180,175890,2,0,L|359:166,1,110.000003356934,2|10,2:2|2:1,0:0:0:0:
398,151,176402,1,2,2:2:0:0:
494,214,176743,1,2,3:2:0:0:
494,214,176913,1,8,2:1:0:0:
461,316,177254,6,0,P|412:353|355:334,1,110.000003356934,2|8,3:2|2:1,0:0:0:0:
332,308,177765,1,0,0:0:0:0:
332,308,177936,2,0,P|277:283|216:318,1,110.000003356934,2|8,2:2|2:1,0:0:0:0:
147,367,178617,2,0,P|138:313|130:254,1,110.000003356934,2|8,2:2|2:1,0:0:0:0:
109,206,179129,1,2,2:2:0:0:
23,146,179470,1,2,3:2:0:0:
23,146,179640,1,8,2:1:0:0:
91,59,179981,6,0,P|143:46|191:70,1,110.000003356934,2|8,3:2|2:1,0:0:0:0:
218,124,180492,1,0,0:0:0:0:
218,124,180663,2,0,L|352:137,1,110.000003356934,2|8,2:2|2:1,0:0:0:0:
441,133,181344,1,2,3:2:0:0:
441,133,181516,2,0,B|465:182|465:182|433:239,1,110.000003356934,2|2,3:2|2:2,0:0:0:0:
368,316,182198,1,2,3:2:0:0:
368,316,182367,1,8,2:1:0:0:
268,362,182709,6,0,P|260:307|259:252,1,110.000003356934,2|8,3:2|2:1,0:0:0:0:
254,201,183220,1,0,0:0:0:0:
254,201,183390,2,0,P|208:168|145:189,1,110.000003356934,2|8,2:2|2:1,0:0:0:0:
53,162,184072,1,2,3:2:0:0:
53,162,184243,2,0,P|68:99|78:31,1,110.000003356934,2|2,2:2|2:2,0:0:0:0:
175,4,184925,1,2,2:2:0:0:
175,4,185095,1,8,2:1:0:0:
246,87,185436,6,0,P|297:105|342:76,1,110.000003356934,2|8,3:2|2:1,0:0:0:0:
360,28,185947,1,0,0:0:0:0:
360,28,186118,2,0,P|413:37|467:50,1,110.000003356934,2|8,2:2|2:1,0:0:0:0:
510,156,186799,1,2,2:2:0:0:
510,156,186970,2,0,P|492:213|484:270,1,110.000003356934,2|2,3:2|2:2,0:0:0:0:
444,367,187652,1,2,3:2:0:0:
444,367,187822,1,8,2:1:0:0:
354,302,188163,6,0,L|219:284,1,110.000003356934,2|8,3:2|2:1,0:0:0:0:
216,246,188674,1,0,0:0:0:0:
216,246,188845,2,0,L|92:259,1,110.000003356934,2|8,2:2|2:1,0:0:0:0:
5,293,189526,1,2,2:2:0:0:
5,293,189698,2,0,B|-14:250|-14:250|2:189,1,110.000003356934,2|2,3:2|2:2,0:0:0:0:
55,94,190379,1,2,3:2:0:0:
55,94,190549,1,8,2:1:0:0:
136,167,190890,6,0,P|190:183|243:153,1,110.000003356934,2|8,3:2|2:1,0:0:0:0:
291,144,191401,1,0,0:0:0:0:
291,144,191572,2,0,L|306:26,1,110.000003356934,2|8,2:2|2:1,0:0:0:0:
415,9,192254,1,2,3:2:0:0:
415,9,192425,2,0,P|466:42|465:97,1,110.000003356934,2|2,3:2|2:2,0:0:0:0:
414,182,193106,1,2,3:2:0:0:
414,182,193276,1,8,2:1:0:0:
504,244,193618,6,0,P|503:299|494:374,1,110.000003356934,2|8,3:2|2:1,0:0:0:0:
447,370,194129,1,2,3:2:0:0:
447,370,194300,2,0,P|392:382|335:353,1,110.000003356934,2|8,2:2|2:1,0:0:0:0:
291,271,194981,1,2,3:2:0:0:
291,271,195153,2,0,L|157:288,1,110.000003356934,2|2,2:2|2:2,0:0:0:0:
109,366,195834,1,2,3:2:0:0:
109,366,196004,1,8,1:1:0:0:
24,311,196345,5,6,2:2:0:0:
76,225,196686,2,0,L|87:156,1,50,8|2,2:1|2:2,0:0:0:0:
46,141,197027,2,0,L|31:26,1,100,2|10,2:2|2:1,0:0:0:0:
124,0,197709,2,0,P|173:-7|228:19,1,100,2|10,2:2|2:1,0:0:0:0:
254,46,198220,1,2,2:2:0:0:
313,132,198561,1,2,3:2:0:0:
313,132,198731,1,8,2:1:0:0:
232,190,199072,6,0,L|245:346,1,150,2|2,3:2|2:2,0:0:0:0:
287,368,199754,2,0,P|337:380|391:351,1,100,2|10,2:2|2:1,0:0:0:0:
469,315,200436,2,0,L|482:216,1,100,2|8,2:2|2:1,0:0:0:0:
490,167,200947,1,2,2:2:0:0:
449,81,201288,1,2,3:2:0:0:
449,81,201458,1,10,2:1:0:0:
356,119,201800,6,0,B|325:105|291:123|294:130|266:156|213:131,1,150,2|2,3:2|2:2,0:0:0:0:
163,124,202482,2,0,P|133:166|147:219,1,100,2|10,2:2|2:1,0:0:0:0:
232,253,203164,2,0,L|218:373,1,100,2|8,3:2|2:1,0:0:0:0:
179,381,203675,1,0,0:0:0:0:
85,360,204016,1,0,3:3:0:0:
85,360,204186,1,10,2:1:0:0:
27,278,204527,6,0,L|39:171,1,100,2|10,3:2|2:1,0:0:0:0:
45,132,205038,1,2,2:2:0:0:
45,132,205209,2,0,P|95:123|147:147,1,100,2|10,2:2|2:1,0:0:0:0:
237,120,205890,2,0,P|245:30|248:6,2,100,2|8|2,3:2|2:1|3:2,0:0:0:0:
284,208,206913,1,10,2:1:0:0:
340,290,207254,6,0,P|416:294|452:226,1,150,2|2,3:2|2:2,0:0:0:0:
446,188,207936,1,2,2:2:0:0:
384,109,208277,2,0,P|334:104|284:98,1,100,10|2,2:1|2:2,0:0:0:0:
229,14,208959,1,10,2:1:0:0:
152,78,209300,2,0,P|136:128|152:174,1,100,2|10,2:2|2:1,0:0:0:0:
203,187,209811,1,2,2:2:0:0:
203,187,209981,6,0,L|188:305,1,100,0|10,3:3|2:1,0:0:0:0:
160,382,210663,2,0,L|108:375,1,50,2|2,2:2|3:2,0:0:0:0:
64,367,211004,1,10,2:1:0:0:
4,286,211345,2,0,L|20:179,1,100,2|10,2:2|2:1,0:0:0:0:
36,88,212027,2,0,L|98:82,1,50,2|0,2:2|3:3,0:0:0:0:
139,85,212368,1,8,2:1:0:0:
139,85,212538,6,0,L|258:106,1,100,2|2,2:2|2:2,0:0:0:0:
287,93,213050,1,8,2:1:0:0:
353,18,213390,2,0,L|425:27,1,50,0|0,0:0|3:3,0:0:0:0:
451,36,213731,1,8,2:1:0:0:
511,115,214072,2,0,P|529:159|506:211,1,100,2|10,3:2|2:1,0:0:0:0:
452,287,214754,2,0,L|393:279,1,50,2|0,2:2|3:3,0:0:0:0:
352,284,215095,1,10,2:1:0:0:
285,208,215436,6,0,P|234:206|184:249,1,100,0|10,3:3|2:1,0:0:0:0:
170,277,215947,2,0,P|120:281|77:256,1,100,2|0,3:2|0:0,0:0:0:0:
51,214,216459,1,10,2:1:0:0:
3,125,216800,2,0,P|0:72|36:36,1,100,2|8,3:2|2:1,0:0:0:0:
126,15,217481,2,0,L|195:27,1,50,2|0,2:2|3:3,0:0:0:0:
227,41,217822,1,10,2:1:0:0:
227,41,217993,1,2,2:2:0:0:
