osu file format v14

[General]
AudioFilename: audio.mp3
AudioLeadIn: 0
PreviewTime: 43618
Countdown: 0
SampleSet: Soft
StackLeniency: 0.7
Mode: 0
LetterboxInBreaks: 0
WidescreenStoryboard: 1

[Editor]
DistanceSpacing: 0.7
BeatDivisor: 4
GridSize: 32
TimelineZoom: 1.4

[Metadata]
Title:Ghost Assassin (feat. Veela)
TitleUnicode:Ghost Assassin (feat. Veela)
Artist:Maduk
ArtistUnicode:Maduk
Creator:Nymphe
Version:Aistre's Insane
Source:
Tags:fa featured artists mappers' guild mpg quest kiyoshi guarden kang sae-byeok owc2022ro16dt1 osu world cup dnb drum and bass electronic english starcraft 2 alphabet venax aranel aistre actiol
BeatmapID:3856658
BeatmapSetID:1709438

[Difficulty]
HPDrainRate:5
CircleSize:4
OverallDifficulty:8
ApproachRate:8.8
SliderMultiplier:1.5
SliderTickRate:1

[Events]
//Background and Video events
0,0,"orkay.jpg",0,0
//Break Periods
2,87454,102989
2,152909,162989
//Storyboard Layer 0 (Background)
//Storyboard Layer 1 (Fail)
//Storyboard Layer 2 (Pass)
//Storyboard Layer 3 (Foreground)
//Storyboard Layer 4 (Overlay)
//Storyboard Sound Samples

[TimingPoints]
21800,340.909090909091,4,2,1,50,1,0
32709,-125,4,2,1,60,0,0
38163,-100,4,2,1,70,0,0
43618,-83.3333333333333,4,2,1,80,0,0
64924,-83.3333333333333,4,2,2,80,0,0
65010,-83.3333333333333,4,2,1,80,0,0
65095,-83.3333333333333,4,2,1,80,0,0
65436,-250,4,2,1,80,0,0
65777,-250,4,2,2,80,0,0
66118,-76.9230769230769,4,2,2,80,0,0
66288,-76.9230769230769,4,2,1,80,0,0
87254,-76.9230769230769,4,2,1,40,0,0
103618,-111.111111111111,4,2,1,50,0,0
104981,-111.111111111111,4,2,1,60,0,0
108731,-111.111111111111,4,2,1,70,0,0
109072,-83.3333333333333,4,2,1,80,0,0
128334,-83.3333333333333,4,2,2,80,0,0
128504,-83.3333333333333,4,2,1,80,0,0
128845,-83.3333333333333,4,2,2,80,0,0
129186,-83.3333333333333,4,2,1,80,0,0
129527,-83.3333333333333,4,2,3,80,0,0
129612,-83.3333333333333,4,2,1,80,0,0
130209,-83.3333333333333,4,2,4,80,0,0
130550,-83.3333333333333,4,2,2,80,0,0
130635,-83.3333333333333,4,2,5,80,0,0
130890,-83.3333333333333,4,2,1,70,0,0
131231,-66.6666666666667,4,2,1,70,0,0
131572,-83.3333333333333,4,2,1,70,0,0
152027,-83.3333333333333,4,2,1,70,0,0
152368,-83.3333333333333,4,2,1,70,0,0
152709,-83.3333333333333,4,2,3,50,0,0
163618,-125,4,2,6,55,0,0
163788,-125,4,2,1,55,0,0
164129,-125,4,2,6,55,0,0
164640,-125,4,2,1,55,0,0
165493,-125,4,2,6,55,0,0
165663,-125,4,2,1,55,0,0
166345,-125,4,2,6,55,0,0
166515,-125,4,2,1,55,0,0
168220,-125,4,2,6,55,0,0
168390,-125,4,2,1,55,0,0
169072,-125,4,2,6,60,0,0
169243,-125,4,2,1,60,0,0
169413,-125,4,2,6,60,0,0
169584,-125,4,2,1,60,0,0
169754,-125,4,2,6,60,0,0
170095,-125,4,2,1,60,0,0
170777,-125,4,2,6,60,0,0
171118,-125,4,2,1,60,0,0
171800,-100,4,2,6,60,0,0
171970,-100,4,2,1,60,0,0
172140,-100,4,2,6,60,0,0
173163,-100,4,2,4,60,0,0
173248,-100,4,2,5,60,0,0
173334,-100,4,2,4,60,0,0
173419,-100,4,2,5,60,0,0
174186,-100,4,2,1,70,0,0
174527,-83.3333333333333,4,2,1,80,0,0
195834,-83.3333333333333,4,2,2,80,0,0
195919,-83.3333333333333,4,2,1,80,0,0
196004,-83.3333333333333,4,2,1,80,0,0
196345,-250,4,2,1,80,0,0
196856,-83.3333333333333,4,2,1,80,0,0
217993,-125,4,2,1,80,0,0
218163,-125,4,2,1,80,0,0

[Colours]
Combo1 : 199,210,185
Combo2 : 192,192,192
Combo3 : 167,173,218
Combo4 : 156,154,135

[HitObjects]
40,168,21799,6,0,P|53:97|129:90,1,150,6|8,1:2|2:2,0:0:0:0:
128,98,22481,2,0,P|120:140|117:176,2,75,0|0|10,0:0|1:1|2:2,0:0:0:0:
270,57,23163,6,0,P|255:129|248:210,1,150,2|10,1:2|2:2,0:0:0:0:
187,253,23674,1,2,2:2:0:0:
187,253,23845,2,0,P|142:264|107:276,1,75,2|0,2:2|1:1,0:0:0:0:
22,323,24186,1,10,2:2:0:0:
239,379,24527,6,0,P|256:312|345:318,1,150,0|8,1:1|2:2,0:0:0:0:
399,341,25038,2,0,P|453:326|440:234,1,150,0|0,0:0|1:1,0:0:0:0:
500,182,25549,1,10,2:2:0:0:
325,54,25890,6,0,P|245:69|164:79,2,150,2|10|2,1:2|2:2|2:2,0:0:0:0:
418,102,26743,2,0,P|428:61|441:31,2,75,2|8|2,1:2|2:2|2:2,0:0:0:0:
344,159,27254,6,0,P|281:172|265:255,1,150,0|8,1:1|2:2,0:0:0:0:
226,325,27765,1,0,0:0:0:0:
226,325,27851,1,0,0:0:0:0:
226,325,27936,2,0,P|177:314|143:308,1,75,0|0,0:0|1:1,0:0:0:0:
101,219,28277,1,10,2:2:0:0:
101,219,28618,6,0,P|152:190|139:103,2,150,2|8|2,1:2|2:2|2:2,0:0:0:0:
32,170,29470,1,0,1:1:0:0:
64,91,29640,2,0,P|62:53|58:12,1,75,10|2,2:2|2:2,0:0:0:0:
219,66,29981,6,0,P|283:88|392:103,1,150,0|8,1:1|2:2,0:0:0:0:
446,133,30493,2,0,P|372:144|300:168,1,150,0|0,0:0|1:1,0:0:0:0:
223,70,31004,1,10,2:2:0:0:
391,227,31345,6,0,P|400:295|415:393,2,150,2|10|2,1:2|2:2|2:2,0:0:0:0:
306,275,32197,1,2,1:2:0:0:
306,275,32368,2,0,P|266:254|225:245,1,75,8|2,2:2|2:2,0:0:0:0:
192,173,32709,6,0,P|119:191|105:236,1,120,0|0,1:1|1:1,0:0:0:0:
67,294,33220,2,0,P|52:237|27:171,1,120
59,108,33731,1,2,1:2:0:0:
59,108,34072,6,0,P|122:92|123:36,2,120,2|0|2,1:2|1:1|1:2,0:0:0:0:
24,184,34924,2,0,P|8:228|8:252,2,60,0|2|2,0:0|1:2|2:2,0:0:0:0:
129,258,35436,6,0,P|173:270|258:291,1,120,0|0,1:1|1:1,0:0:0:0:
296,351,35947,2,0,P|340:339|425:318,1,120,2|0,2:2|0:0,0:0:0:0:
464,251,36459,1,2,1:2:0:0:
464,251,36799,6,0,P|463:200|403:182,2,120,2|0|2,1:2|1:1|1:2,0:0:0:0:
417,326,37652,2,0,P|431:363|438:391,2,60,0|2|2,0:0|1:2|2:2,0:0:0:0:
306,162,38163,5,0,3:3:0:0:
303,156,38504,1,0,3:3:0:0:
303,150,38845,1,0,3:3:0:0:
299,145,39186,1,2,3:2:0:0:
355,48,39527,5,2,3:2:0:0:
334,134,39868,1,2,3:2:0:0:
277,204,40209,1,2,3:2:0:0:
253,291,40549,1,2,3:2:0:0:
0,83,40890,5,0,3:3:0:0:
156,159,41061,1,2,3:2:0:0:
26,214,41231,1,0,3:3:0:0:
99,53,41402,1,0,3:3:0:0:
257,184,41572,5,0,3:3:0:0:
118,234,41743,1,0,3:3:0:0:
206,84,41913,1,0,3:3:0:0:
268,291,42084,1,0,3:3:0:0:
351,169,42254,6,0,P|358:143|370:118,3,37.5,0|0|0|0,3:3|3:3|3:3|3:3,0:0:0:0:
433,243,42595,2,0,P|440:269|452:294,3,37.5,0|0|0|0,3:3|3:3|3:3|3:3,0:0:0:0:
360,349,42936,5,0,3:3:0:0:
327,340,43021,1,0,3:3:0:0:
294,336,43106,1,0,3:3:0:0:
261,331,43192,1,0,3:3:0:0:
226,327,43277,1,8,2:1:0:0:
193,64,43618,6,0,B|149:48|122:90|124:99|126:108|101:162|38:138,1,179.999994506836,6|10,3:2|2:1,0:0:0:0:
86,10,44129,1,2,2:2:0:0:
251,127,44299,2,0,P|237:187|230:245,1,89.9999972534181,2|0,2:2|3:3,0:0:0:0:
184,54,44640,1,10,2:1:0:0:
170,275,44811,5,0,0:0:0:0:
170,275,44896,1,0,0:0:0:0:
170,275,44981,2,0,P|121:251|112:214,1,89.9999972534181,2|0,2:2|3:3,0:0:0:0:
260,120,45322,1,10,2:1:0:0:
348,281,45493,2,0,P|411:264|494:251,1,134.999995880127,2|0,2:2|0:0,0:0:0:0:
488,246,45834,2,0,P|441:233|401:207,1,89.9999972534181,2|8,3:2|2:1,0:0:0:0:
277,328,46174,1,2,2:2:0:0:
295,209,46345,6,0,P|316:298|335:393,1,179.999994506836,2|10,3:2|2:1,0:0:0:0:
483,338,46856,1,2,2:2:0:0:
483,338,46942,1,0,0:0:0:0:
483,338,47027,2,0,P|491:283|500:247,1,89.9999972534181,2|0,2:2|3:3,0:0:0:0:
345,109,47368,2,0,P|293:99|242:83,1,89.9999972534181,10|0,2:1|0:0,0:0:0:0:
408,189,47709,5,2,2:2:0:0:
408,189,47879,2,0,P|451:176|495:168,1,89.9999972534181,2|8,3:2|2:1,0:0:0:0:
392,33,48220,1,2,2:2:0:0:
289,214,48390,1,0,0:0:0:0:
263,205,48476,1,0,0:0:0:0:
236,201,48561,1,2,3:2:0:0:
157,29,48731,2,0,P|171:82|181:132,1,89.9999972534181,8|2,2:1|2:2,0:0:0:0:
291,11,49072,5,2,3:2:0:0:
86,104,49243,1,2,2:2:0:0:
293,222,49413,1,10,2:1:0:0:
186,121,49584,1,2,2:2:0:0:
83,331,49754,6,0,P|79:299|69:271,1,44.999998626709,2|0,2:2|0:0,0:0:0:0:
120,223,49924,2,0,P|187:235|238:242,1,89.9999972534181,2|8,3:2|2:1,0:0:0:0:
329,337,50265,1,2,2:2:0:0:
407,174,50436,5,2,3:2:0:0:
225,321,50606,1,2,3:2:0:0:
385,262,50777,1,10,2:1:0:0:
282,193,50947,2,0,P|260:120|235:56,1,134.999995880127,2|0,2:2|0:0,0:0:0:0:
265,33,51288,2,0,P|279:80|295:122,1,89.9999972534181,2|8,3:2|2:1,0:0:0:0:
110,212,51629,5,2,2:2:0:0:
110,212,51714,1,0,0:0:0:0:
110,212,51799,2,0,P|23:202|-6:201,1,89.9999972534181,2|2,3:2|2:2,0:0:0:0:
122,111,52140,1,10,2:1:0:0:
184,316,52311,1,2,2:2:0:0:
231,190,52481,1,2,2:2:0:0:
84,307,52652,1,2,3:2:0:0:
245,378,52822,2,0,P|287:363|335:357,1,89.9999972534181,10|2,2:1|2:2,0:0:0:0:
455,168,53163,5,2,3:2:0:0:
455,168,53334,2,0,P|450:213|426:258,1,89.9999972534181,2|10,2:2|2:1,0:0:0:0:
486,362,53674,2,0,P|443:297|327:275,1,179.999994506836,2|2,2:2|2:2,0:0:0:0:
213,164,54186,1,8,2:1:0:0:
313,47,54356,5,2,2:2:0:0:
313,47,54442,1,0,0:0:0:0:
313,47,54527,2,0,P|320:109|330:144,1,89.9999972534181,2|0,3:2|0:0,0:0:0:0:
270,331,54868,2,0,P|266:286|255:242,1,89.9999972534181,10|2,2:1|2:2,0:0:0:0:
117,139,55209,1,2,2:2:0:0:
33,214,55379,1,0,3:3:0:0:
89,302,55549,2,0,P|139:277|181:274,1,89.9999972534181,10|0,2:1|0:0,0:0:0:0:
353,359,55890,6,0,P|308:352|269:330,1,89.9999972534181,2|0,2:2|3:3,0:0:0:0:
217,153,56231,1,8,2:1:0:0:
320,263,56402,1,2,2:2:0:0:
432,62,56572,1,0,0:0:0:0:
422,87,56657,1,0,0:0:0:0:
419,114,56743,1,2,3:2:0:0:
299,179,56913,1,8,2:1:0:0:
353,5,57084,1,2,2:2:0:0:
141,19,57254,6,0,P|192:40|231:50,1,89.9999972534181,2|2,3:2|2:2,0:0:0:0:
108,173,57595,1,10,2:1:0:0:
108,173,57765,1,2,2:2:0:0:
38,107,57936,2,0,P|26:50|12:16,1,89.9999972534181,2|0,2:2|3:3,0:0:0:0:
220,153,58277,2,0,P|204:195|196:239,1,89.9999972534181,10|2,2:1|2:2,0:0:0:0:
17,262,58618,6,0,P|80:272|100:376,1,179.999994506836,2|8,2:2|2:1,0:0:0:0:
250,363,59129,1,2,2:2:0:0:
250,363,59214,1,0,0:0:0:0:
250,363,59299,2,0,P|305:352|355:348,1,89.9999972534181,0|2,0:0|3:2,0:0:0:0:
482,331,59640,1,8,2:1:0:0:
310,251,59811,1,2,2:2:0:0:
502,213,59981,5,2,3:2:0:0:
502,213,60152,1,2,2:2:0:0:
310,123,60322,1,10,2:1:0:0:
395,291,60493,1,2,2:2:0:0:
512,115,60663,2,0,P|447:99|421:-9,1,179.999994506836,2|10,2:2|2:1,0:0:0:0:
299,84,61174,5,2,2:2:0:0:
299,84,61260,1,0,0:0:0:0:
299,84,61345,2,0,P|250:76|197:65,1,89.9999972534181,2|0,3:2|3:3,0:0:0:0:
66,32,61686,1,10,2:1:0:0:
24,198,61856,2,0,P|105:173|166:166,1,134.999995880127,2|0,2:2|0:0,0:0:0:0:
162,153,62197,2,0,P|107:143|61:128,1,89.9999972534181,0|10,3:3|2:1,0:0:0:0:
105,306,62538,5,2,2:2:0:0:
105,306,62623,1,0,0:0:0:0:
105,306,62709,2,0,P|160:316|206:331,1,89.9999972534181,0|2,3:3|2:2,0:0:0:0:
274,221,63049,2,0,P|284:243|288:264,1,44.999998626709,8|0,2:1|0:0,0:0:0:0:
335,323,63220,2,0,P|389:300|397:258,1,89.9999972534181,2|2,3:2|2:2,0:0:0:0:
339,161,63561,1,2,2:2:0:0:
512,112,63731,2,0,P|491:174|486:212,1,89.9999972534181,10|2,2:1|2:2,0:0:0:0:
394,90,64072,6,0,P|347:24|256:32,1,179.999994506836,2|10,3:2|2:1,0:0:0:0:
72,144,64584,1,2,2:2:0:0:
157,28,64754,1,0,1:1:0:0:
168,66,64839,1,0,1:1:0:0:
179,104,64924,1,2,3:2:0:0:
190,143,65010,1,0,1:1:0:0:
205,180,65095,2,0,P|214:205|218:226,3,44.999998626709,8|0|0|0,1:1|1:1|1:1|1:1,0:0:0:0:
165,283,65436,6,0,P|118:271|101:271,1,60,2|12,2:3|2:2,0:0:0:0:
368,30,66118,6,0,P|285:72|295:166,1,194.999991073609,2|8,2:2|2:1,0:0:0:0:
416,268,66629,1,0,0:0:0:0:
416,268,66714,1,0,0:0:0:0:
416,268,66799,2,0,P|467:253|518:247,1,97.4999955368044,2|0,2:2|3:3,0:0:0:0:
365,138,67140,1,10,2:1:0:0:
306,349,67311,1,2,2:2:0:0:
177,215,67481,1,0,0:0:0:0:
76,243,67652,2,0,P|149:219|144:105,1,194.999991073609,2|0,3:2|0:0,0:0:0:0:
7,155,68163,6,0,P|43:246|53:360,1,194.999991073609,2|8,3:2|2:1,0:0:0:0:
240,312,68674,1,0,0:0:0:0:
240,312,68760,1,0,0:0:0:0:
240,312,68845,2,0,P|190:296|141:283,1,97.4999955368044,2|0,2:2|3:3,0:0:0:0:
257,154,69186,1,8,2:1:0:0:
338,365,69356,1,0,0:0:0:0:
451,235,69527,5,2,2:2:0:0:
368,185,69697,2,0,P|329:223|333:270,1,97.4999955368044,0|8,3:3|2:1,0:0:0:0:
466,384,70038,2,0,P|505:346|501:299,1,97.4999955368044,2|0,2:2|0:0,0:0:0:0:
343,268,70379,2,0,P|446:223|429:130,1,194.999991073609,2|0,3:2|0:0,0:0:0:0:
342,40,70890,6,0,B|300:12|254:55|255:64|256:74|218:119|155:85,1,194.999991073609,2|8,3:2|2:1,0:0:0:0:
40,55,71402,1,0,0:0:0:0:
40,55,71487,1,0,0:0:0:0:
40,55,71572,2,0,P|88:92|88:141,1,97.4999955368044,2|0,2:2|3:3,0:0:0:0:
119,303,71913,1,8,2:1:0:0:
25,179,72084,1,0,0:0:0:0:
246,144,72254,5,2,3:2:0:0:
187,346,72424,1,2,3:2:0:0:
133,200,72595,1,8,2:1:0:0:
273,364,72765,2,0,P|326:351|387:344,1,97.4999955368044,2|0,2:2|0:0,0:0:0:0:
429,150,73106,2,0,P|337:180|334:274,1,194.999991073609,2|0,3:2|0:0,0:0:0:0:
511,384,73618,6,0,P|495:313|498:187,1,194.999991073609,2|8,3:2|2:1,0:0:0:0:
344,67,74129,1,0,0:0:0:0:
344,67,74214,1,0,0:0:0:0:
344,67,74299,2,0,P|418:54|446:43,1,97.4999955368044,2|0,2:2|3:3,0:0:0:0:
294,200,74640,1,8,2:1:0:0:
221,16,74811,1,0,0:0:0:0:
115,183,74981,5,2,3:2:0:0:
190,127,75152,2,0,P|198:189|206:231,1,97.4999955368044,2|8,2:2|2:1,0:0:0:0:
10,130,75493,1,2,2:2:0:0:
129,272,75663,5,0,3:3:0:0:
100,100,75834,2,0,P|93:40|85:-5,1,97.4999955368044,2|8,2:2|2:1,0:0:0:0:
10,272,76174,5,0,0:0:0:0:
10,272,76260,1,0,0:0:0:0:
10,272,76345,2,0,P|97:278|107:393,1,194.999991073609,2|8,3:2|2:1,0:0:0:0:
365,247,76856,1,0,0:0:0:0:
304,313,77027,2,0,P|244:320|198:331,1,97.4999955368044,2|0,2:2|3:3,0:0:0:0:
469,373,77368,2,0,P|484:306|505:261,1,97.4999955368044,8|0,2:1|0:0,0:0:0:0:
349,67,77709,6,0,P|368:75|398:83,1,48.7499977684022,2|0,2:2|0:0,0:0:0:0:
468,116,77879,2,0,P|409:137|380:160,1,97.4999955368044,2|8,3:2|2:1,0:0:0:0:
197,96,78220,1,2,2:2:0:0:
373,238,78390,1,0,0:0:0:0:
158,275,78561,2,0,P|129:204|6:197,1,194.999991073609,2|0,3:2|0:0,0:0:0:0:
92,349,79072,6,0,B|142:368|174:314|171:306|168:296|195:244|264:263,1,194.999991073609,2|8,3:2|2:1,0:0:0:0:
460,204,79584,1,0,0:0:0:0:
460,204,79669,1,0,0:0:0:0:
460,204,79754,2,0,P|438:257|433:299,1,97.4999955368044,2|0,2:2|3:3,0:0:0:0:
354,384,80095,2,0,P|346:335|327:291,1,97.4999955368044,8|0,2:1|0:0,0:0:0:0:
238,124,80436,6,0,P|232:146|222:174,1,48.7499977684022,2|0,2:2|0:0,0:0:0:0:
151,201,80606,2,0,P|101:171|102:125,1,97.4999955368044,2|8,3:2|2:1,0:0:0:0:
299,69,80947,2,0,P|349:99|348:145,1,97.4999955368044,2|0,2:2|0:0,0:0:0:0:
253,241,81288,2,0,P|230:146|190:42,1,194.999991073609,2|0,3:2|0:0,0:0:0:0:
503,107,81799,6,0,P|417:113|421:223,1,194.999991073609,2|8,3:2|2:1,0:0:0:0:
393,352,82311,1,0,0:0:0:0:
393,352,82396,1,0,0:0:0:0:
393,352,82481,2,0,P|441:333|491:329,1,97.4999955368044,2|0,2:2|3:3,0:0:0:0:
357,143,82822,2,0,P|308:138|263:119,1,97.4999955368044,8|0,2:1|0:0,0:0:0:0:
87,296,83163,5,2,3:2:0:0:
195,236,83334,1,2,2:2:0:0:
203,213,83419,1,0,3:3:0:0:
192,191,83504,1,8,2:1:0:0:
84,82,83674,1,2,2:2:0:0:
293,208,83845,1,0,0:0:0:0:
202,79,84015,2,0,P|120:105|100:219,1,194.999991073609,2|0,3:2|0:0,0:0:0:0:
241,319,84527,6,0,P|306:331|340:342,1,97.4999955368044,2|0,3:2|0:0,0:0:0:0:
304,224,84868,1,8,2:1:0:0:
158,367,85038,1,2,3:2:0:0:
15,256,85209,1,2,2:2:0:0:
178,199,85379,5,0,0:0:0:0:
183,222,85464,1,0,0:0:0:0:
174,244,85549,1,8,2:1:0:0:
52,342,85720,1,0,0:0:0:0:
22,158,85890,6,0,P|12:105|-3:55,1,97.4999955368044,2|2,3:2|2:2,0:0:0:0:
234,4,86231,2,0,P|220:50|211:98,1,97.4999955368044,8|2,2:1|2:2,0:0:0:0:
73,11,86572,5,0,0:0:0:0:
302,97,86743,1,2,3:2:0:0:
120,145,86913,1,8,2:1:0:0:
245,215,87084,1,0,0:0:0:0:
171,334,87254,5,6,2:2:0:0:
120,89,103618,6,0,P|63:93|55:177,2,134.999995880127,2|0|2,3:2|3:3|3:2,0:0:0:0:
120,90,104640,1,0,3:3:0:0:
282,192,104981,6,0,P|339:188|347:104,1,134.999995880127,2|2,3:2|3:2,0:0:0:0:
297,58,105493,1,2,2:2:0:0:
472,5,105663,1,0,3:3:0:0:
472,5,105748,1,0,0:0:0:0:
472,5,105834,2,0,P|454:50|451:82,1,67.4999979400635,2|0,2:2|3:3,0:0:0:0:
372,211,106174,1,0,0:0:0:0:
385,225,106260,1,0,0:0:0:0:
385,245,106345,5,2,3:2:0:0:
469,346,106515,1,0,3:3:0:0:
287,252,106686,5,0,3:3:0:0:
503,179,106856,1,2,3:2:0:0:
261,171,107027,5,2,3:2:0:0:
467,268,107197,1,0,3:3:0:0:
200,235,107368,5,0,3:3:0:0:
422,201,107538,1,0,3:3:0:0:
189,96,107709,6,0,P|162:87|149:82,3,33.7499989700318,0|0|0|0,3:3|3:3|3:3|3:3,0:0:0:0:
249,29,108049,2,0,P|276:20|289:15,3,33.7499989700318,0|0|0|0,3:3|3:3|3:3|3:3,0:0:0:0:
94,11,108390,5,0,3:3:0:0:
116,50,108476,1,0,3:3:0:0:
132,92,108561,1,0,3:3:0:0:
137,136,108646,1,0,3:3:0:0:
138,180,108731,1,8,2:1:0:0:
0,354,109072,6,0,B|49:377|82:330|82:323|81:316|109:274|161:294,1,179.999994506836,4|8,3:2|2:1,0:0:0:0:
317,256,109584,1,2,2:2:0:0:
225,247,109754,2,0,P|237:304|241:343,1,89.9999972534181,2|0,2:2|3:3,0:0:0:0:
457,282,110095,1,10,2:1:0:0:
291,159,110265,1,2,2:2:0:0:
512,118,110436,6,0,P|444:121|402:220,1,179.999994506836,2|10,2:2|2:1,0:0:0:0:
302,64,110947,1,2,2:2:0:0:
302,64,111032,1,0,0:0:0:0:
302,64,111118,2,0,P|358:58|399:48,1,89.9999972534181,2|0,2:2|3:3,0:0:0:0:
280,181,111459,1,10,2:1:0:0:
197,6,111629,1,2,2:2:0:0:
88,194,111800,5,0,3:3:0:0:
206,115,111970,2,0,P|129:101|9:82,1,179.999994506836,2|2,2:2|2:2,0:0:0:0:
8,226,112481,2,0,P|78:205|117:198,1,89.9999972534181,2|0,2:2|3:3,0:0:0:0:
252,260,112822,1,10,2:1:0:0:
252,260,112993,1,2,2:2:0:0:
175,378,113163,6,0,P|166:326|156:278,1,89.9999972534181,2|0,2:2|3:3,0:0:0:0:
311,329,113504,1,10,2:1:0:0:
246,171,113675,1,2,2:2:0:0:
388,231,113845,1,2,2:2:0:0:
395,200,113930,1,0,0:0:0:0:
404,170,114015,1,0,3:3:0:0:
262,258,114186,1,10,2:1:0:0:
412,321,114356,6,0,P|464:335|511:350,1,89.9999972534181,2|0,2:2|3:3,0:0:0:0:
500,100,114697,2,0,P|414:120|292:143,1,179.999994506836,2|2,2:2|2:2,0:0:0:0:
161,58,115209,2,0,P|213:44|256:36,1,89.9999972534181,2|0,2:2|3:3,0:0:0:0:
315,236,115550,1,10,2:1:0:0:
234,131,115720,1,2,2:2:0:0:
355,46,115890,6,0,P|339:96|332:142,1,89.9999972534181,2|0,3:2|3:3,0:0:0:0:
159,237,116231,2,0,P|151:192|136:150,1,89.9999972534181,10|2,2:1|2:2,0:0:0:0:
256,346,116572,1,2,2:2:0:0:
95,283,116743,1,2,3:2:0:0:
237,215,116913,1,8,2:1:0:0:
359,360,117084,6,0,P|370:313|390:275,1,89.9999972534181,2|0,2:2|3:3,0:0:0:0:
330,125,117425,2,0,P|249:131|256:235,1,179.999994506836,2|2,2:2|2:2,0:0:0:0:
411,180,117936,1,2,2:2:0:0:
441,172,118021,1,0,0:0:0:0:
472,168,118106,1,0,3:3:0:0:
390,36,118277,1,10,2:1:0:0:
333,209,118447,1,2,2:2:0:0:
200,45,118618,6,0,P|146:36|99:26,1,89.9999972534181,2|2,3:2|2:2,0:0:0:0:
6,209,118959,2,0,P|50:200|94:192,1,89.9999972534181,10|2,2:1|2:2,0:0:0:0:
15,30,119300,2,0,P|31:96|34:137,1,89.9999972534181,2|0,3:2|0:0,0:0:0:0:
165,241,119640,1,8,2:1:0:0:
75,360,119811,6,0,P|37:339|26:289,1,89.9999972534181,2|0,2:2|3:3,0:0:0:0:
219,182,120152,2,0,P|197:257|190:372,1,179.999994506836,2|2,2:2|2:2,0:0:0:0:
98,197,120663,5,2,2:2:0:0:
291,292,120834,1,0,3:3:0:0:
130,113,121004,1,10,2:1:0:0:
331,25,121175,1,2,2:2:0:0:
301,169,121345,6,0,P|362:137|411:132,1,89.9999972534181,2|0,2:2|3:3,0:0:0:0:
262,92,121686,1,10,2:1:0:0:
448,192,121856,1,2,2:2:0:0:
240,224,122027,1,2,2:2:0:0:
372,336,122197,2,0,P|374:267|394:222,1,89.9999972534181,2|8,3:2|2:1,0:0:0:0:
151,218,122538,6,0,P|175:277|180:319,1,89.9999972534181,2|0,2:2|3:3,0:0:0:0:
254,384,122879,2,0,P|203:333|70:327,1,179.999994506836,2|2,2:2|2:2,0:0:0:0:
113,89,123390,1,2,2:2:0:0:
104,119,123476,1,0,0:0:0:0:
98,149,123561,1,2,3:2:0:0:
18,249,123731,1,10,2:1:0:0:
209,159,123902,1,2,2:2:0:0:
27,98,124072,6,0,P|18:40|7:0,1,89.9999972534181,2|2,2:2|3:2,0:0:0:0:
218,32,124413,1,10,2:1:0:0:
104,154,124584,1,2,2:2:0:0:
308,193,124754,2,0,P|299:144|296:99,2,89.9999972534181,2|2|10,2:2|3:2|2:1,0:0:0:0:
396,346,125265,6,0,P|367:297|332:266,1,89.9999972534181,2|0,2:2|3:3,0:0:0:0:
512,121,125606,2,0,P|443:137|450:253,1,179.999994506836,2|2,2:2|2:2,0:0:0:0:
304,362,126118,1,2,2:2:0:0:
273,352,126203,1,0,0:0:0:0:
242,344,126288,1,2,3:2:0:0:
316,198,126459,1,10,2:1:0:0:
400,352,126629,1,2,2:2:0:0:
232,249,126800,6,0,P|187:256|142:260,1,89.9999972534181,2|0,3:2|3:3,0:0:0:0:
18,329,127140,1,8,2:1:0:0:
18,329,127311,1,2,2:2:0:0:
14,144,127481,2,0,P|36:212|41:248,1,89.9999972534181,2|0,2:2|3:3,0:0:0:0:
133,356,127822,1,10,2:1:0:0:
231,147,127993,1,2,2:2:0:0:
237,342,128163,6,0,P|247:370|254:388,2,44.999998626709,8|8|10,3:3|2:3|2:3,0:0:0:0:
311,202,128504,1,8,2:1:0:0:
139,133,128675,1,2,3:2:0:0:
180,283,128845,1,10,2:3:0:0:
190,253,128930,1,8,2:3:0:0:
201,223,129015,1,8,2:3:0:0:
396,168,129186,2,0,P|408:221|418:267,1,89.9999972534181,10|2,2:1|2:2,0:0:0:0:
489,91,129527,6,0,P|492:70|498:48,2,44.999998626709,10|8|8,3:3|2:3|2:3,0:0:0:0:
319,81,129868,1,10,2:1:0:0:
491,206,130038,1,2,2:2:0:0:
352,361,130209,5,10,2:3:0:0:
345,330,130294,1,8,2:3:0:0:
336,299,130379,1,10,2:3:0:0:
326,269,130464,1,8,2:3:0:0:
314,239,130550,2,0,P|316:219|322:186,1,44.999998626709,10|8,2:1|2:3,0:0:0:0:
168,66,130720,2,0,P|171:88|174:110,1,44.999998626709,10|8,2:3|2:3,0:0:0:0:
240,168,131231,6,0,P|143:147|47:127,1,168.750006437302,10|0,2:1|0:0,0:0:0:0:
67,144,131572,6,0,P|76:186|85:240,1,89.9999972534181,2|0,2:2|3:3,0:0:0:0:
236,307,131913,1,10,2:1:0:0:
174,110,132084,1,2,2:2:0:0:
6,269,132254,2,0,P|76:265|111:368,1,179.999994506836,2|8,2:2|2:1,0:0:0:0:
310,277,132765,1,0,0:0:0:0:
161,236,132936,2,0,P|224:227|265:222,1,89.9999972534181,2|0,2:2|3:3,0:0:0:0:
338,82,133277,2,0,P|321:125|302:187,1,89.9999972534181,10|2,2:1|2:2,0:0:0:0:
449,343,133618,5,2,3:2:0:0:
449,343,133959,2,0,P|453:314|458:288,1,44.999998626709,10|0,2:1|0:0,0:0:0:0:
396,207,134129,2,0,P|392:236|387:262,1,44.999998626709,2|0,2:2|0:0,0:0:0:0:
311,369,134300,2,0,P|266:354|211:344,1,89.9999972534181,2|0,2:2|3:3,0:0:0:0:
123,165,134640,2,0,P|78:180|23:190,1,89.9999972534181,10|2,2:1|2:2,0:0:0:0:
23,357,134981,6,0,P|94:358|92:261,1,179.999994506836,2|8,2:2|2:1,0:0:0:0:
233,140,135493,1,0,0:0:0:0:
233,140,135578,1,0,0:0:0:0:
233,140,135663,2,0,P|215:187|209:233,1,89.9999972534181,2|0,2:2|3:3,0:0:0:0:
93,79,136004,1,10,2:1:0:0:
316,1,136175,1,2,2:2:0:0:
155,23,136345,5,2,3:2:0:0:
155,23,136686,2,0,P|188:30|209:35,1,44.999998626709,10|0,2:1|0:0,0:0:0:0:
247,137,136856,2,0,P|280:130|301:125,1,44.999998626709,2|0,2:2|0:0,0:0:0:0:
400,22,137027,2,0,P|406:77|414:119,1,89.9999972534181,2|0,2:2|3:3,0:0:0:0:
494,171,137368,1,10,2:1:0:0:
374,265,137538,1,2,2:2:0:0:
466,368,137709,6,0,P|473:321|488:266,1,89.9999972534181,2|0,3:2|3:3,0:0:0:0:
293,227,138050,1,8,2:1:0:0:
376,358,138220,1,0,0:0:0:0:
170,372,138390,2,0,P|213:361|258:354,1,89.9999972534181,2|0,2:2|3:3,0:0:0:0:
289,137,138731,2,0,P|245:147|200:154,1,89.9999972534181,10|2,2:1|2:2,0:0:0:0:
54,304,139072,5,2,3:2:0:0:
54,304,139413,2,0,P|83:311|106:319,1,44.999998626709,10|0,2:1|0:0,0:0:0:0:
207,248,139584,2,0,P|178:241|155:233,1,44.999998626709,2|0,2:2|0:0,0:0:0:0:
39,129,139754,2,0,P|61:181|75:230,1,89.9999972534181,2|0,2:2|3:3,0:0:0:0:
181,330,140095,1,10,2:1:0:0:
274,131,140265,1,2,2:2:0:0:
378,258,140436,6,0,P|307:265|298:378,1,179.999994506836,2|8,3:2|2:1,0:0:0:0:
419,342,140947,1,0,0:0:0:0:
295,224,141118,2,0,P|288:174|277:129,1,89.9999972534181,2|0,3:2|0:0,0:0:0:0:
444,24,141459,2,0,P|433:67|427:112,1,89.9999972534181,10|2,2:1|2:2,0:0:0:0:
507,257,141800,5,2,3:2:0:0:
507,257,142140,2,0,P|501:289|497:314,1,44.999998626709,10|0,2:1|0:0,0:0:0:0:
375,196,142311,2,0,P|381:228|385:253,1,44.999998626709,2|0,2:2|0:0,0:0:0:0:
288,324,142481,2,0,P|235:313|178:307,1,89.9999972534181,2|0,2:2|3:3,0:0:0:0:
176,149,142822,1,10,2:1:0:0:
291,228,142993,1,2,2:2:0:0:
143,368,143163,6,0,P|82:332|101:231,1,179.999994506836,2|8,2:2|2:1,0:0:0:0:
261,151,143675,1,0,0:0:0:0:
138,49,143845,2,0,P|87:42|39:31,1,89.9999972534181,2|0,2:2|3:3,0:0:0:0:
2,172,144186,2,0,P|45:162|90:156,1,89.9999972534181,10|2,2:1|2:2,0:0:0:0:
269,63,144527,5,2,3:2:0:0:
269,63,144868,2,0,P|306:55|328:47,1,44.999998626709,10|0,2:1|0:0,0:0:0:0:
416,165,145038,2,0,P|390:136|372:121,1,44.999998626709,2|0,2:2|0:0,0:0:0:0:
414,21,145209,2,0,P|386:77|366:133,1,89.9999972534181,2|0,2:2|3:3,0:0:0:0:
317,257,145550,1,10,2:1:0:0:
227,153,145720,1,2,2:2:0:0:
152,327,145890,6,0,P|225:307|262:302,1,89.9999972534181,2|0,2:2|3:3,0:0:0:0:
399,198,146231,2,0,P|472:218|509:223,1,89.9999972534181,8|0,2:1|0:0,0:0:0:0:
379,359,146572,1,2,2:2:0:0:
379,359,146743,1,0,3:3:0:0:
489,316,146913,1,10,2:1:0:0:
323,263,147084,1,2,2:2:0:0:
231,384,147254,5,2,3:2:0:0:
231,384,147595,2,0,P|194:377|172:370,1,44.999998626709,10|0,2:1|0:0,0:0:0:0:
127,256,147765,2,0,P|143:287|151:306,1,44.999998626709,2|0,2:2|0:0,0:0:0:0:
97,368,147936,2,0,P|40:347|-4:338,1,89.9999972534181,2|0,2:2|3:3,0:0:0:0:
224,241,148277,2,0,P|281:262|325:271,1,89.9999972534181,10|2,2:1|2:2,0:0:0:0:
63,180,148618,5,2,3:2:0:0:
158,62,148788,1,0,0:0:0:0:
158,62,148873,1,0,3:3:0:0:
158,62,148959,2,0,P|196:96|187:138,1,89.9999972534181,8|0,2:1|0:0,0:0:0:0:
130,236,149300,1,2,2:2:0:0:
15,114,149470,1,0,3:3:0:0:
0,321,149640,2,0,P|46:311|104:306,1,89.9999972534181,10|2,2:1|2:2,0:0:0:0:
244,353,149981,5,2,3:2:0:0:
244,353,150322,2,0,P|256:315|259:287,1,44.999998626709,10|0,2:1|0:0,0:0:0:0:
347,236,150493,2,0,P|335:198|332:170,1,44.999998626709,2|0,3:2|0:0,0:0:0:0:
239,131,150663,2,0,P|254:71|257:21,1,89.9999972534181,2|0,2:2|0:0,0:0:0:0:
414,0,151004,2,0,P|419:44|431:87,1,89.9999972534181,10|2,2:1|2:2,0:0:0:0:
428,260,151345,5,2,3:2:0:0:
323,162,151515,1,0,0:0:0:0:
471,186,151686,1,8,2:1:0:0:
280,236,151856,1,0,0:0:0:0:
406,124,152027,1,2,2:3:0:0:
360,323,152197,1,0,3:3:0:0:
206,151,152368,1,10,2:1:0:0:
296,374,152538,1,2,2:2:0:0:
335,71,152709,5,6,3:2:0:0:
184,288,163618,6,0,P|162:236|90:239,1,120,2|0,2:3|0:0,0:0:0:0:
44,277,164129,1,2,2:3:0:0:
98,375,164300,1,0,1:1:0:0:
98,375,164640,1,2,2:3:0:0:
275,338,164981,6,0,P|331:328|410:323,1,120,2|0,1:3|0:0,0:0:0:0:
452,273,165493,1,2,2:3:0:0:
353,177,165663,2,0,P|315:171|279:163,1,60,2|0,1:2|0:0,0:0:0:0:
358,190,166004,2,0,P|396:196|432:204,1,60,2|2,2:3|2:2,0:0:0:0:
492,127,166345,6,0,P|504:84|438:42,1,120,2|0,1:3|0:0,0:0:0:0:
388,89,166856,1,2,2:3:0:0:
253,16,167027,1,0,1:1:0:0:
253,16,167368,1,2,2:3:0:0:
153,127,167709,6,0,P|83:138|22:146,1,120,2|0,1:3|0:0,0:0:0:0:
0,214,168220,1,2,2:3:0:0:
161,253,168390,2,0,P|199:262|233:272,1,60,2|0,1:2|0:0,0:0:0:0:
157,244,168731,2,0,P|119:235|85:225,1,60,2|2,2:3|2:2,0:0:0:0:
41,352,169072,5,2,1:3:0:0:
48,348,169413,1,2,2:3:0:0:
55,352,169754,1,2,2:3:0:0:
62,348,170095,1,2,2:3:0:0:
142,320,170436,5,2,2:3:0:0:
209,367,170777,1,2,2:3:0:0:
284,325,171118,1,2,2:3:0:0:
353,371,171459,1,2,2:3:0:0:
437,171,171800,5,2,2:3:0:0:
512,331,171970,1,2,2:3:0:0:
338,246,172140,1,2,2:3:0:0:
510,143,172311,1,2,2:3:0:0:
316,111,172481,5,2,2:3:0:0:
500,222,172652,1,2,2:3:0:0:
257,163,172822,1,2,2:3:0:0:
451,78,172993,1,2,2:3:0:0:
270,245,173163,6,0,P|298:233|308:230,3,37.5,2|2|2|2,2:2|2:2|2:2|2:2,0:0:0:0:
189,204,173504,2,0,P|161:216|151:219,3,37.5,2|2|2|2,2:2|2:2|2:2|2:2,0:0:0:0:
90,311,173845,5,2,2:2:0:0:
86,273,173930,1,2,2:2:0:0:
76,236,174015,1,2,2:2:0:0:
59,201,174101,1,2,2:2:0:0:
35,172,174186,1,8,2:1:0:0:
243,7,174527,6,0,P|318:20|324:119,1,179.999994506836,6|8,3:2|2:1,0:0:0:0:
230,216,175038,1,0,0:0:0:0:
230,216,175123,1,0,0:0:0:0:
230,216,175209,2,0,P|178:201|126:192,1,89.9999972534181,2|0,2:2|3:3,0:0:0:0:
338,117,175550,2,0,P|382:108|425:95,1,89.9999972534181,8|0,2:1|0:0,0:0:0:0:
503,249,175890,6,0,P|448:258|427:336,1,134.999995880127,2|0,2:2|0:0,0:0:0:0:
423,326,176231,1,10,2:1:0:0:
271,372,176402,2,0,P|225:333|231:290,1,89.9999972534181,2|0,2:2|0:0,0:0:0:0:
318,131,176743,2,0,P|329:217|341:322,1,179.999994506836,2|0,3:2|0:0,0:0:0:0:
86,351,177254,6,0,P|29:329|-19:319,1,89.9999972534181,2|0,3:2|0:0,0:0:0:0:
223,250,177595,1,8,2:1:0:0:
119,136,177765,1,0,0:0:0:0:
119,136,177851,1,0,0:0:0:0:
119,136,177936,2,0,P|135:191|142:233,1,89.9999972534181,2|0,2:2|3:3,0:0:0:0:
334,37,178277,2,0,P|318:92|311:134,1,89.9999972534181,8|0,2:1|0:0,0:0:0:0:
223,157,178618,5,2,2:2:0:0:
397,256,178788,2,0,P|410:193|382:165,1,89.9999972534181,0|8,3:3|2:1,0:0:0:0:
216,69,179129,2,0,P|203:132|231:160,1,89.9999972534181,2|0,2:2|0:0,0:0:0:0:
387,180,179470,2,0,P|311:191|297:290,1,179.999994506836,2|0,3:2|0:0,0:0:0:0:
503,322,179981,6,0,B|458:296|420:331|419:340|418:350|393:388|341:374,1,179.999994506836,2|8,3:2|2:1,0:0:0:0:
190,325,180493,1,0,0:0:0:0:
190,325,180578,1,0,0:0:0:0:
190,325,180663,2,0,P|200:262|204:214,1,89.9999972534181,2|0,2:2|3:3,0:0:0:0:
298,83,181004,2,0,P|302:127|310:172,1,89.9999972534181,8|0,2:1|0:0,0:0:0:0:
106,257,181345,5,2,3:2:0:0:
44,73,181515,1,2,3:2:0:0:
218,190,181686,1,8,2:1:0:0:
228,8,181856,2,0,P|220:67|216:115,1,89.9999972534181,2|0,2:2|0:0,0:0:0:0:
112,266,182197,2,0,P|127:152|135:59,1,179.999994506836,2|0,3:2|0:0,0:0:0:0:
350,29,182709,6,0,P|349:117|248:151,1,179.999994506836,2|8,3:2|2:1,0:0:0:0:
213,272,183220,1,0,0:0:0:0:
213,272,183305,1,0,0:0:0:0:
213,272,183390,2,0,P|268:267|315:266,1,89.9999972534181,2|0,2:2|3:3,0:0:0:0:
435,232,183731,1,8,2:1:0:0:
214,90,183902,1,0,0:0:0:0:
405,33,184072,6,0,P|395:100|393:142,1,89.9999972534181,2|2,3:2|2:2,0:0:0:0:
343,266,184413,1,8,2:1:0:0:
283,28,184584,1,2,2:2:0:0:
474,130,184754,6,0,P|484:63|486:21,1,89.9999972534181,0|2,3:3|2:2,0:0:0:0:
260,171,185095,1,8,2:1:0:0:
500,255,185265,5,0,0:0:0:0:
500,255,185351,1,0,0:0:0:0:
500,255,185436,2,0,P|435:260|419:365,1,179.999994506836,2|8,3:2|2:1,0:0:0:0:
215,318,185947,1,0,0:0:0:0:
259,239,186118,2,0,P|312:236|361:227,1,89.9999972534181,2|0,2:2|3:3,0:0:0:0:
138,366,186459,2,0,P|85:369|36:378,1,89.9999972534181,8|0,2:1|0:0,0:0:0:0:
137,176,186800,6,0,P|144:208|148:237,1,44.999998626709,2|0,2:2|0:0,0:0:0:0:
97,276,186970,2,0,P|40:268|24:231,1,89.9999972534181,2|8,3:2|2:1,0:0:0:0:
186,113,187311,2,0,P|243:121|259:158,1,89.9999972534181,2|0,2:2|0:0,0:0:0:0:
214,251,187652,2,0,P|129:197|36:157,1,179.999994506836,2|0,3:2|0:0,0:0:0:0:
303,34,188163,6,0,P|298:134|310:235,1,179.999994506836,2|8,3:2|2:1,0:0:0:0:
271,352,188675,1,0,0:0:0:0:
271,352,188760,1,0,0:0:0:0:
271,352,188845,2,0,P|195:335|159:332,1,89.9999972534181,2|0,2:2|3:3,0:0:0:0:
314,217,189186,1,8,2:1:0:0:
388,373,189356,1,0,0:0:0:0:
496,221,189527,6,0,P|487:255|483:274,1,44.999998626709,2|0,2:2|0:0,0:0:0:0:
456,293,189697,2,0,P|419:249|370:239,1,89.9999972534181,2|8,3:2|2:1,0:0:0:0:
224,125,190038,1,2,2:2:0:0:
338,299,190209,1,0,0:0:0:0:
98,216,190379,2,0,P|194:250|188:333,1,179.999994506836,2|0,3:2|0:0,0:0:0:0:
60,295,190890,6,0,P|56:188|32:84,1,179.999994506836,2|8,3:2|2:1,0:0:0:0:
185,44,191402,1,0,0:0:0:0:
185,44,191487,1,0,0:0:0:0:
185,44,191572,2,0,P|220:83|213:130,1,89.9999972534181,2|0,2:2|3:3,0:0:0:0:
149,261,191913,1,8,2:1:0:0:
51,112,192084,1,0,0:0:0:0:
231,212,192254,5,2,3:2:0:0:
153,365,192425,2,0,P|211:356|258:354,1,89.9999972534181,2|8,3:2|2:1,0:0:0:0:
402,279,192765,2,0,P|357:275|312:268,1,89.9999972534181,2|0,2:2|0:0,0:0:0:0:
157,169,193106,2,0,P|167:100|279:85,1,179.999994506836,2|0,3:2|0:0,0:0:0:0:
481,74,193618,6,0,B|435:63|411:102|412:112|413:122|395:168|328:156,1,179.999994506836,2|8,3:2|2:1,0:0:0:0:
220,224,194129,1,2,3:2:0:0:
384,373,194300,2,0,P|395:318|408:282,1,89.9999972534181,2|0,2:2|0:0,0:0:0:0:
329,153,194640,2,0,P|318:208|305:244,1,89.9999972534181,8|0,2:1|0:0,0:0:0:0:
195,369,194981,6,0,P|107:342|8:330,1,179.999994506836,2|8,3:2|2:1,0:0:0:0:
215,229,195493,1,2,2:2:0:0:
116,166,195663,1,0,1:1:0:0:
116,166,195748,1,0,1:1:0:0:
116,166,195834,2,0,P|111:134|105:106,1,44.999998626709,2|0,3:2|1:1,0:0:0:0:
246,10,196004,5,8,1:1:0:0:
231,42,196089,1,0,1:1:0:0:
225,77,196175,1,0,1:1:0:0:
226,112,196260,1,0,1:1:0:0:
236,146,196345,6,0,L|306:133,1,60,6|8,2:2|2:1,0:0:0:0:
496,231,196856,5,2,2:2:0:0:
435,301,197027,2,0,P|382:287|340:282,1,89.9999972534181,2|0,2:2|3:3,0:0:0:0:
383,131,197368,2,0,P|436:145|478:150,1,89.9999972534181,10|2,2:1|2:2,0:0:0:0:
302,339,197709,5,2,2:2:0:0:
165,249,197879,1,0,3:3:0:0:
348,202,198050,1,10,2:1:0:0:
209,371,198220,2,0,P|155:351|110:343,1,89.9999972534181,2|0,2:2|0:0,0:0:0:0:
52,255,198561,2,0,P|119:238|127:134,1,179.999994506836,2|0,3:2|0:0,0:0:0:0:
0,12,199072,6,0,P|36:94|66:178,1,179.999994506836,2|10,3:2|2:1,0:0:0:0:
266,8,199584,1,2,2:2:0:0:
193,72,199754,2,0,P|131:61|95:56,1,89.9999972534181,2|0,2:2|3:3,0:0:0:0:
237,228,200095,2,0,P|299:239|335:244,1,89.9999972534181,10|2,2:1|2:2,0:0:0:0:
401,121,200436,5,2,2:2:0:0:
313,332,200606,1,0,3:3:0:0:
443,272,200777,2,0,P|436:225|390:202,1,89.9999972534181,8|2,2:1|2:2,0:0:0:0:
234,101,201118,1,2,2:2:0:0:
331,250,201288,1,2,3:2:0:0:
176,34,201459,1,10,2:1:0:0:
332,161,201629,1,2,2:2:0:0:
183,256,201800,6,0,P|109:243|3:229,1,179.999994506836,2|10,3:2|2:1,0:0:0:0:
127,153,202311,1,2,2:2:0:0:
189,354,202481,2,0,P|141:333|93:320,1,89.9999972534181,2|0,2:2|3:3,0:0:0:0:
250,205,202822,2,0,P|298:226|346:239,1,89.9999972534181,10|2,2:1|2:2,0:0:0:0:
490,212,203163,5,2,3:2:0:0:
307,329,203334,1,0,3:3:0:0:
426,378,203504,2,0,P|436:329|449:291,1,89.9999972534181,8|0,2:1|0:0,0:0:0:0:
365,142,203845,1,2,2:2:0:0:
172,222,204015,1,0,3:3:0:0:
360,256,204186,1,10,2:1:0:0:
155,78,204356,1,2,2:2:0:0:
393,3,204527,6,0,P|466:32|462:134,1,179.999994506836,2|10,3:2|2:1,0:0:0:0:
267,198,205038,2,0,P|189:181|80:167,1,179.999994506836,2|0,2:2|3:3,0:0:0:0:
202,67,205550,1,10,2:1:0:0:
144,273,205720,1,2,2:2:0:0:
36,103,205890,6,0,P|24:39|14:-1,2,89.9999972534181,2|0|8,3:2|0:0|2:1,0:0:0:0:
171,191,206402,1,0,0:0:0:0:
55,291,206572,2,0,P|43:355|33:395,2,89.9999972534181,2|0|10,3:2|0:0|2:1,0:0:0:0:
206,368,207084,5,2,2:2:0:0:
206,368,207169,1,0,0:0:0:0:
206,368,207254,2,0,P|234:318|321:308,1,134.999995880127,2|0,3:2|0:0,0:0:0:0:
323,291,207595,2,0,P|330:332|334:387,1,89.9999972534181,10|2,2:1|2:2,0:0:0:0:
476,272,207936,2,0,P|479:227|486:182,1,89.9999972534181,2|0,2:2|3:3,0:0:0:0:
300,102,208277,1,10,2:1:0:0:
377,230,208447,1,2,2:2:0:0:
508,70,208618,6,0,P|500:23|449:5,1,89.9999972534181,2|0,2:2|3:3,0:0:0:0:
219,135,208959,2,0,P|227:182|278:200,1,89.9999972534181,10|0,2:1|0:0,0:0:0:0:
418,263,209300,2,0,P|396:155|384:61,1,179.999994506836,2|10,2:2|2:1,0:0:0:0:
267,208,209811,6,0,P|258:273|253:308,1,89.9999972534181,2|0,2:2|3:3,0:0:0:0:
159,383,210152,2,0,P|149:314|125:180,1,179.999994506836,2|2,2:2|2:2,0:0:0:0:
156,172,210578,1,0,0:0:0:0:
156,172,210663,2,0,P|145:122|139:78,1,89.9999972534181,2|2,2:2|3:2,0:0:0:0:
18,219,211004,1,10,2:1:0:0:
241,308,211175,1,2,2:2:0:0:
63,379,211345,6,0,P|71:321|76:266,1,89.9999972534181,2|0,2:2|3:3,0:0:0:0:
230,212,211686,1,10,2:1:0:0:
93,100,211856,1,2,2:2:0:0:
187,14,212027,2,0,P|231:18|258:154,1,179.999994506836,2|8,2:2|2:1,0:0:0:0:
368,288,212538,6,0,P|318:275|260:270,1,89.9999972534181,2|0,2:2|3:3,0:0:0:0:
79,107,212879,2,0,P|129:120|187:125,1,89.9999972534181,2|8,2:2|2:1,0:0:0:0:
380,69,213220,1,0,0:0:0:0:
227,192,213390,1,0,0:0:0:0:
463,115,213561,1,0,3:3:0:0:
307,173,213731,1,8,2:1:0:0:
512,184,213902,1,2,2:2:0:0:
389,373,214072,6,0,P|380:311|373:270,1,89.9999972534181,2|0,3:2|0:0,0:0:0:0:
298,266,214328,1,0,3:3:0:0:
298,266,214413,2,0,P|307:328|314:369,1,89.9999972534181,10|0,2:1|0:0,0:0:0:0:
442,249,214754,2,0,P|425:199|392:184,1,89.9999972534181,2|0,2:2|3:3,0:0:0:0:
221,310,215095,1,10,2:1:0:0:
299,133,215265,1,2,2:2:0:0:
194,232,215436,5,0,3:3:0:0:
233,26,215606,1,2,2:2:0:0:
136,181,215777,1,10,2:1:0:0:
71,14,215947,1,2,3:2:0:0:
23,84,216118,6,0,P|32:144|34:193,1,89.9999972534181,2|0,2:2|0:0,0:0:0:0:
117,368,216459,2,0,P|120:323|127:278,1,89.9999972534181,10|2,2:1|2:2,0:0:0:0:
356,309,216800,5,2,3:2:0:0:
197,231,216970,1,0,0:0:0:0:
410,205,217140,1,8,2:1:0:0:
277,246,217311,1,0,0:0:0:0:
459,278,217481,1,2,2:2:0:0:
313,147,217652,1,0,3:3:0:0:
421,365,217822,1,10,2:1:0:0:
398,85,217993,6,0,P|392:29|391:1,1,60,2|0,2:2|0:0,0:0:0:0:
