osu file format v14

[General]
AudioFilename: audio.mp3
AudioLeadIn: 0
PreviewTime: 43462
Countdown: 0
SampleSet: Soft
StackLeniency: 0.7
Mode: 0
LetterboxInBreaks: 0
WidescreenStoryboard: 0

[Editor]
DistanceSpacing: 1.6
BeatDivisor: 4
GridSize: 16
TimelineZoom: 4.200001

[Metadata]
Title:Ikanaide
TitleUnicode:いかないで
Artist:Madotsuki@
ArtistUnicode:窓付き@
Creator:wafer
Version:Departure
Source:
Tags:japanese rock novelty cut kaai yuki 歌愛ユキ 想太 sohta souta eve don't go vocaloid utaite nico douga iwaifu smoke xen xehn xenon- jasontime12345
BeatmapID:2369567
BeatmapSetID:1134737

[Difficulty]
HPDrainRate:6.9
CircleSize:4
OverallDifficulty:8.8
ApproachRate:9
SliderMultiplier:1.8
SliderTickRate:1

[Events]
//Background and Video events
0,0,"mwah.jpg",0,0
//Break Periods
2,86463,88177
//Storyboard Layer 0 (Background)
//Storyboard Layer 1 (Fail)
//Storyboard Layer 2 (Pass)
//Storyboard Layer 3 (Foreground)
//Storyboard Layer 4 (Overlay)
//Storyboard Sound Samples

[TimingPoints]
819,314.13612565445,4,2,1,80,1,0
819,-500,4,2,1,80,0,0
3017,-200,4,2,1,55,0,0
3332,-100,4,2,1,65,0,0
7101,-125,4,2,1,65,0,0
8358,-100,4,2,1,65,0,0
10871,-83.3333333333333,4,2,1,65,0,0
12127,-125,4,2,1,65,0,0
12442,-100,4,2,1,65,0,0
12756,-125,4,2,1,65,0,0
13384,-100,4,2,1,65,0,0
17154,-125,4,2,1,65,0,0
18410,-100,4,2,1,65,0,0
20923,-83.3333333333333,4,2,1,65,0,0
21551,-71.4285714285714,4,2,1,65,0,0
22180,-100,4,2,1,70,0,0
23122,-200,4,2,1,55,0,0
23436,-125,4,2,1,45,0,0
33489,-111.111111111111,4,2,1,50,0,0
40192,-111.111111111111,4,2,1,50,0,0
42284,-500,4,2,1,55,0,0
42363,-500,4,2,1,5,0,0
42599,-500,4,2,1,55,0,0
42678,-500,4,2,1,5,0,0
42913,-500,4,2,1,55,0,0
42992,-500,4,2,1,5,0,0
43227,-250,4,2,1,50,0,0
43541,-76.9230769230769,4,2,1,70,0,0
44483,-111.111111111111,4,2,1,70,0,0
44798,-76.9230769230769,4,2,1,70,0,0
46305,-76.9230769230769,4,2,1,70,0,0
47311,-100,4,2,1,70,0,0
48567,-76.9230769230769,4,2,1,70,0,0
49510,-111.111111111111,4,2,1,70,0,0
49824,-76.9230769230769,4,2,1,70,0,0
52337,-66.6666666666667,4,2,1,70,0,0
52965,-76.9230769230769,4,2,1,70,0,0
53593,-76.9230769230769,4,2,1,65,0,0
57363,-100,4,2,1,65,0,0
58620,-83.3333333333333,4,2,1,65,0,0
59248,-71.4285714285714,4,2,1,65,0,0
59876,-76.9230769230769,4,2,1,65,0,0
61133,-71.4285714285714,4,2,1,75,0,0
65845,-166.666666666667,4,2,1,75,0,0
66159,-71.4285714285715,4,2,1,75,0,0
70873,-71.4285714285715,4,2,1,75,0,0
71185,-71.4285714285715,4,2,1,70,0,0
74955,-83.3333333333333,4,2,1,70,0,0
76211,-83.3333333333333,4,2,1,72,0,0
76839,-83.3333333333333,4,2,1,74,0,0
77468,-83.3333333333333,4,2,1,78,0,0
78096,-83.3333333333333,4,2,1,82,0,0
78724,-62.5,4,2,1,80,0,1
79667,-142.857142857143,4,2,1,80,0,1
79981,-62.5,4,2,1,80,0,1
82180,-71.4285714285714,4,2,1,80,0,1
82494,-83.3333333333333,4,2,1,75,0,1
83750,-66.6666666666667,4,2,1,80,0,1
84379,-62.5,4,2,1,80,0,1
85007,-58.8235294117647,4,2,1,82,0,1
85635,-55.5555555555556,4,2,1,85,0,1
86264,-62.5,4,2,1,85,0,0
88777,-100,4,2,1,65,0,0
92232,-125,4,2,1,65,0,0
92546,-100,4,2,1,65,0,0
93803,-125,4,2,1,65,0,0
94117,-83.3333333333333,4,2,1,65,0,0
95688,-100,4,2,1,65,0,0
96002,-125,4,2,1,65,0,0
96316,-100,4,2,1,65,0,0
96944,-90.9090909090909,4,2,1,65,0,0
97258,-83.3333333333333,4,2,1,65,0,0
98515,-125,4,2,1,65,0,0
98829,-100,4,2,1,65,0,0
99457,-83.3333333333333,4,2,1,68,0,0
100086,-71.4285714285714,4,2,1,72,0,0
100714,-62.5,4,2,1,68,0,0
101342,-100,4,2,1,65,0,0
103227,-83.3333333333333,4,2,1,65,0,0
103541,-125,4,2,1,65,0,0
103855,-100,4,2,1,65,0,0
106054,-111.111111111111,4,2,1,65,0,0
107625,-111.111111111111,4,2,1,70,0,0
108567,-142.857142857143,4,2,1,55,0,0
108881,-400,4,2,1,50,0,0
109195,-400,4,2,0,45,0,0
109824,-400,4,2,1,40,0,0
110452,-400,4,2,0,30,0,0
111080,-400,4,2,1,20,0,0
111709,-400,4,2,0,25,0,0
112651,-400,4,2,1,5,0,0

[Colours]
Combo1 : 211,211,211
Combo2 : 189,238,145
Combo3 : 253,157,130
Combo4 : 149,217,191

[HitObjects]
23,43,819,6,0,L|37:74,1,27,10|0,0:2|0:0,0:0:0:0:
24,170,1133,6,0,L|38:138,1,27,10|0,0:2|0:0,0:0:0:0:
122,94,1447,6,0,L|115:109,1,9,8|0,0:2|0:0,0:0:0:0:
216,81,1604,2,0,L|209:96,1,9,8|0,0:2|0:0,0:0:0:0:
307,60,1761,2,0,L|300:75,1,9,8|0,0:2|0:0,0:0:0:0:
122,182,2075,6,0,L|115:167,1,9,8|0,0:2|0:0,0:0:0:0:
122,94,2232,2,0,L|115:79,1,9,8|0,0:2|0:0,0:0:0:0:
212,177,2389,6,0,L|205:162,1,9,8|0,0:2|0:0,0:0:0:0:
212,89,2546,2,0,L|205:74,1,9,8|0,0:2|0:0,0:0:0:0:
307,148,2703,6,0,L|300:133,1,9,8|0,0:2|0:0,0:0:0:0:
390,79,3017,6,0,L|456:61,1,67.5,4|0,3:3|0:0,0:0:0:0:
455,61,3332,6,0,L|435:213,1,135,6|0,0:0|0:0,0:0:0:0:
509,303,3646,1,8,0:2:0:0:
500,284,3803,1,8,0:2:0:0:
304,333,3960,2,0,B|392:325|332:281|426:278,1,135,2|0,0:0|0:0,0:0:0:0:
426,289,4274,2,0,P|375:273|361:213,1,90,10|2,0:2|0:0,0:0:0:0:
227,93,4588,6,0,P|246:161|261:260,1,135,2|0,0:0|0:0,0:0:0:0:
196,331,4902,1,8,0:2:0:0:
205,312,5059,1,8,0:2:0:0:
40,251,5216,2,0,P|69:212|169:211,1,135,2|0,0:0|0:0,0:0:0:0:
157,217,5531,2,0,L|145:294,1,45,10|0,0:2|0:0,0:0:0:0:
24,153,5845,6,0,P|6:103|64:29,1,135,2|0,0:0|0:0,0:0:0:0:
175,22,6159,1,10,0:2:0:0:
167,2,6316,1,8,0:2:0:0:
249,107,6473,2,0,B|336:100|281:55|374:62,1,135,2|0,0:0|0:0,0:0:0:0:
394,78,6787,2,0,P|430:54|440:11,1,90,8|2,0:2|0:0,0:0:0:0:
346,192,7101,6,0,B|309:219|327:257|327:257|328:234|343:220,1,108,2|0,0:0|0:0,0:0:0:0:
415,156,7415,1,10,0:2:0:0:
415,156,7572,1,8,0:2:0:0:
464,215,7729,6,0,B|477:249|505:250|505:250|493:243|486:226,1,72,2|2,0:0|0:0,0:0:0:0:
328,174,8044,2,0,P|301:207|292:237,1,72,8|2,0:2|0:0,0:0:0:0:
428,133,8358,6,0,P|442:75|409:-6,1,135,2|0,0:0|0:0,0:0:0:0:
317,88,8672,1,8,0:2:0:0:
337,80,8829,1,8,0:2:0:0:
207,179,8986,2,0,L|39:151,1,135,2|0,0:0|0:0,0:0:0:0:
55,178,9300,2,0,P|46:134|79:74,1,90,10|2,0:2|0:0,0:0:0:0:
265,246,9614,6,0,B|184:251|231:310|152:322,1,135,2|0,0:0|0:0,0:0:0:0:
42,368,9928,1,8,0:2:0:0:
62,376,10085,1,8,0:2:0:0:
271,322,10243,2,0,L|413:311,1,135,2|0,0:0|0:0,0:0:0:0:
431,332,10557,2,0,L|419:409,1,45,10|0,0:2|0:0,0:0:0:0:
448,167,10871,6,0,B|413:133|420:87|420:87|454:119|448:165,1,161.999995056153,2|0,0:0|0:0,0:0:0:0:
478,243,11185,1,10,0:2:0:0:
478,243,11342,1,8,0:2:0:0:
388,230,11499,6,0,B|356:235|334:214|334:214|364:208|387:229,1,107.999996704102,2|2,0:0|0:0,0:0:0:0:
299,82,11813,5,8,0:2:0:0:
303,87,12127,6,0,B|326:62|319:32|319:32|298:54|304:86,1,108,2|0,0:0|0:0,0:0:0:0:
236,174,12442,2,0,L|245:232,1,45,10|0,0:2|0:0,0:0:0:0:
176,90,12599,2,0,L|185:31,1,45,8|0,0:2|0:0,0:0:0:0:
116,187,12756,1,2,0:0:0:0:
116,187,12913,1,2,0:0:0:0:
24,120,13070,2,0,P|49:90|100:81,1,72,8|2,0:2|0:0,0:0:0:0:
325,168,13384,6,0,B|406:151|349:116|465:101,1,135,6|0,0:0|0:0,0:0:0:0:
495,239,13698,1,10,0:2:0:0:
503,219,13855,1,8,0:2:0:0:
333,249,14012,2,0,P|287:244|241:168,1,135,2|0,0:0|0:0,0:0:0:0:
254,165,14326,2,0,P|277:203|270:254,1,90,10|2,0:2|0:0,0:0:0:0:
101,377,14640,6,0,L|87:233,1,135,2|0,0:0|0:0,0:0:0:0:
11,147,14955,1,8,0:2:0:0:
3,167,15112,1,8,0:2:0:0:
162,118,15269,2,0,P|158:61|80:20,1,135,2|0,0:0|0:0,0:0:0:0:
77,36,15583,2,0,L|90:89,1,45,10|0,0:2|0:0,0:0:0:0:
282,84,15897,6,0,B|372:82|312:29|425:27,1,135,2|0,0:0|0:0,0:0:0:0:
450,122,16211,1,10,0:2:0:0:
430,113,16368,1,8,0:2:0:0:
499,225,16525,2,0,L|512:359,1,135,2|0,0:0|0:0,0:0:0:0:
493,375,16839,2,0,P|449:366|453:299,1,90,10|2,0:2|0:0,0:0:0:0:
322,156,17154,6,0,B|367:165|366:207|366:207|356:187|336:180,1,108,2|0,0:0|0:0,0:0:0:0:
244,153,17468,1,10,0:2:0:0:
244,153,17625,1,8,0:2:0:0:
225,227,17782,6,0,B|227:263|202:276|202:276|210:265|209:246,1,72,2|2,0:0|0:0,0:0:0:0:
330,132,18097,2,0,P|369:151|390:174,1,72,8|2,0:2|0:0,0:0:0:0:
151,175,18410,6,0,L|-3:134,1,135,2|0,0:0|0:0,0:0:0:0:
123,59,18724,1,10,0:2:0:0:
142,50,18881,1,8,0:2:0:0:
320,112,19038,2,0,B|408:104|348:60|442:57,1,135,2|0,0:0|0:0,0:0:0:0:
436,69,19352,2,0,P|420:120|360:134,1,90,10|2,0:2|0:0,0:0:0:0:
243,274,19667,6,0,B|324:279|260:338|365:343,1,135,2|0,0:0|0:0,0:0:0:0:
463,308,19981,1,8,0:2:0:0:
454,288,20138,1,8,0:2:0:0:
342,130,20296,2,0,L|358:271,1,135,2|0,0:0|0:0,0:0:0:0:
375,269,20609,2,0,L|369:224,1,45,10|0,0:2|0:0,0:0:0:0:
302,53,20923,6,0,B|292:22|241:1|241:1|244:58|283:87,1,161.999995056153,2|0,0:0|0:0,0:0:0:0:
342,130,21237,1,10,0:2:0:0:
342,130,21394,1,8,0:2:0:0:
420,96,21551,6,0,B|454:85|477:28|477:28|414:32|382:75,1,188.999994232178,2|0,0:0|0:0,0:0:0:0:
319,156,21866,5,8,0:2:0:0:
271,292,22180,6,0,L|277:362,1,45,10|0,0:2|0:0,0:0:0:0:
194,252,22337,2,0,L|200:322,1,45,10|0,0:2|0:0,0:0:0:0:
117,218,22494,2,0,L|123:288,1,45,10|0,0:2|0:0,0:0:0:0:
38,192,22651,2,0,L|44:262,1,45,10|0,0:2|0:0,0:0:0:0:
182,183,22808,5,10,0:2:0:0:
32,118,23122,6,0,L|26:50,1,67.5,4|0,0:3|0:0,0:0:0:0:
26,50,23436,6,0,B|105:21|81:90|177:65,1,144,2|2,3:2|0:0,0:0:0:0:
242,33,23908,1,0,0:0:0:0:
277,138,24065,2,0,P|297:93|403:68,1,144,2|2,0:0|0:0,0:0:0:0:
462,104,24536,1,0,0:0:0:0:
478,205,24693,6,0,P|409:200|367:139,1,144,2|2,0:0|0:0,0:0:0:0:
381,61,25164,1,0,0:0:0:0:
497,59,25321,2,0,P|514:95|510:133,1,72,2|0,0:0|0:0,0:0:0:0:
383,249,25635,2,0,L|364:117,1,108,2|0,0:0|0:0,0:0:0:0:
367,142,25949,5,2,3:2:0:0:
478,205,26264,1,2,0:0:0:0:
458,289,26421,1,2,0:0:0:0:
492,375,26578,2,0,L|477:291,1,72,2|2,0:0|0:0,0:0:0:0:
362,207,26892,1,2,0:0:0:0:
382,291,27049,1,2,0:0:0:0:
348,377,27206,2,0,L|363:293,1,72,2|2,0:0|0:0,0:0:0:0:
227,205,27520,1,2,0:0:0:0:
207,289,27677,1,2,0:0:0:0:
241,375,27834,2,0,L|226:291,1,72,2|2,0:0|0:0,0:0:0:0:
88,208,28148,1,2,0:0:0:0:
108,292,28305,1,2,0:0:0:0:
27,380,28462,6,0,P|16:305|-5:209,1,144,2|2,3:2|0:0,0:0:0:0:
35,158,28934,1,0,0:0:0:0:
115,222,29091,2,0,P|126:147|147:51,1,144,2|2,0:0|0:0,0:0:0:0:
107,0,29563,1,0,0:0:0:0:
162,92,29719,6,0,P|206:84|230:49,1,72,2|0,0:0|0:0,0:0:0:0:
306,132,30033,2,0,P|317:88|295:52,1,72,2|0,0:0|0:0,0:0:0:0:
430,40,30347,2,0,P|395:11|353:15,1,72,2|2,0:0|0:0,0:0:0:0:
237,164,30661,2,0,B|307:148|266:197|369:184,1,108,2|0,0:0|0:0,0:0:0:0:
338,186,30976,5,2,3:2:0:0:
462,273,31290,1,2,0:0:0:0:
378,293,31447,1,2,0:0:0:0:
292,259,31604,2,0,L|376:274,1,72,2|2,0:0|0:0,0:0:0:0:
427,188,31918,2,0,L|511:173,1,72,2|2,0:0|0:0,0:0:0:0:
334,110,32232,1,2,3:2:0:0:
265,139,32389,2,0,L|181:124,1,72,2|2,0:0|0:0,0:0:0:0:
107,118,32703,1,2,0:0:0:0:
242,54,32860,1,2,3:2:0:0:
194,126,33017,2,0,L|209:210,1,72,2|2,0:0|0:0,0:0:0:0:
207,273,33332,1,2,0:0:0:0:
56,263,33489,6,0,L|139:234,1,80.9999975280763,2|0,3:2|0:0,0:0:0:0:
221,284,33803,2,0,L|304:313,1,80.9999975280763,2|0,3:2|0:0,0:0:0:0:
372,260,34117,2,0,L|455:231,1,80.9999975280763,2|0,3:2|0:0,0:0:0:0:
437,320,34431,1,2,3:2:0:0:
448,233,34588,1,0,0:0:0:0:
330,199,34745,6,0,L|349:25,1,161.999995056153,2|2,3:2|3:2,0:0:0:0:
274,2,35216,1,0,0:0:0:0:
213,94,35373,2,0,P|175:104|122:79,1,80.9999975280763,2|0,3:2|0:0,0:0:0:0:
20,0,35688,1,2,3:2:0:0:
20,0,35845,1,2,2:2:0:0:
60,149,36002,6,0,B|65:233|7:185|17:284,1,121.499996292114,2|0,3:2|0:0,0:0:0:0:
11,338,36316,1,2,3:2:0:0:
91,318,36473,1,0,0:2:0:0:
158,363,36630,2,0,P|203:348|247:338,1,80.9999975280763,2|0,3:2|0:0,0:0:0:0:
312,276,36944,2,0,P|353:297|391:321,1,80.9999975280763,2|0,3:2|0:0,0:0:0:0:
450,384,37258,6,0,P|415:343|431:235,2,161.999995056153,2|2|2,3:2|3:2|3:2,0:0:0:0:
488,198,38201,1,2,3:2:0:0:
488,198,38358,1,2,0:2:0:0:
384,123,38515,6,0,B|308:115|351:178|253:159,1,121.499996292114,2|0,3:2|0:0,0:0:0:0:
251,188,38829,2,0,P|244:128|232:62,1,121.499996292114,2|0,3:2|0:0,0:0:0:0:
165,33,39143,2,0,P|134:61|89:69,1,80.9999975280763,2|0,3:2|0:0,0:0:0:0:
0,119,39457,2,0,P|39:131|69:166,1,80.9999975280763,2|0,3:2|0:0,0:0:0:0:
17,357,39771,6,0,L|1:191,1,161.999995056153,2|2,3:2|3:2,0:0:0:0:
143,141,40400,2,0,L|127:302,1,161.999995056153,2|2,3:2|3:2,0:0:0:0:
148,63,41028,6,0,B|62:50|93:140|-15:107,1,161.999995056153,2|2,3:2|3:2,0:0:0:0:
226,18,41656,2,0,B|312:5|281:95|389:62,1,161.999995056153,2|2,3:2|3:2,0:0:0:0:
226,112,42284,6,0,L|223:102,1,9,2|0,3:2|0:0,0:0:0:0:
340,206,42599,6,0,L|350:208,1,9,2|0,3:2|0:0,0:0:0:0:
201,257,42913,6,0,L|194:265,1,9,2|0,3:2|0:0,0:0:0:0:
295,156,43227,6,0,L|259:196,1,54,4|0,2:3|0:0,0:0:0:0:
259,196,43541,6,0,L|439:187,1,175.499991966248,6|0,3:2|0:0,0:0:0:0:
485,114,43855,2,0,L|499:50,1,58.4999973220826,10|0,0:2|0:0,0:0:0:0:
338,39,44012,2,0,L|352:103,1,58.4999973220826,8|0,0:2|0:0,0:0:0:0:
177,196,44169,2,0,B|93:195|137:116|27:110,1,175.499991966248,2|0,3:2|0:0,0:0:0:0:
5,195,44483,1,10,0:2:0:0:
189,326,44640,1,2,0:2:0:0:
116,363,44798,6,0,P|143:312|294:287,1,175.499991966248,2|0,3:2|0:0,0:0:0:0:
341,363,45112,2,0,P|321:329|320:297,1,58.4999973220826,10|0,0:2|0:0,0:0:0:0:
412,239,45269,2,0,P|432:205|433:173,1,58.4999973220826,10|0,0:2|0:0,0:0:0:0:
280,88,45426,2,0,L|300:235,1,116.999994644165,2|0,3:2|0:0,0:0:0:0:
406,318,45740,1,10,0:2:0:0:
248,272,45897,1,2,0:2:0:0:
295,203,46054,6,0,L|273:23,1,175.499991966248,2|0,3:2|0:0,0:0:0:0:
392,18,46368,2,0,P|357:73|355:89,1,58.4999973220826,10|0,0:2|0:0,0:0:0:0:
455,148,46525,2,0,P|440:84|430:71,1,58.4999973220826,8|0,0:2|0:0,0:0:0:0:
318,310,46682,2,0,B|436:319|363:236|513:260,1,175.499991966248,2|0,3:2|0:0,0:0:0:0:
490,268,46997,2,0,L|478:393,1,116.999994644165,10|0,0:2|0:2,0:0:0:0:
295,203,47311,6,0,B|284:165|243:141|195:136|173:165|173:165|212:180,1,180,2|10,3:2|0:2,0:0:0:0:
275,87,47782,1,10,0:2:0:0:
132,101,47939,2,0,P|99:141|101:185,1,90,2|0,3:2|0:0,0:0:0:0:
177,277,48253,2,0,P|210:237|208:193,1,90,10|0,0:2|0:2,0:0:0:0:
22,55,48567,5,2,3:2:0:0:
132,101,48724,1,2,0:2:0:0:
283,42,48881,2,0,L|344:34,1,58.4999973220826,10|0,0:2|0:0,0:0:0:0:
190,108,49038,2,0,L|129:100,1,58.4999973220826,10|0,0:2|0:0,0:0:0:0:
295,203,49195,2,0,B|406:202|341:143|456:142,1,175.499991966248,2|0,3:2|0:0,0:0:0:0:
496,220,49510,1,10,0:2:0:0:
348,296,49667,2,0,L|287:281,1,40.4999987640381,2|0,0:2|0:0,0:0:0:0:
226,235,49824,6,0,L|243:379,1,116.999994644165,2|0,3:2|0:0,0:0:0:0:
72,262,50138,2,0,P|103:276|124:331,1,58.4999973220826,10|0,0:2|0:0,0:0:0:0:
203,160,50295,2,0,P|171:174|150:229,1,58.4999973220826,10|0,0:2|0:0,0:0:0:0:
56,65,50452,2,0,P|66:114|76:195,1,116.999994644165,2|0,3:2|0:0,0:0:0:0:
152,78,50766,1,10,0:2:0:0:
0,9,50923,1,2,0:2:0:0:
56,65,51080,6,0,B|174:74|101:-9|251:15,1,175.499991966248,2|0,3:2|0:0,0:0:0:0:
310,36,51394,2,0,P|296:68|291:94,1,58.4999973220826,10|0,0:2|0:0,0:0:0:0:
424,163,51551,2,0,P|417:134|405:107,1,58.4999973220826,10|0,0:2|0:0,0:0:0:0:
344,276,51709,2,0,P|398:221|537:220,1,175.499991966248,2|0,3:2|0:0,0:0:0:0:
439,296,52023,2,0,B|334:306|389:217|238:250,1,175.499991966248,10|0,0:2|0:0,0:0:0:0:
117,340,52337,6,0,B|158:327|185:282|190:230|158:205|158:205|142:248,1,202.500007724762,2|0,3:2|0:0,0:0:0:0:
248,313,52651,1,10,0:2:0:0:
248,313,52808,1,8,0:2:0:0:
168,124,52965,2,0,P|111:136|69:239,1,175.499991966248,2|0,3:2|0:0,0:0:0:0:
117,340,53279,1,10,0:2:0:0:
332,157,53593,6,0,B|443:128|371:228|546:198,1,175.499991966248,2|0,3:2|0:0,0:0:0:0:
475,114,53908,2,0,L|485:55,1,58.4999973220826,10|0,0:2|0:0,0:0:0:0:
340,14,54065,2,0,L|350:73,1,58.4999973220826,10|0,0:2|0:0,0:0:0:0:
266,234,54222,2,0,P|238:174|134:158,1,175.499991966248,2|0,3:2|0:0,0:0:0:0:
85,279,54536,2,0,P|141:272|178:229,1,116.999994644165,10|0,0:2|0:0,0:0:0:0:
20,21,54850,6,0,P|32:110|42:202,1,175.499991966248,2|0,3:2|0:0,0:0:0:0:
85,279,55164,2,0,L|14:267,1,58.4999973220826,10|0,0:2|0:0,0:0:0:0:
186,200,55321,2,0,L|128:190,1,58.4999973220826,10|0,0:2|0:0,0:0:0:0:
265,255,55478,2,0,P|349:277|376:383,1,175.499991966248,2|0,3:2|0:0,0:0:0:0:
263,349,55792,1,10,0:2:0:0:
415,226,55949,1,2,0:2:0:0:
488,301,56106,6,0,L|506:148,1,116.999994644165,2|0,3:2|0:0,0:0:0:0:
340,87,56421,2,0,P|354:112|379:124,1,58.4999973220826,10|0,0:2|0:0,0:0:0:0:
499,40,56578,2,0,P|486:13|461:0,1,58.4999973220826,10|0,0:2|0:0,0:0:0:0:
259,35,56735,2,0,B|151:30|206:109|94:104,1,175.499991966248,2|0,3:2|0:0,0:0:0:0:
84,123,57049,2,0,L|65:-1,1,116.999994644165,10|0,0:2|0:0,0:0:0:0:
32,182,57363,6,0,B|8:208|42:267|42:267|100:233|93:198,1,180,2|10,3:2|0:2,0:0:0:0:
20,342,57834,1,8,0:2:0:0:
187,266,57991,6,0,P|211:205|183:147,1,135,2|0,3:2|0:0,0:0:0:0:
166,133,58305,2,0,P|141:72|170:13,1,135,10|0,0:2|0:0,0:0:0:0:
223,79,58620,6,0,B|282:99|322:74|322:74|292:93|235:70,1,161.999995056153,2|0,3:2|0:0,0:0:0:0:
387,34,58934,1,10,0:2:0:0:
387,34,59091,1,8,0:2:0:0:
441,84,59248,6,0,B|461:143|436:183|436:183|455:153|432:96,1,188.999994232178,2|0,3:2|0:0,0:0:0:0:
378,20,59562,5,10,0:2:0:0:
512,212,59876,6,0,P|432:224|396:337,1,175.499991966248,2|0,3:2|0:0,0:0:0:0:
480,384,60190,2,0,P|506:340|475:287,1,116.999994644165,10|2,0:2|0:2,0:0:0:0:
292,189,60504,6,0,L|307:259,1,58.4999973220826,10|0,0:2|0:0,0:0:0:0:
349,61,60818,2,0,L|334:131,1,58.4999973220826,10|0,0:2|0:0,0:0:0:0:
336,118,61133,6,0,L|107:89,1,188.999994232178,6|0,3:2|0:0,0:0:0:0:
32,53,61447,2,0,P|46:79|75:96,1,62.9999980773926,14|0,0:2|0:0,0:0:0:0:
156,206,61604,2,0,P|141:179|112:162,1,62.9999980773926,10|0,0:2|0:0,0:0:0:0:
0,302,61761,6,0,L|275:266,1,251.999992309571,6|14,3:2|0:2,0:0:0:0:
401,347,62232,1,2,0:2:0:0:
321,382,62389,6,0,B|431:328|346:279|469:238,1,188.999994232178,6|0,3:2|0:0,0:0:0:0:
460,148,62703,2,0,P|488:164|504:190,1,62.9999980773926,14|0,0:2|0:0,0:0:0:0:
443,247,62860,2,0,P|415:231|399:205,1,62.9999980773926,10|0,0:2|0:0,0:0:0:0:
478,0,63017,6,0,B|346:64|448:123|300:172,1,251.999992309571,6|14,3:2|0:2,0:0:0:0:
140,51,63489,1,2,0:2:0:0:
230,12,63646,6,0,P|204:98|172:230,1,188.999994232178,6|0,3:2|0:0,0:0:0:0:
110,132,63960,2,0,P|82:116|66:90,1,62.9999980773926,14|0,0:2|0:0,0:0:0:0:
116,248,64117,2,0,P|143:263|159:289,1,62.9999980773926,10|0,0:2|0:0,0:0:0:0:
0,384,64274,6,0,P|26:298|58:166,1,188.999994232178,6|0,3:2|0:0,0:0:0:0:
33,191,64588,2,0,P|1:227|-2:264,1,62.9999980773926,14|0,0:2|0:0,0:0:0:0:
300,276,64902,6,0,P|363:194|501:221,1,251.999992309571,6|14,3:2|0:2,0:0:0:0:
418,297,65373,1,10,0:2:0:0:
243,195,65531,2,0,P|306:127|419:101,1,188.999994232178,6|0,3:2|0:0,0:0:0:0:
410,111,65845,6,0,P|376:100|353:52,1,80.9999975280763,10|0,0:2|0:0,0:0:0:0:
230,68,66159,6,0,B|253:188|323:118|330:248,1,188.999994232178,6|0,3:2|0:0,0:0:0:0:
421,263,66473,2,0,P|398:285|369:294,1,62.9999980773926,14|0,0:2|0:0,0:0:0:0:
328,222,66630,2,0,P|350:199|379:190,1,62.9999980773926,8|0,0:2|0:0,0:0:0:0:
512,168,66787,6,0,B|483:312|400:228|391:384,1,251.999992309571,6|14,3:2|0:2,0:0:0:0:
251,268,67258,2,0,L|173:256,1,62.9999980773926,2|0,0:2|0:0,0:0:0:0:
166,361,67415,6,0,L|137:132,1,188.999994232178,6|0,3:2|0:0,0:0:0:0:
26,84,67729,2,0,P|52:98|69:127,1,62.9999980773926,14|0,0:2|0:0,0:0:0:0:
260,172,67886,2,0,P|233:157|216:128,1,62.9999980773926,8|0,0:2|0:0,0:0:0:0:
387,34,68044,6,0,L|135:65,1,251.999992309571,6|14,3:2|0:2,0:0:0:0:
342,171,68515,1,2,0:2:0:0:
434,126,68672,6,0,P|406:216|383:308,1,188.999994232178,6|0,3:2|0:0,0:0:0:0:
314,356,68986,2,0,P|286:340|270:314,1,62.9999980773926,14|0,0:2|0:0,0:0:0:0:
469,303,69143,2,0,P|497:319|513:345,1,62.9999980773926,10|0,0:2|0:0,0:0:0:0:
317,246,69300,6,0,P|226:218|134:195,1,188.999994232178,6|0,3:2|0:0,0:0:0:0:
59,324,69614,2,0,B|107:229|-4:241|83:115,1,188.999994232178,14|0,0:2|0:0,0:0:0:0:
186,33,69928,6,0,P|136:114|-28:106,1,251.999992309571,6|14,3:2|0:2,0:0:0:0:
56,5,70400,1,8,0:2:0:0:
255,108,70557,2,0,B|384:72|527:43,1,251.999992309571,6|14,3:2|0:2,0:0:0:0:
499,48,71185,6,0,B|464:78|472:145|472:145|513:91|498:48,1,188.999994232178,6|0,3:2|0:0,0:0:0:0:
406,192,71499,2,0,P|439:225|470:230,1,62.9999980773926,14|0,0:2|0:0,0:0:0:0:
340,102,71656,2,0,P|324:145|332:176,1,62.9999980773926,10|0,0:2|0:0,0:0:0:0:
473,145,71813,6,0,B|519:104|508:12|508:12|453:86|473:143,1,251.999992309571,6|10,3:2|0:2,0:0:0:0:
374,338,72442,6,0,B|339:307|347:240|347:240|388:294|373:337,1,188.999994232178,6|0,3:2|0:0,0:0:0:0:
278,198,72756,2,0,P|311:165|342:160,1,62.9999980773926,14|0,0:2|0:0,0:0:0:0:
214,277,72913,2,0,P|198:233|206:202,1,62.9999980773926,10|0,0:2|0:0,0:0:0:0:
348,240,73070,6,0,B|394:280|383:372|383:372|328:298|348:241,1,251.999992309571,6|10,3:2|0:2,0:0:0:0:
325,160,73541,1,2,0:2:0:0:
214,277,73698,6,0,B|93:260|157:333|25:308,1,188.999994232178,6|0,3:2|0:0,0:0:0:0:
105,190,74012,2,0,P|72:223|67:254,1,62.9999980773926,14|0,0:2|0:0,0:0:0:0:
195,124,74169,2,0,P|152:108|121:116,1,62.9999980773926,10|0,0:2|0:0,0:0:0:0:
46,85,74326,2,0,L|262:57,1,188.999994232178,6|0,3:2|0:0,0:0:0:0:
316,106,74640,2,0,P|350:70|323:2,1,125.999996154785,10|2,0:2|0:2,0:0:0:0:
234,256,74955,6,0,B|205:224|246:154|246:154|315:194|307:236,1,215.999993408203,6|14,3:2|0:2,0:0:0:0:
291,309,75426,1,10,0:2:0:0:
512,142,75583,6,0,B|401:104|450:179|351:151,1,161.999995056153,2|0,3:2|0:0,0:0:0:0:
350,138,75897,2,0,B|239:176|288:101|189:129,1,161.999995056153,8|0,0:2|0:0,0:0:0:0:
127,83,76211,5,6,3:2:0:0:
55,143,76368,1,2,0:2:0:0:
68,244,76525,5,12,0:2:0:0:
140,184,76682,1,2,0:2:0:0:
348,334,76839,5,6,3:2:0:0:
276,248,76996,1,2,0:2:0:0:
155,264,77153,5,12,0:2:0:0:
227,350,77310,1,2,0:2:0:0:
454,102,77468,5,6,3:2:0:0:
367,205,77625,1,2,0:2:0:0:
222,186,77782,5,12,0:2:0:0:
308,82,77939,1,2,0:2:0:0:
16,59,78096,5,6,3:2:0:0:
121,183,78253,1,6,0:3:0:0:
320,90,78410,1,12,0:2:0:0:
489,259,78567,1,6,0:3:0:0:
441,165,78724,6,0,B|222:112,1,216,14|0,0:2|0:0,0:0:0:0:
4,51,79038,1,14,0:2:0:0:
127,91,79195,1,2,0:2:0:0:
51,128,79353,6,0,B|102:338,1,216,6|0,0:2|0:0,0:0:0:0:
79,349,79667,2,0,B|53:311|53:311|60:262,1,94.499997116089,10|0,0:2|0:0,0:0:0:0:
375,227,79981,6,0,B|165:277,1,216,14|0,0:2|0:0,0:0:0:0:
293,330,80295,1,14,0:2:0:0:
245,175,80452,1,2,0:2:0:0:
303,245,80609,6,0,B|353:35,1,216,6|0,0:2|0:0,0:0:0:0:
463,78,80923,1,10,0:2:0:0:
353,34,81080,1,2,0:2:0:0:
223,263,81237,6,0,B|212:132|118:239|120:27,1,216,14|0,0:2|0:0,0:0:0:0:
269,7,81551,1,14,0:2:0:0:
208,107,81709,1,2,0:2:0:0:
456,237,81866,6,0,B|325:248|432:342|220:340,1,216,6|0,0:2|0:0,0:0:0:0:
150,334,82180,2,0,B|105:319|105:319|259:256,1,188.999994232178,10|0,0:2|0:0,0:0:0:0:
385,121,82494,6,0,B|434:137|434:137|281:200,1,215.999993408203,14|14,0:2|0:2,0:0:0:0:
390,126,83122,1,6,0:2:0:0:
305,48,83279,1,0,0:0:0:0:
473,60,83436,1,10,0:2:0:0:
376,243,83593,1,0,0:0:0:0:
177,6,83750,6,0,L|215:292,1,270.000010299683,14|14,0:2|0:2,0:0:0:0:
233,369,84222,1,2,0:2:0:0:
193,16,84379,6,0,B|111:128|289:153|210:302,1,288,6|10,0:2|0:2,0:0:0:0:
233,369,84851,1,2,0:2:0:0:
213,17,85007,6,0,B|297:135|93:165|196:303,1,306.000005836487,14|14,0:2|0:2,0:0:0:0:
233,369,85479,1,2,0:2:0:0:
431,133,85635,6,0,P|461:39|325:93,2,323.999990112305,14|10|2,0:2|0:2|0:0,0:0:0:0:
45,355,88777,6,0,P|72:318|180:319,1,135,6|0,0:0|0:0,0:0:0:0:
272,305,89091,1,10,0:2:0:0:
222,360,89248,1,10,0:2:0:0:
330,250,89405,2,0,L|514:221,1,180,2|10,0:2|0:2,0:0:0:0:
404,152,89876,1,2,0:0:0:0:
448,66,90033,5,2,0:2:0:0:
411,166,90190,1,2,0:0:0:0:
295,135,90347,1,10,0:2:0:0:
348,74,90504,1,10,0:2:0:0:
230,198,90661,1,2,0:2:0:0:
127,144,90818,2,0,L|74:138,1,45,2|0,0:2|0:0,0:0:0:0:
16,187,90976,1,10,0:2:0:0:
49,258,91133,1,2,0:2:0:0:
116,47,91290,6,0,P|129:110|154:250,1,180,2|10,0:0|0:2,0:0:0:0:
62,338,91761,1,8,0:2:0:0:
174,251,91918,2,0,P|227:246|283:320,1,135,2|0,0:0|0:0,0:0:0:0:
272,323,92232,2,0,L|389:309,1,108,8|0,0:2|0:0,0:0:0:0:
437,365,92546,6,0,P|458:302|431:242,1,135,2|0,0:0|0:0,0:0:0:0:
356,170,92860,1,10,0:2:0:0:
321,241,93017,1,8,0:2:0:0:
482,177,93175,2,0,L|453:-7,1,180,2|10,0:0|0:2,0:0:0:0:
321,241,93803,6,0,L|204:255,1,108,2|0,0:0|0:0,0:0:0:0:
106,349,94117,2,0,L|96:285,1,53.9999983520508,10|0,0:2|0:0,0:0:0:0:
43,212,94274,2,0,L|53:148,1,53.9999983520508,10|0,0:2|0:0,0:0:0:0:
31,52,94431,1,2,0:0:0:0:
144,21,94588,1,2,0:0:0:0:
172,104,94745,1,10,0:2:0:0:
100,93,94902,1,2,0:0:0:0:
281,10,95059,5,2,0:0:0:0:
261,102,95216,1,2,0:0:0:0:
380,209,95373,1,10,0:2:0:0:
352,80,95530,1,10,0:2:0:0:
511,186,95688,2,0,P|477:227|385:214,1,135,2|0,0:0|0:0,0:0:0:0:
380,209,96002,2,0,L|394:326,1,108,10|0,0:2|0:0,0:0:0:0:
457,356,96316,6,0,L|286:322,1,135,2|0,0:0|0:0,0:0:0:0:
198,329,96630,1,10,0:2:0:0:
248,384,96787,1,8,0:2:0:0:
332,251,96944,2,0,P|315:192|221:174,1,148.50000453186,2|0,0:0|0:0,0:0:0:0:
228,188,97258,2,0,B|209:91|280:128|264:18,1,161.999995056153,10|0,0:2|0:0,0:0:0:0:
346,0,97572,1,2,0:0:0:0:
365,147,97729,1,2,0:0:0:0:
448,119,97886,1,10,0:2:0:0:
376,75,98043,1,8,0:2:0:0:
440,259,98200,5,2,0:0:0:0:
348,239,98357,1,0,0:0:0:0:
241,358,98515,2,0,B|312:330|275:387|375:360,1,108,10|0,0:2|0:0,0:0:0:0:
421,312,98829,6,0,P|431:215|439:167,1,135,6|0,0:0|0:0,0:0:0:0:
304,149,99143,1,10,0:2:0:0:
359,199,99300,1,10,0:2:0:0:
508,39,99457,6,0,B|313:39|406:217|154:187,1,377.999988464356,2|0,0:1|0:0,0:0:0:0:
73,80,100086,6,0,B|125:94|190:155|171:242|91:309|91:309|0:214|87:145,1,440.999986541748,2|0,0:1|0:0,0:0:0:0:
159,38,100714,6,0,B|289:68|191:314|273:356|328:388|328:388|267:341|271:255,1,504,2|0,0:1|0:0,0:0:0:0:
350,268,101342,6,0,P|401:225|466:233,1,135,2|0,0:0|0:0,0:0:0:0:
476,382,101656,1,10,0:2:0:0:
421,332,101813,1,10,0:2:0:0:
494,159,101970,1,2,0:0:0:0:
350,111,102127,1,2,0:0:0:0:
411,1,102284,2,0,L|423:135,1,135,10|0,0:2|0:0,0:0:0:0:
362,224,102599,6,0,P|336:186|285:184,1,90,2|2,0:0|0:0,0:0:0:0:
202,319,102913,1,10,0:2:0:0:
264,278,103070,1,10,0:2:0:0:
31,135,103227,2,0,L|44:319,1,161.999995056153,2|0,0:0|0:0,0:0:0:0:
114,234,103541,2,0,L|106:126,1,108,10|0,0:2|0:0,0:0:0:0:
53,21,103855,6,0,P|77:60|185:68,1,135,2|0,0:0|0:0,0:0:0:0:
275,90,104169,1,10,0:2:0:0:
230,31,104326,1,8,0:2:0:0:
328,150,104483,2,0,B|420:102|407:197|516:133,1,180,2|10,0:0|0:2,0:0:0:0:
294,236,105112,6,0,B|264:280|280:313|280:313|307:284|296:246,1,135,2|0,0:0|0:0,0:0:0:0:
422,264,105426,1,10,0:2:0:0:
372,209,105583,1,10,0:2:0:0:
471,329,105740,2,0,P|501:285|465:200,1,135,2|0,0:0|0:0,0:0:0:0:
460,191,106054,2,0,P|446:133|478:83,1,121.499996292114,10|0,0:2|0:0,0:0:0:0:
382,0,106368,5,2,0:0:0:0:
282,37,106525,1,2,0:0:0:0:
313,153,106682,1,10,0:2:0:0:
374,100,106839,1,10,0:2:0:0:
219,200,106997,5,2,0:0:0:0:
243,120,107154,1,2,0:0:0:0:
179,271,107311,1,10,0:2:0:0:
131,111,107469,1,2,0:0:0:0:
294,231,107625,5,2,0:2:0:0:
294,231,107782,1,2,0:2:0:0:
139,347,107939,5,10,0:2:0:0:
139,347,108096,1,10,0:2:0:0:
131,111,108253,5,10,0:2:0:0:
131,111,108567,6,0,L|15:101,1,94.499997116089,4|0,0:3|0:0,0:0:0:0:
318,285,108881,6,0,B|364:238|417:270|284:252|472:252|603:207|569:349|498:462|419:413|331:271|476:247|378:102,1,540,6|0,0:3|0:0,0:0:0:0:
