osu file format v14

[General]
AudioFilename: besssst.mp3
AudioLeadIn: 0
PreviewTime: 43402
Countdown: 0
SampleSet: Soft
StackLeniency: 0.7
Mode: 0
LetterboxInBreaks: 0
EpilepsyWarning: 1
WidescreenStoryboard: 1

[Editor]
Bookmarks: 82688,99966,101222
DistanceSpacing: 1
BeatDivisor: 4
GridSize: 16
TimelineZoom: 1

[Metadata]
Title:Ikanaide
TitleUnicode:いかないで
Artist:Madotsuki@
ArtistUnicode:窓付き@
Creator:sheela901
Version:Normal
Source:
Tags:kaai yuki 歌愛ユキ 想太 sohta souta eve don't go vocaloid utaite nico douga hootowlstar pandorawindy
BeatmapID:731679
BeatmapSetID:315799

[Difficulty]
HPDrainRate:4
CircleSize:3.2
OverallDifficulty:4
ApproachRate:5
SliderMultiplier:1.2
SliderTickRate:1

[Events]
//Background and Video events
0,0,"blop.png",0,0
//Break Periods
2,164230,165343
//Storyboard Layer 0 (Background)
//Storyboard Layer 1 (Fail)
//Storyboard Layer 2 (Pass)
//Storyboard Layer 3 (Foreground)
Sprite,Foreground,Centre,"SB\bg.jpg",320,240 C,0,-576,,89,114,120 S,0,-576,191674,0.9 F,0,51,680,0,1 C,0,43402,43716,89,114,120,255,192,203 C,0,60994,61151,255,192,203,255,255,255 C,0,61622,62250,255,255,255,255,192,203 C,0,78585,78899,255,212,223,89,114,120 C,0,121308,121622,89,114,120,255,192,203 C,0,138585,138899,255,192,203,89,114,120 C,0,138899,139056,89,114,120,225,225,225 C,0,139528,140156,225,225,225,255,192,203 C,0,156491,156648,255,192,203,225,225,225 C,0,164030,164344,225,225,225,89,114,120 F,0,191046,191674,1,0
Sprite,Foreground,Centre,"sb\bub.png",515,177 F,0,680,994,1,0 S,0,680,994,0.5
Sprite,Foreground,Centre,"sb\bub.png",407,151 F,0,994,1308,1,0 S,0,994,1308,0.5
Sprite,Foreground,Centre,"sb\bub.png",333,245 F,0,1308,1622,1,0 S,0,1308,1622,0.5
Sprite,Foreground,Centre,"sb\bub.png",338,305 F,0,1465,1779,1,0 S,0,1465,1779,0.5
Sprite,Foreground,Centre,"sb\bub.png",333,245 F,0,1622,1936,1,0 S,0,1622,1936,0.5
Sprite,Foreground,Centre,"sb\bub.png",239,167 F,0,1936,2250,1,0 S,0,1936,2250,0.5
Sprite,Foreground,Centre,"sb\bub.png",245,107 F,0,2093,2407,1,0 S,0,2093,2407,0.5
Sprite,Foreground,Centre,"sb\bub.png",239,167 F,0,2250,2564,1,0 S,0,2250,2564,0.5
Sprite,Foreground,Centre,"sb\bub.png",205,212 F,0,2407,2721,1,0 S,0,2407,2721,0.5
Sprite,Foreground,Centre,"sb\bub.png",205,212 F,0,2564,2878,1,0 S,0,2564,2878,0.5
Sprite,Foreground,Centre,"SB\pulse.png",504,322 S,0,156491,156805,0.25,1 S,1,156805,157748,1,1.1 F,0,157433,157748,1,0
Sprite,Foreground,Centre,"SB\pulse.png",264,379 S,0,159004,159318,0.25,1 S,1,159318,160261,1,1.1 F,0,159947,160261,1,0
Sprite,Foreground,Centre,"SB\pulse.png",304,214 S,0,161517,161831,0.25,1 S,1,161831,162774,1,1.1 F,0,162460,162774,1,0
Sprite,Foreground,Centre,"SB\intro\nm.png",320,240 S,0,18271,,0.2 C,0,18271,,155,200,100 P,0,18271,,A F,0,18271,18585,0,1 MX,1,18271,18585,40,60 MY,1,18271,18585,344 F,0,22983,23297,1,0
Sprite,Foreground,Centre,"SB\intro\sheela.png",320,240 S,0,18271,,0.2 C,0,18271,,255,100,200 P,0,18271,,A F,0,18271,18585,0,1 MX,1,18271,18585,300,280 MY,1,18271,18585,364 F,0,22983,23297,1,0
//Storyboard Sound Samples

[TimingPoints]
680,314.13612565445,4,2,1,80,1,0
2721,-100,4,2,1,40,0,0
2878,-100,4,2,1,60,0,0
23297,-111.111111111111,4,2,1,60,0,0
33350,-105.263157894737,4,3,1,60,0,0
43402,-100,4,2,1,70,0,1
60051,-100,4,2,1,75,0,1
60365,-100,4,2,1,80,0,1
60679,-100,4,2,1,85,0,0
60994,-100,4,2,1,70,0,1
78585,-100,4,2,1,40,0,0
81098,-100,4,2,1,60,0,0
121308,-100,4,2,1,70,0,1
138585,-100,4,2,1,60,0,0
138899,-100,4,2,1,70,0,1
148952,-100,4,2,0,50,0,1
149030,-100,4,2,1,70,0,1
156334,-100,4,2,1,70,0,0
156491,-90.9090909090909,4,2,1,80,0,1
164030,-100,4,2,1,50,0,0
166543,-100,4,2,1,60,0,0
186648,-100,4,2,1,30,0,0
187276,-100,4,2,1,45,0,0
187905,-100,4,2,1,40,0,0
188533,-100,4,2,1,30,0,0
189161,-100,4,2,1,25,0,0
189789,-100,4,2,1,20,0,0
190418,-100,4,2,1,15,0,0
191046,-100,4,2,1,10,0,0
191674,-100,4,2,3,5,0,0

[Colours]
Combo1 : 255,128,128
Combo2 : 96,54,205
Combo3 : 172,41,20
Combo4 : 204,166,22

[HitObjects]
451,123,680,6,0,P|391:89|326:107,1,120,8|8,0:0|0:0,0:0:0:0:
269,191,1308,2,0,L|275:260,2,60,8|8|8,0:0|0:0|0:0,0:0:0:0:
175,113,1936,2,0,L|183:30,2,60,8|8|8,0:0|0:0|0:0,0:0:0:0:
139,161,2407,1,8,0:0:0:0:
139,161,2564,2,0,P|131:218|178:286,1,120,8|8,0:0|3:0,0:0:0:0:
277,299,3193,6,0,L|419:288,1,120,6|8,0:0|0:0,0:0:0:0:
451,265,3664,2,0,B|459:222|459:222|447:181|447:181|455:130,1,120,10|2,0:0|0:0,0:0:0:0:
479,94,4135,1,8,0:0:0:0:
377,30,4449,2,0,P|342:48|254:39,1,120,2|8,0:0|0:0,0:0:0:0:
205,60,4920,2,0,L|215:199,1,120,8|0,0:0|0:0,0:0:0:0:
198,238,5392,1,8,0:0:0:0:
315,263,5706,6,0,L|321:136,2,120,0|8|0,0:0|0:0|0:0,0:0:0:0:
231,349,6648,1,8,0:0:0:0:
123,297,6962,2,0,P|59:242|54:182,2,120,0|8|0,0:0|0:0|0:0,0:0:0:0:
170,186,7905,1,8,0:0:0:0:
272,123,8219,6,0,B|367:130|367:130|416:117,1,120,2|10,0:0|0:0,0:0:0:0:
431,79,8690,2,0,B|424:174|424:174|436:223,1,120,10|2,0:0|0:0,0:0:0:0:
447,255,9161,1,8,0:0:0:0:
327,255,9475,2,0,B|274:247|274:247|228:259|184:241,1,120,2|8,0:0|0:0,0:0:0:0:
164,206,9947,1,8,0:0:0:0:
187,150,10104,2,0,B|255:136|255:136|323:144,1,120,0|10,0:0|0:0,0:0:0:0:
424,157,10732,6,0,P|445:111|413:27,2,120,0|8|0,0:0|0:0|0:0,0:0:0:0:
349,251,11674,1,8,0:0:0:0:
243,197,11988,2,0,L|193:249,1,60
158,283,12303,2,0,P|104:305|45:296,1,120,8|0,0:0|0:0,0:0:0:0:
94,186,12931,1,8,0:0:0:0:
178,100,13245,6,0,L|318:85,1,120,6|10,0:0|0:0,0:0:0:0:
351,60,13716,2,0,P|343:128|383:182,1,120,10|2,0:0|0:0,0:0:0:0:
423,193,14187,1,8,0:0:0:0:
466,304,14501,2,0,B|395:302|395:302|336:313,1,120,2|8,0:0|0:0,0:0:0:0:
288,327,14973,2,0,P|316:243|300:196,1,120,8|0,0:0|0:0,0:0:0:0:
262,178,15444,1,8,0:0:0:0:
166,250,15758,6,0,P|105:284|40:257,1,120,0|8,0:0|0:0,0:0:0:0:
17,160,16386,2,0,L|160:149,1,120,0|8,0:0|0:0,0:0:0:0:
217,61,17015,2,0,P|178:30|86:33,2,120,0|8|0,0:0|0:0|0:0,0:0:0:0:
285,163,17957,1,8,0:0:0:0:
400,121,18271,6,0,B|391:193|391:193|403:266,1,120,2|8,0:0|0:0,0:0:0:0:
416,296,18742,2,0,P|371:283|275:305,1,120,10|2,0:0|0:0,0:0:0:0:
247,322,19214,1,8,0:0:0:0:
134,363,19528,2,0,P|116:278|115:222,1,120,0|10,0:0|0:0,0:0:0:0:
138,190,19999,2,0,P|177:138|161:66,1,120,8|0,0:0|0:0,0:0:0:0:
135,38,20470,1,10,0:0:0:0:
34,103,20784,6,0,L|26:246,1,120,0|8,0:0|0:0,0:0:0:0:
134,277,21412,2,0,L|143:141,1,120,0|8,0:0|0:0,0:0:0:0:
235,81,22041,2,0,P|239:115|233:145,1,60,10|10,0:0|0:0,0:0:0:0:
252,197,22355,2,0,P|286:201|316:195,1,60,10|10,0:0|0:0,0:0:0:0:
362,165,22669,2,0,L|368:303,1,120,10|0,0:0|0:0,0:0:0:0:
284,350,23297,6,0,L|161:347,1,107.999996704102,4|0,3:0|0:0,0:0:0:0:
214,246,23926,2,0,L|339:243,1,107.999996704102
424,210,24554,2,0,P|443:169|431:92,2,107.999996704102
340,142,25496,1,0,0:0:0:0:
245,90,25810,6,0,B|147:81|147:81|113:85,1,107.999996704102,4|0,3:0|0:0,0:0:0:0:
84,95,26282,1,0,0:0:0:0:
84,95,26439,2,0,P|74:174|93:208,1,107.999996704102
190,219,27067,2,0,P|200:298|181:333,1,107.999996704102
296,336,27695,2,0,P|340:326|366:332,2,53.9999983520508
303,228,28323,6,0,P|349:200|367:130,1,107.999996704102,4|0,3:0|0:0,0:0:0:0:
261,133,28952,2,0,P|230:88|165:71,1,107.999996704102
165,177,29580,2,0,B|150:262|150:262|157:294,1,107.999996704102
169,335,30051,1,0,0:0:0:0:
169,335,30208,2,0,P|238:326|295:336,1,107.999996704102
384,330,30837,6,0,B|394:297|350:255|370:207,1,107.999996704102,4|0,3:0|0:0,0:0:0:0:
437,144,31465,2,0,P|382:117|317:125,1,107.999996704102
285,136,31936,1,0,0:0:0:0:
285,136,32093,2,0,P|230:163|169:147,1,107.999996704102,4|0,3:0|0:0,0:0:0:0:
81,128,32721,2,0,L|71:254,1,107.999996704102,4|0,3:0|0:0,0:0:0:0:
146,322,33350,5,8,3:0:0:0:
241,260,33664,1,8,3:0:0:0:
257,372,33978,1,8,3:0:0:0:
347,303,34292,1,8,3:0:0:0:
442,365,34606,2,0,P|459:316|435:233,1,113.999996955872,8|0,3:0|3:0,0:0:0:0:
348,202,35234,2,0,L|210:188,1,113.999996955872,8|8,3:0|0:0,0:0:0:0:
118,198,35863,6,0,P|101:149|121:73,1,113.999996955872,8|8,0:0|0:0,0:0:0:0:
144,42,36334,1,0,0:0:0:0:
194,69,36491,2,0,P|261:80|313:57,1,113.999996955872,8|8,0:0|0:0,0:0:0:0:
408,105,37119,2,0,P|402:147|428:233,1,113.999996955872,8|8,0:0|0:0,0:0:0:0:
462,321,37748,1,8,0:0:0:0:
349,338,38062,2,0,L|276:333,1,56.9999984779358,8|0,0:0|0:0,0:0:0:0:
235,328,38376,6,0,P|192:311|105:325,1,113.999996955872,8|8,0:0|0:0,0:0:0:0:
81,210,39004,2,0,P|146:217|205:197,1,113.999996955872,8|8,0:0|0:0,0:0:0:0:
295,157,39632,2,0,P|360:149|421:169,2,113.999996955872,8|8|8,0:0|0:0|0:0,0:0:0:0:
202,89,40575,1,8,0:0:0:0:
192,203,40889,2,0,L|179:328,1,113.999996955872,8|8,0:0|0:0,0:0:0:0:
293,304,41517,2,0,P|373:298|429:317,1,113.999996955872,8|8,0:0|0:0,0:0:0:0:
486,228,42145,5,8,0:0:0:0:
416,137,42460,1,8,0:0:0:0:
476,40,42774,1,8,0:0:0:0:
237,66,43402,6,0,P|196:49|101:62,1,120,4|10,0:0|0:0,0:0:0:0:
67,78,43873,1,8,0:0:0:0:
67,78,44030,2,0,P|52:200|61:218,1,120,2|10,0:0|0:0,0:0:0:0:
129,281,44659,2,0,L|270:285,1,120,2|10,0:0|0:0,0:0:0:0:
310,181,45287,2,0,L|450:184,1,120,0|10,0:0|0:0,0:0:0:0:
390,70,45915,6,0,P|339:58|249:76,1,120,2|10,0:0|0:0,0:0:0:0:
223,100,46386,1,8,0:0:0:0:
223,100,46543,2,0,P|235:151|219:235,1,120,2|10,0:0|0:0,0:0:0:0:
150,310,47172,2,0,L|296:298,1,120,2|10,0:0|0:0,0:0:0:0:
366,370,47800,2,0,P|388:332|363:238,1,120,2|8,0:0|0:0,0:0:0:0:
314,157,48428,6,0,P|373:140|441:160,1,120,2|10,0:0|0:0,0:0:0:0:
465,200,48899,1,8,0:0:0:0:
465,200,49056,2,0,L|470:55,1,120,2|10,0:0|0:0,0:0:0:0:
358,33,49685,2,0,B|286:37|286:37|214:29,1,120,2|10,0:0|0:0,0:0:0:0:
180,136,50313,2,0,B|108:132|108:132|45:135,1,120,2|10,0:0|0:0,0:0:0:0:
37,253,50941,6,0,P|56:316|111:341,1,120,2|10,0:0|0:0,0:0:0:0:
157,321,51412,1,8,0:0:0:0:
215,337,51570,2,0,P|266:327|346:339,1,120,2|10,0:0|0:0,0:0:0:0:
447,298,52198,2,0,L|434:154,2,120,0|10|2,0:0|0:0|0:0,0:0:0:0:
338,246,53140,1,10,0:0:0:0:
219,264,53454,6,0,B|195:199|195:199|214:131,1,120,0|10,0:0|0:0,0:0:0:0:
239,98,53926,1,8,0:0:0:0:
239,98,54083,2,0,P|180:111|101:80,1,120,0|10,0:0|0:0,0:0:0:0:
35,177,54711,2,0,P|20:235|46:305,1,120,2|10,0:0|0:0,0:0:0:0:
86,324,55182,1,8,0:0:0:0:
86,324,55339,2,0,B|157:346|157:346|225:346,1,120,2|10,0:0|0:0,0:0:0:0:
317,312,55967,6,0,P|342:247|330:190,1,120,0|10,0:0|0:0,0:0:0:0:
324,139,56439,1,8,0:0:0:0:
264,149,56596,2,0,B|228:159|228:159|181:149|181:149|128:157,1,120,2|10,0:0|0:0,0:0:0:0:
33,193,57224,2,0,P|25:134|69:65,1,120,2|10,0:0|0:0,0:0:0:0:
161,35,57852,2,0,L|299:25,1,120,2|8,0:0|0:0,0:0:0:0:
389,78,58481,6,0,B|404:115|404:115|395:149|395:149|419:182|406:213,1,120,2|10,0:0|0:0,0:0:0:0:
326,275,59109,2,0,B|311:238|311:238|320:204|320:204|296:171|306:137,1,120,2|10,0:0|0:0,0:0:0:0:
285,44,59737,2,0,P|217:55|149:36,1,120,2|10,0:0|0:0,0:0:0:0:
53,79,60365,2,0,L|31:149,1,60,10|0,0:0|0:0,0:0:0:0:
63,189,60679,2,0,L|85:261,1,60,10|0,0:0|0:0,0:0:0:0:
79,304,60994,6,0,P|121:278|210:292,1,120,4|8,0:0|0:0,0:0:0:0:
246,300,61465,1,8,0:0:0:0:
299,326,61622,2,0,P|346:340|427:309,1,120,0|8,0:0|0:0,0:0:0:0:
456,279,62093,1,0,0:0:0:0:
456,279,62250,2,0,L|466:139,1,120,0|8,0:0|0:0,0:0:0:0:
364,93,62878,2,0,L|371:224,1,120,0|8,0:0|0:0,0:0:0:0:
255,249,63507,6,0,P|202:204|209:136,1,120,0|8,0:0|0:0,0:0:0:0:
227,104,63978,1,8,0:0:0:0:
227,104,64135,2,0,L|95:98,1,120,0|8,0:0|0:0,0:0:0:0:
42,199,64763,2,0,B|58:242|58:242|47:334,1,120,0|8,0:0|0:0,0:0:0:0:
85,363,65234,1,8,0:0:0:0:
136,336,65392,2,0,B|229:323|229:323|265:337,1,120,0|8,0:0|0:0,0:0:0:0:
329,243,66020,6,0,P|309:185|339:110,2,120,0|8|0,0:0|0:0|0:0,0:0:0:0:
433,183,66962,1,8,0:0:0:0:
423,63,67276,2,0,P|376:20|307:10,1,120,0|8,0:0|0:0,0:0:0:0:
265,30,67748,1,8,0:0:0:0:
265,30,67905,2,0,B|199:59|199:59|126:57,1,120,0|8,0:0|0:0,0:0:0:0:
75,151,68533,6,0,P|147:174|213:157,1,120,0|8,0:0|0:0,0:0:0:0:
252,269,69161,2,0,P|319:253|376:274,1,120,0|8,0:0|0:0,0:0:0:0:
450,348,69789,2,0,L|459:205,1,120,0|8,0:0|0:0,0:0:0:0:
460,167,70261,1,8,0:0:0:0:
460,167,70418,2,0,P|381:142|326:149,1,120,0|8,0:0|0:0,0:0:0:0:
236,195,71046,6,0,L|245:338,1,120,0|8,0:0|0:0,0:0:0:0:
196,351,71517,1,8,0:0:0:0:
196,351,71674,2,0,P|139:330|60:343,1,120,0|8,0:0|0:0,0:0:0:0:
60,216,72303,2,0,P|112:187|86:124,1,120,0|8,0:0|0:0,0:0:0:0:
59,93,72774,1,8,0:0:0:0:
59,93,72931,2,0,P|134:82|202:77,1,120,0|8,0:0|0:0,0:0:0:0:
290,113,73559,6,0,P|289:177|295:251,1,120,0|8,0:0|0:0,0:0:0:0:
400,284,74187,2,0,P|403:214|400:150,1,120,0|8,0:0|0:0,0:0:0:0:
372,46,74816,2,0,P|316:15|241:18,1,120,0|8,0:0|0:0,0:0:0:0:
149,56,75444,1,0,0:0:0:0:
168,174,75758,1,8,0:0:0:0:
108,278,76072,6,0,P|175:290|244:265,1,120,0|8,0:0|0:0,0:0:0:0:
298,182,76700,2,0,P|366:170|429:189,1,120,0|8,0:0|0:0,0:0:0:0:
470,288,77329,1,8,0:0:0:0:
364,344,77643,1,8,0:0:0:0:
275,263,77957,1,8,0:0:0:0:
165,310,78271,1,8,0:0:0:0:
73,232,78585,6,0,P|34:168|57:103,1,120
90,92,79056,1,0,0:0:0:0:
90,92,79214,2,0,P|150:102|223:84,1,120
310,29,79842,2,0,P|259:11|237:8,2,60
344,77,80313,2,0,P|376:77|406:74,1,60
205,213,81098,6,0,P|127:196|65:213,1,120,2|10,0:0|0:0,0:0:0:0:
30,219,81570,2,0,P|54:192|45:97,1,120,10|2,0:0|0:0,0:0:0:0:
9,73,82041,1,8,0:0:0:0:
122,32,82355,2,0,L|259:23,1,120,2|8,0:0|0:0,0:0:0:0:
295,51,82826,1,10,0:0:0:0:
347,79,82983,2,0,L|484:70,1,120,2|8,0:0|0:0,0:0:0:0:
496,187,83611,5,0,0:0:0:0:
377,207,83926,1,8,0:0:0:0:
307,304,84240,1,0,0:0:0:0:
188,283,84554,1,8,0:0:0:0:
77,330,84868,2,0,P|71:263|107:196,1,120,0|8,0:0|0:0,0:0:0:0:
74,96,85496,2,0,P|140:107|194:155,1,120,0|8,0:0|0:0,0:0:0:0:
273,216,86125,6,0,L|411:200,1,120,2|10,0:0|0:0,0:0:0:0:
450,215,86596,2,0,B|428:148|428:148|444:79,1,120,10|2,0:0|0:0,0:0:0:0:
471,49,87067,1,8,0:0:0:0:
352,31,87381,2,0,P|265:4|219:22,1,120,2|8,0:0|0:0,0:0:0:0:
218,66,87852,2,0,L|227:206,1,120,10|0,0:0|0:0,0:0:0:0:
193,236,88323,1,8,0:0:0:0:
99,160,88638,6,0,L|89:307,1,120,0|8,0:0|0:0,0:0:0:0:
181,358,89266,2,0,P|243:352|296:293,1,120,0|8,0:0|0:0,0:0:0:0:
311,198,89894,2,0,P|312:137|316:113,1,60
345,88,90208,2,0,P|400:85|459:146,2,120,8|0|8,0:0|0:0|0:0,0:0:0:0:
225,100,91151,6,0,B|176:111|176:111|140:92|86:101,1,120,2|10,0:0|0:0,0:0:0:0:
55,126,91622,2,0,P|46:174|92:249,1,120,10|2,0:0|0:0,0:0:0:0:
129,262,92093,1,8,0:0:0:0:
246,285,92407,2,0,B|295:289|295:289|386:275,1,120,2|8,0:0|0:0,0:0:0:0:
419,253,92878,2,0,P|439:219|421:122,1,120,10|2,0:0|0:0,0:0:0:0:
397,92,93350,1,8,0:0:0:0:
317,181,93664,5,0,0:0:0:0:
197,168,93978,1,8,0:0:0:0:
234,54,94292,2,0,P|173:46|109:88,1,120,0|8,0:0|0:0,0:0:0:0:
197,168,94920,2,0,P|189:229|233:299,1,120,0|8,0:0|0:0,0:0:0:0:
322,329,95549,1,0,0:0:0:0:
436,293,95863,1,8,0:0:0:0:
387,183,96177,6,0,B|368:132|368:132|389:42,1,120,2|10,0:0|0:0,0:0:0:0:
428,29,96648,2,0,P|384:36|287:21,1,120,8|2,0:0|0:0,0:0:0:0:
250,40,97119,1,8,0:0:0:0:
229,162,97433,2,0,P|159:154|93:162,1,120,2|10,0:0|0:0,0:0:0:0:
71,205,97905,2,0,L|57:351,1,120,10|2,0:0|0:0,0:0:0:0:
104,364,98376,1,10,0:0:0:0:
218,327,98690,6,0,B|313:317|313:317|355:326,1,120,0|8,0:0|0:0,0:0:0:0:
447,275,99318,2,0,B|455:247|455:247|449:143,1,120,0|8,0:0|0:0,0:0:0:0:
399,47,99947,2,0,L|316:47,1,60,8|8,0:0|0:0,0:0:0:0:
283,68,100261,2,0,P|243:77|200:73,1,60,8|8,0:0|0:0,0:0:0:0:
167,58,100575,2,0,P|99:43|26:57,1,120,8|0,0:0|0:0,0:0:0:0:
37,168,101203,6,0,B|107:166|107:166|177:187,1,120,0|8,0:0|0:0,0:0:0:0:
213,285,101831,2,0,P|256:247|271:175,1,120,0|8,0:0|0:0,0:0:0:0:
369,117,102460,2,0,P|375:170|381:242,1,120,0|8,0:0|0:0,0:0:0:0:
408,289,102931,1,8,0:0:0:0:
408,289,103088,2,0,B|381:332|381:332|339:329|339:329|286:339,1,120,0|8,0:0|0:0,0:0:0:0:
192,341,103716,6,0,P|128:324|94:282,1,120,0|8,0:0|0:0,0:0:0:0:
77,226,104187,1,8,0:0:0:0:
115,180,104344,2,0,L|138:58,1,120,0|8,0:0|0:0,0:0:0:0:
245,123,104973,2,0,P|306:131|376:111,1,120,0|8,0:0|0:0,0:0:0:0:
460,48,105601,2,0,P|479:114|469:177,1,120,0|8,0:0|0:0,0:0:0:0:
454,282,106229,5,0,0:0:0:0:
341,239,106543,1,8,0:0:0:0:
254,323,106858,2,0,P|198:315|132:325,1,120,0|8,0:0|0:0,0:0:0:0:
46,243,107486,2,0,B|61:206|61:206|51:118,1,120,0|8,0:0|0:0,0:0:0:0:
86,77,107957,1,8,0:0:0:0:
86,77,108114,2,0,P|138:92|222:71,1,120,0|8,0:0|0:0,0:0:0:0:
314,38,108742,6,0,L|329:185,1,120,0|8,0:0|0:0,0:0:0:0:
330,217,109214,1,8,0:0:0:0:
338,276,109371,2,0,P|310:261|203:273,1,120,0|8,0:0|0:0,0:0:0:0:
120,322,109999,2,0,P|105:250|126:188,1,120,0|8,0:0|0:0,0:0:0:0:
200,121,110627,1,0,0:0:0:0:
298,52,110941,1,8,0:0:0:0:
413,80,111255,6,0,L|408:215,1,120,2|10,0:0|0:0,0:0:0:0:
351,220,111727,1,8,0:0:0:0:
295,242,111884,2,0,L|288:387,1,120,2|10,0:0|0:0,0:0:0:0:
169,357,112512,2,0,L|21:364,1,120,2|10,0:0|0:0,0:0:0:0:
21,245,113140,2,0,L|169:254,1,120,2|10,0:0|0:0,0:0:0:0:
234,175,113769,6,0,P|206:132|222:42,1,120,2|10,0:0|0:0,0:0:0:0:
260,34,114240,1,8,0:0:0:0:
315,57,114397,2,0,L|462:57,1,120,2|10,0:0|0:0,0:0:0:0:
507,153,115025,2,0,P|519:222|504:284,2,120,2|10|2,0:0|0:0|0:0,0:0:0:0:
403,213,115967,1,10,0:0:0:0:
297,154,116282,6,0,P|285:222|301:282,2,120,2|10|2,0:0|0:0|0:0,0:0:0:0:
367,56,117224,2,0,P|319:55|287:50,1,60,10|0,0:0|0:0,0:0:0:0:
247,60,117538,2,0,P|205:35|123:73,1,120,2|10,0:0|0:0,0:0:0:0:
76,154,118166,2,0,P|130:190|189:166,1,120,2|10,0:0|0:0,0:0:0:0:
299,170,118795,6,0,L|283:308,1,120,2|10,0:0|0:0,0:0:0:0:
392,341,119423,2,0,L|378:207,1,120,2|10,0:0|0:0,0:0:0:0:
437,117,120051,5,10,0:0:0:0:
364,21,120365,1,10,0:0:0:0:
252,64,120679,1,8,0:0:0:0:
129,270,121308,6,0,P|63:286|-12:266,2,120,6|10|0,0:0|0:0|0:0,0:0:0:0:
227,201,122250,1,10,0:0:0:0:
285,187,122407,1,0,0:0:0:0:
330,225,122564,2,0,P|328:292|279:350,2,120,2|10|2,0:0|0:0|0:0,0:0:0:0:
319,105,123507,1,10,0:0:0:0:
207,148,123821,6,0,B|196:190|206:218|206:218|196:250|196:250|205:292,1,120,2|10,0:0|0:0,0:0:0:0:
239,309,124292,1,8,0:0:0:0:
239,309,124449,2,0,P|306:283|376:303,1,120,2|10,0:0|0:0,0:0:0:0:
392,177,125077,2,0,B|540:189,2,120,2|8|2,0:0|0:0|0:0,0:0:0:0:
279,133,126020,1,10,0:0:0:0:
190,216,126334,6,0,P|176:150|192:78,1,120,2|10,0:0|0:0,0:0:0:0:
222,52,126805,1,8,0:0:0:0:
280,37,126962,2,0,L|426:28,1,120,2|10,0:0|0:0,0:0:0:0:
487,111,127590,2,0,L|352:119,1,120,2|10,0:0|0:0,0:0:0:0:
415,228,128219,2,0,P|425:295|375:352,1,120,2|10,0:0|0:0,0:0:0:0:
280,355,128847,6,0,L|139:341,1,120,2|10,0:0|0:0,0:0:0:0:
116,302,129318,1,8,0:0:0:0:
116,302,129475,2,0,P|157:245|153:173,1,120,2|10,0:0|0:0,0:0:0:0:
94,95,130104,1,2,0:0:0:0:
181,12,130418,1,10,0:0:0:0:
249,110,130732,2,0,B|317:128|317:128|387:124,1,120,2|10,0:0|0:0,0:0:0:0:
465,57,131360,5,2,0:0:0:0:
511,167,131674,1,10,0:0:0:0:
443,265,131988,1,2,0:0:0:0:
494,373,132303,2,0,L|426:360,1,60,10|0,0:0|0:0,0:0:0:0:
379,340,132617,2,0,L|239:354,2,120,2|10|2,0:0|0:0|0:0,0:0:0:0:
349,223,133559,1,10,0:0:0:0:
405,117,133873,6,0,P|369:75|280:66,1,120,2|10,0:0|0:0,0:0:0:0:
250,77,134344,1,8,0:0:0:0:
250,77,134501,2,0,L|205:218,1,120,2|10,0:0|0:0,0:0:0:0:
136,283,135130,2,0,P|197:311|270:297,2,120,2|10|2,0:0|0:0|0:0,0:0:0:0:
43,206,136072,1,10,0:0:0:0:
114,109,136386,6,0,L|251:113,1,120,2|10,0:0|0:0,0:0:0:0:
318,198,137015,2,0,L|181:204,1,120,2|10,0:0|0:0,0:0:0:0:
126,299,137643,1,2,0:0:0:0:
244,317,137957,1,10,0:0:0:0:
362,337,138271,1,10,0:0:0:0:
362,337,138428,2,0,L|441:326,1,60,8|2,0:0|0:0,0:0:0:0:
474,219,138899,6,0,P|484:151|478:90,1,120,4|8,0:0|0:0,0:0:0:0:
438,57,139371,1,8,0:0:0:0:
438,57,139528,2,0,P|368:66|303:55,1,120,0|8,0:0|0:0,0:0:0:0:
247,155,140156,2,0,P|316:145|378:152,1,120,0|8,0:0|0:0,0:0:0:0:
310,256,140784,2,0,P|241:266|179:259,1,120,0|8,0:0|0:0,0:0:0:0:
138,232,141255,1,0,0:0:0:0:
79,245,141412,6,0,B|91:183|91:183|76:111,1,120,0|8,0:0|0:0,0:0:0:0:
83,67,141884,1,8,0:0:0:0:
83,67,142041,2,0,P|163:87|220:65,1,120,0|8,0:0|0:0,0:0:0:0:
311,39,142669,2,0,L|301:181,1,120,0|8,0:0|0:0,0:0:0:0:
360,172,143140,1,8,0:0:0:0:
360,172,143297,2,0,L|351:312,1,120,0|8,0:0|0:0,0:0:0:0:
235,318,143926,6,0,P|178:305|96:326,2,120,0|8|0,0:0|0:0|0:0,0:0:0:0:
255,199,144868,2,0,P|236:133|235:116,1,60,8|0,0:0|0:0,0:0:0:0:
270,94,145182,2,0,L|125:117,1,120,0|8,0:0|0:0,0:0:0:0:
102,146,145653,1,8,0:0:0:0:
102,146,145810,2,0,P|104:195|163:257,1,120,0|8,0:0|0:0,0:0:0:0:
253,304,146439,5,0,0:0:0:0:
370,281,146753,1,8,0:0:0:0:
486,310,147067,2,0,B|501:264|501:264|493:167,1,120,0|8,0:0|0:0,0:0:0:0:
433,89,147695,2,0,P|360:76|292:95,1,120,0|8,0:0|0:0,0:0:0:0:
259,105,148166,1,8,0:0:0:0:
202,84,148323,2,0,P|133:73|68:87,1,120,0|8,0:0|0:0,0:0:0:0:
19,182,148952,5,4,2:0:0:0:
92,277,149266,2,0,P|125:278|163:271,1,60,8|8,0:0|0:0,0:0:0:0:
204,245,149580,2,0,P|275:230|341:246,1,120,0|8,0:0|0:0,0:0:0:0:
416,310,150208,1,0,0:0:0:0:
482,210,150522,1,8,0:0:0:0:
467,151,150679,1,8,0:0:0:0:
443,95,150837,2,0,P|397:76|311:88,1,120,0|8,0:0|0:0,0:0:0:0:
244,166,151465,6,0,B|194:158|194:158|102:178,2,120,0|8|0,0:0|0:0|0:0,0:0:0:0:
211,281,152407,1,8,0:0:0:0:
329,259,152721,2,0,B|379:251|379:251|466:270,2,120,0|8|0,0:0|0:0|0:0,0:0:0:0:
289,372,153664,1,8,0:0:0:0:
211,281,153978,6,0,P|155:264|71:287,1,120,0|8,0:0|0:0,0:0:0:0:
72,155,154606,2,0,B|85:84|85:84|84:16,1,120,8|8,0:0|0:0,0:0:0:0:
195,80,155234,2,0,P|257:93|330:74,1,120,8|8,0:0|0:0,0:0:0:0:
422,35,155863,2,0,P|432:90|427:107,1,60,8|8,0:0|3:0,0:0:0:0:
414,150,156177,2,0,P|404:205|407:225,1,60,8|0,3:0|0:0,0:0:0:0:
437,265,156491,6,0,P|374:242|285:271,1,132.00000402832,12|8,0:0|0:0,0:0:0:0:
263,298,156962,1,0,0:0:0:0:
263,298,157119,2,0,L|268:137,1,132.00000402832,8|8,0:0|0:0,0:0:0:0:
345,59,157748,2,0,P|272:34|203:52,1,132.00000402832,8|8,0:0|0:0,0:0:0:0:
167,84,158219,1,0,0:0:0:0:
167,84,158376,2,0,P|175:150|139:224,1,132.00000402832,8|8,0:0|0:0,0:0:0:0:
198,332,159004,5,12,0:0:0:0:
270,221,159318,2,0,L|352:222,1,66.0000020141602,8|0,0:0|0:0,0:0:0:0:
395,249,159632,2,0,B|372:145|372:145|382:94,1,132.00000402832,8|8,0:0|0:0,0:0:0:0:
270,41,160261,2,0,L|114:37,1,132.00000402832,8|8,0:0|0:0,0:0:0:0:
49,135,160889,2,0,L|212:131,1,132.00000402832,8|8,0:0|0:0,0:0:0:0:
242,154,161360,1,0,0:0:0:0:
242,154,161517,6,0,P|301:134|394:153,1,132.00000402832,12|8,0:0|0:0,0:0:0:0:
488,197,162145,2,0,P|476:272|497:340,1,132.00000402832,8|8,0:0|0:0,0:0:0:0:
357,311,162774,2,0,L|204:311,1,132.00000402832,8|8,0:0|0:0,0:0:0:0:
96,339,163402,2,0,L|106:268,1,66.0000020141602,8|0,0:0|0:0,0:0:0:0:
149,224,163716,2,0,P|142:185|126:146,1,66.0000020141602,8|0,0:0|0:0,0:0:0:0:
100,109,164030,1,0,0:0:0:0:
291,172,166543,6,0,P|350:156|426:188,1,120,4|8,0:0|0:0,0:0:0:0:
443,218,167015,1,8,0:0:0:0:
443,218,167172,2,0,P|433:128|445:75,1,120,0|8,0:0|0:0,0:0:0:0:
348,19,167800,1,0,0:0:0:0:
250,88,168114,1,8,0:0:0:0:
195,63,168271,1,8,0:0:0:0:
140,40,168428,2,0,L|130:174,1,120,0|8,0:0|0:0,0:0:0:0:
52,250,169056,6,0,P|109:281|184:264,1,120,0|8,0:0|0:0,0:0:0:0:
211,241,169528,1,8,0:0:0:0:
265,265,169685,2,0,B|307:323|307:323|344:301|379:313,1,120,0|8,0:0|0:0,0:0:0:0:
458,251,170313,2,0,P|476:180|448:117,2,120,0|8|0,0:0|0:0|0:0,0:0:0:0:
355,189,171255,1,8,0:0:0:0:
268,105,171570,6,0,P|201:86|136:103,1,120,0|8,0:0|0:0,0:0:0:0:
98,201,172198,2,0,L|91:274,2,60,0|0|8,0:0|0:0|0:0,0:0:0:0:
56,158,172669,1,0,0:0:0:0:
56,158,172826,2,0,P|42:92|70:23,2,120,0|8|0,0:0|0:0|0:0,0:0:0:0:
176,161,173769,1,8,0:0:0:0:
237,263,174083,6,0,L|382:251,1,120,0|8,0:0|0:0,0:0:0:0:
310,142,174711,2,0,L|455:133,1,120,0|8,0:0|0:0,0:0:0:0:
446,15,175339,2,0,L|362:11,1,60
330,34,175653,2,0,P|257:55|198:32,2,120,8|0|8,0:0|0:0|0:0,0:0:0:0:
308,152,176596,5,0,0:0:0:0:
369,254,176910,1,8,0:0:0:0:
301,339,177224,2,0,P|237:308|168:324,1,120,0|8,0:0|0:0,0:0:0:0:
72,337,177852,2,0,B|58:279|80:242|80:242|65:188|65:188|115:191|147:149,1,240
221,64,178795,1,8,0:0:0:0:
305,153,179109,6,0,P|368:161|437:123,1,120,0|8,0:0|0:0,0:0:0:0:
445,85,179580,1,8,0:0:0:0:
445,85,179737,2,0,L|456:224,1,120,0|8,0:0|0:0,0:0:0:0:
456,324,180365,2,0,L|331:328,1,120,0|8,0:0|0:0,0:0:0:0:
277,341,180837,1,8,0:0:0:0:
219,329,180994,2,0,P|230:273|203:199,1,120,0|8,0:0|0:0,0:0:0:0:
112,148,181622,6,0,P|146:107|229:101,1,120,0|8,0:0|0:0,0:0:0:0:
312,155,182250,1,0,0:0:0:0:
335,272,182564,1,8,0:0:0:0:
420,187,182878,2,0,P|445:136|423:55,1,120,0|8,0:0|0:0,0:0:0:0:
331,15,183507,1,0,0:0:0:0:
237,90,183821,1,8,0:0:0:0:
118,76,184135,6,0,L|134:14,2,60,0|0|8,0:0|0:0|0:0,0:0:0:0:
98,132,184606,1,8,0:0:0:0:
86,191,184763,2,0,P|128:234|203:237,1,120,0|8,0:0|0:0,0:0:0:0:
272,159,185392,2,0,P|314:156|341:147,1,60
390,141,185706,2,0,L|405:219,1,60,8|8,0:0|0:0,0:0:0:0:
401,259,186020,6,0,P|351:294|279:303,1,120,0|2,0:0|0:0,0:0:0:0:
203,224,186648,1,4,0:0:0:0:
256,192,186727,12,0,191674,0:0:0:0:
