osu file format v14

[General]
AudioFilename: besssst.mp3
AudioLeadIn: 0
PreviewTime: 43402
Countdown: 0
SampleSet: Soft
StackLeniency: 0.7
Mode: 0
LetterboxInBreaks: 0
EpilepsyWarning: 1
WidescreenStoryboard: 1

[Editor]
Bookmarks: 162164
DistanceSpacing: 1.4
BeatDivisor: 4
GridSize: 16
TimelineZoom: 1

[Metadata]
Title:Ikanaide
TitleUnicode:いかないで
Artist:Madotsuki@
ArtistUnicode:窓付き@
Creator:sheela901
Version:Insane
Source:
Tags:kaai yuki 歌愛ユキ 想太 sohta souta eve don't go vocaloid utaite nico douga hootowlstar pandorawindy
BeatmapID:703905
BeatmapSetID:315799

[Difficulty]
HPDrainRate:7
CircleSize:4.2
OverallDifficulty:8
ApproachRate:9
SliderMultiplier:1.8
SliderTickRate:1

[Events]
//Background and Video events
0,0,"blop.png",0,0
//Break Periods
2,164230,165943
//Storyboard Layer 0 (Background)
//Storyboard Layer 1 (Fail)
//Storyboard Layer 2 (Pass)
//Storyboard Layer 3 (Foreground)
Sprite,Foreground,Centre,"SB\bg.jpg",320,240 C,0,-557,,89,114,120 S,0,-557,191693,0.9 F,0,70,699,0,1 C,0,43421,43735,89,114,120,255,192,203 C,0,61013,61170,255,192,203,255,255,255 C,0,61641,62269,255,255,255,255,192,203 C,0,78604,78918,255,212,223,89,114,120 C,0,121327,121641,89,114,120,255,192,203 C,0,138604,138918,255,192,203,89,114,120 C,0,138918,139075,89,114,120,225,225,225 C,0,139547,140175,225,225,225,255,192,203 C,0,156510,156667,255,192,203,225,225,225 C,0,164049,164363,225,225,225,89,114,120 F,0,191065,191693,1,0
Sprite,Foreground,Centre,"sb\bub.png",320,240 M,0,699,1013,138,196 F,0,699,1013,1,0 S,0,699,1013,0.5
Sprite,Foreground,Centre,"sb\bub.png",320,240 M,0,1013,1327,142,200 F,0,1013,1327,1,0 S,0,1013,1327,0.5
Sprite,Foreground,Centre,"sb\bub.png",320,240 M,0,1327,1641,145,203 F,0,1327,1641,1,0 S,0,1327,1641,0.5
Sprite,Foreground,Centre,"sb\bub.png",320,240 M,0,1484,1798,234,189 F,0,1484,1798,1,0 S,0,1484,1798,0.5
Sprite,Foreground,Centre,"sb\bub.png",320,240 M,0,1641,1955,320,173 F,0,1641,1955,1,0 S,0,1641,1955,0.5
Sprite,Foreground,Centre,"sb\bub.png",320,240 M,0,1955,2269,323,176 F,0,1955,2269,1,0 S,0,1955,2269,0.5
Sprite,Foreground,Centre,"sb\bub.png",320,240 M,0,2112,2426,409,294 F,0,2112,2426,1,0 S,0,2112,2426,0.5
Sprite,Foreground,Centre,"sb\bub.png",320,240 M,0,2269,2583,323,266 F,0,2269,2583,1,0 S,0,2269,2583,0.5
Sprite,Foreground,Centre,"sb\bub.png",320,240 M,0,2426,2740,409,148 F,0,2426,2740,1,0 S,0,2426,2740,0.5
Sprite,Foreground,Centre,"sb\bub.png",320,240 M,0,2583,2897,461,221 F,0,2583,2897,1,0 S,0,2583,2897,0.5
Sprite,Foreground,Centre,"SB\pulse.png",507,141 S,0,156510,156824,0.25,1 S,1,156824,157767,1,1.1 F,0,157452,157767,1,0
Sprite,Foreground,Centre,"SB\pulse.png",531,194 S,0,159023,159337,0.25,1 S,1,159337,160280,1,1.1 F,0,159966,160280,1,0
Sprite,Foreground,Centre,"SB\pulse.png",325,403 S,0,161536,161850,0.25,1 S,1,161850,162793,1,1.1 F,0,162479,162793,1,0
Sprite,Foreground,Centre,"SB\intro\in.png",320,240 S,0,18290,,0.2 C,0,18290,,155,200,100 P,0,18290,,A F,0,18290,18604,0,1 MX,1,18290,18604,40,60 MY,1,18290,18604,344 F,0,23002,23316,1,0
Sprite,Foreground,Centre,"SB\intro\sheela.png",320,240 S,0,18290,,0.2 C,0,18290,,255,100,200 P,0,18290,,A F,0,18290,18604,0,1 MX,1,18290,18604,300,280 MY,1,18290,18604,364 F,0,23002,23316,1,0
//Storyboard Sound Samples

[TimingPoints]
680,314.13612565445,4,2,1,80,1,0
2721,-100,4,2,1,40,0,0
2878,-100,4,2,1,60,0,0
3036,-100,4,2,1,40,0,0
3193,-100,4,2,1,60,0,0
23297,-133.333333333333,4,2,1,60,0,0
33350,-133.333333333333,4,3,1,60,0,0
43402,-100,4,2,1,70,0,1
60051,-100,4,2,1,75,0,1
60365,-100,4,2,1,80,0,1
60679,-100,4,2,1,85,0,0
60994,-100,4,2,1,70,0,1
78585,-133.333333333333,4,2,1,40,0,0
81098,-100,4,2,1,60,0,0
121308,-100,4,2,1,70,0,1
138585,-133.333333333333,4,2,1,60,0,0
138899,-100,4,2,1,70,0,1
148952,-100,4,2,0,50,0,1
149030,-100,4,2,1,70,0,1
156334,-100,4,2,1,70,0,0
156491,-80,4,2,1,80,0,1
164030,-100,4,2,1,50,0,0
166543,-100,4,2,1,60,0,0
186648,-100,4,2,1,30,0,0
187276,-100,4,2,1,45,0,0
187905,-100,4,2,1,40,0,0
188533,-100,4,2,1,30,0,0
189161,-100,4,2,1,25,0,0
189789,-100,4,2,1,20,0,0
190418,-100,4,2,1,15,0,0
191046,-100,4,2,1,10,0,0
191674,-100,4,2,3,5,0,0

[Colours]
Combo1 : 255,128,128
Combo2 : 96,54,205
Combo3 : 172,41,20
Combo4 : 204,166,22

[HitObjects]
81,147,680,5,8,0:0:0:0:
81,147,994,1,8,0:0:0:0:
81,147,1308,1,8,0:0:0:0:
170,133,1465,1,8,0:0:0:0:
259,120,1622,1,8,0:0:0:0:
259,120,1936,5,8,0:0:0:0:
345,238,2093,1,8,0:0:0:0:
259,210,2251,1,8,0:0:0:0:
345,92,2407,1,8,0:0:0:0:
397,165,2564,2,0,P|436:175|497:168,1,90,8|0,0:0|0:0,0:0:0:0:
381,342,2878,5,8,3:0:0:0:
381,342,3193,6,0,P|319:324|271:338,1,90,6|2,0:0|0:0,0:0:0:0:
164,364,3507,1,8,0:0:0:0:
164,364,3664,2,0,B|170:247|170:247|151:175,1,180,10|2,0:0|0:0,0:0:0:0:
118,103,4135,2,0,P|167:98|216:126,1,90,8|2,0:0|0:0,0:0:0:0:
285,26,4449,6,0,P|250:106|294:172,1,135,2|0,0:0|0:0,0:0:0:0:
301,173,4763,2,0,L|394:167,1,90,10|10,0:0|0:0,0:0:0:0:
253,247,5077,2,0,L|440:255,1,180,2|10,0:0|0:0,0:0:0:0:
480,331,5549,1,2,0:0:0:0:
312,337,5706,6,0,P|245:331|223:338,1,90
103,266,6020,1,8,0:0:0:0:
103,266,6177,2,0,P|164:271|234:167,1,180,8|0,0:0|0:0,0:0:0:0:
122,91,6648,2,0,L|147:190,1,90,8|0,0:0|0:0,0:0:0:0:
54,190,6962,5,0,0:0:0:0:
103,266,7119,1,0,0:0:0:0:
192,242,7276,2,0,P|242:230|288:251,1,90,8|8,0:0|0:0,0:0:0:0:
235,321,7590,2,0,L|234:146,1,135
239,138,7905,2,0,P|289:152|336:134,1,90,8|0,0:0|0:0,0:0:0:0:
455,38,8219,6,0,L|465:169,1,90,2|2,0:0|0:0,0:0:0:0:
399,251,8533,1,10,0:0:0:0:
399,251,8690,2,0,P|337:286|234:244,1,180,10|2,0:0|0:0,0:0:0:0:
157,285,9161,2,0,B|151:255|151:255|166:197,1,90,8|2,0:0|0:0,0:0:0:0:
94,46,9475,6,0,L|90:209,1,135,2|0,0:0|0:0,0:0:0:0:
57,212,9789,1,8,0:0:0:0:
157,285,9947,2,0,B|184:282|205:269|205:269|293:277|293:277|314:264|341:260,1,180,10|2,0:0|0:0,0:0:0:0:
416,236,10418,2,0,P|419:277|394:324,1,90,10|2,0:0|0:0,0:0:0:0:
319,162,10732,5,0,0:0:0:0:
319,162,10889,1,0,0:0:0:0:
188,163,11046,2,0,L|179:35,1,90,8|8,0:0|0:0,0:0:0:0:
329,27,11360,2,0,L|318:170,1,135
319,162,11674,2,0,P|383:158|414:168,1,90,8|0,0:0|0:0,0:0:0:0:
362,297,11988,5,0,0:0:0:0:
286,247,12145,1,0,0:0:0:0:
208,293,12303,2,0,P|153:302|113:287,1,90,8|8,0:0|0:0,0:0:0:0:
159,117,12617,2,0,L|170:232,1,90
241,155,12931,2,0,P|284:165|327:156,1,90,8|0,0:0|0:0,0:0:0:0:
399,40,13245,6,0,B|413:169|413:169|398:239,1,180,6|10,0:0|0:0,0:0:0:0:
449,294,13716,1,10,0:0:0:0:
374,344,13873,2,0,P|315:337|263:351,1,90,0|2,0:0|0:0,0:0:0:0:
209,293,14187,2,0,P|164:298|120:291,1,90,8|2,0:0|0:0,0:0:0:0:
56,169,14501,5,0,0:0:0:0:
50,78,14659,1,2,0:0:0:0:
132,114,14816,2,0,B|194:104|194:104|239:109,1,90,8|10,0:0|0:0,0:0:0:0:
305,137,15130,2,0,P|369:142|421:100,1,135,2|0,0:0|0:0,0:0:0:0:
425,54,15444,2,0,L|436:161,1,90,10|2,0:0|0:0,0:0:0:0:
365,307,15758,6,0,L|376:200,1,90
282,224,16072,2,0,L|273:314,1,90,8|8,0:0|0:0,0:0:0:0:
198,187,16386,2,0,L|208:98,1,90
116,105,16700,2,0,L|106:194,1,90,8|0,0:0|0:0,0:0:0:0:
41,278,17015,6,0,P|92:302|157:278,1,90
268,240,17329,2,0,B|329:235|329:235|385:256,1,90,8|8,0:0|0:0,0:0:0:0:
419,308,17643,2,0,P|443:247|365:155,1,180,0|8,0:0|0:0,0:0:0:0:
293,150,18114,1,0,0:0:0:0:
189,142,18271,6,0,L|183:53,1,90,2|0,0:0|0:0,0:0:0:0:
197,232,18585,1,8,0:0:0:0:
205,321,18742,1,10,0:0:0:0:
308,321,18899,2,0,L|315:232,1,90,0|2,0:0|0:0,0:0:0:0:
410,191,19214,2,0,L|416:280,1,90,8|2,0:0|0:0,0:0:0:0:
450,52,19528,6,0,P|379:70|333:44,1,90,0|2,0:0|0:0,0:0:0:0:
236,29,19842,1,8,0:0:0:0:
236,29,19999,2,0,L|257:224,1,180,8|2,0:0|0:0,0:0:0:0:
242,296,20470,1,10,0:0:0:0:
285,374,20627,1,2,0:0:0:0:
135,322,20784,6,0,P|118:275|148:207,1,90
203,141,21098,1,8,0:0:0:0:
203,141,21255,2,0,B|334:126|334:126|378:104,1,180,8|0,0:0|0:0,0:0:0:0:
447,48,21727,2,0,P|465:91|460:137,1,90,8|0,0:0|0:0,0:0:0:0:
318,257,22041,5,10,0:0:0:0:
349,360,22198,1,10,0:0:0:0:
226,304,22355,1,10,0:0:0:0:
390,182,22512,1,10,0:0:0:0:
232,206,22669,5,8,0:0:0:0:
212,223,22826,5,0,0:0:0:0:
191,240,22983,6,0,P|140:242|91:178,1,135
109,144,23297,6,0,L|264:120,1,135.000005149842,4|0,3:0|0:0,0:0:0:0:
322,106,23769,1,0,0:0:0:0:
401,93,23926,2,0,L|487:86,1,67.5000025749208
501,161,24240,1,0,0:0:0:0:
473,237,24397,1,0,0:0:0:0:
484,317,24554,6,0,P|448:313|419:296,1,67.5000025749208
354,253,24868,2,0,P|324:237|291:233,1,67.5000025749208
217,201,25182,2,0,P|183:197|154:181,1,67.5000025749208
85,138,25496,2,0,P|55:122|22:118,1,67.5000025749208
56,266,25810,5,4,3:0:0:0:
56,266,26125,1,0,0:0:0:0:
136,268,26282,1,0,0:0:0:0:
186,331,26439,1,0,0:0:0:0:
263,307,26596,1,0,0:0:0:0:
340,329,26753,1,0,0:0:0:0:
415,300,26910,1,0,0:0:0:0:
441,223,27067,6,0,L|438:142,2,67.5000025749208
361,205,27538,2,0,L|358:124,2,67.5000025749208
298,256,28009,2,0,P|242:264|222:259,1,67.5000025749208
152,107,28323,6,0,B|160:216|160:216|136:189,1,135.000005149842,4|0,3:0|0:0,0:0:0:0:
63,180,28795,1,0,0:0:0:0:
94,254,28952,2,0,P|145:288|181:288,1,67.5000025749208
230,297,29266,2,0,L|298:296,1,67.5000025749208
383,362,29580,6,0,P|404:297|376:226,1,135.000005149842
308,207,30051,1,0,0:0:0:0:
308,207,30208,2,0,L|301:125,1,67.5000025749208
224,118,30522,2,0,L|229:185,1,67.5000025749208
127,298,30837,5,4,3:0:0:0:
127,298,31151,1,0,0:0:0:0:
52,270,31308,1,0,0:0:0:0:
8,203,31465,1,0,0:0:0:0:
11,124,31622,1,0,0:0:0:0:
61,62,31779,1,0,0:0:0:0:
138,41,31936,1,0,0:0:0:0:
219,49,32093,6,0,P|289:56|302:55,1,67.5000025749208,4|0,3:0|0:0,0:0:0:0:
296,136,32407,2,0,P|366:143|379:142,1,67.5000025749208
392,218,32721,2,0,P|322:225|309:224,1,67.5000025749208,4|0,3:0|0:0,0:0:0:0:
315,305,33035,2,0,P|245:312|232:311,1,67.5000025749208
149,252,33350,5,8,3:0:0:0:
178,165,33507,1,8,3:0:0:0:
88,183,33664,2,0,L|12:175,1,67.5000025749208,8|8,3:0|3:0,0:0:0:0:
149,252,33978,1,8,3:0:0:0:
120,339,34135,1,0,3:0:0:0:
210,321,34292,2,0,L|286:329,1,67.5000025749208,8|8,3:0|3:0,0:0:0:0:
316,218,34606,5,8,3:0:0:0:
316,218,34763,1,0,0:0:0:0:
353,146,34920,2,0,L|343:10,1,135.000005149842,0|8,3:0|3:0,0:0:0:0:
397,217,35549,1,8,0:0:0:0:
316,218,35706,1,0,0:0:0:0:
242,165,35863,6,0,P|226:228|265:299,1,135.000005149842,8|8,0:0|0:0,0:0:0:0:
320,356,36334,1,8,3:0:0:0:
345,265,36491,1,8,3:0:0:0:
423,317,36648,1,8,3:0:0:0:
443,224,36805,2,0,P|478:229|528:225,1,67.5000025749208,8|0,3:0|0:0,0:0:0:0:
399,121,37119,6,0,L|379:24,1,67.5000025749208,8|0,0:0|0:0,0:0:0:0:
316,96,37433,2,0,L|177:99,2,135.000005149842,8|8|8,0:0|0:0|0:0,0:0:0:0:
337,174,38219,1,0,0:0:0:0:
277,280,38376,6,0,P|234:260|143:288,1,135.000005149842,8|8,0:0|0:0,0:0:0:0:
95,337,38847,1,0,0:0:0:0:
74,258,39004,2,0,P|98:202|73:113,1,135.000005149842,8|8,0:0|0:0,0:0:0:0:
261,64,39632,6,0,L|336:46,1,67.5000025749208
416,23,39947,1,0,0:0:0:0:
416,23,40104,1,0,0:0:0:0:
459,104,40261,2,0,P|443:161|358:189,1,135.000005149842,8|8,0:0|0:0,0:0:0:0:
297,193,40732,1,0,0:0:0:0:
192,266,40889,6,0,B|154:255|154:255|59:270,2,135.000005149842,8|8|8,0:0|0:0|0:0,0:0:0:0:
242,342,41674,1,0,0:0:0:0:
330,374,41831,1,8,3:0:0:0:
391,302,41988,1,0,0:0:0:0:
378,132,42145,5,8,0:0:0:0:
389,170,42460,5,8,0:0:0:0:
399,209,42774,5,8,0:0:0:0:
399,209,43402,6,0,P|323:168|230:240,1,180,4|10,0:0|0:0,0:0:0:0:
211,290,43873,1,8,0:0:0:0:
322,255,44030,2,0,P|319:153|283:78,1,180,2|10,0:0|0:0,0:0:0:0:
205,45,44501,1,0,0:0:0:0:
129,162,44659,6,0,L|35:157,1,90,2|0,0:0|0:0,0:0:0:0:
142,245,44973,1,10,0:0:0:0:
142,245,45130,2,0,L|326:254,1,180,8|0,0:0|0:0,0:0:0:0:
396,205,45601,2,0,P|459:218|494:215,1,90,10|0,0:0|0:0,0:0:0:0:
446,66,45915,6,0,P|401:66|357:77,1,90,2|0,0:0|0:0,0:0:0:0:
228,168,46229,1,10,0:0:0:0:
273,90,46386,1,8,0:0:0:0:
306,242,46543,2,0,P|314:294|299:339,1,90,2|0,0:0|0:0,0:0:0:0:
185,272,46858,2,0,P|138:256|104:217,1,90,10|0,0:0|0:0,0:0:0:0:
228,168,47172,6,0,P|264:131|315:125,1,90,2|0,0:0|0:0,0:0:0:0:
399,31,47486,1,10,0:0:0:0:
311,9,47643,1,8,0:0:0:0:
233,50,47800,2,0,P|178:37|126:44,1,90,2|0,0:0|0:0,0:0:0:0:
38,150,48114,2,0,P|82:151|126:139,1,90,8|0,0:0|0:0,0:0:0:0:
62,22,48428,6,0,L|96:210,1,180,2|10,0:0|0:0,0:0:0:0:
44,274,48899,1,8,0:0:0:0:
104,340,49056,2,0,P|145:322|163:205,1,135,2|0,0:0|0:0,0:0:0:0:
169,197,49371,2,0,P|227:211|268:211,1,90,10|0,0:0|0:0,0:0:0:0:
338,174,49685,5,2,0:0:0:0:
405,114,49842,1,0,0:0:0:0:
301,36,49999,1,10,0:0:0:0:
301,36,50156,2,0,L|265:130,1,90,8|2,0:0|0:0,0:0:0:0:
178,120,50470,1,0,0:0:0:0:
192,269,50627,2,0,P|148:269|99:233,1,90,10|0,0:0|0:0,0:0:0:0:
251,193,50941,6,0,P|288:257|242:353,1,180,2|10,0:0|0:0,0:0:0:0:
159,359,51412,1,8,0:0:0:0:
71,337,51570,2,0,P|59:261|64:242,1,90,2|0,0:0|0:0,0:0:0:0:
177,119,51884,2,0,P|181:164|168:207,1,90,10|0,0:0|0:0,0:0:0:0:
40,170,52198,6,0,B|146:163|146:163|222:171,1,180,0|10,0:0|0:0,0:0:0:0:
293,222,52669,1,8,0:0:0:0:
355,156,52826,2,0,P|382:218|348:293,1,135,2|0,0:0|0:0,0:0:0:0:
326,307,53140,2,0,L|224:315,1,90,10|0,0:0|0:0,0:0:0:0:
113,207,53454,6,0,L|268:219,1,135
293,222,53769,1,10,0:0:0:0:
405,282,53926,2,0,B|396:153|396:153|407:98,1,180,8|0,0:0|0:0,0:0:0:0:
448,23,54397,2,0,P|396:13|350:30,1,90,10|0,0:0|0:0,0:0:0:0:
256,129,54711,6,0,P|208:91|128:119,1,135,2|0,0:0|0:0,0:0:0:0:
110,139,55025,1,10,0:0:0:0:
182,248,55182,2,0,L|192:143,1,90,8|2,0:0|0:0,0:0:0:0:
206,69,55496,1,0,0:0:0:0:
276,218,55653,1,10,0:0:0:0:
317,138,55810,1,0,0:0:0:0:
423,205,55967,6,0,P|470:207|512:193,1,90
511,103,56282,2,0,P|468:89|423:91,1,90,10|8,0:0|0:0,0:0:0:0:
295,181,56596,2,0,P|258:140|294:51,1,135,2|0,0:0|0:0,0:0:0:0:
307,37,56910,2,0,B|241:30|241:30|213:18,1,90,10|0,0:0|0:0,0:0:0:0:
102,122,57224,6,0,P|148:115|208:156,1,90,2|0,0:0|0:0,0:0:0:0:
229,275,57538,2,0,L|226:369,1,90,10|8,0:0|0:0,0:0:0:0:
138,223,57852,2,0,L|141:317,1,90,2|0,0:0|0:0,0:0:0:0:
233,194,58166,2,0,L|235:104,1,90,8|0,0:0|0:0,0:0:0:0:
397,38,58481,6,0,P|381:104|392:135,1,90,2|0,0:0|0:0,0:0:0:0:
425,204,58795,1,10,0:0:0:0:
497,150,58952,1,8,0:0:0:0:
485,306,59109,2,0,P|435:297|396:308,1,90,2|0,0:0|0:0,0:0:0:0:
314,339,59423,2,0,P|270:349|226:340,1,90,10|0,0:0|0:0,0:0:0:0:
141,259,59737,1,2,0:0:0:0:
55,287,59894,1,0,0:0:0:0:
74,199,60051,6,0,P|83:155|71:102,1,90,10|0,0:0|0:0,0:0:0:0:
251,32,60365,2,0,P|244:76|253:120,1,90,10|0,0:0|0:0,0:0:0:0:
403,261,60679,2,0,P|434:228|383:136,1,135,10|0,0:0|0:0,0:0:0:0:
368,159,60994,6,0,P|310:162|274:140,1,90,4|0,0:0|0:0,0:0:0:0:
204,103,61308,2,0,L|196:195,1,90,8|8,0:0|0:0,0:0:0:0:
101,279,61622,2,0,P|166:237|276:276,1,180,0|8,0:0|0:0,0:0:0:0:
331,315,62093,1,0,0:0:0:0:
463,242,62250,6,0,P|464:163|462:150,1,90
383,66,62564,1,8,0:0:0:0:
383,66,62721,2,0,P|353:158|387:263,1,180,8|0,0:0|0:0,0:0:0:0:
286,270,63193,2,0,P|240:244|202:236,1,90,8|0,0:0|0:0,0:0:0:0:
76,286,63507,6,0,B|63:228|63:228|68:179,1,90
153,100,63821,2,0,B|156:130|156:130|143:188,1,90,8|8,0:0|0:0,0:0:0:0:
75,72,64135,2,0,P|104:33|159:21,1,90
297,67,64449,2,0,P|268:106|213:118,1,90,8|0,0:0|0:0,0:0:0:0:
419,39,64763,6,0,L|517:21,1,90
474,158,65077,1,8,0:0:0:0:
386,138,65234,1,8,0:0:0:0:
354,261,65392,2,0,P|355:313|370:361,1,90
238,300,65706,2,0,P|184:280|148:279,1,90,8|0,0:0|0:0,0:0:0:0:
51,180,66020,5,0,0:0:0:0:
28,95,66177,1,0,0:0:0:0:
75,22,66334,2,0,P|122:26|169:20,1,90,8|8,0:0|0:0,0:0:0:0:
248,135,66648,2,0,P|297:109|417:142,1,180,0|8,0:0|0:0,0:0:0:0:
441,222,67119,1,0,0:0:0:0:
308,322,67276,5,0,0:0:0:0:
329,234,67433,1,0,0:0:0:0:
248,135,67590,2,0,L|159:123,1,90,8|8,0:0|0:0,0:0:0:0:
11,177,67905,2,0,L|190:162,1,180,0|8,0:0|0:0,0:0:0:0:
152,243,68376,1,0,0:0:0:0:
248,135,68533,6,0,P|299:135|339:143,1,90
387,232,68847,2,0,P|342:240|297:239,1,90,8|8,0:0|0:0,0:0:0:0:
489,133,69161,2,0,L|497:242,1,90
414,143,69475,2,0,L|420:53,1,90,8|0,0:0|0:0,0:0:0:0:
306,38,69789,6,0,P|196:42|120:31,1,180,0|8,0:0|0:0,0:0:0:0:
0,190,70261,1,8,0:0:0:0:
45,270,70418,2,0,P|89:275|133:268,1,90
76,97,70732,1,8,0:0:0:0:
168,169,70889,1,0,0:0:0:0:
168,169,70967,1,0,0:0:0:0:
168,169,71046,6,0,L|257:162,1,90
354,282,71360,1,8,0:0:0:0:
264,274,71517,1,8,0:0:0:0:
439,228,71674,2,0,P|455:281|437:337,1,90
353,164,71988,2,0,P|347:119|363:77,1,90,8|0,0:0|0:0,0:0:0:0:
439,228,72303,6,0,L|350:235,1,90
253,115,72617,1,8,0:0:0:0:
343,123,72774,1,8,0:0:0:0:
168,169,72931,2,0,P|152:116|170:60,1,90
254,233,73245,2,0,P|260:278|244:320,1,90,8|0,0:0|0:0,0:0:0:0:
126,67,73559,6,0,B|128:122|128:122|150:181|150:181|149:246,1,180,0|8,0:0|0:0,0:0:0:0:
109,323,74030,1,8,0:0:0:0:
52,193,74187,2,0,L|41:291,1,90
198,361,74501,2,0,L|187:271,1,90,8|0,0:0|0:0,0:0:0:0:
249,147,74816,6,0,P|334:170|424:129,1,180,0|8,0:0|0:0,0:0:0:0:
470,63,75287,1,8,0:0:0:0:
326,30,75444,2,0,L|333:209,1,180,0|8,0:0|0:0,0:0:0:0:
263,266,75915,1,0,0:0:0:0:
263,266,75994,1,0,0:0:0:0:
263,266,76072,6,0,L|157:275,1,90
97,185,76386,2,0,L|203:194,1,90,8|0,0:0|0:0,0:0:0:0:
261,102,76700,2,0,L|155:111,1,90,8|0,0:0|0:0,0:0:0:0:
95,21,77014,2,0,L|201:30,1,90,8|0,0:0|0:0,0:0:0:0:
395,50,77329,6,0,P|402:121|394:140,1,90,8|0,0:0|0:0,0:0:0:0:
262,265,77643,2,0,P|252:222|263:179,1,90,8|0,0:0|0:0,0:0:0:0:
95,21,77957,6,0,P|105:64|94:107,1,90,8|0,0:0|0:0,0:0:0:0:
155,308,78271,2,0,L|57:294,1,90,8|0,0:0|0:0,0:0:0:0:
179,210,78585,5,0,0:0:0:0:
179,210,78899,2,0,L|187:138,2,67.5000025749208
273,167,79371,2,0,L|265:95,2,67.5000025749208
341,233,79842,1,0,0:0:0:0:
428,228,79999,1,0,0:0:0:0:
482,159,80156,1,0,0:0:0:0:
473,71,80313,1,0,0:0:0:0:
396,43,80470,5,0,0:0:0:0:
396,43,80784,2,0,P|362:56|279:31,1,101.250003862381
263,4,81098,6,0,P|256:68|247:103,1,90,2|2,0:0|0:0,0:0:0:0:
174,141,81412,1,10,0:0:0:0:
96,93,81570,1,10,0:0:0:0:
96,182,81727,1,0,0:0:0:0:
237,202,81884,2,0,P|282:192|337:208,1,90,2|8,0:0|0:0,0:0:0:0:
282,282,82198,1,2,0:0:0:0:
396,109,82355,6,0,P|437:189|374:263,1,180,0|10,0:0|0:0,0:0:0:0:
350,181,82826,1,10,0:0:0:0:
281,123,82983,2,0,L|177:111,1,90,2|2,0:0|0:0,0:0:0:0:
106,231,83297,2,0,L|210:219,1,90,10|2,0:0|0:0,0:0:0:0:
331,133,83611,6,0,P|330:204|329:324,1,180,0|8,0:0|0:0,0:0:0:0:
241,335,84083,1,8,0:0:0:0:
154,311,84240,2,0,L|153:221|152:131,1,180,0|8,0:0|0:0,0:0:0:0:
90,65,84711,1,0,0:0:0:0:
240,56,84868,6,0,P|286:61|340:42,1,90
461,2,85182,2,0,P|472:45|467:89,1,90,8|8,0:0|0:0,0:0:0:0:
361,214,85496,2,0,P|356:170|368:127,1,90
253,243,85810,2,0,P|265:286|260:331,1,90,8|0,0:0|0:0,0:0:0:0:
97,294,86125,5,2,0:0:0:0:
88,204,86282,1,2,0:0:0:0:
143,68,86439,1,10,0:0:0:0:
36,104,86596,1,10,0:0:0:0:
187,164,86753,2,0,P|252:168|316:154,1,90,2|2,0:0|0:0,0:0:0:0:
384,17,87067,1,8,0:0:0:0:
468,64,87224,1,2,0:0:0:0:
412,143,87381,6,0,L|416:240,1,90,0|2,0:0|0:0,0:0:0:0:
331,333,87695,1,10,0:0:0:0:
331,333,87852,1,10,0:0:0:0:
250,292,88009,2,0,L|158:284,2,90,2|2|10,0:0|0:0|0:0,0:0:0:0:
319,234,88481,1,2,0:0:0:0:
282,116,88638,6,0,P|214:88|171:94,1,90
71,192,88952,2,0,P|115:186|154:164,1,90,8|8,0:0|0:0,0:0:0:0:
94,13,89266,2,0,P|99:57|121:96,1,90
279,206,89580,2,0,P|301:244|306:289,1,90,8|0,0:0|0:0,0:0:0:0:
188,335,89894,5,0,0:0:0:0:
109,290,90051,1,0,0:0:0:0:
28,330,90208,2,0,P|23:276|37:237,1,90,8|8,0:0|0:0,0:0:0:0:
114,202,90522,2,0,L|218:191,1,90
368,196,90837,2,0,L|278:205,1,90,8|0,0:0|0:0,0:0:0:0:
430,124,91151,6,0,P|462:199|410:282,1,180,2|10,0:0|0:0,0:0:0:0:
325,277,91622,1,10,0:0:0:0:
244,317,91779,1,0,0:0:0:0:
160,282,91936,2,0,L|151:186,1,90,2|8,0:0|0:0,0:0:0:0:
76,241,92250,1,2,0:0:0:0:
30,108,92407,6,0,P|77:78|128:64,1,90,2|2,0:0|0:0,0:0:0:0:
217,116,92721,2,0,L|332:103,1,90,10|10,0:0|0:0,0:0:0:0:
416,64,93036,2,0,P|426:137|417:175,1,90,2|2,0:0|0:0,0:0:0:0:
325,277,93350,2,0,P|315:204|324:166,1,90,10|2,0:0|0:0,0:0:0:0:
165,241,93664,6,0,L|62:240,1,90
98,153,93978,2,0,L|187:153,1,90,8|8,0:0|0:0,0:0:0:0:
256,214,94292,1,0,0:0:0:0:
325,277,94449,1,0,0:0:0:0:
445,173,94606,2,0,P|446:222|436:272,1,90,8|0,0:0|0:0,0:0:0:0:
241,327,94920,6,0,L|136:324,1,90
50,258,95234,1,8,0:0:0:0:
136,232,95392,1,8,0:0:0:0:
78,112,95549,2,0,L|167:109,1,90
257,107,95863,2,0,L|346:104,1,90,8|0,0:0|0:0,0:0:0:0:
459,179,96177,5,2,0:0:0:0:
484,92,96334,1,2,0:0:0:0:
372,179,96491,1,10,0:0:0:0:
413,258,96648,1,8,0:0:0:0:
359,330,96805,1,0,0:0:0:0:
243,274,96962,2,0,P|199:261|156:274,1,90,2|8,0:0|0:0,0:0:0:0:
201,351,97276,1,2,0:0:0:0:
322,243,97433,6,0,P|340:202|350:147,1,90,2|2,0:0|0:0,0:0:0:0:
324,70,97748,1,10,0:0:0:0:
394,14,97905,1,10,0:0:0:0:
232,46,98062,2,0,L|138:60,1,90,2|2,0:0|0:0,0:0:0:0:
48,152,98376,2,0,L|142:166,1,90,10|2,0:0|0:0,0:0:0:0:
103,316,98690,6,0,P|157:306|215:328,1,90
344,275,99004,2,0,P|300:284|256:272,1,90,8|8,0:0|0:0,0:0:0:0:
298,107,99318,2,0,L|301:213,1,90
302,365,99632,1,8,0:0:0:0:
302,365,99789,1,0,0:0:0:0:
433,224,99947,5,8,0:0:0:0:
399,47,100104,1,8,0:0:0:0:
512,146,100261,1,8,0:0:0:0:
321,191,100418,1,8,0:0:0:0:
399,47,100575,1,8,0:0:0:0:
177,155,101203,6,0,P|172:242|172:252,1,90
211,366,101517,1,8,0:0:0:0:
88,275,101674,2,0,P|127:352|132:361,1,90,8|0,0:0|0:0,0:0:0:0:
283,323,101988,2,0,P|330:314|383:325,1,90,0|8,0:0|0:0,0:0:0:0:
439,260,102303,1,0,0:0:0:0:
469,117,102460,6,0,B|469:70|469:70|445:19,1,90
296,113,102774,1,8,0:0:0:0:
296,113,102931,2,0,B|343:113|343:113|394:89,1,90,8|0,0:0|0:0,0:0:0:0:
288,16,103245,1,0,0:0:0:0:
222,75,103402,2,0,P|215:121|262:190,1,90,8|0,0:0|0:0,0:0:0:0:
372,196,103716,6,0,L|194:192,1,135
196,220,104030,1,8,0:0:0:0:
184,333,104187,1,8,0:0:0:0:
89,263,104344,2,0,P|86:195|96:158,1,90
152,108,104659,2,0,P|155:40|145:3,1,90,8|0,0:0|0:0,0:0:0:0:
26,70,104973,5,0,0:0:0:0:
26,70,105130,1,0,0:0:0:0:
107,198,105287,1,8,0:0:0:0:
83,355,105444,2,0,L|179:344,1,90,8|0,0:0|0:0,0:0:0:0:
212,263,105758,1,0,0:0:0:0:
293,300,105915,2,0,P|346:295|381:267,1,90,8|0,0:0|0:0,0:0:0:0:
412,166,106229,5,0,0:0:0:0:
494,224,106386,1,0,0:0:0:0:
468,104,106543,2,0,P|425:82|378:91,1,90,8|8,0:0|0:0,0:0:0:0:
317,147,106858,2,0,P|274:169|227:160,1,90
259,50,107172,1,8,0:0:0:0:
172,15,107329,1,0,0:0:0:0:
101,153,107486,6,0,L|123:322,1,135
104,329,107800,1,8,0:0:0:0:
227,315,107957,2,0,P|283:306|321:316,1,90,8|0,0:0|0:0,0:0:0:0:
406,357,108271,1,0,0:0:0:0:
466,239,108428,2,0,P|477:183|468:151,1,90,8|0,0:0|0:0,0:0:0:0:
345,65,108742,6,0,P|378:125|361:203,1,135
349,230,109056,2,0,L|244:222,1,90,8|8,0:0|0:0,0:0:0:0:
170,242,109371,2,0,L|65:234,1,90
114,151,109685,2,0,L|203:144,1,90,8|0,0:0|0:0,0:0:0:0:
325,145,109999,5,0,0:0:0:0:
268,74,110156,1,0,0:0:0:0:
413,122,110313,1,8,0:0:0:0:
337,7,110470,1,8,0:0:0:0:
423,31,110627,1,0,0:0:0:0:
413,122,110784,1,0,0:0:0:0:
356,225,110941,2,0,P|350:271|361:322,1,90,8|0,0:0|0:0,0:0:0:0:
206,219,111255,6,0,L|109:223,1,90,2|0,0:0|0:0,0:0:0:0:
32,295,111570,1,10,0:0:0:0:
154,142,111727,1,8,0:0:0:0:
49,96,111884,2,0,P|46:37|58:-4,1,90,2|0,0:0|0:0,0:0:0:0:
181,19,112198,2,0,L|282:17,1,90,10|0,0:0|0:0,0:0:0:0:
426,116,112512,6,0,L|325:114,1,90,2|0,0:0|0:0,0:0:0:0:
243,226,112826,2,0,L|344:224,1,90,10|8,0:0|0:0,0:0:0:0:
499,285,113140,2,0,L|398:283,1,90,2|0,0:0|0:0,0:0:0:0:
265,318,113454,1,10,0:0:0:0:
126,267,113611,1,0,0:0:0:0:
174,102,113769,6,0,P|215:129|267:132,1,90,2|0,0:0|0:0,0:0:0:0:
338,101,114083,1,10,0:0:0:0:
417,142,114240,1,8,0:0:0:0:
390,24,114397,2,0,P|337:11|267:27,1,90,2|0,0:0|0:0,0:0:0:0:
278,187,114711,2,0,P|321:199|365:196,1,90,10|0,0:0|0:0,0:0:0:0:
221,261,115025,5,2,0:0:0:0:
142,216,115182,1,0,0:0:0:0:
52,297,115339,2,0,L|45:193,1,90,10|8,0:0|0:0,0:0:0:0:
86,126,115653,2,0,P|133:121|191:123,1,90,2|0,0:0|0:0,0:0:0:0:
278,187,115967,1,10,0:0:0:0:
314,304,116125,1,0,0:0:0:0:
468,214,116282,6,0,P|421:219|363:217,1,90,2|0,0:0|0:0,0:0:0:0:
404,51,116596,2,0,L|417:147,1,90,10|8,0:0|0:0,0:0:0:0:
309,102,116910,2,0,L|321:12,1,90,2|0,0:0|0:0,0:0:0:0:
216,83,117224,2,0,P|154:100|122:93,1,90,10|0,0:0|0:0,0:0:0:0:
47,222,117538,6,0,P|103:213|151:231,1,90,2|0,0:0|0:0,0:0:0:0:
220,267,117852,2,0,P|263:276|307:266,1,90,10|8,0:0|0:0,0:0:0:0:
409,206,118166,2,0,L|400:24,1,180,2|10,0:0|0:0,0:0:0:0:
310,15,118638,1,0,0:0:0:0:
254,86,118795,6,0,L|161:93,1,90,2|0,0:0|0:0,0:0:0:0:
47,222,119109,1,10,0:0:0:0:
163,203,119266,1,8,0:0:0:0:
267,260,119423,2,0,P|321:251|377:264,1,90,2|0,0:0|0:0,0:0:0:0:
469,338,119737,2,0,L|457:244,1,90,10|0,0:0|0:0,0:0:0:0:
471,53,120051,5,10,0:0:0:0:
401,80,120365,5,10,0:0:0:0:
328,64,120679,5,8,0:0:0:0:
328,64,120837,1,0,0:0:0:0:
328,64,120994,2,0,P|270:76|230:67,1,90
107,18,121308,6,0,L|79:115,1,90,6|0,0:0|0:0,0:0:0:0:
52,201,121622,1,10,0:0:0:0:
147,176,121779,1,8,0:0:0:0:
114,276,121936,2,0,P|166:280|204:275,1,90
302,254,122250,1,10,0:0:0:0:
386,224,122407,1,0,0:0:0:0:
480,275,122564,6,0,P|490:206|481:173,1,90,2|0,0:0|0:0,0:0:0:0:
399,108,122878,2,0,L|295:103,1,90,10|8,0:0|0:0,0:0:0:0:
210,163,123193,2,0,P|196:89|256:7,1,180,2|10,0:0|0:0,0:0:0:0:
339,34,123664,1,0,0:0:0:0:
314,188,123821,6,0,L|312:280,1,90,2|0,0:0|0:0,0:0:0:0:
250,343,124135,1,10,0:0:0:0:
381,362,124292,1,8,0:0:0:0:
220,269,124449,2,0,P|152:264|94:283,1,90,2|0,0:0|0:0,0:0:0:0:
45,165,124763,2,0,P|113:160|171:179,1,90,10|0,0:0|0:0,0:0:0:0:
298,260,125077,6,0,B|285:196|285:196|294:82,1,180,2|8,0:0|0:0,0:0:0:0:
363,23,125549,1,8,0:0:0:0:
432,80,125706,2,0,P|436:135|432:172,1,90,2|0,0:0|0:0,0:0:0:0:
387,252,126020,2,0,P|383:307|387:344,1,90,10|0,0:0|0:0,0:0:0:0:
485,237,126334,5,2,0:0:0:0:
503,324,126491,1,0,0:0:0:0:
387,252,126648,2,0,L|292:260,1,90,10|8,0:0|0:0,0:0:0:0:
150,318,126962,2,0,L|239:310,1,90,2|0,0:0|0:0,0:0:0:0:
86,264,127276,2,0,P|67:322|87:369,1,90,10|0,0:0|0:0,0:0:0:0:
168,231,127590,5,2,0:0:0:0:
157,141,127748,1,0,0:0:0:0:
144,51,127905,2,0,L|49:55,1,90,10|8,0:0|0:0,0:0:0:0:
224,85,128219,2,0,L|319:89,1,90,2|0,0:0|0:0,0:0:0:0:
404,190,128533,2,0,P|449:168|466:133,1,90,10|0,0:0|0:0,0:0:0:0:
297,187,128847,6,0,L|305:303,1,90,2|0,0:0|0:0,0:0:0:0:
199,355,129161,2,0,L|205:265,1,90,10|8,0:0|0:0,0:0:0:0:
151,162,129475,2,0,B|117:159|117:159|57:162,1,90,2|0,0:0|0:0,0:0:0:0:
224,85,129789,2,0,B|258:88|258:88|318:85,1,90,10|0,0:0|0:0,0:0:0:0:
469,23,130104,5,2,0:0:0:0:
429,103,130261,1,0,0:0:0:0:
495,239,130418,1,10,0:0:0:0:
378,312,130575,2,0,P|315:308|261:296,1,90,8|2,0:0|0:0,0:0:0:0:
211,235,130889,1,0,0:0:0:0:
78,311,131046,1,8,0:0:0:0:
37,184,131203,1,0,0:0:0:0:
37,184,131282,1,0,0:0:0:0:
37,184,131360,6,0,L|131:196,1,90,2|0,0:0|0:0,0:0:0:0:
257,156,131674,2,0,L|351:168,1,90,10|8,0:0|0:0,0:0:0:0:
467,131,131988,1,2,0:0:0:0:
388,73,132145,1,0,0:0:0:0:
423,216,132303,2,0,L|415:309,1,90,10|0,0:0|0:0,0:0:0:0:
258,292,132617,5,2,0:0:0:0:
192,369,132774,1,0,0:0:0:0:
331,357,132931,1,10,0:0:0:0:
209,195,133088,1,8,0:0:0:0:
62,265,133245,2,0,B|107:258|107:258|163:268,1,90,2|0,0:0|0:0,0:0:0:0:
260,106,133559,2,0,B|215:113|215:113|159:103,1,90,10|0,0:0|0:0,0:0:0:0:
324,42,133873,6,0,P|354:111|277:197,1,180,2|10,0:0|0:0,0:0:0:0:
214,221,134344,1,8,0:0:0:0:
170,105,134501,2,0,L|290:105,1,90,2|0,0:0|0:0,0:0:0:0:
441,119,134816,2,0,P|449:178|444:218,1,90,10|0,0:0|0:0,0:0:0:0:
352,321,135130,6,0,B|284:364|233:276|158:337,1,180,2|10,0:0|0:0,0:0:0:0:
48,359,135601,1,8,0:0:0:0:
48,359,135758,2,0,L|41:260,1,90,2|0,0:0|0:0,0:0:0:0:
163,194,136072,2,0,L|170:95,1,90,10|0,0:0|0:0,0:0:0:0:
336,46,136386,6,0,P|409:57|456:45,1,90,2|0,0:0|0:0,0:0:0:0:
336,146,136700,2,0,P|263:157|216:145,1,90,10|8,0:0|0:0,0:0:0:0:
381,231,137015,1,2,0:0:0:0:
469,213,137172,1,0,0:0:0:0:
305,315,137329,2,0,P|257:305|192:309,1,90,10|0,0:0|0:0,0:0:0:0:
32,246,137643,6,0,L|141:239,1,90,2|0,0:0|0:0,0:0:0:0:
336,146,137957,2,0,L|227:139,1,90,10|0,0:0|0:0,0:0:0:0:
120,44,138271,1,10,0:0:0:0:
258,272,138428,1,8,0:0:0:0:
258,272,138585,6,0,P|304:247|354:250,1,101.250003862381,2|0,0:0|0:0,0:0:0:0:
369,267,138899,6,0,L|358:361,1,90,4|0,0:0|0:0,0:0:0:0:
153,356,139214,2,0,L|143:267,1,90,8|8,0:0|0:0,0:0:0:0:
52,178,139528,2,0,P|118:135|214:169,1,180,0|8,0:0|0:0,0:0:0:0:
235,249,139999,1,0,0:0:0:0:
329,153,140156,6,0,P|344:99|341:60,1,90
217,119,140470,2,0,P|163:104|124:107,1,90,8|8,0:0|0:0,0:0:0:0:
183,231,140784,2,0,P|168:285|171:324,1,90
295,265,141098,2,0,P|349:280|388:277,1,90,8|0,0:0|0:0,0:0:0:0:
431,130,141412,5,0,0:0:0:0:
464,214,141570,1,0,0:0:0:0:
475,50,141727,1,8,0:0:0:0:
343,123,141884,2,0,P|294:116|253:118,1,90,8|0,0:0|0:0,0:0:0:0:
170,151,142198,1,0,0:0:0:0:
45,119,142355,2,0,L|40:213,1,90,8|0,0:0|0:0,0:0:0:0:
142,344,142669,6,0,P|195:318|319:365,1,180,0|8,0:0|0:0,0:0:0:0:
401,235,143140,1,8,0:0:0:0:
401,235,143297,2,0,P|403:298|399:328,1,90
299,196,143611,2,0,P|313:134|325:106,1,90,8|0,0:0|0:0,0:0:0:0:
165,31,143926,5,0,0:0:0:0:
229,93,144083,1,0,0:0:0:0:
159,189,144240,1,8,0:0:0:0:
210,292,144397,2,0,L|301:296,1,90,8|0,0:0|0:0,0:0:0:0:
375,344,144711,1,0,0:0:0:0:
448,207,144868,2,0,P|443:267|448:316,1,90,8|0,0:0|0:0,0:0:0:0:
339,147,145182,5,0,0:0:0:0:
249,154,145339,1,0,0:0:0:0:
141,93,145496,1,8,0:0:0:0:
220,238,145653,2,0,P|271:240|313:212,1,90,8|0,0:0|0:0,0:0:0:0:
376,56,145967,1,0,0:0:0:0:
376,56,146125,2,0,P|325:54|283:82,1,90,8|0,0:0|0:0,0:0:0:0:
135,185,146439,6,0,L|144:366,1,180,0|8,0:0|0:0,0:0:0:0:
220,238,146910,1,8,0:0:0:0:
220,238,147067,2,0,P|283:233|320:235,1,90
363,305,147381,2,0,P|426:310|463:308,1,90,8|0,0:0|0:0,0:0:0:0:
507,164,147695,6,0,P|487:122|387:166,1,180,0|8,0:0|0:0,0:0:0:0:
301,78,148166,1,8,0:0:0:0:
301,78,148323,2,0,B|237:95|237:95|198:93,1,90
62,61,148638,1,8,0:0:0:0:
184,205,148795,1,0,0:0:0:0:
184,205,148873,1,0,0:0:0:0:
184,205,148952,6,0,P|241:218|278:213,1,90,4|0,0:0|0:0,0:0:0:0:
368,136,149266,1,8,0:0:0:0:
455,157,149423,1,8,0:0:0:0:
416,303,149580,2,0,P|461:310|506:305,1,90
399,218,149894,2,0,P|354:211|309:216,1,90,8|0,0:0|0:0,0:0:0:0:
120,333,150208,6,0,L|113:232,1,90
210,115,150522,1,8,0:0:0:0:
184,205,150679,1,8,0:0:0:0:
150,74,150837,2,0,P|196:45|256:61,1,90
339,143,151151,2,0,L|320:250,1,90,8|0,0:0|0:0,0:0:0:0:
425,133,151465,6,0,P|386:67|278:81,1,180,0|8,0:0|0:0,0:0:0:0:
339,143,151936,1,8,0:0:0:0:
184,205,152093,2,0,L|290:198,1,90
407,281,152407,2,0,L|317:275,1,90,8|0,0:0|0:0,0:0:0:0:
139,329,152721,5,0,0:0:0:0:
228,336,152878,1,0,0:0:0:0:
317,275,153036,2,0,P|336:233|336:181,1,90,8|8,0:0|0:0,0:0:0:0:
284,117,153350,2,0,L|181:103,1,90
321,40,153664,2,0,L|424:26,1,90,8|0,0:0|0:0,0:0:0:0:
472,174,153978,5,0,0:0:0:0:
487,262,154135,1,0,0:0:0:0:
402,354,154292,2,0,P|379:293|388:247,1,90,8|0,0:0|0:0,0:0:0:0:
177,219,154606,2,0,P|238:196|284:205,1,90,8|0,0:0|0:0,0:0:0:0:
444,88,154920,2,0,P|383:111|337:102,1,90,8|0,0:0|0:0,0:0:0:0:
152,54,155234,5,8,0:0:0:0:
152,54,155392,1,0,0:0:0:0:
70,236,155549,1,8,0:0:0:0:
70,236,155706,1,0,0:0:0:0:
265,232,155863,5,8,0:0:0:0:
368,321,156020,1,8,3:0:0:0:
476,241,156177,5,8,3:0:0:0:
496,201,156255,1,0,0:0:0:0:
497,156,156334,1,0,0:0:0:0:
478,116,156412,1,0,0:0:0:0:
443,87,156491,6,0,L|312:80,1,112.5,12|0,0:0|0:0,0:0:0:0:
108,100,156805,2,0,L|221:107,1,112.5,8|0,0:0|0:0,0:0:0:0:
239,270,157119,2,0,P|184:261|129:271,1,112.5,8|0,0:0|0:0,0:0:0:0:
349,245,157433,2,0,P|404:253|459:244,1,112.5,8|0,0:0|0:0,0:0:0:0:
400,52,157748,6,0,L|405:174,1,112.5,8|0,0:0|0:0,0:0:0:0:
280,66,158062,2,0,L|276:179,1,112.5,8|0,0:0|0:0,0:0:0:0:
128,270,158376,2,0,L|124:158,1,112.5,8|0,0:0|0:0,0:0:0:0:
220,335,158690,2,0,B|312:340|312:340|386:326,1,112.5,8|0,0:0|0:0,0:0:0:0:
474,193,159004,6,0,P|486:279|453:321,1,112.5,12|0,0:0|0:0,0:0:0:0:
297,247,159318,2,0,P|383:235|425:268,1,112.5,8|0,0:0|0:0,0:0:0:0:
287,341,159632,2,0,P|234:357|181:339,1,112.5,8|0,0:0|0:0,0:0:0:0:
239,161,159947,2,0,P|221:213|237:266,1,112.5,8|0,0:0|0:0,0:0:0:0:
141,177,160261,6,0,P|55:165|10:189,1,112.5,8|0,0:0|0:0,0:0:0:0:
67,356,160575,2,0,L|83:242,1,112.5,8|0,0:0|0:0,0:0:0:0:
297,280,160889,2,0,P|242:286|193:261,1,112.5,8|0,0:0|0:0,0:0:0:0:
366,214,161203,2,0,P|421:208|471:234,1,112.5,8|0,0:0|0:0,0:0:0:0:
259,332,161517,6,0,L|255:200,1,112.5,12|0,0:0|0:0,0:0:0:0:
165,121,161831,2,0,L|161:253,1,112.5,8|0,0:0|0:0,0:0:0:0:
294,84,162145,2,0,L|298:197,1,112.5,8|0,0:0|0:0,0:0:0:0:
405,321,162460,2,0,L|402:209,1,112.5,8|0,0:0|0:0,0:0:0:0:
506,101,162774,6,0,P|517:155|501:209,1,112.5,8|0,0:0|0:0,0:0:0:0:
396,101,163088,2,0,P|385:155|401:208,1,112.5,8|0,0:0|0:0,0:0:0:0:
368,351,163402,2,0,P|301:306|239:328,1,112.5,8|0,0:0|0:0,0:0:0:0:
141,239,163716,2,0,P|139:295|142:352,1,112.5,8|0,0:0|0:0,0:0:0:0:
252,175,164030,5,0,0:0:0:0:
280,82,166543,6,0,P|350:46|441:89,1,180,4|8,0:0|0:0,0:0:0:0:
457,172,167015,1,8,0:0:0:0:
366,216,167172,2,0,P|402:286|359:377,1,180,0|8,0:0|0:0,0:0:0:0:
320,294,167643,1,0,0:0:0:0:
193,323,167800,6,0,P|143:317|99:317,1,90
27,221,168114,2,0,P|71:220|116:214,1,90,8|8,0:0|0:0,0:0:0:0:
215,103,168428,1,0,0:0:0:0:
257,201,168585,1,0,0:0:0:0:
334,124,168742,1,8,0:0:0:0:
293,23,168899,1,0,0:0:0:0:
440,123,169056,6,0,P|444:211|456:309,1,180,0|8,0:0|0:0,0:0:0:0:
360,222,169528,1,8,0:0:0:0:
360,222,169685,2,0,P|347:265|324:310,1,90
185,305,169999,2,0,P|165:265|152:222,1,90,8|0,0:0|0:0,0:0:0:0:
82,104,170313,6,0,P|147:86|190:92,1,90
291,117,170627,1,8,0:0:0:0:
360,222,170784,1,8,0:0:0:0:
465,154,170941,2,0,L|478:246,1,90
373,311,171255,2,0,L|360:219,1,90,8|0,0:0|0:0,0:0:0:0:
291,117,171570,6,0,P|221:133|155:104,1,135
144,70,171884,2,0,L|131:165,1,90,8|8,0:0|0:0,0:0:0:0:
48,274,172198,1,0,0:0:0:0:
129,312,172355,1,0,0:0:0:0:
210,274,172512,1,8,0:0:0:0:
294,305,172669,1,0,0:0:0:0:
374,263,172826,6,0,L|402:157,1,90
459,35,173140,2,0,P|478:85|467:137,1,90,8|8,0:0|0:0,0:0:0:0:
261,111,173454,2,0,L|411:93,1,135
405,81,173769,2,0,L|396:171,1,90,8|0,0:0|0:0,0:0:0:0:
253,231,174083,6,0,P|163:220|156:222,1,90
87,272,174397,2,0,L|75:180,1,90,8|8,0:0|0:0,0:0:0:0:
169,109,174711,2,0,L|181:17,1,90
335,154,175025,2,0,P|245:143|238:145,1,90,8|0,0:0|0:0,0:0:0:0:
358,265,175339,5,0,0:0:0:0:
428,212,175496,1,0,0:0:0:0:
440,125,175653,1,8,0:0:0:0:
387,56,175810,1,8,0:0:0:0:
258,106,175967,2,0,L|169:109,1,90
156,199,176282,2,0,L|66:196,1,90,8|0,0:0|0:0,0:0:0:0:
207,305,176596,6,0,P|249:275|371:318,1,180,0|8,0:0|0:0,0:0:0:0:
286,358,177067,1,8,0:0:0:0:
239,199,177224,2,0,P|286:194|336:188,1,90
432,98,177538,1,8,0:0:0:0:
485,184,177695,1,0,0:0:0:0:
399,283,177852,6,0,L|300:284,1,90
117,304,178166,2,0,L|216:305,1,90,8|8,0:0|0:0,0:0:0:0:
319,138,178481,1,0,0:0:0:0:
239,199,178638,1,0,0:0:0:0:
117,80,178795,2,0,L|216:79,1,90,8|0,0:0|0:0,0:0:0:0:
386,98,179109,6,0,P|450:87|497:110,1,90
436,235,179423,1,8,0:0:0:0:
444,324,179580,1,8,0:0:0:0:
240,286,179737,2,0,P|304:297|351:274,1,90
290,149,180051,1,8,0:0:0:0:
257,61,180208,1,0,0:0:0:0:
138,155,180365,6,0,L|118:250,1,90
41,345,180679,2,0,P|99:338|151:343,1,90,8|8,0:0|0:0,0:0:0:0:
295,368,180994,2,0,P|343:310|291:199,1,180,0|8,0:0|0:0,0:0:0:0:
230,187,181465,1,0,0:0:0:0:
85,254,181622,6,0,B|101:124|101:124|118:146|151:162,1,180,0|8,0:0|0:0,0:0:0:0:
230,187,182093,1,8,0:0:0:0:
169,64,182250,2,0,P|120:35|64:46,1,90
244,103,182564,2,0,P|273:54|262:-2,1,90,8|0,0:0|0:0,0:0:0:0:
357,142,182878,6,0,P|332:231|399:303,1,180,0|8,0:0|0:0,0:0:0:0:
474,362,183350,1,8,0:0:0:0:
502,253,183507,2,0,P|510:210|505:163,1,90
444,70,183821,2,0,L|353:66,1,90,8|0,0:0|0:0,0:0:0:0:
169,64,184135,5,0,0:0:0:0:
180,153,184292,1,0,0:0:0:0:
164,317,184449,1,8,0:0:0:0:
270,185,184606,1,8,0:0:0:0:
113,229,184763,1,0,0:0:0:0:
264,285,184920,1,0,0:0:0:0:
180,153,185077,1,8,0:0:0:0:
256,102,185234,1,0,0:0:0:0:
92,143,185392,5,0,0:0:0:0:
79,318,185549,1,0,0:0:0:0:
237,369,185706,1,8,0:0:0:0:
340,236,185863,1,8,0:0:0:0:
256,102,186020,2,0,P|308:71|431:125,1,180,0|2,0:0|0:0,0:0:0:0:
468,236,186648,1,4,0:0:0:0:
256,192,186727,12,0,191674,0:0:0:0:
