osu file format v14

[General]
AudioFilename: audio.mp3
AudioLeadIn: 0
PreviewTime: -1
Countdown: 1
SampleSet: Normal
StackLeniency: 0.7
Mode: 0
LetterboxInBreaks: 0
WidescreenStoryboard: 0

[Editor]
Bookmarks: 7632
DistanceSpacing: 1.4
BeatDivisor: 8
GridSize: 32
TimelineZoom: 2.3

[Metadata]
Title:Hey Darling!
TitleUnicode:Hey Darling!
Artist:Madosoft
ArtistUnicode:Madosoft
Creator:Corydidit
Version:
Source:Wagamama High spec OC vocal album OST
Tags:wagamama high spec
BeatmapID:1827481
BeatmapSetID:874374

[Difficulty]
HPDrainRate:6
CircleSize:4
OverallDifficulty:6.5
ApproachRate:9.2
SliderMultiplier:1.59999990463257
SliderTickRate:1

[Events]
//Background and Video events
0,0,"Wagamama High Spec.jpg",0,0
//Break Periods
2,28510,34307
2,60161,64976
//Storyboard Layer 0 (Background)
//Storyboard Layer 1 (Fail)
//Storyboard Layer 2 (Pass)
//Storyboard Layer 3 (Foreground)
//Storyboard Sound Samples

[TimingPoints]
5971,425.531914893617,4,1,0,100,1,0
5971,-66.6666666666667,4,1,0,100,0,0
74853,-50,4,1,0,100,0,0

[HitObjects]
256,192,5971,12,0,7247,0:0:0:0:
73,153,7673,5,0,0:0:0:0:
248,27,7992,1,0,0:0:0:0:
294,64,8098,1,0,0:0:0:0:
312,121,8205,1,0,0:0:0:0:
232,210,8417,1,0,0:0:0:0:
121,162,8630,1,0,0:0:0:0:
66,187,8736,1,0,0:0:0:0:
44,243,8843,1,0,0:0:0:0:
94,274,8949,2,0,B|181:244|76:145|-7:264|105:278|105:278,1,179.999996137619
158,265,9375,5,0,0:0:0:0:
216,153,9747,2,0,B|275:83|303:82|330:93,1,119.999997425079
389,135,10119,1,0,0:0:0:0:
335,62,10279,1,0,0:0:0:0:
285,28,10385,1,0,0:0:0:0:
224,25,10492,1,0,0:0:0:0:
192,75,10598,2,0,B|185:150|289:125|285:47|174:81,1,179.999996137619
128,146,11077,6,0,B|196:113|196:113|249:122,1,119.999997425079
208,5,11556,5,0,0:0:0:0:
160,41,11662,1,0,0:0:0:0:
137,96,11768,1,0,0:0:0:0:
159,151,11875,1,0,0:0:0:0:
213,175,11981,1,0,0:0:0:0:
268,152,12088,1,0,0:0:0:0:
284,94,12194,1,0,0:0:0:0:
206,48,12353,2,0,B|153:27|126:88|168:133|239:135|272:106,1,179.999996137619
273,64,12779,6,0,B|648:126|26:134|441:180|-55:165|544:170|632:188|644:234|-57:228|413:223|5:325|493:321|-2:357|409:334|444:321|402:311|432:292|440:272,1,704.999984872341
105,98,14455,5,0,0:0:0:0:
3,198,14667,1,0,0:0:0:0:
118,284,14880,1,0,0:0:0:0:
258,251,15093,1,0,0:0:0:0:
340,155,15279,2,0,B|302:106|331:74|349:59|362:60,1,89.9999980688095
413,150,15598,2,0,B|397:213|374:238|308:190,1,149.999996781349
329,43,16077,5,0,0:0:0:0:
395,70,16183,1,0,0:0:0:0:
463,154,16343,1,0,0:0:0:0:
366,261,16556,1,0,0:0:0:0:
226,296,16769,1,0,0:0:0:0:
101,217,16981,6,0,B|63:199|50:160|47:136|51:119,1,89.9999980688095
166,59,17354,2,0,B|167:69|175:83|182:106|189:116|192:123|195:130|199:139,1,59.9999987125397
332,114,17673,2,0,B|309:98|286:91|279:93,1,29.9999993562698
261,155,17832,2,0,B|295:233|300:239|345:244,1,119.999992847443
381,59,18311,5,0,0:0:0:0:
141,217,18736,1,0,0:0:0:0:
351,268,19056,1,0,0:0:0:0:
453,78,19375,1,0,0:0:0:0:
333,86,19588,1,0,0:0:0:0:
239,160,19800,1,0,0:0:0:0:
343,219,20013,1,0,0:0:0:0:
441,150,20226,1,0,0:0:0:0:
375,250,20439,2,0,P|318:294|271:297,1,119.999997425079
224,262,20758,1,0,0:0:0:0:
167,217,20864,1,0,0:0:0:0:
128,128,21263,5,0,0:0:0:0:
271,313,21609,1,0,0:0:0:0:
392,134,21928,1,0,0:0:0:0:
258,187,22141,1,0,0:0:0:0:
437,197,22407,1,0,0:0:0:0:
278,24,22753,1,0,0:0:0:0:
159,134,22992,1,0,0:0:0:0:
292,254,23258,1,0,0:0:0:0:
163,57,23604,1,0,0:0:0:0:
239,156,23790,2,0,B|802:162|120:253|507:296,1,494.999989378452
377,226,24880,6,0,B|433:248|478:216|492:189|497:180|498:173,1,134.999997103214
254,57,25519,1,0,0:0:0:0:
330,156,25705,1,0,0:0:0:0:
266,242,25864,2,0,B|195:225|167:217|126:182,1,149.999996781349
191,34,26370,2,0,B|254:28|298:30|335:15|335:15,1,134.999997103214
288,80,26715,1,0,0:0:0:0:
401,24,26902,1,0,0:0:0:0:
318,141,27114,1,0,0:0:0:0:
85,170,27460,1,0,0:0:0:0:
226,143,27673,1,0,0:0:0:0:
153,223,27833,1,0,0:0:0:0:
242,221,27965,2,0,B|279:265|279:265|267:320|196:327|158:298,1,194.999995815754
106,17,34907,5,0,0:0:0:0:
31,219,35226,1,0,0:0:0:0:
226,126,35545,1,0,0:0:0:0:
370,127,35758,1,0,0:0:0:0:
512,138,36024,2,0,B|473:187|440:222|385:222|378:256|391:277|386:292|415:297,1,224.999995172024
512,310,36609,5,0,0:0:0:0:
391,230,36822,1,0,0:0:0:0:
474,112,37035,1,0,0:0:0:0:
340,58,37248,1,0,0:0:0:0:
412,182,37460,1,0,0:0:0:0:
314,37,38099,5,0,0:0:0:0:
314,37,38258,2,0,P|218:68|185:117,1,149.999996781349
154,100,38577,2,0,L|-9:37,1,149.999996781349
5,81,38896,2,0,B|-48:110|-67:126|-77:141|10:170,1,149.999996781349
116,227,39375,1,0,0:0:0:0:
104,83,39588,1,0,0:0:0:0:
213,176,39801,1,0,0:0:0:0:
329,90,40014,1,0,0:0:0:0:
195,38,40226,1,0,0:0:0:0:
291,144,40439,1,0,0:0:0:0:
406,230,40652,1,0,0:0:0:0:
512,309,40865,2,0,B|416:213|384:181|366:164,1,179.999996137619
169,196,41502,21,0,0:0:0:0:
285,109,41716,1,0,0:0:0:0:
345,278,41982,1,0,0:0:0:0:
190,126,42301,1,0,0:0:0:0:
369,108,42567,1,0,0:0:0:0:
377,359,42939,1,0,0:0:0:0:
243,267,43178,1,0,0:0:0:0:
146,184,43365,2,0,B|210:24|274:184|306:376|370:152|434:56|434:152|498:24|498:152|594:24|594:152|594:248|466:184,1,629.999986481667
237,47,44907,6,0,B|303:85|325:97,1,89.9999980688095
419,59,45280,1,0,0:0:0:0:
419,59,45386,2,0,B|495:65|514:217,1,179.999996137619
411,310,45971,1,0,0:0:0:0:
361,136,46290,1,0,0:0:0:0:
295,34,46503,1,0,0:0:0:0:
295,34,46609,2,0,B|235:39|197:60|167:87|138:114|126:152|158:185|212:207|264:203|265:204,1,299.999993562698
168,225,47886,5,0,0:0:0:0:
168,225,48099,2,0,B|110:168|101:102|101:61|118:61|170:53|201:100,1,239.999994850159,0|0,0:3|0:3,0:3:0:0:
186,83,48737,1,0,0:0:0:0:
186,83,48950,2,0,B|220:53|258:59|276:90|276:90|288:125|276:152|257:182|175:224,1,269.999994206429
234,273,49535,5,0,0:0:0:0:
394,237,49748,1,0,0:0:0:0:
419,182,49854,1,0,0:0:0:0:
406,123,49961,1,0,0:0:0:0:
365,79,50066,1,0,0:0:0:0:
292,57,50200,2,0,P|234:53|208:61,1,74.9999983906746
201,145,50492,2,0,B|233:141|250:136|274:143,1,59.9999987125397
330,169,50732,1,0,0:0:0:0:
358,221,50838,2,0,B|251:224|375:333|468:267|377:141,1,269.999994206429
176,259,51689,5,0,0:0:0:0:
289,89,51902,1,0,0:0:0:0:
455,207,52115,1,0,0:0:0:0:
421,302,52221,2,0,B|350:332|288:319|281:306,1,134.999997103214
88,86,52673,2,0,B|120:150|152:182|184:246|248:182|244:71|240:257,1,299.999993562698
314,256,53418,1,0,0:0:0:0:
317,153,53631,2,0,B|320:88|368:58,1,104.999997746944
463,95,53897,2,0,P|436:146|386:207,1,119.999997425079
271,199,54269,2,0,B|213:175|173:135|194:103,1,134.999997103214
32,64,54695,5,0,0:0:0:0:
87,211,54881,1,0,0:0:0:0:
266,202,55093,1,0,0:0:0:0:
491,111,55546,5,0,0:0:0:0:
325,45,55732,1,0,0:0:0:0:
204,208,55944,1,0,0:0:0:0:
512,122,56317,5,0,0:0:0:0:
253,241,56583,1,0,0:0:0:0:
480,244,56796,1,0,0:0:0:0:
338,64,57009,1,0,0:0:0:0:
201,245,57221,1,0,0:0:0:0:
408,150,57434,1,0,0:0:0:0:
240,305,57647,1,0,0:0:0:0:
492,59,58099,1,0,0:0:0:0:
311,198,58312,1,0,0:0:0:0:
91,140,58524,1,0,0:0:0:0:
260,32,58711,2,0,B|475:-86|66:233|607:249|-80:234|745:256|-6:316|784:259|683:19|420:11|137:197|244:263|252:134|239:159,1,704.999984872341
64,128,65546,5,0,0:0:0:0:
220,217,65759,1,0,0:0:0:0:
366,159,65945,1,0,0:0:0:0:
218,55,66158,1,0,0:0:0:0:
61,138,66370,2,0,B|21:137|-9:181|39:202|97:173|103:109|37:163|36:168,1,134.999997103214
90,238,66716,1,0,0:0:0:0:
240,284,66902,1,0,0:0:0:0:
442,304,67142,5,0,0:0:0:0:
488,234,67248,1,0,0:0:0:0:
414,106,67434,1,0,0:0:0:0:
237,36,67674,1,0,0:0:0:0:
99,86,67859,1,0,0:0:0:0:
230,191,68072,2,0,B|248:214|274:205|268:305|296:305|312:188|337:197|358:251|358:251,1,179.999996137619
443,312,68525,1,0,0:0:0:0:
496,153,68737,1,0,0:0:0:0:
369,76,68924,2,0,B|391:68|368:43|346:81|375:100|397:85|387:52|316:94|280:112,1,134.999997103214
136,144,69349,2,0,B|177:136|179:109|199:80|228:60|258:81|275:103|287:117|331:111|368:105|391:114|346:150|314:155|306:156|302:158,1,284.999993884563
210,254,69987,5,0,0:0:0:0:
67,107,70200,1,0,0:0:0:0:
297,113,70440,1,0,0:0:0:0:
103,51,70652,1,0,0:0:0:0:
240,200,70864,1,0,0:0:0:0:
36,172,71078,1,0,0:0:0:0:
213,158,71264,1,0,0:0:0:0:
78,4,71477,1,0,0:0:0:0:
291,223,71796,1,0,0:0:0:0:
220,149,71902,1,0,0:0:0:0:
510,59,72353,5,0,0:0:0:0:
393,226,72566,1,0,0:0:0:0:
285,83,72752,1,0,0:0:0:0:
468,173,72965,1,0,0:0:0:0:
265,147,73178,2,0,B|193:137|229:182|228:201|228:210|227:219|225:225|226:233|226:240|227:243|227:248|233:252|233:252,1,134.999997103214
290,293,73497,1,0,0:0:0:0:
116,185,73710,1,0,0:0:0:0:
298,46,73949,5,0,0:0:0:0:
356,95,74029,1,0,0:0:0:0:
184,205,74242,1,0,0:0:0:0:
375,275,74455,1,0,0:0:0:0:
407,74,74667,1,0,0:0:0:0:
512,258,74853,2,0,B|325:275,1,159.999990463257
207,278,75226,2,0,B|208:279|208:279|208:279|208:279|208:279|208:279|208:279|261:135,1,119.999992847443
308,91,75492,2,0,B|359:97|374:100|390:102|402:105|422:107|444:109|458:111|471:112|479:111|479:111|478:106|471:97|467:91|464:86|461:79|457:73|452:65|444:54|438:45|430:34|421:19|406:-4,1,279.9999833107
157,35,76157,5,0,0:0:0:0:
300,196,76396,1,0,0:0:0:0:
170,53,76609,1,0,0:0:0:0:
65,214,76822,1,0,0:0:0:0:
156,46,77034,1,0,0:0:0:0:
206,231,77247,1,0,0:0:0:0:
379,147,77460,1,0,0:0:0:0:
206,231,77673,1,0,0:0:0:0:
362,291,77859,1,0,0:0:0:0:
236,145,78072,1,0,0:0:0:0:
78,292,78311,2,0,P|161:278|233:259,1,119.999992847443
337,268,78630,1,0,0:0:0:0:
345,172,78736,1,0,0:0:0:0:
0,350,79135,5,0,0:0:0:0:
138,96,79455,1,0,0:0:0:0:
280,317,79747,1,0,0:0:0:0:
87,219,79986,1,0,0:0:0:0:
264,22,80279,1,0,0:0:0:0:
340,324,80625,1,0,0:0:0:0:
501,220,80838,1,0,0:0:0:0:
213,338,81183,1,0,0:0:0:0:
223,73,81476,1,0,0:0:0:0:
415,75,81689,1,0,0:0:0:0:
417,266,81901,1,0,0:0:0:0:
224,267,82114,1,0,0:0:0:0:
227,77,82327,1,0,0:0:0:0:
415,75,82540,1,0,0:0:0:0:
430,265,82752,6,0,B|366:203|360:201|358:203|309:265,1,159.999990463257
512,289,83417,1,0,0:0:0:0:
411,185,83577,1,0,0:0:0:0:
301,277,83736,1,0,0:0:0:0:
504,50,84056,5,0,0:0:0:0:
414,271,84268,2,0,B|336:155,1,139.99999165535
216,175,84561,1,0,0:0:0:0:
13,45,84774,1,0,0:0:0:0:
252,41,84986,1,0,0:0:0:0:
20,331,85306,1,0,0:0:0:0:
270,234,85545,1,0,0:0:0:0:
97,67,85758,1,0,0:0:0:0:
153,172,85864,1,0,0:0:0:0:
