osu file format v14

[General]
AudioFilename: audio.mp3
AudioLeadIn: 0
PreviewTime: 187221
Countdown: 0
SampleSet: Soft
StackLeniency: 0.7
Mode: 0
LetterboxInBreaks: 0
WidescreenStoryboard: 1

[Editor]
DistanceSpacing: 1.5
BeatDivisor: 6
GridSize: 4
TimelineZoom: 0.8

[Metadata]
Title:Help Me Faith
TitleUnicode:Help Me Faith
Artist:Madi Diaz
ArtistUnicode:Madi Diaz
Creator:Kuron-kun
Version:Easy
Source:Far Cry 5
Tags:FARCRY5 FC5 ubisoft game soundtrack dan romer country guitar mountains seed john joseph jacob into the flames eden
BeatmapID:1628609
BeatmapSetID:774942

[Difficulty]
HPDrainRate:4
CircleSize:3.5
OverallDifficulty:4
ApproachRate:5
SliderMultiplier:1.6
SliderTickRate:1

[Events]
//Background and Video events
0,0,"wallhaven-86911.jpg",0,0
//Break Periods
2,75586,79414
2,148005,152838
//Storyboard Layer 0 (Background)
//Storyboard Layer 1 (Fail)
//Storyboard Layer 2 (Pass)
//Storyboard Layer 3 (Foreground)
//Storyboard Sound Samples

[TimingPoints]
2202,1005.53041729512,4,2,2,45,1,0
2872,-100,4,2,2,25,0,0
3207,-100,4,2,2,45,0,0
5888,-100,4,2,2,25,0,0
6223,-100,4,2,2,45,0,0
6894,-100,4,2,2,25,0,0
7229,-100,4,2,2,45,0,0
9911,-100,4,2,2,25,0,0
10246,-100,4,2,2,45,0,0
10916,-100,4,2,2,25,0,0
11251,-100,4,2,2,45,0,0
11922,-100,4,2,2,25,0,0
12257,-100,4,2,2,45,0,0
12927,-100,4,2,2,25,0,0
13262,-100,4,2,2,45,0,0
13933,-100,4,2,2,25,0,0
14268,-100,4,2,2,45,0,0
14938,-100,4,2,2,25,0,0
15273,-100,4,2,2,45,0,0
15944,-100,4,2,2,25,0,0
16279,-100,4,2,2,45,0,0
16949,-100,4,2,2,25,0,0
17284,-100,4,2,2,45,0,0
17955,-100,4,2,2,25,0,0
18290,-100,4,2,2,45,0,0
21977,-100,4,2,2,25,0,0
22312,-100,4,2,2,45,0,0
23988,-100,4,2,2,25,0,0
24323,-100,4,2,2,45,0,0
24994,-100,4,2,2,25,0,0
25329,-100,4,2,2,45,0,0
25999,-100,4,2,2,25,0,0
26334,-100,4,2,2,45,0,0
27005,-100,4,2,2,25,0,0
27340,-100,4,2,2,45,0,0
28010,-100,4,2,2,25,0,0
28345,-100,4,2,2,45,0,0
29016,-100,4,2,2,25,0,0
29351,-100,4,2,2,45,0,0
30021,-100,4,2,2,25,0,0
30356,-100,4,2,2,45,0,0
31027,-100,4,2,2,25,0,0
31362,-100,4,2,2,45,0,0
34043,-100,4,2,2,25,0,0
34378,-100,4,2,2,45,0,0
35049,-100,4,2,2,25,0,0
35384,-100,4,2,2,45,0,0
36054,-100,4,2,2,25,0,0
36389,-100,4,2,2,45,0,0
37060,-100,4,2,2,25,0,0
37395,-100,4,2,2,45,0,0
38065,-100,4,2,2,25,0,0
38400,-100,4,2,2,45,0,0
41082,-100,4,2,2,25,0,0
41417,-100,4,2,2,45,0,0
42088,-100,4,2,2,25,0,0
42404,1005.53041729512,4,2,1,75,1,0
80614,-100,4,2,50,40,0,0
82638,1005.53041729512,4,2,50,45,1,0
82638,-100,4,2,50,45,0,0
147000,1005.53041729512,4,2,50,45,1,0
179176,-100,4,2,50,50,0,0
183199,-100,4,2,50,60,0,0
187221,-100,4,2,50,40,0,1
219398,-100,4,2,50,40,0,0

[Colours]
Combo1 : 91,55,91
Combo2 : 88,79,61
Combo3 : 83,94,130
Combo4 : 63,120,70

[HitObjects]
76,320,2202,6,0,B|112:304|112:304|184:312,1,106.666666666667,0|2,0:0|0:2,0:0:0:0:
236,368,3207,2,0,B|274:329|249:271|249:271|264:224|307:218,2,160,0|0|0,0:0|0:0|0:0,0:0:0:0:
388,316,5888,1,2,0:0:0:0:
456,360,6224,6,0,P|444:312|444:228,1,106.666666666667,0|2,0:0|0:0,0:0:0:0:
488,192,7229,2,0,P|428:236|312:216,2,160,0|0|0,0:0|0:0|0:0,0:0:0:0:
412,52,9911,1,2,0:0:0:0:
412,52,10246,6,0,P|368:24|316:36,1,106.666666666667,4|2,0:0|0:0,0:0:0:0:
240,44,11251,2,0,P|196:72|144:60,1,106.666666666667,0|2,0:0|0:0,0:0:0:0:
72,28,12257,1,4,0:0:0:0:
20,180,12927,1,2,0:0:0:0:
20,180,13262,1,0,0:0:0:0:
64,332,13933,1,2,0:0:0:0:
124,280,14268,6,0,P|176:296|240:292,1,106.666666666667,4|2,0:0|0:0,0:0:0:0:
284,352,15273,2,0,P|336:336|400:340,1,106.666666666667,0|2,0:0|0:0,0:0:0:0:
448,284,16279,1,4,0:0:0:0:
480,128,16949,1,2,0:0:0:0:
480,128,17284,1,0,0:0:0:0:
328,180,17955,1,2,0:0:0:0:
356,104,18290,6,0,P|288:108|248:188,2,160,4|0|4,0:0|0:0|0:0,0:0:0:0:
256,324,21307,1,0,0:0:0:0:
256,324,21642,2,0,P|216:324|200:336,1,53.3333333333333,0|2,0:0|0:0,0:0:0:0:
132,364,22312,6,0,B|112:267|161:304|144:208,1,160,4|0,0:0|0:0,0:0:0:0:
72,76,23988,1,2,0:0:0:0:
72,76,24323,1,4,0:0:0:0:
228,112,24994,1,2,0:0:0:0:
228,112,25329,1,0,0:0:0:0:
360,24,25999,1,2,0:0:0:0:
432,56,26334,6,0,B|448:64|452:88|452:88|444:116|448:156,1,106.666666666667,4|2,0:0|0:0,0:0:0:0:
496,220,27340,2,0,P|442:236|387:204,1,106.666666666667,0|2,0:0|0:0,0:0:0:0:
340,272,28345,2,0,P|283:270|238:315,1,106.666666666667,4|2,0:0|0:0,0:0:0:0:
188,356,29351,1,0,0:0:0:0:
64,256,30021,1,2,0:0:0:0:
64,256,30356,6,0,P|108:212|176:228,1,106.666666666667,4|2,0:0|0:0,0:0:0:0:
220,172,31362,2,0,P|155:133|64:148,2,160,0|4|0,0:0|0:0|0:0,0:0:0:0:
296,192,33708,2,0,P|336:188|356:172,1,53.3333333333333,0|2,0:0|0:0,0:0:0:0:
396,116,34378,6,0,P|440:112|496:76,1,106.666666666667,4|2,0:0|0:0,0:0:0:0:
460,8,35384,2,0,P|416:12|360:48,1,106.666666666667,0|2,0:0|0:0,0:0:0:0:
332,116,36390,2,0,P|288:112|232:76,1,106.666666666667,4|2,0:0|0:0,0:0:0:0:
268,8,37396,2,0,P|312:12|368:48,1,106.666666666667,0|0,0:0|0:0,0:0:0:0:
416,104,38401,6,0,P|436:144|444:276,2,160,4|0|4,0:0|0:0|0:0,0:0:0:0:
304,216,41082,1,2,0:0:0:0:
304,216,41417,2,0,P|264:212|240:200,2,53.3333333333333,0|0|2,0:0|0:0|0:0,0:0:0:0:
288,140,42404,6,0,P|236:132|176:188,1,106.666666666667,0|0,0:0|0:0,0:0:0:0:
172,236,43409,2,0,P|120:252|40:260,1,106.666666666667,2|0,0:0|0:0,0:0:0:0:
8,208,44415,1,2,0:0:0:0:
184,372,45420,1,2,0:0:0:0:
256,336,45755,2,0,P|284:332|320:352,1,53.3333333333333,0|0,0:0|0:0,0:0:0:0:
388,352,46426,6,0,P|380:304|336:264,1,106.666666666667,0|0,0:0|0:0,0:0:0:0:
348,184,47431,2,0,P|300:191|260:235,1,106.666666666667,2|0,0:0|0:0,0:0:0:0:
268,312,48437,1,2,0:0:0:0:
28,312,49442,2,0,L|-32:304,2,53.3333333333333,2|0|0,0:0|0:0|0:0,0:0:0:0:
96,356,50448,6,0,B|68:328|80:272|80:272|96:244|100:192,1,160,0|2,0:0|0:0,0:0:0:0:
59,134,51788,2,0,P|91:122|123:130,1,53.3333333333333
184,160,52459,2,0,P|216:164|268:112,1,106.666666666667,2|0,0:0|0:0,0:0:0:0:
320,56,53464,2,0,P|316:116|352:172,1,106.666666666667,2|0,0:0|0:0,0:0:0:0:
412,184,54470,6,0,P|352:204|296:296,1,160,0|2,0:0|0:0,0:0:0:0:
352,340,55811,2,0,P|315:361|286:358,1,53.3333333333333
228,376,56481,2,0,P|176:368|148:304,1,106.666666666667,2|0,0:0|0:0,0:0:0:0:
124,248,57486,2,0,P|128:216|148:184,2,53.3333333333333,2|0|0,0:0|0:0|0:0,0:0:0:0:
60,300,58492,6,0,P|44:248|60:184,1,106.666666666667,0|0,0:0|0:0,0:0:0:0:
16,128,59498,2,0,P|53:88|116:70,1,106.666666666667,2|0,0:0|0:0,0:0:0:0:
168,28,60503,2,0,P|212:48|336:60,1,160,2|2,0:0|0:0,0:0:0:0:
400,40,61844,2,0,P|404:68|396:100,1,53.3333333333333,0|0,0:0|0:0,0:0:0:0:
360,164,62514,6,0,B|352:208|352:208|364:280,1,106.666666666667,0|0,0:0|0:0,0:0:0:0:
432,312,63520,2,0,B|440:268|440:268|428:196,1,106.666666666667,2|0,0:0|0:0,0:0:0:0:
501,172,64525,2,0,B|519:273|519:273|508:334,1,160,2|2,0:0|0:0,0:0:0:0:
444,372,65866,2,0,P|416:376|392:368,1,53.3333333333333
328,320,66536,6,0,L|160:360,1,160,0|2,0:0|0:0,0:0:0:0:
104,312,67877,1,0,0:0:0:0:
104,312,68212,1,0,0:0:0:0:
160,256,68547,2,0,P|132:236|60:240,1,106.666666666667,2|0,0:0|0:0,0:0:0:0:
75,153,69553,2,0,P|123:152|181:173,1,106.666666666667,2|0,0:0|0:0,0:0:0:0:
224,108,70558,6,0,P|156:76|66:72,1,160,0|2,0:0|0:0,0:0:0:0:
280,196,72569,2,0,P|320:176|328:104,1,106.666666666667,2|0,0:0|0:0,0:0:0:0:
300,48,73575,1,2,0:0:0:0:
452,104,74245,1,0,0:0:0:0:
452,104,74580,1,2,0:0:0:0:
54,297,80614,5,0,0:0:0:0:
57,300,81619,1,0,1:0:0:0:
60,304,82638,6,0,P|80:320|112:328,2,53.3333333333333,4|0|2,0:0|0:0|0:0,0:0:0:0:
116,248,83643,2,0,P|148:296|200:320,1,106.666666666667,0|6,1:0|0:0,0:0:0:0:
252,264,84649,2,0,P|226:217|181:189,1,106.666666666667,4|2,0:0|0:0,0:0:0:0:
108,156,85654,2,0,P|100:120|104:96,2,53.3333333333333,0|0|2,1:0|0:0|0:0,0:0:0:0:
40,200,86660,6,0,P|24:152|24:84,1,106.666666666667,4|2,0:0|0:0,0:0:0:0:
72,32,87665,2,0,P|115:27|169:68,1,106.666666666667,0|6,1:0|0:0,0:0:0:0:
232,108,88671,2,0,P|296:104|320:68,1,106.666666666667,4|2,0:0|0:0,0:0:0:0:
352,0,89676,1,0,1:0:0:0:
352,0,90012,2,0,P|380:20|396:48,1,53.3333333333333,4|6,0:0|0:0,0:0:0:0:
428,106,90682,6,0,B|416:126|428:166|428:166|465:213|440:274,1,160,4|0,0:0|1:0,0:0:0:0:
372,224,92023,2,0,P|336:228|316:244,1,53.3333333333333,0|6,0:0|0:0,0:0:0:0:
328,316,92693,2,0,P|276:304|244:252,1,106.666666666667,4|2,0:0|0:0,0:0:0:0:
248,184,93698,2,0,L|252:128,2,53.3333333333333,0|4|10,1:0|0:0|0:0,0:0:0:0:
176,220,94704,6,0,P|128:236|68:240,1,106.666666666667,4|2,0:0|0:0,0:0:0:0:
20,180,95710,1,0,1:0:0:0:
140,72,96380,1,6,0:0:0:0:
140,72,96715,1,4,0:0:0:0:
216,96,97050,2,0,L|272:88,1,53.3333333333333,8|10,0:0|0:0,0:0:0:0:
344,116,97721,1,0,1:0:0:0:
344,116,98056,2,0,L|396:123,1,53.3333333333333,8|6,0:0|0:0,0:0:0:0:
468,88,98726,6,0,P|476:120|444:188,1,106.666666666667,4|2,0:0|0:0,0:0:0:0:
376,220,99732,2,0,P|400:248|512:232,2,160,0|4|0,1:0|0:0|1:0,0:0:0:0:
328,156,102078,1,4,0:0:0:0:
328,156,102413,1,10,0:0:0:0:
284,224,102748,6,0,P|252:236|176:240,1,106.666666666667,4|2,0:0|0:0,0:0:0:0:
128,180,103754,2,0,P|168:240|176:368,2,160,0|4|0,1:0|0:0|1:0,0:0:0:0:
52,160,106100,1,4,0:0:0:0:
108,104,106435,1,6,0:0:0:0:
32,80,106770,6,0,P|59:40|129:26,1,106.666666666667,4|2,0:0|0:0,0:0:0:0:
188,52,107776,2,0,P|212:64|296:68,1,106.666666666667,0|6,1:0|0:0,0:0:0:0:
364,40,108782,2,0,P|392:28|424:32,2,53.3333333333333,4|0|2,0:0|0:0|0:0,0:0:0:0:
404,108,109787,1,0,1:0:0:0:
332,144,110122,2,0,P|356:176|384:184,1,53.3333333333333,8|6,0:0|0:0,0:0:0:0:
448,176,110793,6,0,P|417:213|400:272,1,106.666666666667,4|2,0:0|0:0,0:0:0:0:
376,344,111798,2,0,P|359:298|316:254,1,106.666666666667,0|6,1:0|0:0,0:0:0:0:
244,228,112804,2,0,P|216:232|192:252,2,53.3333333333333,4|0|2,0:0|0:0|0:0,0:0:0:0:
300,172,113809,1,0,1:0:0:0:
224,148,114144,1,4,0:3:0:0:
284,92,114480,1,8,0:3:0:0:
208,68,114815,6,0,P|160:64|96:64,1,106.666666666667,4|2,0:0|0:0,0:0:0:0:
48,124,115820,2,0,P|96:120|160:120,1,106.666666666667,0|2,1:0|0:0,0:0:0:0:
228,152,116826,1,4,0:0:0:0:
161,201,117161,2,0,P|184:224|220:233,1,53.3333333333333,0|2,0:0|0:0,0:0:0:0:
284,220,117831,2,0,P|275:267|219:310,1,106.666666666667,0|4,1:0|0:3,0:0:0:0:
176,360,118837,6,0,P|124:364|96:308,1,106.666666666667,0|0,0:0|0:0,0:0:0:0:
68,248,119842,2,0,P|60:200|60:132,1,106.666666666667,0|2,1:0|0:0,0:0:0:0:
80,64,120848,1,4,0:0:0:0:
316,108,121853,1,0,1:0:0:0:
392,88,122189,1,4,0:0:0:0:
472,112,122524,1,6,0:0:0:0:
472,112,122859,6,0,B|454:168|392:172|392:172|356:196|364:232,2,160,4|0|4,0:0|1:0|0:0,0:0:0:0:
476,32,125205,2,0,P|440:20|408:28,1,53.3333333333333,0|2,0:0|0:0,0:0:0:0:
348,48,125876,1,0,1:0:0:0:
348,48,126211,2,0,P|312:60|280:52,1,53.3333333333333,4|6,0:0|0:0,0:0:0:0:
220,40,126881,2,0,P|136:24|48:28,2,160,4|0|4,0:0|1:0|0:0,0:0:0:0:
248,116,129227,2,0,P|248:144|236:176,1,53.3333333333333,0|2,0:0|0:0,0:0:0:0:
164,140,129897,1,0,1:0:0:0:
108,196,130233,1,6,0:0:0:0:
32,168,130568,1,4,0:0:0:0:
32,168,130903,6,0,P|33:228|72:268,1,106.666666666667,4|2,0:0|0:0,0:0:0:0:
128,308,131909,2,0,P|172:304|248:284,1,106.666666666667,0|2,1:0|0:0,0:0:0:0:
320,296,132914,1,4,0:0:0:0:
396,268,133249,2,0,P|420:253|460:252,1,53.3333333333333,0|2,0:0|0:0,0:0:0:0:
496,188,133920,2,0,P|443:171|386:182,1,106.666666666667,0|4,1:0|0:3,0:0:0:0:
348,112,134925,6,0,B|314:137|312:180|312:180|296:172|264:172,1,106.666666666667,4|2,0:0|0:0,0:0:0:0:
212,144,135931,2,0,B|202:145|186:137|186:137|184:180|150:205,1,106.666666666667,0|2,1:0|0:0,0:0:0:0:
104,140,136936,1,4,0:0:0:0:
32,368,137942,1,0,1:0:0:0:
112,360,138277,1,4,0:0:0:0:
192,352,138612,1,6,0:0:0:0:
192,352,138947,6,0,P|264:368|360:368,2,160,4|0|4,0:0|1:0|0:0,0:0:0:0:
148,284,141294,2,0,P|188:276|220:264,1,53.3333333333333,0|2,0:0|0:0,0:0:0:0:
236,200,141964,1,0,1:0:0:0:
316,192,142299,2,0,P|341:199|367:203,1,53.3333333333333,4|6,0:0|0:0,0:0:0:0:
428,260,142970,6,0,B|459:216|440:168|440:168|459:107,1,160,4|0,0:0|1:0,0:0:0:0:
316,32,144645,1,6,0:0:0:0:
264,92,144981,2,0,P|208:104|140:104,1,106.666666666667,4|2,0:0|0:0,0:0:0:0:
96,56,145986,1,0,1:0:0:0:
176,192,146656,1,2,0:0:0:0:
176,192,146991,1,0,0:0:0:0:
384,316,154038,6,0,L|436:308,2,53.3333333333333,0|4|8,1:0|0:3|0:3,0:0:0:0:
308,340,155044,6,0,P|280:332|136:320,3,160,4|4|4|4,0:0|0:0|0:0|0:0,0:0:0:0:
76,348,158396,1,0,0:0:0:0:
76,348,158731,1,0,0:0:0:0:
24,288,159066,6,0,P|24:244|128:168,3,160,4|4|4|4,0:0|0:0|0:0|0:0,0:0:0:0:
184,184,162418,1,0,0:0:0:0:
264,188,162753,1,0,0:0:0:0:
344,200,163088,6,0,P|300:176|248:40,3,160,4|4|4|4,0:0|0:0|0:0|0:0,0:0:0:0:
300,20,166440,1,0,0:0:0:0:
300,20,166775,1,2,0:0:0:0:
220,4,167110,6,0,P|168:8|128:44,1,106.666666666667,4|0,0:0|0:0,0:0:0:0:
64,92,168116,2,0,P|104:128|124:248,2,160,4|4|4,0:0|0:0|0:0,0:0:0:0:
12,152,170462,2,0,P|16:184|40:224,1,53.3333333333333,0|2,0:0|0:0,0:0:0:0:
12,284,171132,6,0,P|48:328|152:320,1,160,4|4,0:0|0:0,0:0:0:0:
212,280,172473,2,0,L|276:288,2,53.3333333333333,0|2|4,0:0|0:0|0:0,0:0:0:0:
152,228,173478,2,0,L|88:236,2,53.3333333333333,0|2|4,0:0|0:0|0:0,0:0:0:0:
216,180,174484,2,0,L|280:188,1,53.3333333333333,0|2,0:0|0:0,0:0:0:0:
340,152,175154,6,0,B|323:105|276:98|276:98|237:100|201:87,1,160,4|4,0:0|0:0,0:0:0:0:
140,32,176495,2,0,P|124:68|124:92,1,53.3333333333333,0|2,0:0|0:0,0:0:0:0:
152,160,177165,1,4,0:0:0:0:
152,160,177501,2,0,P|168:196|168:220,1,53.3333333333333,0|2,0:0|0:0,0:0:0:0:
148,288,178171,1,4,0:0:0:0:
224,268,178506,1,4,0:0:0:0:
208,348,178841,1,2,0:0:0:0:
208,348,179176,6,0,P|260:344|300:296,1,106.666666666667,4|2,0:0|0:0,0:0:0:0:
332,236,180182,2,0,L|344:176,1,53.3333333333333,4|4,0:0|0:0,0:0:0:0:
360,108,180852,1,2,0:0:0:0:
280,128,181188,2,0,L|268:68,1,53.3333333333333,4|4,0:0|0:0,0:0:0:0:
252,0,181858,1,2,0:0:0:0:
192,56,182193,2,0,P|167:70|128:68,1,53.3333333333333,4|0,0:0|0:0,0:0:0:0:
64,72,182863,1,2,0:0:0:0:
64,72,183199,6,0,P|100:92|128:164,1,106.666666666667,4|0,0:0|1:0,0:0:0:0:
80,212,184204,1,4,0:0:0:0:
157,232,184539,1,4,0:0:0:0:
108,296,184874,1,0,1:0:0:0:
108,296,185210,2,0,L|128:364,1,53.3333333333333,4|4,0:0|0:0,0:0:0:0:
204,356,185880,1,0,1:0:0:0:
284,364,186215,2,0,P|296:324|296:248,1,110,0|4,1:0|0:3,0:0:0:0:
272,180,187221,6,0,P|320:164|376:124,1,106.666666666667,4|2,0:0|0:0,0:0:0:0:
440,104,188226,2,0,P|392:88|336:48,1,106.666666666667,0|2,1:0|0:0,0:0:0:0:
276,16,189232,2,0,P|248:24|220:48,1,53.3333333333333,4|0,0:0|0:0,0:0:0:0:
168,92,189902,2,0,P|139:88|107:70,2,53.3333333333333,2|0|4,0:0|1:0|0:3,0:0:0:0:
228,152,190908,1,4,0:3:0:0:
228,152,191243,6,0,P|184:176|120:168,1,106.666666666667,4|2,0:0|0:0,0:0:0:0:
52,148,192248,2,0,P|52:192|44:256,1,106.666666666667,0|2,1:0|0:0,0:0:0:0:
32,332,193254,2,0,P|60:344|100:340,1,53.3333333333333,4|0,0:0|0:0,0:0:0:0:
148,300,193924,1,2,0:0:0:0:
236,312,194259,1,0,1:0:0:0:
236,312,194595,1,4,0:0:0:0:
236,312,194930,1,4,0:0:0:0:
308,276,195265,6,0,P|356:272|480:320,2,160,4|0|4,0:0|1:0|0:0,0:0:0:0:
248,224,197611,1,0,0:0:0:0:
296,160,197946,1,2,0:0:0:0:
252,92,198282,2,0,L|260:32,2,53.3333333333333,0|4|4,1:0|0:0|0:0,0:0:0:0:
184,136,199287,6,0,P|132:140|72:56,2,160,4|0|4,0:0|1:0|0:0,0:0:0:0:
264,152,201633,1,4,0:0:0:0:
344,164,201968,1,6,0:0:0:0:
424,176,202304,2,0,L|432:120,2,53.3333333333333,0|4|4,1:0|0:3|0:3,0:0:0:0:
484,228,203309,6,0,P|454:250|378:242,1,106.666666666667,4|2,0:0|0:0,0:0:0:0:
336,308,204315,2,0,P|284:300|239:327,1,106.666666666667,0|2,1:0|0:0,0:0:0:0:
176,276,205320,2,0,P|128:272|100:256,1,53.3333333333333,4|0,0:0|0:0,0:0:0:0:
156,196,205991,2,0,P|182:196|208:190,2,53.3333333333333,2|0|4,0:0|1:0|0:3,0:0:0:0:
92,152,206996,1,4,0:3:0:0:
124,80,207331,6,0,P|164:48|216:52,1,106.666666666667,4|2,0:0|0:0,0:0:0:0:
252,124,208337,2,0,P|268:80|316:48,1,106.666666666667,0|2,1:0|0:0,0:0:0:0:
376,104,209342,2,0,P|360:148|312:180,1,106.666666666667,4|2,0:0|0:0,0:0:0:0:
232,200,210348,1,0,1:0:0:0:
292,264,210683,1,4,0:0:0:0:
292,264,211018,1,4,0:0:0:0:
212,280,211353,6,0,P|152:280|60:236,2,160,4|0|4,0:0|1:0|0:0,0:0:0:0:
288,248,213700,2,0,P|293:275|284:320,1,53.3333333333333,0|2,0:0|0:0,0:0:0:0:
232,356,214370,1,0,1:0:0:0:
152,352,214705,1,4,0:0:0:0:
104,288,215040,1,6,0:0:0:0:
104,208,215376,6,0,B|128:168|104:120|104:120|96:80|120:44,1,160,4|0,0:0|1:0,0:0:0:0:
272,64,217051,1,6,0:0:0:0:
328,8,217387,2,0,P|368:12|408:64,1,106.666666666667,4|2,0:0|0:0,0:0:0:0:
420,140,218392,2,0,P|404:184|408:248,1,106.666666666667,0|2,1:0|0:0,0:0:0:0:
432,320,219398,1,4,0:0:0:0:
256,192,219565,12,4,223420,0:0:0:0:
