osu file format v14

[General]
AudioFilename: audio.mp3
AudioLeadIn: 0
PreviewTime: 187221
Countdown: 0
SampleSet: Soft
StackLeniency: 0.7
Mode: 0
LetterboxInBreaks: 0
WidescreenStoryboard: 0

[Editor]
DistanceSpacing: 1.4
BeatDivisor: 4
GridSize: 4
TimelineZoom: 0.9000001

[Metadata]
Title:Help Me Faith
TitleUnicode:Help Me Faith
Artist:Madi Diaz
ArtistUnicode:Madi Diaz
Creator:Kuron-kun
Version:Bliss
Source:Far Cry 5
Tags:FARCRY5 FC5 ubisoft game soundtrack dan romer country guitar mountains seed john joseph jacob into the flames eden
BeatmapID:1628608
BeatmapSetID:774942

[Difficulty]
HPDrainRate:5
CircleSize:4
OverallDifficulty:6
ApproachRate:6
SliderMultiplier:1.8
SliderTickRate:1

[Events]
//Background and Video events
0,0,"wallhaven-86911.jpg",0,0
//Break Periods
2,75586,79564
2,148005,152988
//Storyboard Layer 0 (Background)
//Storyboard Layer 1 (Fail)
//Storyboard Layer 2 (Pass)
//Storyboard Layer 3 (Foreground)
//Storyboard Sound Samples

[TimingPoints]
2202,1005.53041729512,4,2,2,45,1,0
2872,-100,4,2,2,25,0,0
3207,-100,4,2,2,45,0,0
3877,-100,4,2,2,25,0,0
4212,-100,4,2,2,45,0,0
4883,-100,4,2,2,25,0,0
5218,-100,4,2,2,45,0,0
5888,-100,4,2,2,25,0,0
6223,-100,4,2,2,45,0,0
6894,-100,4,2,2,25,0,0
7229,-100,4,2,2,45,0,0
7900,-100,4,2,2,25,0,0
8235,-100,4,2,2,45,0,0
8905,-100,4,2,2,25,0,0
9240,-100,4,2,2,45,0,0
9911,-100,4,2,2,25,0,0
10246,-100,4,2,2,45,0,0
10916,-100,4,2,2,25,0,0
11251,-100,4,2,2,45,0,0
11922,-100,4,2,2,25,0,0
12257,-100,4,2,2,45,0,0
12927,-100,4,2,2,25,0,0
13262,-100,4,2,2,45,0,0
13933,-100,4,2,2,25,0,0
14268,-100,4,2,2,45,0,0
14938,-100,4,2,2,25,0,0
15273,-100,4,2,2,45,0,0
15944,-100,4,2,2,25,0,0
16279,-100,4,2,2,45,0,0
16949,-100,4,2,2,25,0,0
17284,-100,4,2,2,45,0,0
17955,-100,4,2,2,25,0,0
18122,-100,4,2,2,45,0,0
19966,-100,4,2,2,25,0,0
20301,-100,4,2,2,45,0,0
20971,-100,4,2,2,25,0,0
21306,-100,4,2,2,45,0,0
21977,-100,4,2,2,25,0,0
22312,-100,4,2,2,45,0,0
22982,-100,4,2,2,25,0,0
23317,-100,4,2,2,45,0,0
23988,-100,4,2,2,25,0,0
24323,-100,4,2,2,45,0,0
24994,-100,4,2,2,25,0,0
25329,-100,4,2,2,45,0,0
25999,-100,4,2,2,25,0,0
26167,-100,4,2,2,45,0,0
27005,-100,4,2,2,25,0,0
27340,-100,4,2,2,45,0,0
28010,-100,4,2,2,25,0,0
28345,-100,4,2,2,45,0,0
29016,-100,4,2,2,25,0,0
29351,-100,4,2,2,45,0,0
30021,-100,4,2,2,25,0,0
30356,-100,4,2,2,45,0,0
31027,-100,4,2,2,25,0,0
31362,-100,4,2,2,45,0,0
32032,-100,4,2,2,25,0,0
32367,-100,4,2,2,45,0,0
33038,-100,4,2,2,25,0,0
33373,-100,4,2,2,45,0,0
35049,-100,4,2,2,25,0,0
35384,-100,4,2,2,45,0,0
36054,-100,4,2,2,25,0,0
36389,-100,4,2,2,45,0,0
37060,-100,4,2,2,25,0,0
37395,-100,4,2,2,45,0,0
39071,-100,4,2,2,25,0,0
39406,-100,4,2,2,45,0,0
40076,-100,4,2,2,25,0,0
40411,-100,4,2,2,45,0,0
41082,-100,4,2,2,25,0,0
41417,-100,4,2,2,45,0,0
42088,-100,4,2,2,25,0,0
42404,1005.53041729512,4,2,1,75,1,0
42404,-90.9090909090909,4,2,1,75,0,0
80614,-90.9090909090909,4,2,50,40,0,0
82638,1005.53041729512,4,2,1,45,1,0
82638,-83.3333333333333,4,2,50,40,0,0
146321,-83.3333333333333,4,2,50,40,0,0
147000,1005.53041729512,4,2,50,40,1,0
155044,-100,4,2,50,40,0,0
179176,-83.3333333333333,4,2,50,50,0,0
183199,-66.6666666666667,4,2,50,60,0,0
185545,-55.5555555555556,4,2,50,60,0,0
187221,-66.6666666666667,4,2,50,40,0,1
219398,-66.6666666666667,4,2,50,40,0,0

[Colours]
Combo1 : 91,55,91
Combo2 : 88,79,61
Combo3 : 83,94,130
Combo4 : 63,120,70

[HitObjects]
48,320,2202,6,0,P|76:340|108:340,1,60
100,264,2872,1,2,0:2:0:0:
200,304,3207,2,0,P|228:284|260:284,1,60
252,360,3877,1,2,0:0:0:0:
376,320,4213,1,0,0:0:0:0:
448,292,4548,1,0,0:0:0:0:
436,368,4883,1,2,0:0:0:0:
389,245,5218,2,0,B|418:211|463:218|463:218|481:213|489:189,1,120,0|2,0:0|0:0,0:0:0:0:
504,116,6224,6,0,P|476:105|444:109,1,60
372,128,6894,1,2,0:0:0:0:
296,56,7229,2,0,P|266:58|239:75,2,60,0|0|2,0:0|0:0|0:0,0:0:0:0:
288,132,8235,2,0,P|219:145|174:107,1,120,0|2,0:0|0:0,0:0:0:0:
120,68,9240,2,0,P|136:140|144:208,1,120,0|2,0:0|0:0,0:0:0:0:
92,248,10246,6,0,P|128:268|153:264,1,60,4|0,0:0|0:0,0:0:0:0:
216,232,10916,1,2,0:0:0:0:
208,320,11251,2,0,P|164:348|84:340,1,120,0|2,0:0|0:0,0:0:0:0:
32,304,12257,1,4,0:0:0:0:
104,272,12592,1,0,0:0:0:0:
40,228,12927,1,2,0:0:0:0:
108,192,13262,2,0,B|104:172|104:172|108:148|104:120,1,60
76,60,13933,1,2,0:0:0:0:
76,60,14268,6,0,P|112:104|172:96,1,120,4|2,0:0|0:0,0:0:0:0:
248,112,15273,2,0,P|284:68|344:76,1,120,0|2,0:0|0:0,0:0:0:0:
396,132,16279,1,4,0:0:0:0:
468,112,16614,1,0,0:0:0:0:
416,56,16949,1,2,0:0:0:0:
468,112,17284,2,0,B|472:132|472:132|468:156|472:184,1,60
452,248,17955,1,2,0:0:0:0:
452,248,18122,1,0,0:0:0:0:
452,248,18290,6,0,P|428:264|384:264,1,60,4|0,0:0|0:0,0:0:0:0:
364,284,18793,2,0,P|340:268|296:268,1,60
272,280,19296,2,0,B|256:304|224:304|224:304|192:292|148:288,1,120,0|2,0:0|0:0,0:0:0:0:
164,368,20301,2,0,P|116:356|84:296,1,120,4|2,0:0|0:0,0:0:0:0:
124,228,21307,2,0,P|135:199|128:163,1,60
56,188,21977,1,2,0:0:0:0:
84,116,22312,6,0,P|133:138|205:143,1,120,4|2,0:0|0:0,0:0:0:0:
268,108,23318,1,0,0:0:0:0:
204,68,23653,1,0,0:0:0:0:
200,144,23988,1,2,0:0:0:0:
264,192,24323,2,0,P|271:217|260:260,2,60,4|0|2,0:0|0:0|0:0,0:0:0:0:
352,140,25329,2,0,P|344:165|355:208,1,60
428,176,25999,1,2,0:0:0:0:
428,176,26334,6,0,L|444:44,1,120,4|2,0:0|0:0,0:0:0:0:
382,3,27340,2,0,P|335:-19|282:27,1,120,0|2,0:0|0:0,0:0:0:0:
272,96,28345,2,0,P|248:100|208:84,1,60,4|0,0:0|0:0,0:0:0:0:
180,20,29016,1,2,0:0:0:0:
104,48,29351,2,0,P|80:44|40:60,1,60
84,124,30021,1,2,0:0:0:0:
8,128,30356,6,0,P|29:178|91:201,1,120,4|2,0:0|0:0,0:0:0:0:
152,160,31362,2,0,B|152:234|124:202|120:275,1,120,0|2,0:0|0:0,0:0:0:0:
112,352,32367,1,4,0:0:0:0:
204,268,32703,1,0,0:0:0:0:
188,344,33038,2,0,P|229:341|255:319,1,60,2|0,0:0|0:0,0:0:0:0:
308,284,33708,1,0,0:0:0:0:
308,284,33876,2,0,P|336:287|368:296,1,60
404,304,34378,6,0,B|408:284|424:264|424:264|432:228|420:196,1,90,4|0,0:0|0:0,0:0:0:0:
408,184,35049,1,2,0:0:0:0:
481,152,35384,2,0,P|441:110|373:113,1,120,0|2,0:0|0:0,0:0:0:0:
316,152,36390,2,0,P|288:168|248:168,1,60,4|0,0:0|0:0,0:0:0:0:
192,136,37060,1,2,0:0:0:0:
156,204,37395,1,0,0:0:0:0:
96,156,37730,1,0,0:0:0:0:
96,156,37898,2,0,P|52:156|24:184,1,60
16,196,38401,6,0,L|4:280,1,60,4|0,0:0|0:0,0:0:0:0:
64,312,39071,1,2,0:0:0:0:
64,312,39406,2,0,B|112:328|112:328|152:332|176:308,1,120,0|2,0:0|0:0,0:0:0:0:
204,232,40412,1,4,0:0:0:0:
124,248,40747,1,0,0:0:0:0:
175,308,41082,1,2,0:0:0:0:
256,300,41417,2,0,P|284:288|316:292,1,60
388,312,42088,1,2,0:0:0:0:
440,371,42404,6,0,B|476:336|461:288|461:288|472:227,1,132.00000402832
380,112,43409,2,0,B|400:136|398:181|398:181|386:242,1,132.00000402832,2|0,0:0|0:0,0:0:0:0:
309,99,44415,2,0,P|324:65|414:49,1,132.00000402832,2|0,0:0|0:0,0:0:0:0:
324,176,45420,2,0,P|292:176|253:151,2,66.0000020141602,2|0|0,0:0|0:0|0:0,0:0:0:0:
204,108,46426,6,0,P|156:112|72:160,1,132.00000402832
194,312,47431,2,0,P|214:268|214:171,1,132.00000402832,2|0,0:0|0:0,0:0:0:0:
24,201,48437,2,0,P|51:240|135:289,1,132.00000402832,2|0,0:0|0:0,0:0:0:0:
254,294,49442,2,0,P|221:312|181:308,2,66.0000020141602,2|0|0,0:0|0:0|0:0,0:0:0:0:
332,360,50448,6,0,P|360:324|448:332,1,132.00000402832
512,384,51453,2,0,P|488:336|484:256,1,132.00000402832,2|0,0:0|0:0,0:0:0:0:
504,168,52459,1,2,0:0:0:0:
320,176,53129,1,0,0:0:0:0:
368,96,53464,2,0,P|320:80|288:92,2,66.0000020141602,2|0|0,0:0|0:0|0:0,0:0:0:0:
408,180,54470,6,0,B|398:102|438:134|430:50,1,132.00000402832
483,183,55475,2,0,P|473:223|394:255,1,132.00000402832,2|0,0:0|0:0,0:0:0:0:
308,220,56481,1,2,0:0:0:0:
308,220,56816,2,0,P|300:252|300:296,1,66.0000020141602
216,328,57486,1,2,0:0:0:0:
216,328,57822,2,0,P|214:295|206:263,1,66.0000020141602
112,152,58492,6,0,P|176:136|228:176,1,132.00000402832
81,226,59498,2,0,B|28:202|33:138|33:138|29:118|1:102,1,132.00000402832,2|0,0:0|0:0,0:0:0:0:
127,20,60503,2,0,L|111:156,1,132.00000402832,2|0,0:0|0:0,0:0:0:0:
200,176,61509,2,0,L|209:100,2,66.0000020141602,2|0|0,0:0|0:0|0:0,0:0:0:0:
276,292,62514,6,0,P|280:224|316:152,1,132.00000402832
200,284,63520,2,0,P|256:321|301:388,1,132.00000402832,2|0,0:0|0:0,0:0:0:0:
240,216,64525,2,0,P|179:246|98:251,1,132.00000402832,2|0,0:0|0:0,0:0:0:0:
60,188,65531,2,0,P|92:164|128:160,2,66.0000020141602,2|0|0,0:0|0:0|0:0,0:0:0:0:
60,72,66536,6,0,P|112:64|184:116,1,132.00000402832
268,48,67542,2,0,P|236:96|216:176,1,132.00000402832,2|0,0:0|0:0,0:0:0:0:
220,260,68547,1,2,0:0:0:0:
371,185,69218,1,0,0:0:0:0:
452,240,69553,2,0,P|460:268|448:312,2,66.0000020141602,2|0|0,0:0|0:0|0:0,0:0:0:0:
496,140,70558,6,0,L|364:188,1,132.00000402832
260,228,71564,2,0,P|312:252|392:276,1,132.00000402832,2|0,0:0|0:0,0:0:0:0:
240,300,72569,2,0,P|200:276|204:176,1,132.00000402832,2|0,0:0|0:0,0:0:0:0:
246,97,73575,2,0,P|246:169|262:233,1,132.00000402832,2|0,0:0|0:0,0:0:0:0:
316,328,74580,1,2,0:0:0:0:
124,312,80614,5,0,0:0:0:0:
208,292,80949,1,4,0:0:0:0:
80,244,81284,5,8,0:0:0:0:
252,360,81619,1,0,1:0:0:0:
328,304,81954,5,4,0:3:0:0:
328,304,82290,1,8,0:3:0:0:
328,304,82638,6,0,P|364:304|392:284,1,71.9999978027344,4|0,0:0|0:0,0:0:0:0:
288,232,83308,1,2,0:0:0:0:
414,210,83643,2,0,P|454:240|446:339,1,143.999995605469,0|6,1:0|0:0,0:0:0:0:
376,376,84649,2,0,P|324:380|236:352,1,143.999995605469,4|2,0:0|0:0,0:0:0:0:
300,260,85654,2,0,P|244:264|224:288,1,71.9999978027344,0|0,1:0|0:0,0:0:0:0:
372,296,86325,1,2,0:0:0:0:
372,296,86660,6,0,P|340:272|344:176,1,143.999995605469,4|2,0:0|0:0,0:0:0:0:
263,60,87665,2,0,B|294:90|286:129|286:129|256:159|256:196,1,143.999995605469,0|6,1:0|0:0,0:0:0:0:
184,40,88671,2,0,P|260:28|304:-20,1,143.999995605469,4|2,0:0|0:0,0:0:0:0:
166,109,89676,2,0,P|138:97|114:49,2,71.9999978027344,0|4|6,1:0|0:0|0:0,0:0:0:0:
52,12,90682,5,4,0:0:0:0:
16,92,91017,2,0,P|10:129|24:187,1,71.9999978027344,0|2,0:0|0:0,0:0:0:0:
164,196,91687,2,0,P|128:244|40:232,1,143.999995605469,0|6,1:0|0:0,0:0:0:0:
166,314,92693,2,0,P|210:278|242:182,1,143.999995605469,4|2,0:0|0:0,0:0:0:0:
184,72,93699,1,0,1:0:0:0:
276,84,94034,1,4,0:0:0:0:
276,84,94369,1,10,0:0:0:0:
352,28,94704,6,0,P|376:0|480:12,1,143.999995605469,4|2,0:0|0:0,0:0:0:0:
488,176,95710,2,0,P|444:144|428:40,1,143.999995605469,0|6,1:0|0:0,0:0:0:0:
344,112,96715,1,4,0:0:0:0:
252,88,97050,1,8,0:0:0:0:
252,88,97385,1,10,0:0:0:0:
276,232,97721,2,0,L|280:148,2,71.9999978027344,0|8|6,1:0|0:0|0:0,0:0:0:0:
252,324,98726,6,0,P|304:324|329:308,1,71.9999978027344,4|0,0:0|0:0,0:0:0:0:
372,236,99397,1,2,0:0:0:0:
204,260,99732,2,0,P|164:260|104:176,1,143.999995605469,0|6,1:0|0:0,0:0:0:0:
68,76,100737,2,0,P|36:104|16:208,1,143.999995605469,4|2,0:0|0:0,0:0:0:0:
72,288,101743,1,0,1:0:0:0:
170,203,102078,2,0,P|139:185|86:191,1,71.9999978027344,4|10,0:0|0:0,0:0:0:0:
152,328,102748,6,0,B|196:332|228:292|228:292|239:255|284:244,1,143.999995605469,4|2,0:0|0:0,0:0:0:0:
371,288,103754,2,0,P|323:308|263:240,1,143.999995605469,0|6,1:0|0:0,0:0:0:0:
420,220,104759,1,4,0:0:0:0:
332,184,105095,1,0,0:0:0:0:
332,184,105430,1,2,0:0:0:0:
471,151,105765,2,0,P|435:131|395:139,2,71.9999978027344,0|4|6,1:0|0:0|0:0,0:0:0:0:
352,48,106770,6,0,P|316:68|212:96,1,143.999995605469,4|2,0:0|0:0,0:0:0:0:
48,120,107776,2,0,P|84:140|188:168,1,143.999995605469,0|6,1:0|0:0,0:0:0:0:
276,156,108782,2,0,P|228:188|232:280,1,143.999995605469,4|2,0:0|0:0,0:0:0:0:
280,352,109787,1,0,1:0:0:0:
140,304,110122,1,8,0:0:0:0:
140,304,110457,1,6,0:0:0:0:
140,304,110793,6,0,B|92:332|32:336|32:336|8:332|-4:320,1,143.999995605469,4|2,0:0|0:0,0:0:0:0:
156,230,111798,2,0,P|192:246|211:286,1,71.9999978027344,0|0,1:0|0:0,0:0:0:0:
204,360,112468,1,6,0:0:0:0:
75,250,112804,2,0,P|79:194|161:147,1,143.999995605469,4|2,0:0|0:0,0:0:0:0:
356,200,113809,5,0,1:0:0:0:
283,78,114144,1,4,0:3:0:0:
259,176,114480,1,8,0:3:0:0:
381,102,114815,6,0,B|436:104|484:76|484:76|492:100|480:116,1,143.999995605469,4|2,0:0|0:0,0:0:0:0:
497,224,115820,2,0,P|425:218|356:200,1,143.999995605469,0|2,1:0|0:0,0:0:0:0:
224,348,116826,2,0,P|266:291|336:280,1,143.999995605469,4|2,0:0|0:0,0:0:0:0:
368,364,117831,1,0,1:0:0:0:
244,264,118166,1,4,0:3:0:0:
244,264,118502,1,4,0:3:0:0:
244,264,118837,6,0,P|168:280|72:312,1,143.999995605469,4|2,0:0|0:0,0:0:0:0:
199,145,119842,2,0,P|223:71|244:-27,1,143.999995605469,0|2,1:0|0:0,0:0:0:0:
324,166,120848,2,0,P|376:224|451:291,1,143.999995605469,4|2,0:0|0:0,0:0:0:0:
476,184,121853,2,0,L|480:144,1,35.9999989013672,0|0,1:0|0:0,0:0:0:0:
408,68,122189,2,0,L|411:103,1,35.9999989013672,4|0,0:0|0:0,0:0:0:0:
496,68,122524,1,6,0:0:0:0:
324,166,122859,6,0,P|300:198|200:190,1,143.999995605469,4|2,0:0|0:0,0:0:0:0:
128,132,123864,2,0,P|152:200|136:284,1,143.999995605469,0|6,1:0|0:0,0:0:0:0:
96,360,124870,2,0,P|48:356|24:336,2,71.9999978027344,4|0|2,0:0|0:0|0:0,0:0:0:0:
236,336,125876,2,0,L|192:328,1,35.9999989013672,0|0,1:0|0:0,0:0:0:0:
256,260,126211,2,0,L|291:266,1,35.9999989013672,4|0,0:0|0:0,0:0:0:0:
216,192,126546,1,6,0:0:0:0:
368,317,126881,6,0,B|400:272|372:221|372:221|348:197|308:185,1,143.999995605469,4|2,0:0|0:0,0:0:0:0:
258,120,127887,2,0,P|242:180|258:264,1,143.999995605469,0|6,1:0|0:0,0:0:0:0:
300,352,128892,2,0,P|336:376|384:376,2,71.9999978027344,4|0|2,0:0|0:0|0:0,0:0:0:0:
424,320,129898,1,0,1:0:0:0:
344,260,130233,1,6,0:0:0:0:
440,228,130568,1,4,0:0:0:0:
364,164,130903,6,0,B|352:136|352:136|353:62|416:36,1,143.999995605469,4|2,0:0|0:0,0:0:0:0:
284,196,131908,2,0,P|260:136|252:36,1,143.999995605469,0|2,1:0|0:0,0:0:0:0:
318,262,132914,2,0,P|249:267|208:212,1,143.999995605469,4|2,0:0|0:0,0:0:0:0:
408,172,133920,1,0,1:0:0:0:
368,332,134255,1,4,0:3:0:0:
368,332,134590,1,4,0:3:0:0:
368,332,134925,6,0,P|312:352|216:360,1,143.999995605469,4|2,0:0|0:0,0:0:0:0:
88,252,135931,2,0,P|144:272|240:280,1,143.999995605469,0|2,1:0|0:0,0:0:0:0:
104,356,136936,2,0,B|48:356|8:376|8:376|-28:368|-40:332,1,143.999995605469,4|2,0:0|0:0,0:0:0:0:
88,252,137942,2,0,L|96:212,1,35.9999989013672,0|0,1:0|0:0,0:0:0:0:
168,148,138277,2,0,L|176:184,1,35.9999989013672,4|0,0:0|0:0,0:0:0:0:
84,140,138612,1,6,0:0:0:0:
196,260,138947,6,0,P|241:233|245:142,1,143.999995605469,4|2,0:0|0:0,0:0:0:0:
192,64,139953,2,0,P|268:108|328:104,1,143.999995605469,0|6,1:0|0:0,0:0:0:0:
412,60,140958,1,4,0:0:0:0:
412,60,141294,1,0,0:0:0:0:
408,160,141629,1,2,0:0:0:0:
404,260,141964,2,0,P|408:292|420:332,2,71.9999978027344,0|4|6,1:0|0:0|0:0,0:0:0:0:
492,329,142970,6,0,P|420:365|352:373,1,143.999995605469,4|2,0:0|0:0,0:0:0:0:
260,344,143975,2,0,P|189:333|125:299,1,143.999995605469,0|6,1:0|0:0,0:0:0:0:
172,148,144981,2,0,P|242:158|306:192,1,143.999995605469,4|2,0:0|0:0,0:0:0:0:
376,264,145986,1,0,1:0:0:0:
456,80,146656,1,2,0:0:0:0:
456,80,147000,1,4,0:0:0:0:
312,84,154038,5,0,1:0:0:0:
152,56,154373,1,4,0:3:0:0:
152,56,154709,1,8,0:3:0:0:
108,128,155044,6,0,P|124:150|124:192,1,60,4|0,0:0|0:0,0:0:0:0:
112,260,155714,1,2,0:0:0:0:
20,156,156049,1,4,0:0:0:0:
20,156,157055,1,4,0:0:0:0:
20,156,158060,1,4,0:0:0:0:
327,252,159066,6,0,P|356:255|389:233,1,60,4|0,0:0|0:0,0:0:0:0:
340,176,159736,1,2,0:0:0:0:
376,336,160071,1,4,0:0:0:0:
376,336,161077,1,4,0:0:0:0:
376,336,162082,1,4,0:0:0:0:
436,76,163088,6,0,P|387:46|324:64,1,120,4|2,0:0|0:0,0:0:0:0:
424,160,164094,2,0,P|367:174|317:143,1,120,4|2,0:0|0:0,0:0:0:0:
208,48,165099,2,0,P|176:64|80:80,1,120,4|2,0:0|0:0,0:0:0:0:
32,128,166105,2,0,P|48:148|88:156,2,60,4|0|2,0:0|0:0|0:0,0:0:0:0:
152,224,167110,6,0,P|168:168|176:156,1,60,4|0,0:0|0:0,0:0:0:0:
268,140,167780,1,2,0:0:0:0:
268,140,168116,2,0,P|288:156|352:104,1,120,4|2,0:0|0:0,0:0:0:0:
275,20,169121,2,0,L|267:148,1,120,4|2,0:0|0:0,0:0:0:0:
360,232,170127,2,0,L|352:112,1,120,4|2,0:0|0:0,0:0:0:0:
248,248,171132,5,4,0:0:0:0:
248,248,171467,1,4,0:0:0:0:
172,276,171803,1,2,0:0:0:0:
96,240,172138,1,4,0:0:0:0:
96,240,172473,1,4,0:0:0:0:
20,272,172808,1,2,0:0:0:0:
52,168,173143,2,4,P|84:152|107:155,1,60
184,196,173814,1,2,0:0:0:0:
308,92,174149,2,4,P|276:76|253:79,1,60
184,116,174820,1,2,0:0:0:0:
324,169,175154,6,0,P|364:153|385:74,1,120,4|2,0:0|0:0,0:0:0:0:
476,160,176160,1,4,0:0:0:0:
476,160,176495,1,4,0:0:0:0:
428,228,176830,1,2,0:0:0:0:
468,304,177165,1,4,0:0:0:0:
468,304,177501,1,4,0:0:0:0:
420,372,177836,2,0,L|356:368,1,60,2|4,0:0|0:0,0:0:0:0:
248,364,178506,1,4,0:0:0:0:
316,252,178841,1,2,0:0:0:0:
204,284,179176,6,4,L|160:296,1,35.9999989013672
96,316,179512,1,4,0:0:0:0:
96,316,179847,1,2,0:0:0:0:
164,208,180182,2,4,L|208:196,1,35.9999989013672
272,176,180518,1,4,0:0:0:0:
272,176,180853,1,2,0:0:0:0:
152,128,181188,2,4,L|108:140,1,35.9999989013672
44,160,181524,1,4,0:0:0:0:
44,160,181859,1,2,0:0:0:0:
146,49,182193,2,0,B|187:44|219:80|219:80|259:76|267:44,1,143.999995605469,4|2,0:0|0:0,0:0:0:0:
380,24,183199,6,0,P|368:48|368:72,1,45.0000017166138,4|0,0:0|0:0,0:0:0:0:
472,96,183534,2,0,P|457:73|436:61,1,45.0000017166138,4|0,0:0|0:0,0:0:0:0:
364,140,183869,2,0,P|390:138|411:126,2,45.0000017166138,0|0|4,1:0|0:0|0:0,0:0:0:0:
152,152,184539,6,0,L|168:204,1,45.0000017166138,4|0,0:0|0:0,0:0:0:0:
268,256,184874,2,0,L|214:243,1,45.0000017166138,0|0,1:0|0:0,0:0:0:0:
120,304,185210,2,0,L|157:264,1,45.0000017166138,4|0,0:0|0:0,0:0:0:0:
292,168,185545,6,0,L|240:156,1,53.9999983520508,4|0,0:0|0:0,0:0:0:0:
56,244,185880,2,0,L|92:204,1,53.9999983520508,0|0,1:0|0:0,0:0:0:0:
200,52,186215,5,0,1:0:0:0:
200,52,186404,2,0,L|64:84,1,121.499996292114,4|4,0:3|0:3,0:0:0:0:
4,104,186906,1,4,0:3:0:0:
244,120,187221,6,0,B|297:78|270:17|270:17|292:56|336:64,1,180.000006866455,4|2,0:0|0:0,0:0:0:0:
256,212,188226,2,0,B|193:187|153:240|153:240|176:202|161:160,1,180.000006866455,0|2,1:0|0:0,0:0:0:0:
332,160,189232,2,0,B|341:226|408:234|408:234|363:233|334:267,1,180.000006866455,4|2,0:0|0:0,0:0:0:0:
416,152,190237,1,0,1:0:0:0:
400,320,190572,1,4,0:3:0:0:
400,320,190908,1,4,0:3:0:0:
276,292,191243,6,0,B|228:320|180:296|180:296|144:268|88:280,1,180.000006866455,4|2,0:0|0:0,0:0:0:0:
308,216,192248,2,0,B|356:243|359:297|359:297|353:342|391:384,1,180.000006866455,0|2,1:0|0:0,0:0:0:0:
224,224,193254,2,0,B|223:168|268:138|268:138|310:121|328:67,1,180.000006866455,4|2,0:0|0:0,0:0:0:0:
428,24,194259,2,0,L|384:36,1,45.0000017166138,0|0,1:0|0:0,0:0:0:0:
244,60,194595,2,0,L|200:48,2,45.0000017166138,4|0|4,0:0|0:0|0:0,0:0:0:0:
128,100,195097,1,0,0:0:0:0:
128,100,195265,6,0,P|92:128|0:52,1,180.000006866455,4|2,0:0|0:0,0:0:0:0:
124,20,196270,2,0,P|108:88|108:200,1,180.000006866455,0|6,1:0|0:0,0:0:0:0:
196,276,197276,2,0,P|244:268|272:228,2,90.0000034332277,4|0|2,0:0|0:0|0:0,0:0:0:0:
336,304,198282,2,0,L|384:312,1,45.0000017166138,0|0,1:0|0:0,0:0:0:0:
416,196,198617,2,0,L|385:233,1,45.0000017166138,4|0,0:0|0:0,0:0:0:0:
472,320,198952,2,0,L|454:274,1,45.0000017166138,4|0,0:0|0:0,0:0:0:0:
372,130,199287,6,0,B|425:99|471:128|488:162|488:162|492:200|516:234,1,180.000006866455,4|2,0:0|0:0,0:0:0:0:
308,184,200293,2,0,P|336:156|356:16,1,180.000006866455,0|6,1:0|0:0,0:0:0:0:
228,140,201298,2,0,P|184:144|152:116,1,90.0000034332277,4|4,0:0|0:0,0:0:0:0:
286,95,201968,1,6,0:0:0:0:
132,204,202304,1,0,1:0:0:0:
115,14,202639,1,4,0:3:0:0:
115,14,202974,1,4,0:3:0:0:
24,108,203309,6,0,P|116:96|196:48,1,180.000006866455,4|2,0:0|0:0,0:0:0:0:
20,196,204315,2,0,P|97:240|186:251,1,180.000006866455,0|2,1:0|0:0,0:0:0:0:
380,216,205320,2,0,B|327:185|281:214|264:248|264:248|266:286|236:320,1,180.000006866455,4|2,0:0|0:0,0:0:0:0:
368,124,206326,1,0,1:0:0:0:
328,340,206661,1,4,0:3:0:0:
328,340,206996,1,4,0:3:0:0:
420,296,207331,6,0,P|480:264|464:152,1,180.000006866455,4|2,0:0|0:0,0:0:0:0:
356,44,208337,2,0,P|296:76|312:188,1,180.000006866455,0|2,1:0|0:0,0:0:0:0:
156,340,209342,2,0,P|216:308|200:196,1,180.000006866455,4|2,0:0|0:0,0:0:0:0:
104,120,210348,2,0,P|84:148|80:172,1,45.0000017166138,0|0,1:0|0:0,0:0:0:0:
156,44,210683,2,0,P|177:35|199:33,1,45.0000017166138,4|0,0:0|0:0,0:0:0:0:
328,40,211018,2,0,P|311:25|290:17,1,45.0000017166138,4|0,0:0|0:0,0:0:0:0:
403,92,211353,6,0,P|424:124|440:272,1,180.000006866455,4|2,0:0|0:0,0:0:0:0:
318,231,212359,2,0,P|350:199|442:263,1,180.000006866455,0|6,1:0|0:0,0:0:0:0:
320,304,213365,2,0,P|288:304|248:260,1,90.0000034332277,4|0,0:0|0:0,0:0:0:0:
312,148,214035,2,0,P|344:148|384:192,2,90.0000034332277,2|0|4,0:0|1:0|0:0,0:0:0:0:
416,80,215040,1,6,0:0:0:0:
312,148,215376,6,0,P|264:176|120:172,1,180.000006866455,4|2,0:0|0:0,0:0:0:0:
200,17,216381,2,0,P|248:44|316:171,1,180.000006866455,0|6,1:0|0:0,0:0:0:0:
142,180,217387,2,0,P|144:124|220:1,1,180.000006866455,4|2,0:0|0:0,0:0:0:0:
201,17,218392,1,0,1:0:0:0:
256,192,219063,1,2,0:0:0:0:
256,192,219398,1,4,0:0:0:0:
256,192,219565,12,4,223420,0:0:0:0:
