osu file format v14

[General]
AudioFilename: audio 1.250x 0.800x.mp3
AudioLeadIn: 0
PreviewTime: 31552
Countdown: 0
SampleSet: Normal
StackLeniency: 0.7
Mode: 0
LetterboxInBreaks: 0
WidescreenStoryboard: 0

[Editor]
Bookmarks: 85336,105247
DistanceSpacing: 1.2
BeatDivisor: 8
GridSize: 32
TimelineZoom: 1.499999

[Metadata]
Title:2WORLDS
TitleUnicode:2WORLDS
Artist:Madge
ArtistUnicode:Madge
Creator:Leledorf
Version:Butterfly (135bpm)
Source:VALORANT
Tags:agent showcase clove theme valorant
BeatmapID:4543625
BeatmapSetID:2155608

[Difficulty]
HPDrainRate:4
CircleSize:4.5
OverallDifficulty:8.6
ApproachRate:9.2
SliderMultiplier:1.6
SliderTickRate:1

[Events]
//Background and Video events
0,0,"bg.jpg",0,0
//Break Periods
2,92698,106033
//Storyboard Layer 0 (Background)
//Storyboard Layer 1 (Fail)
//Storyboard Layer 2 (Pass)
//Storyboard Layer 3 (Foreground)
//Storyboard Layer 4 (Overlay)
//Storyboard Sound Samples

[TimingPoints]
14226,444.444444444444,4,1,0,40,1,0
20670,-100,4,1,0,80,0,0
20892,-83.3333333333333,4,1,0,80,0,0
39115,-71.4285714285714,4,1,0,80,0,1
43892,-83.3333333333333,4,1,0,80,0,1
44448,-71.4285714285714,4,1,0,80,0,1
64003,-100,4,1,0,80,0,0
78225,-71.4285714285714,4,1,0,80,0,1
92448,-100,4,1,0,80,0,0
108447,-133.333333333333,4,1,0,80,0,0
110336,-83.3333333333333,4,1,0,80,0,0
117337,-71.4285714285714,4,1,0,80,0,1
145781,-71.4285714285714,4,1,0,80,0,0

[Colours]
Combo1 : 221,221,0
Combo2 : 255,128,255
Combo3 : 128,128,255
Combo4 : 13,13,255

[HitObjects]
113,67,14226,6,0,P|138:113|141:155,1,80,0|0,2:0|2:0,2:0:0:0:
93,239,14670,2,0,P|157:217|252:243,1,160,0|0,2:0|2:0,2:0:0:0:
394,287,15337,1,0,2:0:0:0:
394,287,15560,2,0,P|396:227|387:204,1,80,0|0,2:0|2:0,2:0:0:0:
388,118,16003,2,0,P|353:140|308:140,1,80,0|0,2:0|2:0,2:0:0:0:
210,60,16448,2,0,P|233:144|188:203,1,160,0|0,2:0|2:0,2:0:0:0:
63,139,17115,5,0,2:0:0:0:
22,228,17337,2,0,P|22:262|42:305,1,80,0|0,2:0|2:0,2:0:0:0:
142,286,17781,2,0,P|140:252|119:210,1,80,0|0,2:0|2:0,2:0:0:0:
45,146,18226,2,0,P|92:133|130:140,1,80,0|0,2:0|2:0,2:0:0:0:
268,195,18670,2,0,P|217:188|187:172,1,80,0|0,2:0|2:0,2:0:0:0:
46,102,19115,1,0,2:0:0:0:
124,11,19337,1,0,2:0:0:0:
107,142,19560,1,0,2:0:0:0:
25,47,19781,1,0,2:0:0:0:
214,71,20003,2,0,P|214:140|205:247,1,160.279998779297,0|0,2:0|2:0,2:0:0:0:
48,271,20670,5,0,2:0:0:0:
48,271,20892,2,0,P|102:267|149:273,1,95.9999970703126,0|0,2:0|2:0,2:0:0:0:
269,331,21337,1,0,2:0:0:0:
305,306,21448,1,0,2:0:0:0:
311,262,21560,1,0,2:0:0:0:
283,227,21670,1,0,2:0:0:0:
243,206,21781,2,0,P|169:192|146:177,1,95.9999970703126,0|0,2:0|2:0,2:0:0:0:
137,87,22115,1,0,2:0:0:0:
144,86,22225,2,0,P|201:94|242:91,1,95.9999970703126,0|0,2:0|2:0,2:0:0:0:
311,41,22560,1,0,2:0:0:0:
314,47,22670,6,0,P|329:102|332:143,1,95.9999970703126,0|0,2:0|2:0,2:0:0:0:
316,263,23003,1,0,2:0:0:0:
307,305,23115,1,0,2:0:0:0:
283,341,23225,1,0,2:0:0:0:
244,360,23337,1,0,2:0:0:0:
223,322,23448,1,0,2:0:0:0:
220,278,23560,1,0,2:0:0:0:
237,238,23670,1,0,2:0:0:0:
266,206,23781,1,0,2:0:0:0:
283,166,23892,1,0,2:0:0:0:
276,123,24003,2,0,P|254:71|210:51,1,95.9999970703126,0|0,2:0|2:0,2:0:0:0:
68,42,24448,6,0,P|57:80|62:95,1,47.9999985351563,0|0,2:0|2:0,2:0:0:0:
156,162,24670,1,0,2:0:0:0:
0,198,24892,2,0,P|60:202|116:234,1,95.9999970703126,0|0,2:0|2:0,2:0:0:0:
161,294,25225,1,0,2:0:0:0:
161,294,25337,1,0,2:0:0:0:
161,294,25448,1,0,2:0:0:0:
161,294,25560,1,0,2:0:0:0:
161,294,25670,1,0,2:0:0:0:
161,294,25781,2,0,P|180:262|206:206,1,95.9999970703126,0|0,2:0|2:0,2:0:0:0:
264,147,26115,1,0,2:0:0:0:
270,136,26225,2,0,P|298:87|327:56,1,95.9999970703126,0|0,2:0|2:0,2:0:0:0:
428,54,26560,5,0,2:0:0:0:
426,67,26670,2,0,P|412:121|393:159,1,95.9999970703126,0|0,2:0|2:0,2:0:0:0:
371,197,27003,1,0,2:0:0:0:
371,197,27115,1,0,2:0:0:0:
256,25,27337,1,0,2:0:0:0:
256,25,27448,1,0,2:0:0:0:
256,25,27560,1,0,2:0:0:0:
206,5,27670,1,0,2:0:0:0:
155,19,27781,1,0,2:0:0:0:
125,62,27892,1,0,2:0:0:0:
131,114,28003,1,0,2:0:0:0:
165,154,28115,1,0,2:0:0:0:
213,173,28225,2,0,L|196:203,2,23.9999992675781,0|0|0,2:0|2:0|2:0,2:0:0:0:
299,157,28448,6,0,P|356:163|398:197,1,95.9999970703126,0|0,2:0|2:0,2:0:0:0:
463,261,28781,1,0,2:0:0:0:
451,266,28892,2,0,P|400:289|359:299,1,95.9999970703126,0|0,2:0|2:0,2:0:0:0:
299,262,29225,1,0,2:0:0:0:
287,267,29336,2,0,P|236:290|195:300,1,95.9999970703126,0|0,2:0|2:0,2:0:0:0:
118,292,29670,5,0,2:0:0:0:
124,275,29781,2,0,P|136:222|141:177,1,95.9999970703126,0|0,2:0|2:0,2:0:0:0:
93,100,30115,1,0,2:0:0:0:
104,104,30225,2,0,P|159:114|202:106,1,95.9999970703126,0|0,2:0|2:0,2:0:0:0:
260,42,30560,1,0,2:0:0:0:
308,43,30670,1,0,2:0:0:0:
342,77,30781,1,0,2:0:0:0:
345,124,30892,1,0,2:0:0:0:
316,163,31003,1,0,2:0:0:0:
269,178,31115,2,0,P|209:184|167:197,1,95.9999970703126,0|0,2:0|2:0,2:0:0:0:
101,239,31448,5,0,2:0:0:0:
101,253,31560,2,0,P|110:305|140:357,1,95.9999970703126,0|0,2:0|2:0,2:0:0:0:
209,372,31892,1,0,2:0:0:0:
209,372,32003,1,0,2:0:0:0:
209,372,32115,1,0,2:0:0:0:
209,372,32225,6,0,L|225:320,1,47.9999985351563,0|0,2:0|2:0,2:0:0:0:
286,193,32448,2,0,L|284:271,1,47.9999985351563,0|0,2:0|2:0,2:0:0:0:
342,346,32670,2,0,L|284:325,1,47.9999985351563,0|0,2:0|2:0,2:0:0:0:
152,288,32892,2,0,L|209:277,1,47.9999985351563,0|0,2:0|2:0,2:0:0:0:
356,227,33115,2,0,L|347:281,1,47.9999985351563,0|0,2:0|2:0,2:0:0:0:
250,358,33337,2,0,L|236:298,1,47.9999985351563,0|0,2:0|2:0,2:0:0:0:
195,192,33560,2,0,L|258:190,1,47.9999985351563,0|0,2:0|2:0,2:0:0:0:
277,184,33781,5,0,2:0:0:0:
277,184,33892,1,0,2:0:0:0:
277,184,34003,1,0,2:0:0:0:
310,150,34115,1,0,2:0:0:0:
305,102,34225,1,0,2:0:0:0:
269,69,34337,1,0,2:0:0:0:
212,57,34448,1,0,2:0:0:0:
161,84,34560,1,0,2:0:0:0:
140,137,34670,2,0,L|152:164,3,23.9999992675781,0|0|0|0,2:0|2:0|2:0|2:0,2:0:0:0:
178,182,34892,2,0,L|236:187,1,47.9999985351563,0|0,2:0|2:0,2:0:0:0:
283,244,35060,1,0,2:0:0:0:
286,233,35115,2,0,P|294:173|299:133,1,95.9999970703126,0|0,2:0|2:0,2:0:0:0:
326,20,35560,6,0,B|431:39|325:180|473:278,1,287.999991210938,0|0,2:0|2:0,2:0:0:0:
505,362,36448,2,0,P|435:388|401:378,1,95.9999970703126,0|0,2:0|2:0,2:0:0:0:
87,254,37337,1,0,2:0:0:0:
126,32,37560,1,0,2:0:0:0:
248,166,37781,1,0,2:0:0:0:
0,168,38003,2,0,P|58:178|130:180,1,95.9999970703126,0|0,2:0|2:0,2:0:0:0:
381,175,38448,6,0,L|351:229,1,47.9999985351563,0|0,2:0|2:0,2:0:0:0:
255,369,38670,2,0,L|249:310,1,47.9999985351563,0|0,2:0|2:0,2:0:0:0:
153,127,38892,2,0,L|206:185,1,47.9999985351563,0|0,2:0|2:0,2:0:0:0:
335,305,39115,6,0,P|329:220|278:82,1,223.999993164063,0|0,2:0|2:0,2:0:0:0:
208,28,39670,1,0,2:0:0:0:
151,19,39781,1,0,2:0:0:0:
109,58,39892,1,0,2:0:0:0:
97,114,40003,2,0,P|115:149|131:334,1,223.999993164063,0|0,2:0|2:0,2:0:0:0:
34,362,40670,1,0,2:0:0:0:
209,270,40892,6,0,P|268:277|325:301,1,111.999996582031,0|0,2:0|2:0,2:0:0:0:
432,380,41337,1,0,2:0:0:0:
380,168,41560,1,0,2:0:0:0:
512,284,41781,1,0,2:0:0:0:
268,237,42003,1,0,2:0:0:0:
447,127,42225,5,0,2:0:0:0:
490,153,42337,1,0,2:0:0:0:
504,201,42448,1,0,2:0:0:0:
489,249,42560,1,0,2:0:0:0:
443,269,42670,1,0,2:0:0:0:
259,155,42892,5,0,2:0:0:0:
259,155,43115,2,0,P|187:146|142:156,1,111.999996582031,0|0,2:0|2:0,2:0:0:0:
56,121,43448,1,0,2:0:0:0:
55,132,43560,2,0,P|35:208|21:239,1,111.999996582031,0|0,2:0|2:0,2:0:0:0:
0,316,43892,2,0,P|29:326|58:326,4,47.9999985351563,0|0|0|0|0,2:0|2:0|2:0|2:0|2:0,2:0:0:0:
21,238,44448,6,0,P|30:164|48:121,1,111.999996582031,0|0,2:0|2:0,2:0:0:0:
90,27,44892,1,0,2:0:0:0:
145,17,45003,1,0,2:0:0:0:
196,37,45115,1,0,2:0:0:0:
222,86,45225,1,0,2:0:0:0:
256,130,45337,2,0,P|338:167|383:165,1,111.999996582031,0|0,2:0|2:0,2:0:0:0:
414,29,45781,5,0,2:0:0:0:
459,51,45892,1,0,2:0:0:0:
487,92,46003,1,0,2:0:0:0:
498,141,46115,1,0,2:0:0:0:
486,189,46225,2,0,P|463:250|421:293,1,111.999996582031,0|0,2:0|2:0,2:0:0:0:
283,140,46670,5,0,2:0:0:0:
395,322,46892,1,0,2:0:0:0:
395,322,47115,2,0,P|325:345|256:345,1,111.999996582031,0|0,2:0|2:0,2:0:0:0:
176,312,47560,1,0,2:0:0:0:
134,278,47670,1,0,2:0:0:0:
114,227,47781,1,0,2:0:0:0:
133,178,47892,1,0,2:0:0:0:
180,148,48003,1,0,2:0:0:0:
234,160,48115,1,0,2:0:0:0:
277,195,48225,1,0,2:0:0:0:
275,251,48337,1,0,2:0:0:0:
231,286,48448,1,0,2:0:0:0:
196,242,48560,1,0,2:0:0:0:
190,186,48670,1,0,2:0:0:0:
207,132,48781,1,0,2:0:0:0:
244,90,48892,6,0,P|293:36|296:-6,1,111.999996582031,0|0,2:0|2:0,2:0:0:0:
147,49,49337,2,0,P|94:99|74:145,1,111.999996582031,0|0,2:0|2:0,2:0:0:0:
118,354,49781,5,0,2:0:0:0:
445,315,50003,1,0,2:0:0:0:
445,315,50115,1,0,2:0:0:0:
445,315,50225,2,0,P|431:248|402:186,1,111.999996582031,0|0,2:0|2:0,2:0:0:0:
258,39,50670,1,0,2:0:0:0:
81,186,50892,1,0,2:0:0:0:
81,186,51003,1,0,2:0:0:0:
81,186,51115,2,0,L|212:198,1,111.999996582031,0|0,2:0|2:0,2:0:0:0:
226,190,51448,5,0,2:0:0:0:
226,190,51560,1,0,2:0:0:0:
471,183,51781,1,0,2:0:0:0:
278,365,52003,1,0,2:0:0:0:
335,28,52225,1,0,2:0:0:0:
373,69,52337,1,0,2:0:0:0:
385,123,52448,2,0,P|370:201|349:230,1,111.999996582031,0|0,2:0|2:0,2:0:0:0:
264,358,52892,1,0,2:0:0:0:
264,358,53003,1,0,2:0:0:0:
264,358,53115,1,0,2:0:0:0:
0,230,53337,6,0,L|154:222,1,111.999996582031,0|0,2:0|2:0,2:0:0:0:
146,208,53670,1,0,2:0:0:0:
146,208,53781,1,0,2:0:0:0:
218,24,54003,1,0,2:0:0:0:
503,107,54225,1,0,2:0:0:0:
314,384,54670,1,0,2:0:0:0:
135,149,54892,5,0,2:0:0:0:
135,149,55003,1,0,2:0:0:0:
135,149,55115,2,0,L|263:170,1,111.999996582031,0|0,2:0|2:0,2:0:0:0:
508,203,55560,1,0,2:0:0:0:
361,51,55781,1,0,2:0:0:0:
303,277,56003,1,0,2:0:0:0:
501,276,56225,1,0,2:0:0:0:
264,133,56448,1,0,2:0:0:0:
264,133,56560,6,0,L|251:91,2,27.9999991455078,0|0|0,2:0|2:0|2:0,2:0:0:0:
313,183,56781,1,0,2:0:0:0:
313,183,56892,1,0,2:0:0:0:
111,192,57115,5,0,2:0:0:0:
111,192,57225,1,0,2:0:0:0:
111,192,57337,2,0,P|170:202|220:216,1,111.999996582031,0|0,2:0|2:0,2:0:0:0:
266,271,57670,1,0,2:0:0:0:
301,228,57781,1,0,2:0:0:0:
309,171,57892,1,0,2:0:0:0:
287,119,58003,1,0,2:0:0:0:
511,249,58225,6,0,P|431:259|390:261,1,111.999996582031,0|0,2:0|2:0,2:0:0:0:
361,234,58560,1,0,2:0:0:0:
361,234,58670,1,0,2:0:0:0:
246,110,58892,1,0,2:0:0:0:
406,31,59115,2,0,P|419:92|426:149,1,111.999996582031,0|0,2:0|2:0,2:0:0:0:
410,172,59448,1,0,2:0:0:0:
410,172,59560,1,0,2:0:0:0:
287,349,59781,5,0,2:0:0:0:
157,280,60003,1,0,2:0:0:0:
186,245,60115,1,0,2:0:0:0:
227,228,60225,1,0,2:0:0:0:
272,224,60337,1,0,2:0:0:0:
315,234,60448,1,0,2:0:0:0:
502,348,60670,5,0,2:0:0:0:
502,348,60781,1,0,2:0:0:0:
502,348,60892,2,0,P|478:293|437:238,1,111.999996582031,0|0,2:0|2:0,2:0:0:0:
250,125,61337,1,0,2:0:0:0:
512,176,61560,1,0,2:0:0:0:
388,28,61781,1,0,2:0:0:0:
283,204,62003,5,0,2:0:0:0:
283,204,62115,1,0,2:0:0:0:
283,204,62225,2,0,P|200:210|164:204,1,111.999996582031,0|0,2:0|2:0,2:0:0:0:
10,100,62670,1,0,2:0:0:0:
212,13,62892,1,0,2:0:0:0:
248,47,63003,1,0,2:0:0:0:
261,95,63115,1,0,2:0:0:0:
258,145,63225,1,0,2:0:0:0:
241,193,63337,1,0,2:0:0:0:
162,263,63560,2,0,L|130:234,4,27.9999991455078,0|0|0|0|0,2:0|2:0|2:0|2:0|2:0,2:0:0:0:
82,193,63892,1,0,2:0:0:0:
77,181,64003,6,0,P|70:129|82:88,1,80,0|0,2:0|2:0,2:0:0:0:
170,85,64447,2,0,P|216:96|330:95,1,160,0|0,2:0|2:0,2:0:0:0:
485,162,65115,1,0,2:0:0:0:
485,162,65336,2,0,P|487:222|478:245,1,80,0|0,2:0|2:0,2:0:0:0:
367,184,65780,2,0,P|326:175|284:180,1,80,0|0,2:0|2:0,2:0:0:0:
208,116,66225,2,0,P|185:200|203:269,1,160,0|0,2:0|2:0,2:0:0:0:
287,384,66891,1,0,2:0:0:0:
417,253,67115,2,0,P|448:240|495:242,1,80,0|0,2:0|2:0,2:0:0:0:
328,347,67560,2,0,P|296:359|249:357,1,80,0|0,2:0|2:0,2:0:0:0:
143,238,68003,5,0,2:0:0:0:
143,238,68115,1,0,2:0:0:0:
143,238,68225,1,0,2:0:0:0:
115,197,68337,1,0,2:0:0:0:
138,155,68447,2,0,P|184:134|218:131,1,80,0|0,2:0|2:0,2:0:0:0:
355,111,68892,1,0,2:0:0:0:
494,205,69115,1,0,2:0:0:0:
267,255,69336,1,0,2:0:0:0:
434,76,69558,1,0,2:0:0:0:
434,76,69670,1,0,2:0:0:0:
434,76,69780,2,0,P|436:116|433:166,1,80,0|0,2:0|2:0,2:0:0:0:
378,309,70225,5,0,2:0:0:0:
378,309,70337,1,0,2:0:0:0:
378,309,70448,1,0,2:0:0:0:
123,201,70670,1,0,2:0:0:0:
156,167,70781,1,0,2:0:0:0:
201,151,70892,1,0,2:0:0:0:
248,148,71003,1,0,2:0:0:0:
294,160,71115,1,0,2:0:0:0:
443,315,71337,5,0,2:0:0:0:
301,246,71560,2,0,P|244:261|199:267,1,80,0|0,2:0|2:0,2:0:0:0:
189,289,71892,1,0,2:0:0:0:
189,289,72003,1,0,2:0:0:0:
58,171,72225,1,0,2:0:0:0:
162,58,72448,2,0,P|181:119|199:141,1,80,0|0,2:0|2:0,2:0:0:0:
326,307,72892,5,0,2:0:0:0:
469,183,73115,1,0,2:0:0:0:
469,183,73225,1,0,2:0:0:0:
469,183,73337,2,0,P|391:187|378:184,1,80,0|0,2:0|2:0,2:0:0:0:
247,15,73781,2,0,P|256:63|252:100,1,80,0|0,2:0|2:0,2:0:0:0:
175,231,74225,5,0,2:0:0:0:
218,251,74337,1,0,2:0:0:0:
265,253,74447,1,0,2:0:0:0:
309,234,74558,1,0,2:0:0:0:
341,198,74670,1,0,2:0:0:0:
235,48,74892,5,0,2:0:0:0:
166,127,75115,2,0,P|140:171|144:220,1,80,0|0,2:0|2:0,2:0:0:0:
270,245,75560,2,0,P|227:276|188:277,1,80,0|0,2:0|2:0,2:0:0:0:
96,339,76003,2,0,P|75:292|74:237,1,80,0|0,2:0|2:0,2:0:0:0:
80,128,76448,5,0,2:0:0:0:
115,95,76560,1,0,2:0:0:0:
170,92,76670,1,0,2:0:0:0:
217,121,76781,1,0,2:0:0:0:
234,174,76892,1,0,2:0:0:0:
272,214,77003,1,0,2:0:0:0:
326,226,77115,1,0,2:0:0:0:
378,207,77225,1,0,2:0:0:0:
412,174,77281,2,0,L|392:150,5,20,0|0|0|0|0|0,2:0|2:0|2:0|2:0|2:0|2:0,2:0:0:0:
349,108,77670,2,0,L|341:113,4,10,0|0|0|0|0,2:0|2:0|2:0|2:0|2:0,2:0:0:0:
122,40,78225,6,0,P|106:100|111:155,1,111.999996582031,0|0,2:0|2:0,2:0:0:0:
139,182,78560,1,0,2:0:0:0:
139,182,78670,1,0,2:0:0:0:
252,38,78892,1,0,2:0:0:0:
283,49,79003,1,0,2:0:0:0:
316,86,79115,1,0,2:0:0:0:
332,133,79225,1,0,2:0:0:0:
333,183,79336,1,0,2:0:0:0:
313,229,79448,1,0,2:0:0:0:
273,259,79558,1,0,2:0:0:0:
86,210,79781,5,0,2:0:0:0:
86,210,79892,1,0,2:0:0:0:
86,210,80003,2,0,P|153:207|203:215,1,111.999996582031,0|0,2:0|2:0,2:0:0:0:
251,272,80337,1,0,2:0:0:0:
287,306,80448,1,0,2:0:0:0:
337,301,80560,1,0,2:0:0:0:
362,257,80670,2,0,P|362:178|351:140,1,111.999996582031,0|0,2:0|2:0,2:0:0:0:
331,93,81003,5,0,2:0:0:0:
331,93,81115,1,0,2:0:0:0:
331,93,81225,1,0,2:0:0:0:
305,49,81337,1,0,2:0:0:0:
257,32,81448,1,0,2:0:0:0:
240,79,81560,1,0,2:0:0:0:
266,121,81670,1,0,2:0:0:0:
287,166,81781,2,0,P|318:218|328:273,1,111.999996582031,0|0,2:0|2:0,2:0:0:0:
305,310,82115,1,0,2:0:0:0:
305,310,82225,1,0,2:0:0:0:
34,256,82448,5,0,2:0:0:0:
34,256,82560,1,0,2:0:0:0:
34,256,82670,2,0,P|110:269|149:273,1,111.999996582031,0|0,2:0|2:0,2:0:0:0:
200,278,83003,1,0,2:0:0:0:
254,266,83115,1,0,2:0:0:0:
288,221,83225,1,0,2:0:0:0:
286,164,83337,1,0,2:0:0:0:
242,128,83448,1,0,2:0:0:0:
188,111,83560,6,0,P|120:116|70:113,1,111.999996582031,0|0,2:0|2:0,2:0:0:0:
38,41,83892,1,0,2:0:0:0:
51,39,84003,2,0,P|126:35|172:41,1,111.999996582031,0|0,2:0|2:0,2:0:0:0:
234,93,84337,1,0,2:0:0:0:
234,93,84448,1,0,2:0:0:0:
234,93,84560,1,0,2:0:0:0:
234,93,84670,2,0,P|241:129|250:155,1,55.9999982910157,0|0,2:0|2:0,2:0:0:0:
227,223,84892,2,0,P|266:215|289:218,1,55.9999982910157,0|0,2:0|2:0,2:0:0:0:
375,213,85115,2,0,L|369:250,2,27.9999991455078,0|0|0,2:0|2:0|2:0,2:0:0:0:
390,137,85337,5,0,2:0:0:0:
390,137,85448,1,0,2:0:0:0:
390,137,85560,1,0,2:0:0:0:
379,89,85670,1,0,2:0:0:0:
341,70,85781,2,0,P|258:79|225:73,1,111.999996582031,0|0,2:0|2:0,2:0:0:0:
152,68,86115,1,0,2:0:0:0:
151,81,86225,2,0,P|141:146|123:189,1,111.999996582031,0|0,2:0|2:0,2:0:0:0:
84,248,86560,5,0,2:0:0:0:
50,288,86670,1,0,2:0:0:0:
50,340,86781,1,0,2:0:0:0:
93,369,86892,1,0,2:0:0:0:
145,364,87003,1,0,2:0:0:0:
187,332,87115,2,0,P|223:301|286:289,1,111.999996582031,0|0,2:0|2:0,2:0:0:0:
375,315,87448,1,0,2:0:0:0:
368,326,87560,2,0,P|332:357|269:369,1,111.999996582031,0|0,2:0|2:0,2:0:0:0:
202,347,87892,1,0,2:0:0:0:
191,354,88003,2,0,P|146:370|83:358,1,111.999996582031,0|0,2:0|2:0,2:0:0:0:
39,294,88337,5,0,2:0:0:0:
17,245,88448,1,0,2:0:0:0:
19,192,88560,1,0,2:0:0:0:
52,151,88670,1,0,2:0:0:0:
102,137,88781,1,0,2:0:0:0:
153,149,88892,2,0,P|229:170|268:165,1,111.999996582031,0|0,2:0|2:0,2:0:0:0:
373,46,89337,2,0,P|378:124|399:171,1,111.999996582031,0|0,2:0|2:0,2:0:0:0:
466,203,89670,1,0,2:0:0:0:
452,212,89781,2,0,P|392:242|339:240,1,111.999996582031,0|0,2:0|2:0,2:0:0:0:
309,222,90115,5,0,2:0:0:0:
270,189,90225,1,0,2:0:0:0:
259,140,90337,1,0,2:0:0:0:
271,91,90448,1,0,2:0:0:0:
301,51,90560,1,0,2:0:0:0:
351,45,90670,1,0,2:0:0:0:
394,69,90781,1,0,2:0:0:0:
406,117,90892,1,0,2:0:0:0:
373,155,91003,1,0,2:0:0:0:
322,159,91115,1,0,2:0:0:0:
274,142,91225,1,0,2:0:0:0:
234,110,91337,5,0,2:0:0:0:
187,91,91448,1,0,2:0:0:0:
138,103,91560,1,0,2:0:0:0:
104,140,91670,1,0,2:0:0:0:
94,189,91781,1,0,2:0:0:0:
115,234,91892,1,0,2:0:0:0:
153,265,92003,1,0,2:0:0:0:
202,271,92115,1,0,2:0:0:0:
249,255,92225,2,0,L|233:221,2,27.9999991455078,0|0|0,2:0|2:0|2:0,2:0:0:0:
303,208,92448,5,0,2:0:0:0:
36,16,106670,6,0,P|17:103|39:194,1,160,0|0,1:0|1:0,1:0:0:0:
77,227,107225,1,0,1:0:0:0:
122,243,107336,1,0,1:0:0:0:
169,236,107447,1,0,1:0:0:0:
215,221,107558,2,0,P|279:198|396:217,1,160,0|0,1:0|1:0,1:0:0:0:
468,273,108225,5,0,1:0:0:0:
414,100,108447,2,0,L|339:93,1,60.0000022888184,0|0,1:0|1:0,1:0:0:0:
286,74,108781,2,0,L|256:128,1,60.0000022888184,0|0,1:0|1:0,1:0:0:0:
205,178,109115,2,0,L|126:196,1,60.0000022888184,0|0,1:0|1:0,1:0:0:0:
101,194,109447,1,0,1:0:0:0:
101,194,109558,1,0,1:0:0:0:
6,259,109781,5,0,1:0:0:0:
42,293,109892,1,0,1:0:0:0:
91,303,110003,1,0,1:0:0:0:
91,303,110115,1,0,1:0:0:0:
91,303,110225,1,0,1:0:0:0:
256,212,110670,5,0,1:0:0:0:
256,212,110781,1,0,1:0:0:0:
256,212,110892,1,0,1:0:0:0:
256,212,111003,1,0,1:0:0:0:
256,212,111115,2,0,B|273:219|332:225|366:232,1,95.9999970703126,0|0,1:0|1:0,1:0:0:0:
451,280,111558,2,0,P|445:236|430:178,1,95.9999970703126,0|0,1:0|1:0,1:0:0:0:
406,110,112003,2,0,P|339:110|282:90,1,95.9999970703126,0|0,1:0|1:0,1:0:0:0:
275,70,112336,1,0,1:0:0:0:
275,70,112447,1,0,1:0:0:0:
275,70,112558,1,0,1:0:0:0:
275,70,112670,1,0,1:0:0:0:
150,169,112892,5,0,1:0:0:0:
150,169,113003,1,0,1:0:0:0:
150,169,113115,1,0,1:0:0:0:
26,260,113336,5,0,1:0:0:0:
45,300,113448,1,0,1:0:0:0:
90,311,113558,1,0,1:0:0:0:
90,311,113670,1,0,1:0:0:0:
90,311,113781,1,0,1:0:0:0:
193,218,114003,5,0,1:0:0:0:
279,343,114225,2,0,P|337:311|370:305,1,95.9999970703126,0|0,1:0|1:0,1:0:0:0:
457,341,114670,2,0,P|454:272|443:226,1,95.9999970703126,0|0,1:0|1:0,1:0:0:0:
397,192,115003,1,0,1:0:0:0:
386,198,115115,2,0,P|311:214|268:209,1,95.9999970703126,0|0,1:0|1:0,1:0:0:0:
170,124,115558,5,0,1:0:0:0:
132,87,115670,1,0,1:0:0:0:
79,85,115781,1,0,1:0:0:0:
35,115,115892,1,0,1:0:0:0:
23,166,116003,1,0,1:0:0:0:
41,215,116115,1,0,1:0:0:0:
85,242,116225,1,0,1:0:0:0:
137,242,116336,1,0,1:0:0:0:
175,213,116392,2,0,L|183:185,9,23.9999992675781,0|0|0|0|0|0|0|0|0|0,1:0|1:0|1:0|1:0|1:0|1:0|1:0|1:0|1:0|1:0,1:0:0:0:
316,108,117336,6,0,P|371:105|425:120,1,111.999996582031,0|0,2:0|2:0,2:0:0:0:
452,147,117671,1,0,2:0:0:0:
452,147,117781,1,0,2:0:0:0:
396,280,118003,1,0,2:0:0:0:
396,280,118115,1,0,2:0:0:0:
396,280,118226,1,0,2:0:0:0:
348,295,118336,1,0,2:0:0:0:
297,289,118447,1,0,2:0:0:0:
252,263,118560,1,0,2:0:0:0:
225,220,118670,1,0,2:0:0:0:
184,124,118892,5,0,2:0:0:0:
184,124,119003,1,0,2:0:0:0:
184,124,119115,2,0,P|133:164|71:178,1,111.999996582031,0|0,2:0|2:0,2:0:0:0:
20,195,119448,1,0,2:0:0:0:
0,244,119560,1,0,2:0:0:0:
28,288,119671,1,0,2:0:0:0:
78,301,119781,2,0,P|168:267|201:246,1,111.999996582031,0|0,2:0|2:0,2:0:0:0:
250,236,120115,5,0,2:0:0:0:
250,236,120226,1,0,2:0:0:0:
250,236,120336,1,0,2:0:0:0:
300,210,120448,1,0,2:0:0:0:
326,157,120560,1,0,2:0:0:0:
343,103,120671,1,0,2:0:0:0:
393,79,120781,1,0,2:0:0:0:
446,94,120892,2,0,P|467:144|483:211,1,111.999996582031,0|0,2:0|2:0,2:0:0:0:
470,254,121226,1,0,2:0:0:0:
470,254,121336,1,0,2:0:0:0:
334,333,121560,5,0,2:0:0:0:
334,333,121671,1,0,2:0:0:0:
334,333,121781,2,0,P|258:346|219:350,1,111.999996582031,0|0,2:0|2:0,2:0:0:0:
170,349,122115,1,0,2:0:0:0:
116,337,122226,1,0,2:0:0:0:
82,292,122336,1,0,2:0:0:0:
84,235,122448,1,0,2:0:0:0:
128,199,122560,1,0,2:0:0:0:
184,190,122671,6,0,P|252:195|302:192,1,111.999996582031,0|0,2:0|2:0,2:0:0:0:
276,119,123003,1,0,2:0:0:0:
289,117,123115,2,0,P|364:113|410:119,1,111.999996582031,0|0,2:0|2:0,2:0:0:0:
469,155,123448,1,0,2:0:0:0:
469,155,123560,1,0,2:0:0:0:
469,155,123671,1,0,2:0:0:0:
469,155,123781,2,0,P|462:191|453:217,1,55.9999982910157,0|0,2:0|2:0,2:0:0:0:
291,212,124003,2,0,P|330:215|351:224,1,55.9999982910157,0|0,2:0|2:0,2:0:0:0:
405,262,124226,2,0,L|397:288,2,27.9999991455078,0|0|0,2:0|2:0|2:0,2:0:0:0:
392,166,124448,5,0,2:0:0:0:
392,166,124560,1,0,2:0:0:0:
392,166,124671,1,0,2:0:0:0:
381,118,124781,1,0,2:0:0:0:
343,99,124892,2,0,P|260:108|227:102,1,111.999996582031,0|0,2:0|2:0,2:0:0:0:
151,34,125226,1,0,2:0:0:0:
164,32,125336,2,0,P|230:27|276:34,1,111.999996582031,0|0,2:0|2:0,2:0:0:0:
351,25,125671,5,0,2:0:0:0:
397,50,125781,1,0,2:0:0:0:
415,98,125892,1,0,2:0:0:0:
385,141,126003,1,0,2:0:0:0:
335,155,126115,1,0,2:0:0:0:
284,140,126226,2,0,P|239:123|176:135,1,111.999996582031,0|0,2:0|2:0,2:0:0:0:
69,169,126560,1,0,2:0:0:0:
76,180,126671,2,0,P|112:211|175:223,1,111.999996582031,0|0,2:0|2:0,2:0:0:0:
257,209,127003,1,0,2:0:0:0:
269,207,127115,2,0,P|316:213|366:254,1,111.999996582031,0|0,2:0|2:0,2:0:0:0:
387,327,127448,5,0,2:0:0:0:
347,367,127560,1,0,2:0:0:0:
292,379,127671,1,0,2:0:0:0:
238,364,127781,1,0,2:0:0:0:
207,317,127892,1,0,2:0:0:0:
195,262,128003,2,0,P|181:184|160:151,1,111.999996582031,0|0,2:0|2:0,2:0:0:0:
373,46,128448,2,0,P|378:124|399:171,1,111.999996582031,0|0,2:0|2:0,2:0:0:0:
466,203,128781,1,0,2:0:0:0:
452,212,128892,2,0,P|392:242|339:240,1,111.999996582031,0|0,2:0|2:0,2:0:0:0:
309,222,129226,5,0,2:0:0:0:
270,189,129336,1,0,2:0:0:0:
259,140,129448,1,0,2:0:0:0:
273,91,129560,1,0,2:0:0:0:
309,55,129671,1,0,2:0:0:0:
358,53,129781,1,0,2:0:0:0:
402,77,129892,1,0,2:0:0:0:
413,126,130003,1,0,2:0:0:0:
380,164,130115,1,0,2:0:0:0:
330,175,130226,1,0,2:0:0:0:
283,156,130336,1,0,2:0:0:0:
240,128,130448,5,0,2:0:0:0:
211,86,130558,1,0,2:0:0:0:
173,57,130670,2,0,P|104:45|34:63,1,111.999996582031,0|0,1:0|1:0,1:0:0:0:
0,170,131115,2,0,P|56:177|112:163,1,111.999996582031,0|0,1:0|1:0,1:0:0:0:
266,131,131558,6,0,P|332:129|377:154,1,111.999996582031,0|0,1:0|1:0,1:0:0:0:
414,147,131892,1,0,1:0:0:0:
414,147,132003,1,0,1:0:0:0:
489,271,132225,1,0,2:0:0:0:
489,271,132336,1,0,2:0:0:0:
489,271,132447,1,0,2:0:0:0:
464,314,132557,1,0,2:0:0:0:
422,345,132668,1,0,2:0:0:0:
372,356,132781,1,0,2:0:0:0:
323,343,132891,1,0,2:0:0:0:
239,209,133113,5,0,2:0:0:0:
239,209,133225,1,0,2:0:0:0:
239,209,133336,2,0,P|215:147|179:98,1,111.999996582031,0|0,2:0|2:0,2:0:0:0:
63,93,133670,1,0,2:0:0:0:
67,108,133781,2,0,P|105:196|128:227,1,111.999996582031,0|0,2:0|2:0,2:0:0:0:
92,295,134115,5,0,1:0:0:0:
105,299,134225,2,0,P|164:311|222:337,1,111.999996582031,0|0,1:0|1:0,1:0:0:0:
289,298,134670,1,0,1:0:0:0:
302,297,134780,2,0,P|361:287|424:290,1,111.999996582031,0|0,1:0|1:0,1:0:0:0:
449,302,135115,1,0,1:0:0:0:
424,144,135336,1,0,1:0:0:0:
424,144,135447,1,0,2:0:0:0:
424,144,135558,2,0,P|341:160|290:164,1,111.999996582031,0|0,1:0|1:0,1:0:0:0:
256,106,135892,5,0,2:0:0:0:
243,115,136002,2,0,P|171:144|134:157,1,111.999996582031,0|0,2:0|2:0,2:0:0:0:
94,184,136336,1,0,2:0:0:0:
62,230,136447,1,0,2:0:0:0:
69,286,136557,1,0,2:0:0:0:
110,325,136670,1,0,2:0:0:0:
167,320,136781,1,0,2:0:0:0:
215,296,136892,6,0,P|278:270|326:257,1,111.999996582031,0|0,2:0|2:0,2:0:0:0:
428,300,137225,1,0,2:0:0:0:
419,305,137336,2,0,P|347:327|301:332,1,111.999996582031,0|0,2:0|2:0,2:0:0:0:
257,236,137670,1,0,2:0:0:0:
257,236,137781,1,0,2:0:0:0:
257,236,137892,1,0,2:0:0:0:
257,236,138002,2,0,P|264:200|273:174,1,55.9999982910157,0|0,2:0|2:0,2:0:0:0:
137,163,138225,2,0,P|164:163|191:172,1,55.9999982910157,0|0,2:0|2:0,2:0:0:0:
344,218,138447,2,0,L|352:192,2,27.9999991455078,0|0|0,2:0|2:0|2:0,2:0:0:0:
337,301,138670,5,0,2:0:0:0:
337,301,138781,1,0,2:0:0:0:
337,301,138892,1,0,2:0:0:0:
317,346,139002,1,0,2:0:0:0:
275,355,139113,2,0,P|196:327|162:325,1,111.999996582031,0|0,2:0|2:0,2:0:0:0:
53,258,139447,1,0,2:0:0:0:
66,256,139557,2,0,P|132:251|178:258,1,111.999996582031,0|0,2:0|2:0,2:0:0:0:
242,272,139892,5,0,2:0:0:0:
289,252,140002,1,0,2:0:0:0:
307,204,140113,1,0,2:0:0:0:
277,161,140225,1,0,2:0:0:0:
227,147,140336,1,0,2:0:0:0:
176,162,140447,2,0,P|128:172|63:167,1,111.999996582031,0|0,2:0|2:0,2:0:0:0:
6,98,140781,1,0,2:0:0:0:
17,92,140892,2,0,P|63:83|134:95,1,111.999996582031,0|0,2:0|2:0,2:0:0:0:
187,52,141225,1,0,2:0:0:0:
200,50,141336,2,0,P|250:49|317:63,1,111.999996582031,0|0,2:0|2:0,2:0:0:0:
372,88,141670,5,0,2:0:0:0:
410,128,141781,1,0,2:0:0:0:
420,182,141892,1,0,2:0:0:0:
388,227,142002,1,0,2:0:0:0:
333,238,142113,1,0,2:0:0:0:
277,230,142225,2,0,P|200:209|161:214,1,111.999996582031,0|0,2:0|2:0,2:0:0:0:
72,260,142558,1,0,1:0:0:0:
83,270,142670,2,0,P|158:289|209:283,1,111.999996582031,0|0,2:0|2:0,2:0:0:0:
429,250,143002,1,0,2:0:0:0:
415,259,143113,2,0,P|355:289|302:287,1,111.999996582031,0|0,2:0|2:0,2:0:0:0:
249,267,143447,5,0,2:0:0:0:
204,234,143557,1,0,2:0:0:0:
194,178,143670,1,0,2:0:0:0:
211,124,143781,1,0,2:0:0:0:
252,86,143892,1,0,2:0:0:0:
307,79,144002,1,0,2:0:0:0:
356,105,144113,1,0,2:0:0:0:
368,157,144225,1,0,2:0:0:0:
334,201,144336,1,0,2:0:0:0:
278,209,144447,1,0,2:0:0:0:
226,188,144557,1,0,2:0:0:0:
181,152,144670,1,0,2:0:0:0:
139,115,144780,1,0,2:0:0:0:
82,107,144892,1,0,1:0:0:0:
28,123,145003,2,0,L|18:97,4,27.9999991455078,0|0|0|0|0,1:0|1:0|1:0|1:0|1:0,1:0:0:0:
31,178,145336,6,0,P|67:234|112:254,1,111.999996582031,0|0,1:0|1:0,1:0:0:0:
