osu file format v14

[General]
AudioFilename: audio.mp3
AudioLeadIn: 0
PreviewTime: 144034
Countdown: 0
SampleSet: Soft
StackLeniency: 0.7
Mode: 0
LetterboxInBreaks: 0
WidescreenStoryboard: 0

[Editor]
Bookmarks: 47894,57167,74622,83349,92076,153167,170622
DistanceSpacing: 3
BeatDivisor: 4
GridSize: 8
TimelineZoom: 1.2

[Metadata]
Title:Imperium
TitleUnicode:Imperium
Artist:Madeon
ArtistUnicode:Madeon
Creator:jub
Version:Adventure
Source:
Tags:
BeatmapID:1357675
BeatmapSetID:640221

[Difficulty]
HPDrainRate:5
CircleSize:4.6
OverallDifficulty:9
ApproachRate:9.6
SliderMultiplier:2.3
SliderTickRate:1

[Events]
//Background and Video events
0,0,"bg2.png",0,0
//Break Periods
2,29143,30071
2,66234,74253
2,109871,117889
//Storyboard Layer 0 (Background)
//Storyboard Layer 1 (Fail)
//Storyboard Layer 2 (Pass)
//Storyboard Layer 3 (Foreground)
//Storyboard Sound Samples

[TimingPoints]
580.181818181818,545.454545454546,4,2,0,50,1,0
4943,-90.9090909090909,4,3,0,66,0,0
13671,-83.3333333333333,4,3,0,66,0,0
18034,-76.9230769230769,4,3,0,66,0,0
22398,-71.4285714285714,4,3,0,66,0,0
26762,-66.6666666666667,4,3,0,66,0,0
27852,-62.5,4,3,0,66,0,0
28943,-100,4,3,0,66,0,0
30580,-200,4,3,0,66,0,0
31125,-76.9230769230769,4,1,0,77,0,1
31262,-76.9230769230769,4,1,0,66,0,0
39307,-100,4,1,0,77,0,1
39852,-76.9230769230769,4,1,0,66,0,0
46398,-100,4,3,0,66,0,0
47762,-76.9230769230769,4,3,0,66,0,0
48034,-133.333333333333,4,3,0,77,0,1
48443,-133.333333333333,4,3,0,66,0,0
48580,-66.6666666666667,4,1,0,77,0,1
56762,-100,4,1,0,77,0,0
57307,-66.6666666666667,4,1,0,77,0,1
65489,-71.4285714285714,4,1,0,66,0,0
74762,-76.9230769230769,4,1,0,66,0,0
100398,-100,4,1,0,77,0,1
100943,-71.4285714285714,4,1,0,66,0,0
105307,-62.5,4,1,0,77,0,1
107489,-57.1428571428571,4,1,0,77,0,1
109125,-66.6666666666667,4,1,0,66,0,0
109671,-83.3333333333333,4,1,0,66,0,0
118398,-71.4285714285714,4,1,0,66,0,0
127125,-68.9655172413793,4,1,0,66,0,0
131489,-66.6666666666667,4,1,0,66,0,0
135852,-64.5161290322581,4,1,0,66,0,0
140216,-62.5,4,1,0,66,0,0
142671,-55.5555555555556,4,1,0,66,0,0
142943,-62.5,4,1,0,66,0,0
143216,-50,4,1,0,66,0,0
143352,-62.5,4,1,0,66,0,0
143762,-50,4,1,0,66,0,0
144034,-83.3333333333333,4,1,0,66,0,0
144580,-58.8235294117647,4,1,0,77,0,1
152489,-58.8235294117647,4,1,0,66,0,0
153307,-58.8235294117647,4,1,0,77,0,1
159852,-55.5555555555556,4,1,0,77,0,1
161489,-66.6666666666667,4,1,0,66,0,0
162034,-50,4,1,0,77,0,1
169091,-50,4,2,0,5,0,1
169125,-50,4,1,0,77,0,1
169637,-50,4,2,0,5,0,1
169671,-50,4,1,0,77,0,1
170216,-50,4,1,0,77,0,0
170762,-50,4,1,0,77,0,1
175125,-45.4545454545455,4,1,0,77,0,1
178125,-50,4,1,0,77,0,1
178330,-50,4,2,0,5,0,1
178398,-55.5555555555556,4,1,0,77,0,1
178943,-66.6666666666667,4,1,0,66,0,0
179489,-76.9230769230769,4,1,0,66,0,0
181671,-76.9230769230769,4,1,0,33,0,0

[Colours]
Combo1 : 244,81,94
Combo2 : 26,217,136
Combo3 : 218,18,73
Combo4 : 141,216,205

[HitObjects]
240,24,580,6,0,L|232:104,1,76.6666666666667,2|0,0:0|0:0,0:0:0:0:
224,176,943,1,2,0:0:0:0:
272,360,1125,6,0,L|280:280,1,76.6666666666667,2|0,0:0|0:0,0:0:0:0:
288,208,1488,1,2,0:0:0:0:
208,24,1671,6,0,L|200:104,1,76.6666666666667,2|0,0:0|0:0,0:0:0:0:
192,176,2034,1,2,0:0:0:0:
304,360,2216,6,0,L|312:280,1,76.6666666666667,2|0,0:0|0:0,0:0:0:0:
320,208,2579,1,2,0:0:0:0:
176,24,2762,6,0,L|168:104,1,76.6666666666667,2|0,0:0|0:0,0:0:0:0:
160,176,3125,1,2,0:0:0:0:
336,360,3307,6,0,L|344:280,1,76.6666666666667,2|0,0:0|0:0,0:0:0:0:
352,208,3670,1,2,0:0:0:0:
144,24,3852,6,0,L|136:104,1,76.6666666666667,2|0,0:0|0:0,0:0:0:0:
128,176,4215,1,2,0:0:0:0:
368,360,4398,6,0,L|376:280,1,76.6666666666667,2|0,0:0|0:0,0:0:0:0:
384,208,4761,1,2,0:0:0:0:
134,238,4943,6,0,L|128:176,1,63.2500019302369,2|0,0:1|0:0,0:0:0:0:
144,24,5216,1,0,0:0:0:0:
261,253,5489,6,0,L|135:239,1,126.500003860474
247,218,5898,2,0,P|303:190|367:197,1,126.500003860474
322,302,6307,1,0,0:0:0:0:
196,315,6443,1,0,0:0:0:0:
322,302,6580,2,0,B|384:295|384:295|432:336,1,126.500003860474
196,315,6989,1,0,0:0:0:0:
249,190,7125,6,0,B|255:121,1,63.2500019302369,2|0,0:1|0:0,0:0:0:0:
322,302,7398,1,0,0:0:0:0:
226,209,7671,6,0,P|169:185|107:197,1,126.500003860474
161,34,8080,2,0,L|171:160,1,126.500003860474
155,305,8489,2,0,P|212:329|273:317,1,126.500003860474
355,196,8898,2,0,B|359:164|374:135|374:135|342:132|315:116,1,126.500003860474
125,23,9307,6,0,L|134:124,1,63.2500019302369,2|0,0:1|0:0,0:0:0:0:
145,211,9580,1,0,0:0:0:0:
395,181,9852,6,0,L|262:196,1,126.500003860474
343,34,10262,2,0,L|328:159,1,126.500003860474
313,284,10671,1,0,0:0:0:0:
235,225,10807,1,0,0:0:0:0:
313,284,10943,2,0,P|260:318|198:315,1,126.500003860474
421,303,11352,1,0,0:0:0:0:
468,36,11489,6,0,L|360:48,1,63.2500019302369,2|0,0:1|0:0,0:0:0:0:
253,61,11762,1,0,0:0:0:0:
44,151,12034,6,0,L|198:169,1,126.500003860474
122,269,12443,2,0,L|247:254,1,126.500003860474
357,186,12852,2,0,B|451:197|451:197|469:222,1,126.500003860474
279,249,13262,2,0,P|257:190|276:128,1,126.500003860474
382,300,13671,6,0,L|395:367,1,68.9999978942872,4|0,3:0|0:0,0:0:0:0:
190,333,13943,2,0,L|18:305,2,137.999995788574,0|4|0,0:0|3:0|0:0,0:0:0:0:
141,203,14625,6,0,L|72:191,1,68.9999978942872,0|4,0:0|0:0,0:0:0:0:
141,203,14898,1,0,0:0:0:0:
344,190,15034,2,0,L|411:178,1,68.9999978942872
286,69,15307,2,0,P|280:136|315:194,1,137.999995788574,4|0,0:0|0:0,0:0:0:0:
378,114,15716,1,0,0:0:0:0:
230,10,15852,5,4,0:0:0:0:
147,81,15989,1,0,0:0:0:0:
249,118,16125,2,0,P|261:184|231:245,2,137.999995788574,0|4|0,0:0|0:0|0:0,0:0:0:0:
277,20,16807,6,0,P|311:21|342:35,1,68.9999978942872,0|4,0:0|0:0,0:0:0:0:
399,152,17080,1,0,0:0:0:0:
338,252,17216,2,0,P|292:202|285:134,1,137.999995788574,0|4,0:0|0:0,0:0:0:0:
338,252,17625,2,0,B|357:298|358:351|358:351|371:337|371:318,1,137.999995788574
260,118,18034,6,0,L|183:125,1,74.7499965782167,4|0,0:0|0:0,0:0:0:0:
96,277,18307,2,0,B|91:251|91:251|110:130,2,149.499993156433,0|4|0,0:0|0:0|0:0,0:0:0:0:
202,343,18989,6,0,P|216:308|217:271,1,74.7499965782167,0|4,0:0|0:0,0:0:0:0:
110,129,19262,1,0,0:0:0:0:
252,3,19398,2,0,P|289:6|322:23,1,74.7499965782167
341,208,19671,2,0,P|273:187|259:117,1,149.499993156433,4|0,0:0|0:0,0:0:0:0:
391,109,20080,1,0,0:0:0:0:
414,292,20216,5,4,0:0:0:0:
217,271,20352,1,0,0:0:0:0:
414,292,20489,1,0,0:0:0:0:
196,354,20762,6,0,L|182:187,1,149.499993156433,4|0,0:0|0:0,0:0:0:0:
176,126,21171,2,0,B|159:149|159:149|150:270,1,149.499993156433
250,163,21580,2,0,P|303:211|375:198,1,149.499993156433,0|4,0:0|0:0,0:0:0:0:
344,0,21989,2,0,P|305:61|325:132,1,149.499993156433
413,292,22398,6,0,P|373:300|338:317,1,80.499997543335,6|0,1:0|0:0,0:0:0:0:
242,377,22671,2,0,L|232:210,2,160.99999508667,0|4|0,0:0|0:0|0:0,0:0:0:0:
325,132,23352,1,0,0:0:0:0:
337,317,23489,6,0,P|299:328|260:325,1,80.499997543335,4|0,0:0|0:0,0:0:0:0:
143,300,23762,1,0,0:0:0:0:
173,182,23898,1,0,0:0:0:0:
290,212,24034,2,0,P|337:153|303:85,1,160.99999508667,4|0,0:0|0:0,0:0:0:0:
57,231,24443,1,0,0:0:0:0:
192,355,24580,6,0,P|228:365|271:360,1,80.499997543335,4|0,0:0|0:0,0:0:0:0:
158,234,24852,2,0,B|95:209|31:215|31:215|43:226|59:232,2,160.99999508667,0|4|0,0:0|0:0|0:0,0:0:0:0:
270,360,25534,6,0,P|297:334|316:294,1,80.499997543335,0|4,0:0|0:0,0:0:0:0:
282,117,25807,1,0,0:0:0:0:
154,155,25943,2,0,P|145:191|227:272,1,160.99999508667
185,25,26352,2,0,L|22:12,1,160.99999508667
150,320,26762,6,0,L|157:235,1,86.2500032901765,4|0,0:0|0:0,0:0:0:0:
195,136,27034,1,0,0:0:0:0:
264,214,27171,1,0,0:0:0:0:
122,55,27307,6,0,L|37:49,1,86.2500032901765,4|0,0:0|0:0,0:0:0:0:
52,254,27580,1,0,0:0:0:0:
225,34,27716,1,0,0:0:0:0:
325,291,27852,6,0,L|416:283,1,92,4|0,0:0|0:0,0:0:0:0:
264,214,28125,1,0,0:0:0:0:
280,379,28262,1,0,0:0:0:0:
310,123,28398,6,0,L|302:32,1,92,4|0,0:0|0:0,0:0:0:0:
52,254,28671,1,0,0:0:0:0:
416,282,28807,1,0,0:0:0:0:
195,136,28943,5,2,2:0:0:0:
221,36,30580,6,2,B|222:59|222:59|200:85|200:85|203:98|202:113,1,86.25,2|0,2:0|2:0,2:0:0:0:
280,378,31125,6,0,L|365:370,2,74.7499965782167,4|0|0,0:0|0:0|0:0,0:0:0:0:
46,243,31671,6,0,L|194:258,1,149.499993156433,8|0,0:0|0:0,0:0:0:0:
259,169,32080,2,0,L|184:161,2,74.7499965782167,0|4|0,0:0|3:0|0:0,0:0:0:0:
173,63,32489,1,0,0:0:0:0:
204,355,32625,1,0,0:0:0:0:
173,63,32762,2,0,L|321:78,1,149.499993156433,8|0,0:0|0:0,0:0:0:0:
377,184,33171,1,0,0:0:0:0:
204,355,33307,6,0,L|196:280,2,74.7499965782167,4|0|0,3:0|0:0|0:0,0:0:0:0:
224,114,33852,6,0,B|242:186|242:186|215:257,1,149.499993156433,8|0,0:0|0:0,0:0:0:0:
117,179,34262,1,0,0:0:0:0:
340,192,34398,2,0,L|414:196,1,74.7499965782167,4|0,3:0|0:0,0:0:0:0:
369,316,34671,1,0,0:0:0:0:
348,57,34943,1,8,0:0:0:0:
369,315,35080,2,0,P|327:374|255:373,1,149.499993156433
150,300,35489,6,0,L|76:304,1,74.7499965782167,4|0,3:0|0:0,0:0:0:0:
15,349,35762,1,0,0:0:0:0:
158,150,36034,6,0,L|149:299,1,149.499993156433,8|0,0:0|0:0,0:0:0:0:
23,101,36443,1,0,0:0:0:0:
187,164,36580,2,0,P|222:173|260:170,1,74.7499965782167,4|0,3:0|0:0,0:0:0:0:
239,22,36852,1,0,0:0:0:0:
148,299,36989,1,0,0:0:0:0:
239,22,37125,2,0,L|388:13,1,149.499993156433,8|0,0:0|0:0,0:0:0:0:
424,127,37534,1,0,0:0:0:0:
260,169,37671,6,0,P|223:173|187:164,1,74.7499965782167,4|0,3:0|0:0,0:0:0:0:
149,299,37943,2,0,L|158:150,2,149.499993156433,0|8|0,0:0|0:0|0:0,0:0:0:0:
285,339,38625,5,0,0:0:0:0:
260,169,38762,1,4,3:0:0:0:
395,63,38898,5,0,0:0:0:0:
285,339,39034,1,0,0:0:0:0:
101,106,39307,6,2,B|64:80|21:74|21:74|8:112|14:160,1,172.5,10|0,0:0|0:0,0:0:0:0:
260,169,39852,6,0,P|296:154|331:147,2,74.7499965782167,4|0|0,0:0|0:0|0:0,0:0:0:0:
284,339,40398,6,0,P|298:265|281:193,1,149.499993156433,8|0,0:0|0:0,0:0:0:0:
121,61,40807,2,0,P|110:96|109:133,2,74.7499965782167,0|4|0,0:0|3:0|0:0,0:0:0:0:
160,215,41216,2,0,P|124:226|87:226,1,74.7499965782167
281,193,41489,1,8,0:0:0:0:
362,114,41762,5,0,0:0:0:0:
362,114,41898,1,0,0:0:0:0:
362,114,42034,6,0,P|397:101|434:96,2,74.7499965782167,4|0|0,3:0|0:0|0:0,0:0:0:0:
428,334,42580,6,0,L|251:318,1,149.499993156433,8|0,0:0|0:0,0:0:0:0:
235,169,42989,2,0,L|242:243,1,74.7499965782167,0|4,0:0|3:0,0:0:0:0:
156,371,43262,1,0,0:0:0:0:
177,72,43398,2,0,P|256:60|320:92,1,149.499993156433,0|8,0:0|0:0,0:0:0:0:
265,317,43807,2,0,B|256:331|252:353|252:353|242:243,1,149.499993156433
344,366,44216,5,4,3:0:0:0:
160,176,44352,1,0,0:0:0:0:
235,169,44489,2,0,L|383:155,2,149.499993156433,0|8|0,0:0|0:0|0:0,0:0:0:0:
20,201,45171,6,0,P|48:226|84:235,1,74.7499965782167,0|4,0:0|3:0,0:0:0:0:
108,107,45443,1,0,0:0:0:0:
216,39,45580,2,0,B|241:30|277:31|277:31|268:40,1,74.7499965782167,2|0,3:0|0:0,0:0:0:0:
235,168,45852,2,0,P|247:239|315:260,1,149.499993156433,8|2,0:0|3:0,0:0:0:0:
370,125,46262,1,0,0:0:0:0:
405,375,46398,6,0,L|348:382,1,57.5,4|0,0:0|0:0,0:0:0:0:
270,343,46671,2,0,L|155:357,2,115
315,260,47352,2,0,P|315:204|362:175,1,115
458,234,47762,6,0,B|451:261|456:289|456:289|428:296|408:317,1,112.124994867325,4|0,0:0|2:0,0:0:0:0:
315,260,48034,6,2,L|186:244,1,129.375004935265,8|0,1:0|1:0,1:0:0:0:
27,236,48580,6,0,L|198:215,2,172.500006580353,4|0|8,0:0|0:0|0:0,0:0:0:0:
94,77,49398,1,0,0:0:0:0:
37,321,49534,1,0,0:0:0:0:
326,282,49671,6,0,P|371:214|335:140,1,172.500006580353,4|0,3:0|0:0,0:0:0:0:
198,214,50080,1,0,0:0:0:0:
404,217,50216,6,0,B|514:224|514:224|477:214|464:187,1,172.500006580353,8|0,0:0|0:0,0:0:0:0:
439,61,50625,1,0,0:0:0:0:
326,281,50762,6,0,P|243:282|197:213,2,172.500006580353,4|0|8,3:0|0:0|0:0,0:0:0:0:
284,205,51580,1,0,0:0:0:0:
309,17,51716,1,0,0:0:0:0:
373,196,51852,6,0,P|406:229|421:267,2,86.2500032901765,4|0|0,3:0|0:0|0:0,0:0:0:0:
232,137,52262,2,0,P|192:150|150:145,1,86.2500032901765,0|8,0:0|0:0,0:0:0:0:
170,316,52671,1,0,0:0:0:0:
170,316,52807,1,0,0:0:0:0:
170,316,52943,6,0,L|149:145,2,172.500006580353,4|0|8,0:0|0:0|0:0,0:0:0:0:
65,243,53762,1,0,0:0:0:0:
347,109,53898,1,0,0:0:0:0:
326,281,54034,6,0,P|352:330|468:313,1,172.500006580353,4|0,3:0|0:0,0:0:0:0:
458,193,54443,1,0,0:0:0:0:
184,211,54580,6,0,B|41:194|41:194|124:153,1,172.500006580353,8|0,0:0|0:0,0:0:0:0:
315,123,54989,1,0,0:0:0:0:
326,281,55125,6,0,P|300:330|184:313,2,172.500006580353,4|0|8,3:0|0:0|0:0,0:0:0:0:
315,123,55807,1,0,0:0:0:0:
150,94,55943,1,0,0:0:0:0:
428,78,56080,5,8,0:0:0:0:
462,348,56216,1,0,0:0:0:0:
355,33,56352,5,8,0:0:0:0:
321,303,56488,1,0,0:0:0:0:
73,274,56625,1,0,0:0:0:0:
107,4,56762,6,2,B|173:4|238:-2|238:-2|228:18|210:28,1,172.5,10|0,0:0|0:0,0:0:0:0:
261,171,57307,6,0,B|187:123|198:44|198:44|200:31|211:27,2,172.500006580353,4|0|8,0:0|0:0|0:0,0:0:0:0:
268,296,58125,1,0,0:0:0:0:
329,60,58262,1,0,0:0:0:0:
166,67,58398,6,0,B|102:49|38:59|38:59|59:67|74:82,1,172.500006580353,4|0,3:0|0:0,0:0:0:0:
116,237,58807,1,0,0:0:0:0:
261,171,58943,6,0,B|329:164|381:129|381:129|366:150|359:166,1,172.500006580353,8|0,0:0|0:0,0:0:0:0:
373,324,59352,1,0,0:0:0:0:
261,171,59489,6,0,B|253:30|253:30|235:56,2,172.500006580353,4|0|8,3:0|0:0|0:0,0:0:0:0:
366,246,60307,1,0,0:0:0:0:
160,256,60443,1,0,0:0:0:0:
285,363,60580,6,0,B|328:370|328:370|369:353,2,86.2500032901765,4|0|0,3:0|0:0|0:0,0:0:0:0:
127,273,60989,2,0,B|83:268|83:268|50:243,1,86.2500032901765,0|8,0:0|0:0,0:0:0:0:
235,55,61398,1,0,0:0:0:0:
235,55,61534,1,0,0:0:0:0:
235,55,61671,6,0,L|228:227,2,172.500006580353,4|0|8,0:0|0:0|0:0,0:0:0:0:
370,242,62489,1,0,0:0:0:0:
128,136,62625,1,0,0:0:0:0:
345,117,62762,6,0,B|408:85|474:97|474:97|468:114|451:129,1,172.500006580353,4|0,3:0|0:0,0:0:0:0:
370,242,63171,1,0,0:0:0:0:
181,104,63307,6,0,B|128:64|62:60|62:60|65:83|80:100,1,172.500006580353,8|0,0:0|0:0,0:0:0:0:
144,304,63716,1,0,0:0:0:0:
289,267,63852,6,0,B|329:260|375:273|375:273|403:243|449:233,1,172.500006580353,4|0,0:0|0:0,0:0:0:0:
345,117,64262,1,0,0:0:0:0:
181,104,64398,6,0,B|135:114|92:94|92:94|75:106|63:125|63:125|44:136|21:138,1,172.500006580353,8|0,0:0|0:0,0:0:0:0:
125,254,64808,1,0,0:0:0:0:
267,55,64943,6,0,P|303:30|344:18,2,86.2500032901765,4|0|0,3:0|0:0|0:0,0:0:0:0:
207,262,65352,1,0,0:0:0:0:
388,332,65489,6,0,P|457:303|447:229,1,160.99999508667,8|2,0:0|0:0,0:0:0:0:
289,267,65898,1,2,0:0:0:0:
239,375,66034,5,6,0:0:0:0:
52,335,74762,6,0,L|201:343,2,149.499993156433,4|0|8,0:0|0:0|0:0,0:0:0:0:
230,276,75580,5,0,0:0:0:0:
230,276,75716,1,0,0:0:0:0:
201,343,75852,6,0,P|223:313|230:277,1,74.7499965782167,4|0,3:0|0:0,0:0:0:0:
211,181,76125,1,0,0:0:0:0:
258,87,76262,1,0,0:0:0:0:
315,174,76398,1,8,0:0:0:0:
211,181,76671,5,2,2:0:0:0:
315,174,76807,1,0,0:0:0:0:
258,87,76943,6,0,L|109:95,2,149.499993156433,4|0|8,3:0|0:0|0:0,0:0:0:0:
274,274,77762,5,0,0:0:0:0:
274,274,77898,1,0,0:0:0:0:
278,200,78034,6,0,P|268:235|272:272,1,74.7499965782167,4|0,3:0|0:0,0:0:0:0:
399,263,78307,2,0,B|417:250|417:250|390:244|363:243,1,74.7499965782167
184,224,78580,1,8,0:0:0:0:
184,224,78989,5,0,0:0:0:0:
184,224,79125,6,0,L|176:373,2,149.499993156433,4|0|8,3:0|0:0|0:0,0:0:0:0:
125,46,79943,5,0,0:0:0:0:
125,46,80080,1,0,0:0:0:0:
125,46,80216,6,0,P|154:67|191:74,1,74.7499965782167,4|0,3:0|0:0,0:0:0:0:
383,176,80489,2,0,P|353:154|316:147,1,74.7499965782167
308,257,80762,1,8,0:0:0:0:
184,224,81034,5,2,2:0:0:0:
184,224,81171,1,0,0:0:0:0:
184,224,81307,6,0,L|192:75,2,149.499993156433,4|0|8,3:0|0:0|0:0,0:0:0:0:
308,257,82125,5,0,0:0:0:0:
308,257,82262,1,0,0:0:0:0:
308,257,82398,6,0,P|288:225|285:188,1,74.7499965782167,4|0,3:0|0:0,0:0:0:0:
361,128,82671,2,0,B|380:159|380:159|375:197,1,74.7499965782167
217,248,82943,1,8,0:0:0:0:
159,178,83216,5,2,2:0:0:0:
159,178,83352,1,0,0:0:0:0:
159,178,83489,6,0,L|10:186,2,149.499993156433,4|0|8,0:0|0:0|0:0,0:0:0:0:
227,120,84307,5,0,0:0:0:0:
227,120,84443,1,0,0:0:0:0:
279,169,84580,6,0,P|247:150|226:119,1,74.7499965782167,4|0,3:0|0:0,0:0:0:0:
310,83,84852,1,0,0:0:0:0:
296,262,84989,1,0,0:0:0:0:
117,248,85125,1,8,0:0:0:0:
408,179,85398,5,2,2:0:0:0:
408,179,85534,1,0,0:0:0:0:
408,179,85671,6,0,L|400:328,2,149.499993156433,4|0|8,3:0|0:0|0:0,0:0:0:0:
310,83,86489,5,0,0:0:0:0:
310,83,86625,1,0,0:0:0:0:
238,94,86762,6,0,P|275:96|309:82,1,74.7499965782167,4|0,3:0|0:0,0:0:0:0:
220,202,87034,2,0,B|226:260|226:260|235:246,1,74.7499965782167
143,129,87307,6,0,P|76:97|-5:117,1,149.499993156433,8|2,0:0|2:0,0:0:0:0:
61,213,87716,1,0,0:0:0:0:
61,213,87852,6,0,L|210:221,2,149.499993156433,4|0|8,3:0|0:0|0:0,0:0:0:0:
335,139,88671,5,0,0:0:0:0:
335,139,88807,1,0,0:0:0:0:
335,139,88943,6,0,P|355:171|384:193,1,74.7499965782167,4|0,0:3|0:0,0:0:0:0:
423,107,89216,2,0,B|400:73|400:73|369:57,1,74.7499965782167
198,77,89489,1,8,0:0:0:0:
210,221,89762,5,2,2:0:0:0:
210,221,89898,1,0,0:0:0:0:
210,221,90034,6,0,L|359:213,2,149.499993156433,4|0|8,3:0|0:0|0:0,0:0:0:0:
60,228,90716,1,0,0:0:0:0:
141,353,90852,1,4,3:0:0:0:
128,94,90989,5,8,0:0:0:0:
100,290,91125,1,4,3:0:0:0:
201,103,91262,5,8,0:0:0:0:
60,228,91398,1,0,0:0:0:0:
274,112,91534,5,0,0:0:0:0:
54,85,91671,2,0,B|12:81|-13:53|-13:53|11:82|12:121,1,149.499993156433,8|0,2:0|0:0,0:0:0:0:
274,112,92216,6,0,L|423:120,1,149.499993156433,4|0,3:0|0:0,0:0:0:0:
284,291,92762,2,0,L|276:142,1,149.499993156433,8|0,0:0|0:0,0:0:0:0:
55,85,93171,1,0,0:0:0:0:
55,85,93307,6,0,L|47:234,2,149.499993156433,4|0|8,3:0|0:0|0:0,0:0:0:0:
151,240,94125,2,0,L|77:236,1,74.7499965782167
169,216,94398,6,0,L|318:207,2,149.499993156433,4|0|8,3:0|0:0|0:0,0:0:0:0:
244,373,95216,2,0,L|249:299,1,74.7499965782167
237,123,95489,2,0,L|232:48,2,74.7499965782167,4|0|0,3:0|0:0|0:0,0:0:0:0:
249,299,96034,6,0,P|343:338|394:249,1,224.24998973465,8|0,0:0|0:0,0:0:0:0:
317,263,96580,6,0,L|325:114,1,149.499993156433,4|0,3:0|0:0,0:0:0:0:
184,40,97125,2,0,L|192:189,1,149.499993156433,8|0,0:0|0:0,0:0:0:0:
191,339,97534,1,0,0:0:0:0:
317,263,97671,6,0,L|466:271,1,149.499993156433,4|0,3:0|0:0,0:0:0:0:
192,189,98216,2,0,L|43:197,1,149.499993156433,8|0,0:0|0:0,0:0:0:0:
322,114,98625,1,0,0:0:0:0:
200,39,98762,6,0,L|192:188,1,149.499993156433,4|0,3:0|0:0,0:0:0:0:
466,255,99307,2,0,L|317:263,1,149.499993156433,8|0,0:0|0:0,0:0:0:0:
191,339,99716,5,0,0:0:0:0:
322,114,99852,1,4,3:0:0:0:
296,367,99989,5,0,0:0:0:0:
198,91,100125,2,0,B|157:62|115:59|115:59|128:77,1,112.124994867325
191,188,100398,6,2,L|200:360,1,172.5,10|0,0:0|0:0,0:0:0:0:
296,367,100943,6,0,P|330:346|352:313,1,80.499997543335,4|0,0:0|0:0,0:0:0:0:
310,190,101216,1,0,0:0:0:0:
318,29,101489,2,0,L|309:200,1,160.99999508667,8|0,0:0|0:0,0:0:0:0:
191,188,101898,1,0,0:0:0:0:
167,53,102034,6,0,P|64:10|9:106,1,241.499992630005,4|0,3:0|0:0,0:0:0:0:
100,251,102580,2,0,L|92:91,1,160.99999508667,8|0,0:0|0:0,0:0:0:0:
191,188,102989,1,0,0:0:0:0:
316,187,103125,6,0,P|418:144|473:240,1,241.499992630005,4|0,3:0|0:0,0:0:0:0:
391,225,103671,2,0,L|229:232,1,160.99999508667,8|0,0:0|0:0,0:0:0:0:
121,159,104216,6,0,L|202:155,1,80.499997543335,4|0,3:0|0:0,0:0:0:0:
201,155,104625,1,0,0:0:0:0:
274,312,104762,2,0,L|281:150,1,160.99999508667,8|0,0:0|0:0,0:0:0:0:
201,155,105307,6,0,P|156:146|122:116,1,92,4|0,0:0|0:0,0:0:0:0:
195,66,105580,1,0,0:0:0:0:
360,147,105716,1,0,0:0:0:0:
274,312,105852,6,0,L|182:309,1,92,8|0,0:0|0:0,0:0:0:0:
201,155,106125,1,0,0:0:0:0:
360,147,106262,1,0,0:0:0:0:
361,308,106398,6,0,P|317:321|273:311,1,92,4|0,3:0|0:0,0:0:0:0:
360,147,106671,1,0,0:0:0:0:
195,66,106807,1,0,0:0:0:0:
90,312,106943,6,0,L|181:309,1,92,8|0,0:0|0:0,0:0:0:0:
360,147,107216,1,0,0:0:0:0:
201,155,107352,1,0,0:0:0:0:
449,272,107489,6,0,P|409:302|360:307,1,100.625000959635,4|0,3:0|0:0,0:0:0:0:
122,121,107762,1,0,0:0:0:0:
360,147,107898,1,0,0:0:0:0:
359,307,108034,6,0,P|333:350|286:372,1,100.625000959635,8|0,0:0|0:0,0:0:0:0:
96,168,108307,5,0,0:0:0:0:
248,17,108443,1,8,0:0:0:0:
63,85,108580,5,4,3:0:0:0:
278,108,108716,1,8,0:0:0:0:
31,3,108852,5,0,0:0:0:0:
187,138,108989,1,0,0:0:0:0:
403,68,109125,2,0,L|410:240,1,172.500006580353,8|0,0:0|0:0,0:0:0:0:
296,256,109534,1,0,0:0:0:0:
287,371,109671,5,4,0:0:0:0:
512,342,118398,6,0,B|472:329|472:329|433:334,1,80.499997543335,4|0,0:0|0:0,0:0:0:0:
440,255,118671,1,0,0:0:0:0:
363,294,118807,6,0,B|284:319|284:319|206:309,1,160.99999508667
276,232,119216,1,0,0:0:0:0:
345,154,119352,6,0,B|267:144|267:144|189:170,1,160.99999508667
206,309,119762,1,0,0:0:0:0:
189,170,119898,1,0,0:0:0:0:
209,335,120034,6,0,P|135:354|77:302,1,160.99999508667
77,302,120580,6,0,L|83:221,1,80.499997543335
89,140,120852,1,0,0:0:0:0:
182,89,120989,6,0,L|188:169,1,80.499997543335
194,250,121261,1,0,0:0:0:0:
182,89,121398,1,0,0:0:0:0:
196,278,121534,6,0,B|275:303|275:303|353:294,1,160.99999508667
188,169,121943,1,0,0:0:0:0:
353,294,122080,1,0,0:0:0:0:
380,186,122216,6,0,P|373:146|373:105,2,80.499997543335
500,137,122762,6,0,L|488:297,1,160.99999508667
351,265,123171,6,0,L|339:105,1,160.99999508667
353,294,123580,1,0,0:0:0:0:
196,278,123716,6,0,B|189:200|189:200|113:167,1,160.99999508667
107,262,124125,1,0,0:0:0:0:
253,139,124262,1,0,0:0:0:0:
270,325,124398,6,0,P|345:336|397:278,1,160.99999508667
306,97,124943,6,0,L|318:257,1,160.99999508667
239,236,125352,6,0,L|161:215,2,80.499997543335
397,278,125762,1,0,0:0:0:0:
270,325,125898,6,0,L|194:353,2,80.499997543335
338,178,126307,1,0,0:0:0:0:
161,215,126443,1,0,0:0:0:0:
347,150,126580,6,0,B|409:118|470:153|470:153|461:123,1,160.99999508667
151,47,127125,6,0,L|156:131,1,83.3750025444031,4|0,0:0|0:0,0:0:0:0:
161,215,127398,1,0,0:0:0:0:
244,210,127534,6,0,L|328:205,1,83.3750025444031
412,200,127807,1,0,0:0:0:0:
161,215,127943,1,0,0:0:0:0:
332,122,128080,6,0,L|322:288,1,166.750005088806
238,293,128489,1,0,0:0:0:0:
317,38,128762,6,0,L|326:204,1,166.750005088806
161,215,129307,6,0,L|77:220,1,83.3750025444031
244,210,129580,1,0,0:0:0:0:
71,135,129716,6,0,L|155:130,1,83.3750025444031
239,126,129989,1,0,0:0:0:0:
244,210,130125,1,0,0:0:0:0:
234,42,130262,6,0,L|400:51,1,166.750005088806
404,134,130671,1,0,0:0:0:0:
239,126,130807,1,0,0:0:0:0:
408,217,130943,6,0,P|372:286|294:277,1,166.750005088806
294,277,131489,6,0,B|254:255|254:255|214:260,1,86.2500032901765
238,347,131762,1,0,0:0:0:0:
270,168,131898,6,0,B|275:128|275:128|253:88,1,86.2500032901765
183,143,132171,1,0,0:0:0:0:
362,111,132307,1,0,0:0:0:0:
294,277,132443,6,0,L|121:267,1,172.500006580353
209,245,132852,1,0,0:0:0:0:
202,72,132989,1,0,0:0:0:0:
209,245,133125,6,0,L|202:72,1,172.500006580353
202,72,133671,6,0,L|375:62,1,172.500006580353
466,167,134080,6,0,L|293:157,1,172.500006580353
207,152,134489,1,0,0:0:0:0:
216,324,134625,6,0,L|211:237,2,86.2500032901765
207,152,135034,1,0,0:0:0:0:
59,143,135171,1,0,0:0:0:0:
207,152,135307,6,0,L|380:162,1,172.500006580353
379,161,135852,6,0,P|384:203|384:249,1,89.1250006799698
297,354,136125,1,0,0:0:0:0:
264,177,136262,6,0,P|267:134|278:90,1,89.1250006799698
448,112,136534,1,0,0:0:0:0:
383,249,136671,1,0,0:0:0:0:
267,207,136807,6,0,B|194:187|120:194|120:194|154:216,1,178.25000135994
217,320,137216,2,0,P|178:343|133:346,1,89.1250006799698
122,195,137489,6,0,B|132:47|132:47|117:73,1,178.25000135994
243,190,138034,6,0,B|270:205|270:205|122:195,1,178.25000135994
254,74,138443,6,0,B|431:87,1,178.25000135994
443,263,138852,1,0,0:0:0:0:
443,263,138989,6,0,B|295:273|295:273|321:258,1,178.25000135994
233,197,139398,2,0,P|188:195|149:215,1,89.1250006799698
208,283,139671,6,0,B|194:105,1,178.25000135994
233,197,140216,6,0,B|417:213,1,184
483,102,140625,6,0,B|299:118,1,184
208,210,141034,1,0,0:0:0:0:
373,36,141171,6,0,B|189:52,1,184
6,130,141580,2,0,B|97:137,1,92
208,210,141852,6,0,B|392:194,1,184
215,301,142262,1,0,0:0:0:0:
98,138,142398,6,0,P|112:94|136:55,1,92
312,177,142671,6,0,B|340:175|357:156|357:156|363:181|391:194,1,103.499996841431
472,360,142943,6,0,P|429:376|383:383,1,92
215,301,143216,6,0,B|189:287|189:287|166:299|166:299|139:281|109:286,1,115
122,358,143489,5,0,0:0:0:0:
176,16,143625,1,0,0:0:0:0:
408,219,143762,6,0,B|437:224|437:224|455:205|455:205|486:214|513:200,1,115
66,136,144034,6,2,B|47:141|32:134|32:134|17:146|0:144,2,68.9999978942872,2|0|2,0:0|0:0|0:0,0:0:0:0:
215,301,144580,6,0,L|410:291,1,195.500003728867,4|0,0:0|0:0,0:0:0:0:
109,285,144989,1,0,0:0:0:0:
157,142,145125,6,0,L|254:147,1,97.7500018644333,8|0,0:0|0:0,0:0:0:0:
410,290,145398,1,0,0:0:0:0:
336,93,145534,6,0,P|300:60|253:48,2,97.7500018644333,0|4|0,0:0|3:0|0:0,0:0:0:0:
410,290,145943,6,0,L|215:280,2,195.500003728867,0|8|0,0:0|0:0|0:0,0:0:0:0:
311,314,146625,1,0,0:0:0:0:
336,93,146762,6,0,L|239:98,1,97.7500018644333,4|0,3:0|0:0,0:0:0:0:
68,193,147034,1,0,0:0:0:0:
201,336,147171,5,0,0:0:0:0:
175,23,147307,1,8,0:0:0:0:
134,263,147443,2,0,P|92:288|43:291,1,97.7500018644333
148,125,147716,6,0,P|193:108|241:113,2,97.7500018644333,0|4|0,0:0|3:0|0:0,0:0:0:0:
214,279,148125,6,0,L|409:269,2,195.500003728867,0|8|0,0:0|0:0|0:0,0:0:0:0:
260,346,148943,6,0,P|168:347|133:262,1,195.500003728867,4|0,3:0|0:0,0:0:0:0:
191,101,149352,1,0,0:0:0:0:
308,217,149489,6,0,B|354:230|354:230|389:196,1,97.7500018644333,8|0,0:0|0:0,0:0:0:0:
103,161,149762,1,0,0:0:0:0:
377,104,149898,6,0,B|423:90|423:90|458:124,2,97.7500018644333,0|4|0,0:0|3:0|0:0,0:0:0:0:
214,258,150307,6,0,L|409:268,2,195.500003728867,0|8|0,0:0|0:0|0:0,0:0:0:0:
314,171,150989,1,0,0:0:0:0:
482,218,151125,6,0,P|493:297|388:355,1,195.500003728867,4|0,3:0|0:0,0:0:0:0:
214,258,151534,1,0,0:0:0:0:
402,85,151671,6,0,L|499:80,2,97.7500018644333,8|0|0,0:0|0:0|0:0,0:0:0:0:
214,258,152080,6,0,L|117:253,2,97.7500018644333,0|4|0,0:0|3:0|0:0,0:0:0:0:
409,247,152489,6,0,L|214:257,2,195.500003728867,0|8|0,0:0|0:0|0:0,0:0:0:0:
302,82,153307,6,0,L|107:72,1,195.500003728867,4|0,0:0|0:0,0:0:0:0:
160,341,153716,1,0,0:0:0:0:
312,252,153852,6,0,P|354:229|403:225,1,97.7500018644333,8|0,0:0|0:0,0:0:0:0:
387,343,154125,1,0,0:0:0:0:
200,233,154262,6,0,P|152:223|112:196,2,97.7500018644333,0|4|0,0:0|3:0|0:0,0:0:0:0:
302,82,154671,6,0,L|107:92,2,195.500003728867,0|8|0,0:0|0:0|0:0,0:0:0:0:
179,56,155352,1,0,0:0:0:0:
106,216,155489,6,0,P|151:234|200:232,1,97.7500018644333,4|0,3:0|0:0,0:0:0:0:
310,2,155762,1,0,0:0:0:0:
454,211,155898,5,0,0:0:0:0:
135,328,156034,1,8,0:0:0:0:
204,76,156171,6,0,L|301:81,1,97.7500018644333
105,215,156443,2,0,P|57:218|16:242,2,97.7500018644333,0|4|0,0:0|3:0|0:0,0:0:0:0:
106,92,156852,6,0,L|301:102,2,195.500003728867,0|8|0,0:0|0:0|0:0,0:0:0:0:
323,202,157671,6,0,P|373:171|377:39,1,195.500003728867,4|0,3:0|0:0,0:0:0:0:
273,351,158080,1,0,0:0:0:0:
151,230,158216,6,0,B|105:215|105:215|63:242,1,97.7500018644333,8|0,0:0|0:0,0:0:0:0:
119,313,158489,1,0,0:0:0:0:
385,288,158625,6,0,B|340:303|340:303|298:276,2,97.7500018644333,0|4|0,0:0|3:0|0:0,0:0:0:0:
301,102,159034,6,0,L|106:112,2,195.500003728867,0|8|0,0:0|0:0|0:0,0:0:0:0:
208,202,159716,1,0,0:0:0:0:
334,332,159852,6,0,P|351:283|349:231,1,103.499996841431,4|0,3:0|0:0,0:0:0:0:
205,336,160125,1,0,0:0:0:0:
89,261,160262,6,0,P|72:213|72:162,2,103.499996841431,0|8|0,0:0|0:0|0:0,0:0:0:0:
183,349,160671,5,4,3:0:0:0:
200,8,160807,1,8,0:0:0:0:
330,373,160943,5,4,3:0:0:0:
296,40,161080,1,8,0:0:0:0:
483,180,161216,6,0,B|473:153|478:128|478:128|492:107|492:80,1,103.499996841431
397,202,161489,6,2,B|408:243|407:272|407:272|400:258,2,86.2500032901765,2|0|2,0:0|0:0|0:0,0:0:0:0:
41,283,162034,6,0,L|270:304,1,230,4|0,0:0|0:0,0:0:0:0:
406,43,162580,6,0,L|176:64,1,230,8|0,0:0|0:0,0:0:0:0:
156,294,163125,6,0,L|134:64,2,230,4|0|8,3:0|0:0|0:0,0:0:0:0:
368,384,163943,5,0,0:0:0:0:
405,42,164216,6,0,L|384:271,2,230,4|0|8,3:0|0:0|0:0,0:0:0:0:
384,271,165034,6,0,L|269:281,2,115,0|0|4,0:0|0:0|3:0,0:0:0:0:
156,294,165580,6,0,L|41:283,1,115
202,192,165852,6,0,L|432:171,1,230,8|0,0:0|0:0,0:0:0:0:
499,325,166398,6,0,L|270:304,1,230,4|0,0:0|0:0,0:0:0:0:
42,172,166943,6,0,L|272:151,1,230,8|0,0:0|0:0,0:0:0:0:
434,132,167489,6,0,P|463:237|384:315,2,230,4|0|8,3:0|0:0|0:0,0:0:0:0:
360,210,168307,5,0,0:0:0:0:
162,280,168580,6,0,L|141:50,1,230,4|0,3:0|0:0,0:0:0:0:
261,245,168989,6,0,L|346:253,1,86.25
346,253,169125,6,0,L|367:23,1,230,8|0,0:0|0:0,0:0:0:0:
141,50,169534,6,0,B|136:75|150:91|150:91|142:109|149:133,1,86.25
149,132,169671,6,0,L|170:362,1,230,4|0,3:0|0:0,0:0:0:0:
338,377,170080,1,0,0:0:0:0:
338,377,170216,6,0,L|359:147,1,230,8|0,0:0|0:0,0:0:0:0:
370,29,170762,6,0,L|140:50,1,230,4|0,0:0|0:0,0:0:0:0:
378,266,171307,6,0,P|407:158|347:63,1,230,8|0,0:0|0:0,0:0:0:0:
491,333,171852,6,0,P|382:305|288:365,1,230,4|0,3:0|0:0,0:0:0:0:
26,217,172398,6,0,P|121:277|229:248,1,230,8|0,0:0|0:0,0:0:0:0:
139,149,172807,1,0,0:0:0:0:
49,50,172943,6,0,P|156:20|251:80,1,230,4|0,3:0|0:0,0:0:0:0:
505,141,173489,6,0,P|398:111|304:171,1,230,8|0,0:0|0:0,0:0:0:0:
289,366,174034,6,0,B|104:381|104:381|137:351,1,230,4|0,3:0|0:0,0:0:0:0:
158,20,174443,1,0,0:0:0:0:
303,171,174580,6,0,P|221:247|109:239,1,230,8|0,0:0|0:0,0:0:0:0:
457,380,175125,6,0,B|428:185|428:185|423:216|404:235,1,253.000007720947,4|0,0:0|0:0,0:0:0:0:
208,192,175671,6,0,B|223:-4|223:-4|242:20|243:47,1,253.000007720947,8|0,0:0|0:0,0:0:0:0:
295,244,176216,6,0,P|169:284|112:168,1,253.000007720947,4|0,0:0|0:0,0:0:0:0:
440,368,176762,6,0,P|322:359|295:244,1,253.000007720947,8|0,0:0|0:0,0:0:0:0:
405,16,177171,1,0,0:0:0:0:
251,47,177307,6,0,L|0:24,1,253.000007720947,4|0,0:0|0:0,0:0:0:0:
512,314,177852,6,0,L|261:337,1,253.000007720947,8|0,0:0|0:0,0:0:0:0:
70,156,178262,6,0,B|60:183|60:183|65:212,1,57.5
142,194,178398,6,0,B|252:227|228:140|327:171|327:171|323:177|324:184,1,206.999993682861,4|0,3:0|0:0,0:0:0:0:
434,384,178943,5,2,0:0:0:0:
416,192,179080,1,0,0:0:0:0:
398,0,179216,1,2,0:0:0:0:
65,212,179489,5,4,0:0:0:0:
256,192,179625,12,4,181671,3:0:0:0:
