osu file format v14

[General]
AudioFilename: audio.mp3
AudioLeadIn: 0
PreviewTime: 27133
Countdown: 0
SampleSet: None
StackLeniency: 0.4
Mode: 0
LetterboxInBreaks: 0
WidescreenStoryboard: 0

[Editor]
Bookmarks: 30509
DistanceSpacing: 1.4
BeatDivisor: 4
GridSize: 16
TimelineZoom: 1

[Metadata]
Title:HUNNIDDOLLA (SINAMAX)
TitleUnicode:HUNNIDDOLLA (SINAMAX)
Artist:MadeinTYO
ArtistUnicode:MadeinTYO
Creator:sonic8889
Version:waaaa
Source:
Tags:sinamax
BeatmapID:1573470
BeatmapSetID:746599

[Difficulty]
HPDrainRate:6
CircleSize:4
OverallDifficulty:9
ApproachRate:9.2
SliderMultiplier:2.7
SliderTickRate:1

[Events]
//Background and Video events
0,0,"1.jpg",0,0
//Break Periods
//Storyboard Layer 0 (Background)
//Storyboard Layer 1 (Fail)
//Storyboard Layer 2 (Pass)
//Storyboard Layer 3 (Foreground)
//Storyboard Sound Samples

[TimingPoints]
126,482.315112540193,4,2,0,23,1,0
606,482.315112540193,4,2,0,23,1,0
3982,-66.6666666666667,4,2,0,23,0,0
4946,-100,4,2,0,23,0,0
7840,-50,4,2,0,23,0,0
8805,-100,4,2,0,23,0,0
11699,-50,4,2,0,23,0,0
12663,-100,4,2,0,23,0,0
15437,-50,4,2,0,23,0,0
16040,-80,4,2,0,23,0,0
27615,-66.6666666666667,4,2,0,23,0,1
58529,463.320463320463,4,2,0,23,1,0
64783,480,4,2,0,23,1,0
66461,449.438202247191,4,2,0,23,1,0
66910,452.488687782805,4,2,0,23,1,0
112181,489.396411092985,4,2,0,23,1,0
112670,498.338870431894,4,2,0,23,1,0
113168,515.021459227468,4,2,0,23,1,0
114198,515.021459227468,4,2,0,23,1,0
127657,388.349514563107,4,2,0,23,1,0
128045,609.137055837563,4,2,0,23,1,0
128654,515.021459227468,4,2,0,23,1,0
129814,550.45871559633,4,2,0,23,1,0
131008,722.89156626506,4,2,0,23,1,0
132609,869.565217391304,4,2,0,23,1,0
134746,722.89156626506,4,2,0,23,1,0

[Colours]
Combo1 : 138,58,209
Combo2 : 126,197,247
Combo3 : 30,173,250
Combo4 : 163,135,245

[HitObjects]
138,245,126,6,0,P|108:191|113:132,1,67.5
115,118,367,1,0,0:0:0:0:
144,251,606,6,0,P|109:199|109:140,1,67.5
110,126,847,1,0,0:0:0:0:
144,251,1088,6,0,L|54:294,1,67.5
0,240,1329,2,0,L|90:197,1,67.5
144,251,1570,1,0,0:0:0:0:
152,259,2052,6,0,L|168:194,1,67.5
253,157,2294,2,0,L|237:222,1,67.5
152,259,2535,2,0,P|156:217|168:194,1,67.5
253,157,2776,2,0,P|249:199|237:222,1,67.5
148,333,3017,6,0,P|188:322|214:325,1,67.5
274,355,3258,2,0,P|307:357|339:347,1,67.5
435,251,3499,1,0,0:0:0:0:
443,259,3982,6,0,P|404:190|411:115,1,101.250003862381
413,97,4223,1,0,0:0:0:0:
452,266,4464,6,0,P|407:199|407:125,1,101.250003862381
409,107,4705,1,0,0:0:0:0:
452,266,4946,6,0,P|416:278|365:270,1,67.5
334,234,5187,1,0,0:0:0:0:
334,234,5308,1,0,0:0:0:0:
281,276,5429,5,0,0:0:0:0:
289,284,5911,6,0,L|273:219,1,67.5
188,182,6153,2,0,L|204:247,1,67.5
289,284,6394,2,0,P|285:242|273:219,1,67.5
188,182,6635,2,0,P|192:224|204:247,1,67.5
282,356,6876,6,0,P|240:350|217:337,1,67.5
150,338,7117,2,0,P|119:352|86:355,1,67.5
32,315,7358,1,0,0:0:0:0:
32,315,7840,6,0,P|76:234|69:145,1,135
66,124,8081,1,0,0:0:0:0:
22,324,8323,6,0,P|74:246|74:157,1,135
72,137,8564,1,0,0:0:0:0:
22,324,8805,6,0,P|77:303|103:266,1,67.5
122,243,9046,2,0,P|149:224|182:216,1,67.5
243,245,9287,1,0,0:0:0:0:
251,253,9769,6,0,L|267:188,1,67.5
352,151,10011,2,0,L|336:216,1,67.5
251,253,10252,2,0,P|255:211|267:188,1,67.5
352,151,10493,2,0,P|348:193|336:216,1,67.5
248,341,10734,6,0,P|286:323|312:322,1,67.5
374,345,10975,2,0,P|407:341|437:326,1,67.5
458,261,11216,1,0,0:0:0:0:
458,261,11699,6,0,P|413:180|420:91,1,135
424,70,11940,1,0,0:0:0:0:
468,270,12182,6,0,P|415:192|415:103,1,135
418,83,12423,1,0,0:0:0:0:
468,270,12663,6,0,P|427:275|392:298,1,67.5
335,286,12905,2,0,P|304:271|271:268,1,67.5
209,296,13146,1,0,0:0:0:0:
217,304,13628,6,0,L|201:239,1,67.5
116,202,13870,2,0,L|132:267,1,67.5
217,304,14111,2,0,P|213:262|201:239,1,67.5
116,202,14352,2,0,P|120:244|132:267,1,67.5
215,378,14593,6,0,P|184:361|133:378,1,67.5
86,374,14834,2,0,P|52:376|23:360,1,67.5
27,118,15075,6,0,B|19:153|51:177|51:177|66:140|45:114,1,135
21,39,15437,2,0,B|167:36|183:174|183:174|168:203|168:203|211:199|211:199|351:258|411:124,1,540
449,18,16040,6,0,P|481:68|479:115,1,84.375
486,175,16281,2,0,P|477:215|450:248,1,84.375
372,283,16522,2,0,P|380:241|368:202,1,84.375
303,150,16763,2,0,P|261:142|221:154,1,84.375
308,333,17004,2,0,P|372:283|368:202,1,168.75
367,202,17487,6,0,P|380:241|372:283,1,84.375
297,323,17728,2,0,P|260:303|236:268,1,84.375
174,210,17969,2,0,P|165:250|138:283,1,84.375
58,309,18210,2,0,P|66:349|93:382,1,84.375
177,380,18451,2,0,P|206:350|219:310,1,84.375
197,231,18692,2,0,P|167:201|127:188,1,84.375
96,384,18933,2,0,P|177:380|220:311,1,168.75
220,311,19416,6,0,L|378:248,1,112.5
428,227,19737,1,0,0:0:0:0:
252,89,19898,6,0,L|227:257,1,112.5
220,311,20219,1,0,0:0:0:0:
428,227,20380,5,0,0:0:0:0:
339,157,20540,1,0,0:0:0:0:
339,157,20863,6,0,P|361:216|317:300,1,112.5
270,341,21184,1,0,0:0:0:0:
248,124,21345,6,0,P|287:74|382:71,1,112.5
442,91,21666,1,0,0:0:0:0:
266,219,21827,5,0,0:0:0:0:
168,176,21987,1,0,0:0:0:0:
168,176,22310,5,0,0:0:0:0:
237,88,22470,1,0,0:0:0:0:
245,273,22631,5,0,0:0:0:0:
176,184,22791,1,0,0:0:0:0:
191,375,22953,6,0,L|275:245,1,112.5
189,240,23274,2,0,L|105:370,1,112.5
62,295,23596,5,0,0:0:0:0:
54,185,23757,2,0,P|66:228|54:319,1,112.5
62,295,24239,5,0,0:0:0:0:
154,231,24400,1,0,0:0:0:0:
52,183,24601,2,0,P|124:114|255:182,1,253.125
295,241,25083,5,0,0:0:0:0:
295,241,25204,2,0,P|376:241|428:178,1,168.75
428,43,25565,5,0,0:0:0:0:
428,43,25686,2,0,P|432:128|506:194,1,168.75
511,193,26048,1,0,0:0:0:0:
466,264,26168,1,0,0:0:0:0:
421,335,26289,1,0,0:0:0:0:
351,287,26409,6,0,L|246:199,1,84.375
266,315,26651,5,0,0:0:0:0:
266,315,26771,2,0,L|93:170,1,168.75
266,315,27133,6,0,P|261:269|293:336,1,253.125
205,211,27615,6,0,P|296:159|434:258,1,202.500007724762
411,212,27977,1,0,0:0:0:0:
409,353,28097,1,0,0:0:0:0:
377,353,28218,1,0,0:0:0:0:
336,217,28339,1,0,0:0:0:0:
304,217,28460,1,0,0:0:0:0:
257,351,28580,5,0,0:0:0:0:
257,351,29062,6,0,P|155:323|128:155,1,202.500007724762
112,204,29424,1,0,0:0:0:0:
134,64,29544,1,0,0:0:0:0:
166,64,29665,1,0,0:0:0:0:
207,198,29786,1,0,0:0:0:0:
239,198,29907,1,0,0:0:0:0:
270,60,30027,1,0,0:0:0:0:
302,60,30148,1,0,0:0:0:0:
343,194,30269,1,0,0:0:0:0:
375,194,30388,1,0,0:0:0:0:
405,57,30509,6,0,P|442:36|392:111,1,303.750011587143
334,87,30991,2,0,P|376:166|213:273,1,303.750011587143
123,112,31474,6,0,P|216:158|212:328,1,202.500007724762
236,282,31836,1,0,0:0:0:0:
110,217,31956,1,0,0:0:0:0:
142,217,32077,1,0,0:0:0:0:
183,351,32198,1,0,0:0:0:0:
211,351,32319,1,0,0:0:0:0:
244,215,32438,5,0,0:0:0:0:
244,215,32921,6,0,P|343:248|459:125,1,202.500007724762
444,174,33283,1,0,0:0:0:0:
419,35,33403,1,0,0:0:0:0:
387,35,33524,1,0,0:0:0:0:
346,169,33645,1,0,0:0:0:0:
318,169,33766,1,0,0:0:0:0:
289,31,33885,1,0,0:0:0:0:
257,31,34006,1,0,0:0:0:0:
216,165,34127,1,0,0:0:0:0:
188,165,34248,1,0,0:0:0:0:
155,27,34368,1,0,0:0:0:0:
