osu file format v14

[General]
AudioFilename: audio.mp3
AudioLeadIn: 0
PreviewTime: -1
Countdown: 1
SampleSet: Normal
StackLeniency: 0.7
Mode: 2
LetterboxInBreaks: 0
WidescreenStoryboard: 1

[Editor]
DistanceSpacing: 1.3
BeatDivisor: 4
GridSize: 32
TimelineZoom: 1

[Metadata]
Title:Nightcore - Old Doll
TitleUnicode:Nightcore - Old Doll
Artist:Mad Father
ArtistUnicode:Mad Father
Creator:sczer
Version:Cup
Source:Mad Father
Tags:Creepy Music_Box Nightcore Mad_Father
BeatmapID:1648673
BeatmapSetID:785413

[Difficulty]
HPDrainRate:2
CircleSize:2.5
OverallDifficulty:4
ApproachRate:4
SliderMultiplier:1.4
SliderTickRate:1

[Events]
//Background and Video events
0,0,"bg.jpg",0,0
//Break Periods
2,77599,78734
//Storyboard Layer 0 (Background)
//Storyboard Layer 1 (Fail)
//Storyboard Layer 2 (Pass)
//Storyboard Layer 3 (Foreground)
//Storyboard Sound Samples

[TimingPoints]
807,530.973451327434,4,1,0,5,1,0
7178,-83.3333333333333,4,1,0,5,0,1
19889,530.973451327434,4,1,0,5,1,0
32665,530.973451327434,4,1,0,5,1,0
45408,-83.3333333333333,4,1,0,5,0,1
54302,-83.3333333333333,4,1,0,5,0,1
71027,-100,4,1,0,5,0,0

[Colours]
Combo1 : 64,0,128
Combo2 : 0,0,160

[HitObjects]
96,320,807,5,0,0:0:0:0:
282,320,1337,6,0,L|378:320,2,70
127,322,2399,1,0,0:0:0:0:
256,320,2930,2,0,L|323:273,1,70
352,352,3461,2,0,L|384:288,1,70
288,256,3992,5,0,0:0:0:0:
256,155,4523,2,0,L|307:99,1,70
372,152,5054,2,0,L|311:220,1,70
192,224,5585,1,0,0:0:0:0:
325,204,6116,2,0,L|416:203,1,70
384,288,6647,2,0,L|291:288,1,70
384,224,7178,6,0,L|287:223,1,83.9999974365235
256,224,7709,1,0,0:0:0:0:
384,224,8240,1,0,0:0:0:0:
224,320,8771,6,0,L|317:320,1,83.9999974365235
384,320,9302,2,0,L|384:263,1,41.9999987182618
192,256,9833,2,0,L|193:197,1,41.9999987182618
288,224,10364,6,0,L|394:224,1,83.9999974365235
416,224,10895,2,0,L|481:188,1,41.9999987182618
352,160,11426,2,0,L|352:112,1,41.9999987182618
160,192,11957,6,0,L|266:192,1,83.9999974365235
352,192,12488,2,0,L|353:142,1,41.9999987182618
328,196,13019,2,0,L|380:196,1,41.9999987182618
282,193,13550,6,0,P|273:234|214:231,1,83.9999974365235
147,230,14081,1,0,0:0:0:0:
320,224,14612,1,0,0:0:0:0:
227,244,15143,6,0,L|314:316,1,83.9999974365235
314,218,15674,2,0,L|359:197,1,41.9999987182618
328,200,16205,2,0,L|378:199,1,41.9999987182618
384,192,16736,6,0,L|274:193,1,83.9999974365235
224,192,17267,2,0,L|183:191,1,41.9999987182618
96,192,17798,2,0,L|36:192,1,41.9999987182618
128,288,18329,6,0,L|240:285,1,83.9999974365235
320,288,18860,2,0,L|321:226,1,41.9999987182618
160,224,19391,2,0,L|161:161,1,41.9999987182618
288,192,19889,5,0,0:0:0:0:
185,204,20419,2,0,L|93:203,1,70
263,209,20950,2,0,L|264:172,1,35
343,253,21481,6,0,L|465:253,1,105
410,191,22012,1,0,0:0:0:0:
320,192,22278,2,0,L|256:192,2,35
224,192,22809,2,0,L|160:192,1,35
64,160,23074,2,0,L|152:160,1,70
224,160,23605,1,0,0:0:0:0:
236,115,24136,6,0,L|178:183,1,70
260,116,24800,1,0,0:0:0:0:
110,114,25331,1,0,0:0:0:0:
260,116,25862,1,0,0:0:0:0:
384,128,26260,6,0,L|293:125,1,70
258,191,26924,1,0,0:0:0:0:
92,193,27322,2,0,L|180:191,1,70
258,191,27853,2,0,L|343:192,1,70
320,128,28384,2,0,L|321:87,1,35
266,154,28981,2,0,L|201:115,1,70
122,176,29446,6,0,P|170:224|223:237,1,105
320,192,30375,1,0,0:0:0:0:
318,241,30641,1,0,0:0:0:0:
434,332,31172,2,0,L|320:320,1,105
256,288,31703,2,0,L|160:288,1,70
40,187,32101,2,0,L|132:186,1,70
221,191,32665,6,0,L|318:189,1,70
398,198,33195,2,0,L|399:105,1,70
314,109,33726,2,0,L|189:108,1,105
181,180,34257,2,0,L|49:217,1,105
204,254,35054,1,0,0:0:0:0:
297,257,35319,1,0,0:0:0:0:
384,192,35850,2,0,L|270:195,1,105
289,205,36381,6,0,L|149:125,1,140
163,123,36912,2,0,L|352:64,1,175
320,64,37709,2,0,L|361:200,1,140
288,256,38505,1,0,0:0:0:0:
352,192,38771,1,0,0:0:0:0:
445,173,39169,6,0,L|389:259,1,70
368,277,39567,1,0,0:0:0:0:
252,274,40098,1,0,0:0:0:0:
192,256,40629,2,0,L|112:257,1,70
128,320,41160,5,0,0:0:0:0:
288,320,41757,1,0,0:0:0:0:
192,256,42222,2,0,L|126:260,1,35
207,259,43284,2,0,L|128:262,1,70
256,192,43815,12,0,44877,0:0:0:0:
128,198,45408,6,0,L|288:192,1,136.499993751526
315,192,46072,2,0,L|386:266,2,90.9999958343508
288,288,47001,1,0,0:0:0:0:
160,288,47532,1,0,0:0:0:0:
272,276,48063,1,0,0:0:0:0:
320,256,48594,2,0,B|271:259|219:234|177:203|109:199|108:199,1,181.999991668702
320,128,49722,6,0,L|215:126,1,90.9999958343508
165,184,50253,2,0,B|190:250|300:266|348:207|450:301,1,318.499985420228
256,256,51780,2,0,B|273:258|273:258|343:147|343:147|388:266|388:266|375:275,1,251.999992309571
448,224,52841,2,0,L|438:327,1,90.9999958343508
430,207,53372,2,0,P|296:301|204:167,1,363.999983337403
288,128,54965,6,0,B|160:288|160:288|64:256,1,293.999991027832
160,256,56160,1,0,0:0:0:0:
256,256,56558,2,0,L|384:128,2,167.999994873047
288,160,58151,6,0,L|216:328,1,167.999994873047
163,318,58815,1,0,0:0:0:0:
288,320,59213,1,0,0:0:0:0:
160,320,59877,1,0,0:0:0:0:
320,320,60408,1,0,0:0:0:0:
242,314,61072,2,0,L|332:204,2,136.499993751526
224,160,62399,6,0,L|207:274,1,90.9999958343508
192,224,62797,2,0,L|384:256,2,167.999994873047
352,160,64523,2,0,P|134:124|2:145,1,318.499985420228
96,192,65718,2,0,L|219:216,1,90.9999958343508
192,288,66116,2,0,L|316:316,1,90.9999958343508
409,220,67178,5,0,0:0:0:0:
297,233,67576,2,0,L|160:248,3,136.499993751526
249,137,69434,2,0,B|469:313|384:160|384:160|256:288,1,419.999987182618
256,192,71160,12,0,72222,0:0:0:0:
256,192,72753,12,0,73815,0:0:0:0:
128,160,74346,6,0,L|192:256,1,105
128,160,75010,2,0,L|192:256,1,105
256,256,75541,1,0,0:0:0:0:
64,192,76204,6,0,L|160:256,1,105
64,192,76868,2,0,L|64:96,1,87.5
160,96,77399,1,0,0:0:0:0:
98,192,80054,5,0,0:0:0:0:
320,192,80585,1,0,0:0:0:0:
163,193,81116,1,0,0:0:0:0:
256,192,81647,1,0,0:0:0:0:
108,198,82311,6,0,L|137:275,1,70
211,235,82709,1,0,0:0:0:0:
297,188,82974,1,0,0:0:0:0:
160,224,83240,2,0,L|224:256,1,70
320,320,83771,1,0,0:0:0:0:
257,291,84036,2,0,B|208:377|208:377|30:357,1,245
41,163,86293,6,0,L|140:194,1,70
194,252,86957,1,0,0:0:0:0:
304,298,87488,1,0,0:0:0:0:
389,279,88018,2,0,L|448:199,2,70
300,143,89611,5,0,0:0:0:0:
160,160,90408,2,0,L|256:160,1,70
320,160,90939,1,0,0:0:0:0:
399,184,91204,6,0,L|402:298,1,105
343,288,91735,2,0,L|235:294,1,105
176,290,92266,2,0,L|224:192,1,105
252,139,92797,6,0,L|329:190,1,70
352,160,93328,2,0,L|292:216,1,70
281,253,93859,2,0,L|210:302,1,70
142,274,94390,2,0,P|93:208|120:138,1,140
227,106,95187,5,0,0:0:0:0:
320,128,95452,2,0,L|354:174,1,35
384,224,95718,2,0,L|234:303,1,140
182,294,96514,1,0,0:0:0:0:
120,242,97045,2,0,L|172:124,1,105
215,100,97576,2,0,L|431:110,1,210
320,192,99169,6,0,L|404:226,1,70
280,242,99833,2,0,L|282:310,1,35
320,320,100231,2,0,L|395:292,1,70
352,224,100762,2,0,L|229:269,1,105
85,175,101824,6,0,L|106:270,1,70
169,265,102355,2,0,L|238:268,1,70
256,192,103417,12,0,105010,0:0:0:0:
256,192,105408,12,0,106072,0:0:0:0:
160,288,106735,6,0,L|320:288,1,140
384,288,107665,6,0,L|128:224,1,245
416,192,109788,2,0,L|224:224,1,175
64,224,110850,2,0,L|352:320,1,280
