osu file format v14

[General]
AudioFilename: audio.mp3
AudioLeadIn: 0
PreviewTime: -1
Countdown: 0
SampleSet: Normal
StackLeniency: 0.4
Mode: 0
LetterboxInBreaks: 0
WidescreenStoryboard: 0

[Editor]
Bookmarks: 82389,87874
DistanceSpacing: 1.8
BeatDivisor: 4
GridSize: 32
TimelineZoom: 1.6

[Metadata]
Title:Make Me Feel
TitleUnicode:Make Me Feel
Artist:Macky Gee
ArtistUnicode:Macky Gee
Creator:Rdzeniu
Version:Cheeto
Source:
Tags:
BeatmapID:2054896
BeatmapSetID:981830

[Difficulty]
HPDrainRate:5
CircleSize:4
OverallDifficulty:8
ApproachRate:10
SliderMultiplier:2.6
SliderTickRate:1

[Events]
//Background and Video events
0,0,"maxresdefault.jpg",0,0
//Break Periods
//Storyboard Layer 0 (Background)
//Storyboard Layer 1 (Fail)
//Storyboard Layer 2 (Pass)
//Storyboard Layer 3 (Foreground)
//Storyboard Sound Samples

[TimingPoints]
82389,342.857142857143,4,2,0,70,1,0
82389,-200,4,2,0,70,0,0
82731,-142.857142857143,4,2,0,70,0,0
83417,-200,4,2,0,70,0,0
84446,-142.857142857143,4,2,0,70,0,0
84789,-200,4,2,0,70,0,0
85474,-133.333333333333,4,2,0,70,0,0
85817,-200,4,2,0,70,0,0
86160,-133.333333333333,4,2,0,70,0,0
87189,-100,4,2,0,70,0,0
87874,-50,4,1,0,70,0,0
89246,-66.6666666666667,4,1,0,70,0,0
89589,-50,4,1,0,70,0,0
89931,-55.5555555555556,4,1,0,70,0,0
90617,-55.5555555555556,4,1,0,70,0,0
90960,-55.5555555555556,4,1,0,70,0,0
93360,-50,4,1,0,70,0,0
94731,-55.5555555555556,4,1,0,70,0,0
95074,-50,4,1,0,70,0,0
96103,-55.5555555555556,4,1,0,70,0,0
104331,-50,4,1,0,70,0,0
107074,-55.5555555555556,4,1,0,70,0,0

[HitObjects]
102,52,82389,6,0,L|64:138,1,65
209,82,82731,2,0,L|158:193,1,90.9999972229005
340,164,83074,2,0,L|303:82,1,90.9999972229005
436,111,83417,2,0,L|410:52,1,65
256,173,83760,1,0,0:0:0:0:
256,173,84103,1,0,0:0:0:0:
210,271,84446,2,0,L|300:269,1,90.9999972229005
224,368,84789,2,0,L|288:368,1,65
469,218,85131,6,0,L|459:318,1,97.5
396,357,85474,2,0,L|383:298,1,48.750001859665
298,282,85646,2,0,L|287:234,1,48.750001859665
315,106,85817,2,0,P|361:91|419:98,1,97.5
433,152,86160,2,0,P|367:178|279:152,1,146.250005578995
266,118,86503,1,0,0:0:0:0:
255,296,86674,1,0,0:0:0:0:
197,173,86846,1,0,0:0:0:0:
186,351,87017,1,0,0:0:0:0:
179,89,87189,6,0,P|87:81|49:180,1,195,4|0,0:0|0:0,0:0:0:0:
199,286,87531,2,0,P|207:194|108:156,1,195,4|0,0:0|0:0,0:0:0:0:
39,359,87874,6,0,B|107:341|107:341|366:341|366:341|448:318,1,390
484,224,88217,2,0,B|415:241|415:241|157:242|157:242|74:264,1,390
26,165,88560,2,0,B|84:149|84:149|342:149|342:149|411:131,1,390
475,32,88903,2,0,B|406:49|406:49|147:50|147:50|89:65,1,390
98,257,89246,2,0,P|109:166|88:60,1,195.00000743866,8|0,0:0|0:0,0:0:0:0:
16,68,89589,2,0,P|111:168|378:110,1,390
331,54,89931,2,0,P|321:234|456:347,1,350.999989288331
475,252,90274,5,0,0:0:0:0:
18,314,90446,1,0,0:0:0:0:
157,86,90617,6,0,L|176:202,1,116.999996429444
231,119,90789,2,0,L|199:232,1,116.999996429444
165,356,90960,6,0,B|339:342|339:342|306:159,1,350.999989288331
347,28,91303,2,0,B|173:42|173:42|206:225,1,350.999989288331
308,371,91646,2,0,B|421:238|421:238|268:131,1,350.999989288331
204,10,91989,2,0,B|90:142|90:142|243:249,1,350.999989288331
419,281,92331,2,0,B|405:107|405:107|222:140,1,350.999989288331
90,100,92674,2,0,B|104:274|104:274|287:241,1,350.999989288331
212,81,93017,6,0,B|176:127|176:127|182:205,1,116.999996429444
340,186,93189,2,0,B|344:127|344:127|308:81,1,116.999996429444
39,25,93360,6,0,B|107:42|107:42|366:43|366:43|448:65,1,390
484,160,93703,2,0,B|415:142|415:142|157:142|157:142|74:119,1,390
26,219,94046,2,0,B|84:234|84:234|342:234|342:234|411:252,1,390
475,352,94389,2,0,B|406:334|406:334|148:334|148:334|89:318,1,390
80,90,94732,2,0,P|108:216|87:322,1,233.999992858887
16,316,95075,2,0,P|111:216|378:274,1,390
331,330,95417,2,0,P|321:150|456:37,1,350.999989288331
449,234,95760,6,0,B|403:270|403:270|344:265,1,116.999996429444
344,106,95932,2,0,B|403:102|403:102|449:138,1,116.999996429444
347,356,96103,6,0,B|173:342|173:342|204:168,1,350.999989288331
165,28,96446,2,0,B|339:42|339:42|307:215,1,350.999989288331
204,371,96789,2,0,B|91:238|91:238|235:136,1,350.999989288331
308,10,97132,2,0,B|422:142|422:142|277:243,1,350.999989288331
93,281,97474,2,0,B|123:205|107:107|107:107|195:146|276:138,1,350.99998928833
422,100,97817,2,0,B|388:179|408:274|408:274|324:233|234:242,1,350.99998928833
93,281,98160,2,0,B|123:205|107:107|107:107|195:146|280:138,1,350.99998928833
422,100,98503,2,0,B|388:179|408:274|408:274|378:257|334:248,1,233.999992858887
74,358,98846,5,0,0:0:0:0:
485,340,99017,1,0,0:0:0:0:
69,28,99189,6,0,B|116:89|116:89|156:376,1,350.99998928833
226,353,99531,2,0,B|212:79|212:79|171:15,1,350.99998928833
273,10,99874,2,0,B|308:78|308:78|298:367,1,350.99998928833
370,355,100217,2,0,B|404:84|404:84|375:13,1,350.99998928833
273,10,100560,2,0,B|237:78|237:78|247:352,1,350.99998928833
370,355,100903,2,0,P|250:239|118:370,1,350.99998928833
247,352,101246,6,0,L|381:354,1,116.999996429443
400,240,101417,2,0,L|512:271,1,116.999996429443
463,364,101589,2,0,B|449:113|449:113|457:9,1,350.99998928833
385,12,101931,2,0,B|377:111|377:111|391:362,1,350.99998928833
320,361,102274,2,0,B|306:109|306:109|313:10,1,350.99998928833
242,11,102617,2,0,B|234:110|234:110|248:361,1,350.99998928833
177,361,102960,2,0,B|163:109|163:109|170:10,1,350.99998928833
98,9,103303,2,0,B|91:108|91:108|105:360,1,350.99998928833
33,359,103646,2,0,B|19:107|19:107|26:8,1,350.99998928833
98,9,103989,6,0,B|160:6|160:6|233:15,1,116.999996429443
212,115,104160,2,0,B|155:118|155:118|77:109,1,116.999996429443
311,53,104331,6,0,P|447:98|285:135,1,390
366,114,104674,2,0,P|502:159|340:196,1,390
297,177,105017,2,0,P|160:245|305:294,1,390
359,232,105360,2,0,P|496:300|351:349,1,390
297,177,105703,2,0,P|441:226|304:295,1,390
231,224,106046,2,0,P|86:273|223:341,1,390
359,232,106389,2,0,P|503:281|366:350,1,390
359,232,106731,6,0,L|215:197,1,130
167,280,106903,2,0,L|23:245,1,130
92,101,107074,6,0,B|106:275|106:275|289:242,1,350.999989288331
420,283,107417,2,0,B|406:109|406:109|223:142,1,350.999989288331
77,244,107760,2,0,B|210:357|210:357|317:204,1,350.999989288331
438,140,108103,2,0,B|306:26|306:26|199:179,1,350.999989288331
167,355,108445,6,0,B|318:347,1,116.999996429443
376,342,108617,2,0,B|527:334,1,116.999996429443
495,238,108788,2,0,L|119:258,1,350.99998928833
54,267,109131,2,0,L|58:135,1,116.999996429443
181,181,109303,2,0,L|184:297,1,116.999996429443
313,328,109474,2,0,L|309:196,1,116.999996429443
306,52,109646,5,0,0:0:0:0:
103,367,109817,1,0,0:0:0:0:
306,52,110160,6,0,B|11:50|11:50|34:108,1,350.99998928833
118,132,110503,2,0,B|413:134|413:134|392:81,1,350.99998928833
306,50,110846,2,0,B|304:345|304:345|362:322,1,350.99998928833
393,235,111188,2,0,B|98:233|98:233|118:285,1,350.99998928833
206,314,111531,2,0,B|501:316|501:316|480:263,1,350.99998928833
393,235,111874,2,0,L|441:-1,1,233.999992858887
160,122,112217,2,0,B|164:183|164:183|205:286,1,116.999996429443
319,199,112388,2,0,B|315:144|315:144|288:86,1,116.999996429443
85,230,112560,6,0,B|217:343|217:343|319:198,1,350.999989288331
445,126,112903,2,0,B|312:12|312:12|212:157,1,350.999989288331
175,341,113246,2,0,B|348:326|348:326|319:152,1,350.999989288331
357,12,113589,2,0,B|183:24|183:24|214:198,1,350.999989288331
446,254,113931,2,0,B|450:79|450:79|273:92,1,350.999989288331
194,316,114274,2,0,B|369:337|369:337|374:163,1,350.999989288331
161,60,114617,2,0,B|120:232|120:232|293:255,1,350.999989288331
246,39,114960,2,0,L|219:162,1,116.999996429443
374,163,115131,2,0,L|401:40,1,116.999996429443
489,262,115303,6,0,L|115:256,1,350.99998928833
47,301,115646,2,0,L|421:295,1,350.99998928833
448,210,115988,2,0,L|74:204,1,350.99998928833
31,130,116331,2,0,L|405:124,1,350.99998928833
450,49,116674,2,0,L|76:43,1,350.99998928833
31,130,117017,2,0,L|405:124,1,350.99998928833
448,210,117360,2,0,L|74:204,1,350.99998928833
23,266,117703,5,0,0:0:0:0:
470,126,117874,1,0,0:0:0:0:
377,334,118046,6,0,B|336:235|336:235|348:119|348:119|242:221,1,350.99998928833
135,334,118388,2,0,B|176:235|176:235|164:119|164:119|270:221,1,350.99998928833
134,80,118731,2,0,B|175:179|175:179|163:295|163:295|254:206,1,350.99998928833
376,80,119074,2,0,B|335:179|335:179|347:295|347:295|255:206,1,350.99998928833
196,47,119417,6,0,B|256:41|256:41|315:47,1,116.999996429443
313,68,119588,2,0,B|256:73|256:73|196:67,1,116.999996429443
384,30,119760,6,0,L|374:383,1,350.99998928833
340,344,120103,2,0,L|346:172,1,116.999996429443
30,47,120531,6,0,P|61:82|76:30,2,116.999996429443
80,34,120703,5,0,0:0:0:0:
