osu file format v14

[General]
AudioFilename: audio.mp3
AudioLeadIn: 0
PreviewTime: 21932
Countdown: 0
SampleSet: Soft
StackLeniency: 0.2
Mode: 0
LetterboxInBreaks: 0
WidescreenStoryboard: 0

[Editor]
Bookmarks: 32945,43916,54888,65859,76831,87802,98773,109745,120716,131688
DistanceSpacing: 1
BeatDivisor: 4
GridSize: 4
TimelineZoom: 1

[Metadata]
Title:Black Widow
TitleUnicode:Black Widow
Artist:Macky Gee
ArtistUnicode:Macky Gee
Creator:Slips
Version:Allure
Source:
Tags:jump up dnb drum and n & bass 2014 remix iggy azalea
BeatmapID:1651921
BeatmapSetID:787009

[Difficulty]
HPDrainRate:6
CircleSize:4.2
OverallDifficulty:8.7
ApproachRate:9.4
SliderMultiplier:1.93
SliderTickRate:1

[Events]
//Background and Video events
0,0,"bwbby.png",0,0
//Break Periods
//Storyboard Layer 0 (Background)
//Storyboard Layer 1 (Fail)
//Storyboard Layer 2 (Pass)
//Storyboard Layer 3 (Foreground)
//Storyboard Sound Samples

[TimingPoints]
31,342.857142857143,4,1,1,60,1,0
21973,-62.5,4,2,1,60,0,0
22659,-434.782608695652,4,2,1,60,0,0
22916,-434.782608695652,4,2,1,5,0,0
23002,-434.782608695652,4,2,1,60,0,0
23259,-434.782608695652,4,2,1,5,0,0
23345,-100,4,2,1,60,0,0
24031,-434.782608695652,4,2,1,60,0,0
24288,-434.782608695652,4,2,1,5,0,0
24373,-434.782608695652,4,2,1,60,0,0
24631,-434.782608695652,4,2,1,5,0,0
24716,-62.5,4,2,1,60,0,0
25402,-434.782608695652,4,2,1,60,0,0
25659,-434.782608695652,4,2,1,5,0,0
25745,-434.782608695652,4,2,1,60,0,0
26002,-434.782608695652,4,2,1,5,0,0
26088,-100,4,2,1,60,0,0
27459,-62.5,4,2,1,60,0,0
28145,-434.782608695652,4,2,1,60,0,0
28402,-434.782608695652,4,2,1,5,0,0
28488,-434.782608695652,4,2,1,60,0,0
28745,-434.782608695652,4,2,1,5,0,0
28831,-100,4,2,1,60,0,0
29516,-434.782608695652,4,2,1,60,0,0
29773,-434.782608695652,4,2,1,5,0,0
29859,-434.782608695652,4,2,1,60,0,0
30116,-434.782608695652,4,2,1,5,0,0
30202,-62.5,4,2,1,60,0,0
30888,-434.782608695652,4,2,1,60,0,0
31145,-434.782608695652,4,2,1,5,0,0
31231,-434.782608695652,4,2,1,60,0,0
31488,-434.782608695652,4,2,1,5,0,0
31573,-100,4,2,1,60,0,0
32945,-100,4,2,1,60,0,0
33116,-100,4,2,1,5,0,0
33288,-100,4,2,1,60,0,0
33459,-100,4,2,1,5,0,0
33631,-100,4,2,1,60,0,0
33802,-100,4,2,1,5,0,0
33973,-100,4,2,1,60,0,0
34145,-100,4,2,1,5,0,0
34316,-62.5,4,2,1,60,0,0
35002,-100,4,2,1,60,0,0
35173,-100,4,2,1,5,0,0
35345,-100,4,2,1,60,0,0
35516,-100,4,2,1,5,0,0
35688,-100,4,2,1,60,0,0
37231,-100,4,2,1,5,0,0
37402,-100,4,2,1,60,0,0
37573,-100,4,2,1,5,0,0
37745,-100,4,2,1,60,0,0
38431,-62.5,4,2,1,60,0,0
39116,-100,4,2,1,60,0,0
39288,-100,4,2,1,5,0,0
39459,-100,4,2,1,60,0,0
39631,-100,4,2,1,5,0,0
39802,-62.5,4,2,1,60,0,0
40488,-100,4,2,1,60,0,0
40659,-100,4,2,1,5,0,0
40831,-100,4,2,1,60,0,0
41002,-100,4,2,1,5,0,0
41173,-100,4,2,1,60,0,0
42202,-62.5,4,2,1,60,0,0
42888,-666.666666666667,4,2,1,60,0,0
43745,-666.666666666667,4,2,1,5,0,0
43916,-666.666666666667,4,1,1,60,0,1
44173,-666.666666666667,4,1,1,5,0,1
44259,-50,4,1,1,60,0,1
44516,-50,4,1,1,5,0,1
44602,-52.6315789473684,4,1,1,60,0,1
44859,-52.6315789473684,4,1,1,5,0,1
44945,-55.5555555555556,4,1,1,60,0,1
45202,-55.5555555555556,4,1,1,5,0,1
45288,-58.8235294117647,4,1,1,60,0,1
45545,-58.8235294117647,4,1,1,5,0,1
45631,-62.5,4,1,1,60,0,1
45888,-62.5,4,1,1,5,0,1
45973,-52.6315789473684,4,1,1,60,0,1
46231,-52.6315789473684,4,1,1,5,0,1
46316,-62.5,4,1,1,60,0,1
46573,-62.5,4,1,1,5,0,1
46659,-666.666666666667,4,1,1,60,0,1
46916,-666.666666666667,4,1,1,5,0,1
47002,-666.666666666667,4,1,1,60,0,1
47345,-52.6315789473684,4,1,1,60,0,1
47602,-52.6315789473684,4,1,1,5,0,1
47688,-55.5555555555556,4,1,1,60,0,1
47945,-55.5555555555556,4,1,1,5,0,1
48031,-58.8235294117647,4,1,1,60,0,1
48288,-58.8235294117647,4,1,1,5,0,1
48373,-62.5,4,1,1,60,0,1
48631,-62.5,4,1,1,5,0,1
48716,-52.6315789473684,4,1,1,60,0,1
48888,-52.6315789473684,4,1,1,5,0,1
48973,-52.6315789473684,4,1,1,60,0,1
49059,-62.5,4,1,1,60,0,1
49316,-62.5,4,1,1,5,0,1
49402,-666.666666666667,4,1,1,60,0,1
49659,-666.666666666667,4,1,1,5,0,1
49745,-50,4,1,1,60,0,1
50002,-50,4,1,1,5,0,1
50088,-52.6315789473684,4,1,1,60,0,1
50345,-52.6315789473684,4,1,1,5,0,1
50431,-55.5555555555556,4,1,1,60,0,1
50688,-55.5555555555556,4,1,1,5,0,1
50773,-58.8235294117647,4,1,1,60,0,1
51031,-58.8235294117647,4,1,1,5,0,1
51116,-62.5,4,1,1,60,0,1
51373,-62.5,4,1,1,5,0,1
51459,-52.6315789473684,4,1,1,60,0,1
51716,-52.6315789473684,4,1,1,5,0,1
51802,-62.5,4,1,1,60,0,1
52059,-62.5,4,1,1,5,0,1
52145,-666.666666666667,4,1,1,60,0,1
52402,-666.666666666667,4,1,1,5,0,1
52488,-666.666666666667,4,1,1,60,0,1
52831,-52.6315789473684,4,1,1,60,0,1
53088,-52.6315789473684,4,1,1,5,0,1
53173,-55.5555555555556,4,1,1,60,0,1
53431,-55.5555555555556,4,1,1,5,0,1
53516,-58.8235294117647,4,1,1,60,0,1
53773,-58.8235294117647,4,1,1,5,0,1
53859,-62.5,4,1,1,60,0,1
54116,-62.5,4,1,1,5,0,1
54202,-52.6315789473684,4,1,1,60,0,1
54459,-52.6315789473684,4,1,1,60,0,1
54545,-52.6315789473684,4,1,1,60,0,1
54888,-666.666666666667,4,1,1,60,0,1
55145,-666.666666666667,4,1,1,5,0,1
55231,-50,4,1,1,60,0,1
55488,-50,4,1,1,5,0,1
55573,-52.6315789473684,4,1,1,60,0,1
55831,-52.6315789473684,4,1,1,5,0,1
55916,-55.5555555555556,4,1,1,60,0,1
56173,-55.5555555555556,4,1,1,5,0,1
56259,-58.8235294117647,4,1,1,60,0,1
56516,-58.8235294117647,4,1,1,5,0,1
56602,-62.5,4,1,1,60,0,1
56859,-62.5,4,1,1,5,0,1
56945,-52.6315789473684,4,1,1,60,0,1
57202,-52.6315789473684,4,1,1,5,0,1
57288,-62.5,4,1,1,60,0,1
57545,-62.5,4,1,1,5,0,1
57631,-666.666666666667,4,1,1,60,0,1
57888,-666.666666666667,4,1,1,5,0,1
57973,-666.666666666667,4,1,1,60,0,1
58316,-52.6315789473684,4,1,1,60,0,1
58573,-52.6315789473684,4,1,1,5,0,1
58659,-55.5555555555556,4,1,1,60,0,1
58916,-55.5555555555556,4,1,1,5,0,1
59002,-58.8235294117647,4,1,1,60,0,1
59259,-58.8235294117647,4,1,1,5,0,1
59345,-62.5,4,1,1,60,0,1
59602,-62.5,4,1,1,5,0,1
59688,-52.6315789473684,4,1,1,60,0,1
59859,-52.6315789473684,4,1,1,5,0,1
59945,-52.6315789473684,4,1,1,60,0,1
60031,-62.5,4,1,1,60,0,1
60288,-62.5,4,1,1,5,0,1
60373,-666.666666666667,4,1,1,60,0,1
60631,-666.666666666667,4,1,1,5,0,1
60716,-50,4,1,1,60,0,1
60973,-50,4,1,1,5,0,1
61059,-52.6315789473684,4,1,1,60,0,1
61316,-52.6315789473684,4,1,1,5,0,1
61402,-55.5555555555556,4,1,1,60,0,1
61659,-55.5555555555556,4,1,1,5,0,1
61745,-58.8235294117647,4,1,1,60,0,1
62002,-58.8235294117647,4,1,1,5,0,1
62088,-62.5,4,1,1,60,0,1
62345,-62.5,4,1,1,5,0,1
62431,-52.6315789473684,4,1,1,60,0,1
62688,-52.6315789473684,4,1,1,5,0,1
62773,-62.5,4,1,1,60,0,1
63031,-62.5,4,1,1,5,0,1
63116,-666.666666666667,4,1,1,60,0,1
63373,-666.666666666667,4,1,1,5,0,1
63459,-666.666666666667,4,1,1,60,0,1
63802,-52.6315789473684,4,1,1,60,0,1
64059,-52.6315789473684,4,1,1,5,0,1
64145,-55.5555555555556,4,1,1,60,0,1
64402,-55.5555555555556,4,1,1,5,0,1
64488,-45.4545454545455,4,1,1,60,0,1
65431,-100,4,1,1,60,0,1
65859,-666.666666666667,4,1,1,60,0,1
66116,-666.666666666667,4,1,1,5,0,1
66202,-50,4,1,1,60,0,1
66459,-50,4,1,1,5,0,1
66545,-52.6315789473684,4,1,1,60,0,1
66802,-52.6315789473684,4,1,1,5,0,1
66888,-55.5555555555556,4,1,1,60,0,1
67145,-55.5555555555556,4,1,1,5,0,1
67231,-58.8235294117647,4,1,1,60,0,1
67488,-58.8235294117647,4,1,1,5,0,1
67573,-62.5,4,1,1,60,0,1
67831,-62.5,4,1,1,5,0,1
67916,-52.6315789473684,4,1,1,60,0,1
68173,-52.6315789473684,4,1,1,5,0,1
68259,-62.5,4,1,1,60,0,1
68516,-62.5,4,1,1,5,0,1
68602,-666.666666666667,4,1,1,60,0,1
68859,-666.666666666667,4,1,1,5,0,1
68945,-666.666666666667,4,1,1,60,0,1
69288,-52.6315789473684,4,1,1,60,0,1
69545,-52.6315789473684,4,1,1,5,0,1
69631,-55.5555555555556,4,1,1,60,0,1
69888,-55.5555555555556,4,1,1,5,0,1
69973,-58.8235294117647,4,1,1,60,0,1
70231,-58.8235294117647,4,1,1,5,0,1
70316,-62.5,4,1,1,60,0,1
70573,-62.5,4,1,1,5,0,1
70659,-52.6315789473684,4,1,1,60,0,1
70831,-52.6315789473684,4,1,1,5,0,1
70916,-52.6315789473684,4,1,1,60,0,1
71002,-62.5,4,1,1,60,0,1
71259,-62.5,4,1,1,5,0,1
71345,-666.666666666667,4,1,1,60,0,1
71602,-666.666666666667,4,1,1,5,0,1
71688,-50,4,1,1,60,0,1
71945,-50,4,1,1,5,0,1
72031,-52.6315789473684,4,1,1,60,0,1
72288,-52.6315789473684,4,1,1,5,0,1
72373,-55.5555555555556,4,1,1,60,0,1
72631,-55.5555555555556,4,1,1,5,0,1
72716,-58.8235294117647,4,1,1,60,0,1
72973,-58.8235294117647,4,1,1,5,0,1
73059,-62.5,4,1,1,60,0,1
73316,-62.5,4,1,1,5,0,1
73402,-52.6315789473684,4,1,1,60,0,1
73659,-52.6315789473684,4,1,1,5,0,1
73745,-62.5,4,1,1,60,0,1
74002,-62.5,4,1,1,5,0,1
74088,-666.666666666667,4,1,1,60,0,1
74345,-666.666666666667,4,1,1,5,0,1
74431,-666.666666666667,4,1,1,60,0,1
74773,-52.6315789473684,4,1,1,60,0,1
75031,-52.6315789473684,4,1,1,5,0,1
75116,-55.5555555555556,4,1,1,60,0,1
75373,-55.5555555555556,4,1,1,5,0,1
75459,-58.8235294117647,4,1,1,60,0,1
75688,-58.8235294117647,4,1,1,5,0,1
75802,-62.5,4,1,1,60,0,1
76059,-62.5,4,1,1,5,0,1
76145,-52.6315789473684,4,1,1,60,0,1
76831,-434.782608695652,4,2,1,60,0,0
78202,-100,4,2,1,60,0,0
78373,-100,4,2,1,5,0,0
78545,-100,4,2,1,60,0,0
78716,-100,4,2,1,5,0,0
78888,-100,4,2,1,60,0,0
79573,-434.782608695652,4,2,1,60,0,0
80945,-100,4,2,1,60,0,0
81631,-100,4,2,1,60,0,0
81802,-100,4,2,1,5,0,0
81973,-100,4,2,1,60,0,0
82145,-100,4,2,1,5,0,0
82316,-434.782608695652,4,2,1,60,0,0
83345,-100,4,2,1,60,0,0
84545,-100,4,2,1,5,0,0
84716,-100,4,2,1,60,0,0
85059,-434.782608695652,4,2,1,60,0,0
87802,-666.666666666667,4,1,1,60,0,1
88059,-666.666666666667,4,1,1,5,0,1
88145,-50,4,1,1,60,0,1
88402,-50,4,1,1,5,0,1
88488,-52.6315789473684,4,1,1,60,0,1
88745,-52.6315789473684,4,1,1,5,0,1
88831,-55.5555555555556,4,1,1,60,0,1
89088,-55.5555555555556,4,1,1,5,0,1
89173,-58.8235294117647,4,1,1,60,0,1
89431,-58.8235294117647,4,1,1,5,0,1
89516,-62.5,4,1,1,60,0,1
89773,-62.5,4,1,1,5,0,1
89859,-52.6315789473684,4,1,1,60,0,1
89945,-52.6315789473684,4,1,1,5,0,1
90031,-55.5555555555556,4,1,1,60,0,1
90116,-55.5555555555556,4,1,1,5,0,1
90202,-62.5,4,1,1,60,0,1
90459,-62.5,4,1,1,5,0,1
90545,-666.666666666667,4,1,1,60,0,1
90802,-666.666666666667,4,1,1,5,0,1
90888,-666.666666666667,4,1,1,60,0,1
91231,-52.6315789473684,4,1,1,60,0,1
91488,-52.6315789473684,4,1,1,5,0,1
91573,-55.5555555555556,4,1,1,60,0,1
91831,-55.5555555555556,4,1,1,5,0,1
91916,-58.8235294117647,4,1,1,60,0,1
92002,-58.8235294117647,4,1,1,5,0,1
92088,-58.8235294117647,4,1,1,60,0,1
92173,-58.8235294117647,4,1,1,5,0,1
92259,-62.5,4,1,1,60,0,1
92516,-62.5,4,1,1,5,0,1
92602,-52.6315789473684,4,1,1,60,0,1
92773,-52.6315789473684,4,1,1,5,0,1
92859,-52.6315789473684,4,1,1,60,0,1
92945,-62.5,4,1,1,60,0,1
93202,-62.5,4,1,1,5,0,1
93288,-666.666666666667,4,1,1,60,0,1
93545,-666.666666666667,4,1,1,5,0,1
93631,-50,4,1,1,60,0,1
93888,-50,4,1,1,5,0,1
93973,-52.6315789473684,4,1,1,60,0,1
94231,-52.6315789473684,4,1,1,5,0,1
94316,-55.5555555555556,4,1,1,60,0,1
94573,-55.5555555555556,4,1,1,5,0,1
94659,-58.8235294117647,4,1,1,60,0,1
94916,-58.8235294117647,4,1,1,5,0,1
95002,-62.5,4,1,1,60,0,1
95259,-62.5,4,1,1,5,0,1
95345,-52.6315789473684,4,1,1,60,0,1
95431,-52.6315789473684,4,1,1,5,0,1
95516,-55.5555555555556,4,1,1,60,0,1
95602,-55.5555555555556,4,1,1,5,0,1
95688,-62.5,4,1,1,60,0,1
95945,-62.5,4,1,1,5,0,1
96031,-666.666666666667,4,1,1,60,0,1
96288,-666.666666666667,4,1,1,5,0,1
96373,-666.666666666667,4,1,1,60,0,1
96716,-52.6315789473684,4,1,1,60,0,1
96973,-52.6315789473684,4,1,1,5,0,1
97059,-55.5555555555556,4,1,1,60,0,1
97316,-55.5555555555556,4,1,1,5,0,1
97402,-58.8235294117647,4,1,1,60,0,1
97488,-58.8235294117647,4,1,1,5,0,1
97573,-58.8235294117647,4,1,1,60,0,1
97659,-58.8235294117647,4,1,1,5,0,1
97745,-62.5,4,1,1,60,0,1
98002,-62.5,4,1,1,5,0,1
98088,-52.6315789473684,4,1,1,60,0,1
98259,-52.6315789473684,4,1,1,5,0,1
98345,-52.6315789473684,4,1,1,60,0,1
98431,-62.5,4,1,1,60,0,1
98688,-62.5,4,1,1,5,0,1
98773,-666.666666666667,4,1,1,60,0,1
99031,-666.666666666667,4,1,1,5,0,1
99116,-50,4,1,1,60,0,1
99373,-50,4,1,1,5,0,1
99459,-52.6315789473684,4,1,1,60,0,1
99716,-52.6315789473684,4,1,1,5,0,1
99802,-55.5555555555556,4,1,1,60,0,1
100059,-55.5555555555556,4,1,1,5,0,1
100145,-58.8235294117647,4,1,1,60,0,1
100402,-58.8235294117647,4,1,1,5,0,1
100488,-62.5,4,1,1,60,0,1
100745,-62.5,4,1,1,5,0,1
100831,-52.6315789473684,4,1,1,60,0,1
100916,-52.6315789473684,4,1,1,5,0,1
101002,-55.5555555555556,4,1,1,60,0,1
101088,-55.5555555555556,4,1,1,5,0,1
101173,-62.5,4,1,1,60,0,1
101431,-62.5,4,1,1,5,0,1
101516,-666.666666666667,4,1,1,60,0,1
101773,-666.666666666667,4,1,1,5,0,1
101859,-666.666666666667,4,1,1,60,0,1
102202,-52.6315789473684,4,1,1,60,0,1
102459,-52.6315789473684,4,1,1,5,0,1
102545,-55.5555555555556,4,1,1,60,0,1
102802,-55.5555555555556,4,1,1,5,0,1
102888,-58.8235294117647,4,1,1,60,0,1
102973,-58.8235294117647,4,1,1,5,0,1
103059,-58.8235294117647,4,1,1,60,0,1
103145,-58.8235294117647,4,1,1,5,0,1
103231,-62.5,4,1,1,60,0,1
103488,-62.5,4,1,1,5,0,1
103573,-52.6315789473684,4,1,1,60,0,1
103745,-52.6315789473684,4,1,1,5,0,1
103831,-52.6315789473684,4,1,1,60,0,1
103916,-62.5,4,1,1,60,0,1
104173,-62.5,4,1,1,5,0,1
104259,-666.666666666667,4,1,1,60,0,1
104516,-666.666666666667,4,1,1,5,0,1
104602,-50,4,1,1,60,0,1
104859,-50,4,1,1,5,0,1
104945,-52.6315789473684,4,1,1,60,0,1
105202,-52.6315789473684,4,1,1,5,0,1
105288,-55.5555555555556,4,1,1,60,0,1
105545,-55.5555555555556,4,1,1,5,0,1
105631,-58.8235294117647,4,1,1,60,0,1
105888,-58.8235294117647,4,1,1,5,0,1
105973,-62.5,4,1,1,60,0,1
106231,-62.5,4,1,1,5,0,1
106316,-52.6315789473684,4,1,1,60,0,1
106402,-52.6315789473684,4,1,1,5,0,1
106488,-55.5555555555556,4,1,1,60,0,1
106573,-55.5555555555556,4,1,1,5,0,1
106659,-62.5,4,1,1,60,0,1
106916,-62.5,4,1,1,5,0,1
107002,-666.666666666667,4,1,1,60,0,1
107259,-666.666666666667,4,1,1,5,0,1
107345,-666.666666666667,4,1,1,60,0,1
107688,-52.6315789473684,4,1,1,60,0,1
107945,-52.6315789473684,4,1,1,5,0,1
108031,-55.5555555555556,4,1,1,60,0,1
108288,-55.5555555555556,4,1,1,5,0,1
108373,-45.4545454545455,4,1,1,60,0,1
109316,-100,4,1,1,60,0,1
109745,-666.666666666667,4,1,1,60,0,1
110002,-666.666666666667,4,1,1,5,0,1
110088,-50,4,1,1,60,0,1
110345,-50,4,1,1,5,0,1
110431,-52.6315789473684,4,1,1,60,0,1
110688,-52.6315789473684,4,1,1,5,0,1
110773,-55.5555555555556,4,1,1,60,0,1
111031,-55.5555555555556,4,1,1,5,0,1
111116,-58.8235294117647,4,1,1,60,0,1
111373,-58.8235294117647,4,1,1,5,0,1
111459,-62.5,4,1,1,60,0,1
111716,-62.5,4,1,1,5,0,1
111802,-52.6315789473684,4,1,1,60,0,1
111888,-52.6315789473684,4,1,1,5,0,1
111973,-55.5555555555556,4,1,1,60,0,1
112059,-55.5555555555556,4,1,1,5,0,1
112145,-62.5,4,1,1,60,0,1
112402,-62.5,4,1,1,5,0,1
112488,-666.666666666667,4,1,1,60,0,1
112745,-666.666666666667,4,1,1,5,0,1
112831,-666.666666666667,4,1,1,60,0,1
113173,-52.6315789473684,4,1,1,60,0,1
113431,-52.6315789473684,4,1,1,5,0,1
113516,-55.5555555555556,4,1,1,60,0,1
113773,-55.5555555555556,4,1,1,5,0,1
113859,-58.8235294117647,4,1,1,60,0,1
113945,-58.8235294117647,4,1,1,5,0,1
114031,-58.8235294117647,4,1,1,60,0,1
114116,-58.8235294117647,4,1,1,5,0,1
114202,-62.5,4,1,1,60,0,1
114459,-62.5,4,1,1,5,0,1
114545,-52.6315789473684,4,1,1,60,0,1
114716,-52.6315789473684,4,1,1,5,0,1
114802,-52.6315789473684,4,1,1,60,0,1
114888,-62.5,4,1,1,60,0,1
115145,-62.5,4,1,1,5,0,1
115231,-666.666666666667,4,1,1,60,0,1
115488,-666.666666666667,4,1,1,5,0,1
115573,-50,4,1,1,60,0,1
115831,-50,4,1,1,5,0,1
115916,-52.6315789473684,4,1,1,60,0,1
116173,-52.6315789473684,4,1,1,5,0,1
116259,-55.5555555555556,4,1,1,60,0,1
116516,-55.5555555555556,4,1,1,5,0,1
116602,-58.8235294117647,4,1,1,60,0,1
116859,-58.8235294117647,4,1,1,5,0,1
116945,-62.5,4,1,1,60,0,1
117202,-62.5,4,1,1,5,0,1
117288,-52.6315789473684,4,1,1,60,0,1
117373,-52.6315789473684,4,1,1,5,0,1
117459,-55.5555555555556,4,1,1,60,0,1
117545,-55.5555555555556,4,1,1,5,0,1
117631,-62.5,4,1,1,60,0,1
117888,-62.5,4,1,1,5,0,1
117973,-666.666666666667,4,1,1,60,0,1
118231,-666.666666666667,4,1,1,5,0,1
118316,-666.666666666667,4,1,1,60,0,1
118659,-52.6315789473684,4,1,1,60,0,1
118916,-52.6315789473684,4,1,1,5,0,1
119002,-55.5555555555556,4,1,1,60,0,1
119259,-55.5555555555556,4,1,1,5,0,1
119345,-58.8235294117647,4,1,1,60,0,1
119431,-58.8235294117647,4,1,1,5,0,1
119516,-58.8235294117647,4,1,1,60,0,1
119602,-58.8235294117647,4,1,1,5,0,1
119688,-62.5,4,1,1,60,0,1
119945,-62.5,4,1,1,5,0,1
120031,-52.6315789473684,4,1,1,60,0,1
120288,-52.6315789473684,4,1,1,5,0,1
120373,-62.5,4,1,1,60,0,1
120716,-434.782608695652,4,2,1,60,0,0
122088,-100,4,2,1,60,0,0
122259,-100,4,2,1,5,0,0
122431,-100,4,2,1,60,0,0
122602,-100,4,2,1,5,0,0
122773,-100,4,2,1,60,0,0
123459,-434.782608695652,4,2,1,60,0,0
124831,-100,4,2,1,60,0,0
125516,-100,4,2,1,60,0,0
125688,-100,4,2,1,5,0,0
125859,-100,4,2,1,60,0,0
126031,-100,4,2,1,5,0,0
126202,-434.782608695652,4,2,1,60,0,0
127231,-100,4,2,1,60,0,0
127573,-100,4,2,1,60,0,0
128431,-100,4,2,1,5,0,0
128602,-100,4,2,1,60,0,0
128945,-434.782608695652,4,2,1,60,0,0

[Colours]
Combo1 : 176,214,255
Combo2 : 191,255,255

[HitObjects]
239,131,21973,6,8,B|181:113|150:161|150:161|181:144|215:151,2,154.4,8|0|8,0:0|0:0|0:0,0:0:0:0:
361,201,22659,2,0,L|365:163,1,33.2924988823929,8|0,0:0|0:0,0:0:0:0:
339,95,23002,2,0,L|343:128,1,33.2924988823929,8|0,0:0|0:0,0:0:0:0:
308,267,23345,6,0,B|345:301|400:287|423:260|423:260|421:295|382:310,1,193,8|8,0:0|0:0,0:0:0:0:
246,363,24031,2,0,L|210:358,1,33.2924988823929,8|0,0:0|0:0,0:0:0:0:
142,341,24373,2,0,L|175:336,1,33.2924988823929,8|0,0:0|0:0,0:0:0:0:
220,140,24716,6,0,B|182:173|192:225|192:225|172:175|101:169,2,154.4,8|0|8,0:0|0:0|0:0,0:0:0:0:
189,34,25402,2,0,L|155:38,1,33.2924988823929,8|0,0:0|0:0,0:0:0:0:
86,61,25745,2,0,L|119:65,1,33.2924988823929,8|0,0:0|0:0,0:0:0:0:
265,13,26088,6,0,P|227:47|177:13,1,96.5,8|0,0:0|0:0,0:0:0:0:
286,25,26431,1,8,0:0:0:0:
258,175,26602,1,0,0:0:0:0:
286,25,26773,1,8,0:0:0:0:
258,175,27116,1,8,0:0:0:0:
163,157,27459,6,0,P|228:165|172:202,2,154.4,8|0|8,0:0|0:0|0:0,0:0:0:0:
347,201,28145,2,0,L|343:234,1,33.2924988823929,8|0,0:0|0:0,0:0:0:0:
369,308,28488,2,0,L|365:274,1,33.2924988823929,8|0,0:0|0:0,0:0:0:0:
409,141,28831,6,0,B|372:99|312:120|312:120|271:86|217:105,1,193,8|8,0:0|0:0,0:0:0:0:
119,185,29516,2,0,L|113:143,1,33.2924988823929,8|0,0:0|0:0,0:0:0:0:
141,78,29859,2,0,L|136:111,1,33.2924988823929,8|0,0:0|0:0,0:0:0:0:
211,253,30202,6,0,B|170:298|119:273|119:273|154:271|180:248,2,154.4,8|0|8,0:0|0:0|0:0,0:0:0:0:
271,314,30888,2,0,L|303:318,1,33.2924988823929,8|0,0:0|0:0,0:0:0:0:
372,281,31231,2,0,L|339:285,1,33.2924988823929,8|0,0:0|0:0,0:0:0:0:
242,180,31573,6,0,P|202:212|228:266,1,96.5,8|0,0:0|0:0,0:0:0:0:
70,208,31916,1,8,0:0:0:0:
100,369,32088,1,0,0:0:0:0:
70,208,32259,1,8,0:0:0:0:
100,369,32602,1,8,0:0:0:0:
258,281,32945,6,0,L|365:294,1,96.5,8|0,0:0|0:0,0:0:0:0:
434,175,33288,2,0,L|338:163,1,96.5,8|0,0:0|0:0,0:0:0:0:
70,208,33631,2,0,L|177:221,1,96.5,8|0,0:0|0:0,0:0:0:0:
246,102,33974,2,0,L|150:90,1,96.5,8|0,0:0|0:0,0:0:0:0:
335,235,34316,6,0,B|308:180|350:126|350:126|338:152|347:180,2,154.4,8|0|8,0:0|0:0|0:0,0:0:0:0:
468,320,34831,1,0,0:0:0:0:
222,206,35002,2,0,L|119:218,1,96.5,8|0,0:0|0:0,0:0:0:0:
373,309,35345,2,0,L|475:321,1,96.5,8|0,0:0|0:0,0:0:0:0:
269,354,35688,5,8,0:0:0:0:
309,135,36031,1,8,0:0:0:0:
151,291,36373,1,8,0:0:0:0:
121,51,36716,1,8,0:0:0:0:
309,135,37059,6,0,L|324:11,1,96.5,8|0,0:0|0:0,0:0:0:0:
139,195,37402,2,0,L|150:290,1,96.5,8|0,0:0|0:0,0:0:0:0:
121,51,37745,1,8,0:0:0:0:
53,340,38088,1,8,0:0:0:0:
139,195,38431,6,0,B|181:167|228:192|228:192|186:159|199:89,2,154.4,8|0|8,0:0|0:0|0:0,0:0:0:0:
239,288,39116,2,0,L|340:275,1,96.5,8|0,0:0|0:0,0:0:0:0:
382,113,39459,2,0,L|280:125,1,96.5,8|0,0:0|0:0,0:0:0:0:
476,99,39802,6,0,P|410:107|466:144,2,154.4,8|0|8,0:0|0:0|0:0,0:0:0:0:
239,288,40316,1,0,0:0:0:0:
150,99,40488,2,0,L|138:195,1,96.5,8|0,0:0|0:0,0:0:0:0:
335,344,40831,2,0,L|323:247,1,96.5,8|0,0:0|0:0,0:0:0:0:
299,56,41173,5,8,0:0:0:0:
239,288,41345,1,0,0:0:0:0:
341,168,41516,2,0,B|406:189|404:258|404:258|421:211|482:206,1,193,8|8,0:0|0:0,0:0:0:0:
299,56,42031,1,0,0:0:0:0:
239,288,42202,6,0,P|179:317|206:255,2,154.4,8|0|0,0:0|0:0|0:0,0:0:0:0:
180,160,42888,2,0,L|103:169,1,72.3749977912904
221,177,43916,6,0,L|245:173,1,21.7124993373871,2|0,0:0|0:0,0:0:0:0:
369,56,44259,2,0,P|376:182|474:116,1,289.5,8|0,0:0|0:0,0:0:0:0:
298,232,44602,2,0,B|273:304|312:376|375:377|375:377|325:354|325:273,1,275.02499265604
213,62,44945,2,0,B|156:42|94:82|100:152|100:152|179:190|178:88,1,260.549992048645,8|0,0:0|0:0,0:0:0:0:
351,178,45288,2,0,P|331:280|297:231,1,246.075004693508,2|0,0:0|0:0,0:0:0:0:
396,22,45631,2,0,B|377:71|407:110|438:122|438:122|494:166|483:252,1,231.6,8|0,0:0|0:0,0:0:0:0:
250,160,45973,2,0,P|198:260|297:214,1,275.02499265604
125,110,46316,2,0,B|67:168|89:259|89:259|49:225|60:162,1,231.6,8|0,0:0|0:0,0:0:0:0:
250,160,46659,6,0,L|276:163,1,21.7124993373871,2|0,0:0|0:0,0:0:0:0:
58,197,47002,1,8,0:0:0:0:
327,95,47345,2,0,B|269:144|292:245|386:245|386:245|347:237|323:191,1,275.02499265604
190,40,47688,2,0,P|114:18|180:113,1,260.549992048645,8|0,0:0|0:0,0:0:0:0:
58,197,48031,2,0,P|112:250|9:229,1,246.075004693508,2|0,0:0|0:0,0:0:0:0:
219,202,48373,2,0,B|263:245|324:222|324:222|396:195|460:261,1,231.6,8|0,0:0|0:0,0:0:0:0:
285,140,48716,2,0,B|267:94|291:52|291:52|263:93|199:98,1,183.349995104027,2|0,0:0|0:0,0:0:0:0:
127,228,48973,1,0,0:0:0:0:
219,202,49059,2,0,P|227:271|128:225,1,231.6,8|0,0:0|0:0,0:0:0:0:
292,362,49402,6,0,L|270:359,1,21.7124993373871,2|0,0:0|0:0,0:0:0:0:
382,264,49745,2,0,B|322:245|295:181|324:120|371:102|371:102|434:105|457:151,1,289.5,8|0,0:0|0:0,0:0:0:0:
225,130,50088,2,0,P|117:117|203:42,1,275.02499265604
402,164,50431,2,0,B|446:234|408:304|346:317|346:317|388:288|382:230,1,260.549992048645,8|0,0:0|0:0,0:0:0:0:
167,258,50773,2,0,B|138:287|88:299|88:299|183:282|266:322,1,246.075004693508,2|0,0:0|0:0,0:0:0:0:
225,130,51116,2,0,P|230:56|144:116,1,231.6,8|0,0:0|0:0,0:0:0:0:
395,84,51459,2,0,B|451:131|413:207|413:207|377:284|442:342,1,275.02499265604
225,130,51802,2,0,B|140:127|133:215|133:215|177:231|214:227|228:198,1,231.6,8|0,0:0|0:0,0:0:0:0:
149,55,52145,6,0,L|152:29,1,21.7124993373871,2|0,0:0|0:0,0:0:0:0:
218,211,52488,1,8,0:0:0:0:
408,38,52831,2,0,P|496:111|390:109,1,275.02499265604
218,211,53173,2,0,P|154:192|220:273,1,260.549992048645,8|0,0:0|0:0,0:0:0:0:
97,124,53516,2,0,B|28:168|31:256|31:256|-3:220|20:155,1,246.075004693508,2|0,0:0|0:0,0:0:0:0:
218,211,53859,2,0,B|313:224|337:128|337:128|293:98|224:124,1,231.6,8|0,0:0|0:0,0:0:0:0:
362,279,54202,2,0,P|419:340|401:224,1,275.02499265604,2|0,0:0|0:0,0:0:0:0:
252,290,54545,1,8,0:0:0:0:
218,211,54659,1,2,0:0:0:0:
95,360,54888,6,0,L|71:357,1,21.7124993373871,2|0,0:0|0:0,0:0:0:0:
218,211,55231,2,0,B|244:121|181:62|181:62|239:108|328:70,1,289.5,12|0,0:0|0:0,0:0:0:0:
75,108,55573,2,0,P|130:200|21:163,1,275.02499265604
366,14,55916,2,0,B|415:72|373:141|373:141|338:202|381:257,1,260.549992048645,8|0,0:0|0:0,0:0:0:0:
240,237,56259,2,0,P|191:326|293:321,1,246.075004693508,2|0,0:0|0:0,0:0:0:0:
206,90,56602,2,0,B|180:66|183:19|183:19|177:76|124:114|75:108,1,231.6,8|0,0:0|0:0,0:0:0:0:
279,30,56945,2,0,B|461:52|461:52|390:49|349:106,1,275.02499265604
464,239,57288,2,0,P|494:149|404:176,1,231.6,8|0,0:0|0:0,0:0:0:0:
354,344,57631,6,0,L|356:367,1,21.7124993373871,2|0,0:0|0:0,0:0:0:0:
404,176,57973,1,8,0:0:0:0:
259,298,58316,2,0,B|182:322|135:260|135:260|91:201|14:220,1,275.02499265604
220,133,58659,2,0,P|258:82|146:100,1,260.549992048645,8|0,0:0|0:0,0:0:0:0:
404,176,59002,2,0,B|465:119|434:38|434:38|482:64|470:123,1,246.075004693508,2|0,0:0|0:0,0:0:0:0:
259,298,59345,2,0,P|306:359|303:252,1,231.6,8|0,0:0|0:0,0:0:0:0:
158,187,59688,2,0,B|90:162|60:236|60:236|92:204|138:218,1,183.349995104027,2|0,0:0|0:0,0:0:0:0:
248,92,59945,1,0,0:0:0:0:
284,179,60031,2,0,P|342:103|248:92,1,231.6,8|0,0:0|0:0,0:0:0:0:
341,259,60373,6,0,L|367:255,1,21.7124993373871,2|0,0:0|0:0,0:0:0:0:
158,187,60716,2,0,B|117:234|138:294|138:294|96:193|-21:203,1,289.5,8|0,0:0|0:0,0:0:0:0:
138,53,61059,2,0,P|44:112|55:2,1,275.02499265604
303,4,61402,2,0,B|362:-5|416:44|398:112|398:112|314:135|332:35,1,260.549992048645,8|0,0:0|0:0,0:0:0:0:
241,235,61745,2,0,B|229:279|191:301|191:301|276:257|370:283,1,246.075004693508,2|0,0:0|0:0,0:0:0:0:
123,139,62088,2,0,P|165:181|64:177,1,231.6,8|0,0:0|0:0,0:0:0:0:
341,104,62431,2,0,P|235:123|296:34,1,275.02499265604
411,186,62774,2,0,B|370:254|276:252|276:252|318:284|377:260,1,231.6,8|0,0:0|0:0,0:0:0:0:
145,320,63116,6,0,L|147:341,1,21.7124993373871,2|0,0:0|0:0,0:0:0:0:
123,139,63459,1,8,0:0:0:0:
346,268,63802,2,0,P|427:308|403:184,1,275.02499265604,2|0,0:0|0:0,0:0:0:0:
123,139,64145,2,0,P|75:172|93:62,1,260.549992048645,8|0,0:0|0:0,0:0:0:0:
334,149,64488,6,0,B|353:228|288:283|288:283|322:259|368:271,2,212.300006478882,2|0|8,0:0|0:0|0:0,0:0:0:0:
131,230,65173,1,2,0:0:0:0:
131,230,65431,2,0,L|123:166,3,48.25,8|8|0|2,0:0|0:0|0:0|0:0,0:0:0:0:
185,95,65773,1,8,0:0:0:0:
271,107,65859,6,0,L|293:104,1,21.7124993373871,2|0,0:0|0:0,0:0:0:0:
131,230,66202,2,0,P|88:285|201:251,1,289.5,8|0,0:0|0:0,0:0:0:0:
271,107,66545,2,0,B|336:103|359:37|359:37|331:131|418:202,1,275.02499265604
434,319,66888,2,0,B|382:263|308:296|308:296|249:320|182:288,1,260.549992048645,8|0,0:0|0:0,0:0:0:0:
271,107,67231,2,0,P|305:185|202:155,1,246.075004693508,2|0,0:0|0:0,0:0:0:0:
63,23,67573,2,0,P|23:67|135:63,1,231.6,8|0,0:0|0:0,0:0:0:0:
341,44,67916,2,0,B|392:75|413:135|394:210|394:210|443:181|428:88,1,275.02499265604
202,157,68259,2,0,B|134:209|186:281|186:281|230:265|255:238|248:207,1,231.6,8|0,0:0|0:0,0:0:0:0:
132,100,68602,6,0,L|111:98,1,21.7124993373871,2|0,0:0|0:0,0:0:0:0:
313,122,68945,1,8,0:0:0:0:
181,304,69288,2,0,B|226:364|328:346|333:252|333:252|323:291|276:313,1,275.02499265604
220,155,69631,2,0,P|194:104|306:136,1,260.549992048645,8|0,0:0|0:0,0:0:0:0:
181,304,69973,2,0,P|136:364|142:259,1,246.075004693508,2|0,0:0|0:0,0:0:0:0:
368,188,70316,2,0,B|385:270|350:353|350:353|371:310|418:299,1,231.6,8|0,0:0|0:0,0:0:0:0:
265,128,70659,2,0,B|197:103|167:177|167:177|199:145|245:159,1,183.349995104027,2|0,0:0|0:0,0:0:0:0:
181,304,70916,1,0,0:0:0:0:
89,278,71002,2,0,P|81:347|180:301,1,231.6,8|0,0:0|0:0,0:0:0:0:
125,87,71345,6,0,L|128:61,1,21.7124993373871,2|0,0:0|0:0,0:0:0:0:
277,211,71688,2,0,B|319:257|388:254|432:202|428:152|428:152|399:96|347:95,1,289.5,8|0,0:0|0:0,0:0:0:0:
152,6,72031,2,0,B|86:45|70:125|117:166|117:166|94:116|146:54,1,275.02499265604
277,211,72373,2,0,P|310:275|192:249,1,260.549992048645,8|0,0:0|0:0,0:0:0:0:
343,141,72716,2,0,B|411:186|406:280|406:280|442:240|416:174,1,246.075004693508,2|0,0:0|0:0,0:0:0:0:
232,133,73059,2,0,P|175:180|280:199,1,231.6,8|0,0:0|0:0,0:0:0:0:
407,53,73402,2,0,P|461:144|338:117,1,275.02499265604
118,83,73745,2,0,B|60:141|82:232|82:232|42:198|53:135,1,231.6,8|0,0:0|0:0,0:0:0:0:
221,209,74088,6,0,L|244:206,1,21.7124993373871,2|0,0:0|0:0,0:0:0:0:
51,170,74431,1,8,0:0:0:0:
298,5,74773,2,0,B|258:75|309:134|309:134|357:189|323:260,1,275.02499265604
51,170,75116,2,0,P|32:240|140:192,1,260.549992048645,8|0,0:0|0:0,0:0:0:0:
375,64,75459,2,0,P|424:38|399:133,1,218.733337505341,2|2,0:0|0:0,0:0:0:0:
323,260,75802,2,0,P|303:323|394:277,1,231.6,8|0,0:0|0:0,0:0:0:0:
285,106,76145,2,0,B|252:77|245:26|245:26|261:129|218:210,1,275.02499265604,2|0,0:0|0:0,0:0:0:0:
61,136,76488,1,8,0:0:0:0:
135,106,76602,1,2,0:0:0:0:
208,140,76716,1,2,0:0:0:0:
285,106,76831,6,0,L|332:111,1,44.3899985098572,8|8,0:0|0:0,0:0:0:0:
131,244,77516,1,8,0:0:0:0:
63,6,77859,1,8,0:0:0:0:
285,106,78202,6,0,L|399:120,1,96.5,8|0,0:0|0:0,0:0:0:0:
226,232,78545,2,0,L|111:246,1,96.5,8|0,0:0|0:0,0:0:0:0:
307,252,78888,2,0,B|295:308|334:356|334:356|302:328|250:337,1,193,8|8,0:0|0:0,0:0:0:0:
436,299,79402,1,0,0:0:0:0:
345,95,79573,6,0,L|351:48,1,44.3899985098572,8|8,0:0|0:0,0:0:0:0:
436,299,80259,1,8,0:0:0:0:
226,232,80602,1,8,0:0:0:0:
370,222,80945,6,0,B|403:279|373:334|373:334|400:296|446:297,1,193,8|8,0:0|0:0,0:0:0:0:
226,232,81459,1,0,0:0:0:0:
418,44,81631,2,0,L|405:148,1,96.5,8|0,0:0|0:0,0:0:0:0:
237,327,81973,2,0,L|225:231,1,96.5,8|0,0:0|0:0,0:0:0:0:
20,56,82316,6,0,L|25:7,1,44.3899985098572,8|8,0:0|0:0,0:0:0:0:
215,227,83002,1,8,0:0:0:0:
332,158,83173,1,0,0:0:0:0:
120,216,83345,2,0,L|6:202,1,96.5,8|0,0:0|0:0,0:0:0:0:
292,58,83688,6,0,P|362:67|326:159,1,193,8|8,0:0|0:0,0:0:0:0:
215,227,84202,1,0,0:0:0:0:
428,275,84373,2,0,L|415:378,1,96.5,8|0,0:0|0:0,0:0:0:0:
292,58,84716,1,8,0:0:0:0:
320,294,84888,1,0,0:0:0:0:
67,147,85059,6,0,L|21:152,1,44.3899985098572,8|8,0:0|0:0,0:0:0:0:
320,294,85745,1,8,0:0:0:0:
292,58,86088,1,8,0:0:0:0:
320,294,86431,5,0,0:0:0:0:
365,134,86602,1,0,0:0:0:0:
220,237,86773,5,0,0:0:0:0:
182,72,86945,1,0,0:0:0:0:
320,294,87116,5,0,0:0:0:0:
359,31,87288,1,0,0:0:0:0:
318,307,87459,5,0,0:0:0:0:
360,17,87631,1,0,0:0:0:0:
220,237,87802,6,0,L|198:234,1,21.7124993373871,2|0,0:0|0:0,0:0:0:0:
370,188,88145,2,0,P|436:87|316:75,1,289.5,8|0,0:0|0:0,0:0:0:0:
220,237,88488,2,0,B|182:293|213:349|213:349|162:265|51:282,1,275.02499265604
49,54,88831,2,0,P|12:109|131:94,1,260.549992048645,8|0,0:0|0:0,0:0:0:0:
281,36,89173,2,0,B|323:38|354:68|354:68|299:51|237:90|239:157,1,246.075004693508,2|0,0:0|0:0,0:0:0:0:
392,361,89516,2,0,B|419:303|373:255|373:255|300:214|341:109,1,231.6,8|0,0:0|0:0,0:0:0:0:
226,309,89859,2,0,L|322:320,1,91.6749975520135
502,164,90031,2,0,L|412:174,1,86.8499973495484
263,82,90202,2,0,B|223:75|190:107|190:107|283:98|332:163,1,231.6,8|0,0:0|0:0,0:0:0:0:
226,309,90545,6,0,L|229:335,1,21.7124993373871,2|0,0:0|0:0,0:0:0:0:
326,156,90888,1,8,0:0:0:0:
175,204,91231,2,0,P|130:246|127:127,1,275.02499265604
370,91,91573,2,0,P|426:116|324:145,1,260.549992048645,8|0,0:0|0:0,0:0:0:0:
389,324,91916,2,0,L|289:311,1,82.0250015645027,2|0,0:0|0:0,0:0:0:0:
175,204,92088,2,0,L|256:213,1,82.0250015645027
116,283,92259,2,0,B|70:257|61:191|92:147|92:147|43:171|47:233,1,231.6,8|0,0:0|0:0,0:0:0:0:
256,213,92602,2,0,B|301:228|343:209|343:209|302:236|294:300,1,183.349995104027,2|0,0:0|0:0,0:0:0:0:
331,37,92859,1,0,0:0:0:0:
240,62,92945,2,0,P|307:129|331:37,1,231.6,8|0,0:0|0:0,0:0:0:0:
129,101,93288,6,0,L|126:124,1,21.7124993373871,2|0,0:0|0:0,0:0:0:0:
256,213,93631,2,0,B|193:282|223:363|223:363|191:296|95:291,1,289.5,8|0,0:0|0:0,0:0:0:0:
338,373,93973,2,0,P|328:266|410:347,1,275.02499265604
47,343,94316,2,0,B|11:275|68:217|68:217|115:165|87:102,1,260.549992048645,8|0,0:0|0:0,0:0:0:0:
310,144,94659,2,0,P|411:147|362:58,1,246.075004693508,2|0,0:0|0:0,0:0:0:0:
298,246,95002,2,0,B|372:283|444:237|444:237|436:280|374:290,1,231.6,8|0,0:0|0:0,0:0:0:0:
211,122,95345,2,0,L|198:224,1,91.6749975520135
47,343,95516,2,0,L|36:255,1,86.8499973495484
111,54,95688,2,0,B|138:5|204:-6|243:30|243:30|200:18|168:38,1,231.6,8|0,0:0|0:0,0:0:0:0:
233,303,96031,6,0,L|235:324,1,21.7124993373871,2|0,0:0|0:0,0:0:0:0:
211,122,96374,1,8,0:0:0:0:
369,200,96716,2,0,B|427:249|404:350|310:350|310:350|348:337|366:290,1,275.02499265604
211,122,97059,2,0,B|261:151|311:114|311:114|391:69|456:139,1,260.549992048645,8|0,0:0|0:0,0:0:0:0:
359,281,97402,2,0,L|370:184,1,82.0250015645027,2|0,0:0|0:0,0:0:0:0:
121,86,97573,2,0,L|130:167,1,82.0250015645027
19,311,97745,2,0,P|105:348|51:253,1,231.6,8|0,0:0|0:0,0:0:0:0:
121,86,98088,2,0,B|241:100|241:100|197:91|179:41,1,183.349995104027,2|0,0:0|0:0,0:0:0:0:
327,213,98345,1,0,0:0:0:0:
240,247,98431,2,0,P|314:307|326:212,1,231.6,8|0,0:0|0:0,0:0:0:0:
121,86,98773,6,0,L|94:89,1,21.7124993373871,2|0,0:0|0:0,0:0:0:0:
312,22,99116,2,0,B|372:41|399:105|370:166|323:184|323:184|260:181|237:135,1,289.5,8|0,0:0|0:0,0:0:0:0:
85,231,99459,2,0,P|41:289|155:257,1,275.02499265604
90,125,99802,2,0,B|121:74|101:16|101:16|134:101|230:91,1,260.549992048645,8|0,0:0|0:0,0:0:0:0:
341,221,100145,2,0,P|373:277|260:260,1,246.075004693508,2|0,0:0|0:0,0:0:0:0:
362,126,100488,2,0,B|446:154|464:232|464:232|456:187|479:145,1,231.6,8|0,0:0|0:0,0:0:0:0:
258,270,100831,2,0,L|113:252,1,91.6749975520135
307,44,101002,2,0,L|393:33,1,86.8499973495484
175,114,101173,2,0,P|111:143|146:44,1,231.6,8|0,0:0|0:0,0:0:0:0:
258,270,101516,6,0,L|254:295,1,21.7124993373871,2|0,0:0|0:0,0:0:0:0:
175,114,101859,1,8,0:0:0:0:
356,216,102202,2,0,B|417:200|444:145|444:145|409:237|500:308,1,275.02499265604
349,30,102545,2,0,P|370:88|261:50,1,260.549992048645,8|0,0:0|0:0,0:0:0:0:
365,297,102888,2,0,L|352:191,1,82.0250015645027,2|0,0:0|0:0,0:0:0:0:
157,90,103059,2,0,L|145:182,1,82.0250015645027
249,310,103231,2,0,B|190:286|140:332|140:332|92:378|24:340,1,231.6,8|0,0:0|0:0,0:0:0:0:
1,240,103573,2,0,B|48:227|68:181|68:181|53:227|79:269,1,183.349995104027,2|0,0:0|0:0,0:0:0:0:
157,90,103831,1,0,0:0:0:0:
190,179,103917,2,0,P|250:144|155:91,1,231.6,8|0,0:0|0:0,0:0:0:0:
309,279,104259,6,0,L|333:275,1,21.7124993373871,2|0,0:0|0:0,0:0:0:0:
402,38,104602,2,0,P|409:164|507:98,1,289.5,8|0,0:0|0:0,0:0:0:0:
217,98,104945,2,0,B|151:137|135:217|182:258|182:258|159:208|211:146,1,275.02499265604
117,63,105288,2,0,P|69:25|97:124,1,260.549992048645,8|0,0:0|0:0,0:0:0:0:
271,188,105631,2,0,P|351:174|269:252,1,246.075004693508,2|0,0:0|0:0,0:0:0:0:
405,97,105973,2,0,B|474:141|471:229|471:229|505:193|483:130,1,231.6,8|0,0:0|0:0,0:0:0:0:
225,33,106316,2,0,L|210:150,1,91.6749975520135
402,329,106488,2,0,L|388:220,1,86.8499973495484
133,189,106659,2,0,P|80:225|186:254,1,231.6,8|0,0:0|0:0,0:0:0:0:
67,84,107002,6,0,L|40:80,1,21.7124993373871,2|0,0:0|0:0,0:0:0:0:
225,33,107345,1,8,0:0:0:0:
133,189,107688,2,0,B|104:218|54:230|54:230|149:213|241:256,1,275.02499265604,2|0,0:0|0:0,0:0:0:0:
363,125,108031,2,0,P|425:93|395:206,1,260.549992048645,8|0,0:0|0:0,0:0:0:0:
206,60,108373,2,0,B|250:33|309:49|309:49|352:-2|441:3,2,212.300006478882,2|0|8,0:0|0:0|0:0,0:0:0:0:
19,0,109059,1,2,0:0:0:0:
19,0,109316,2,0,L|11:64,3,48.25,8|8|0|2,0:0|0:0|0:0|0:0,0:0:0:0:
73,135,109658,1,8,0:0:0:0:
159,123,109745,6,0,L|181:126,1,21.7124993373871,2|0,0:0|0:0,0:0:0:0:
374,27,110088,2,0,P|381:153|479:87,1,289.5,8|0,0:0|0:0,0:0:0:0:
269,202,110431,2,0,B|215:237|207:310|265:350|265:350|353:313|272:254,1,275.02499265604
159,123,110773,2,0,P|75:107|139:201,1,260.549992048645,8|0,0:0|0:0,0:0:0:0:
323,95,111116,2,0,B|400:143|376:236|376:236|392:182|454:160,1,246.075004693508,2|0,0:0|0:0,0:0:0:0:
226,333,111459,2,0,B|270:291|334:321|334:321|397:345|440:300,1,231.6,8|0,0:0|0:0,0:0:0:0:
436,82,111802,2,0,L|424:172,1,91.6749975520135
226,333,111973,2,0,L|213:233,1,86.8499973495484
62,64,112145,2,0,B|127:116|211:76|211:76|195:123|129:127,1,231.6,8|0,0:0|0:0,0:0:0:0:
226,333,112488,6,0,L|247:331,1,21.7124993373871,2|0,0:0|0:0,0:0:0:0:
45,355,112831,1,8,0:0:0:0:
235,170,113173,2,0,P|196:56|176:156,1,275.02499265604
368,162,113516,2,0,B|394:100|358:30|358:30|401:93|487:93,1,260.549992048645,8|0,0:0|0:0,0:0:0:0:
385,281,113859,2,0,L|288:292,1,82.0250015645027,2|0,0:0|0:0,0:0:0:0:
77,111,114031,2,0,L|177:123,1,82.0250015645027
221,299,114202,2,0,P|198:359|147:265,1,231.6,8|0,0:0|0:0,0:0:0:0:
290,132,114545,2,0,B|298:81|260:16|260:16|267:59|232:96,1,183.349995104027,2|0,0:0|0:0,0:0:0:0:
385,281,114802,1,0,0:0:0:0:
420,193,114888,2,0,P|479:267|384:280,1,231.6,8|0,0:0|0:0,0:0:0:0:
290,132,115231,6,0,L|311:129,1,21.7124993373871,2|0,0:0|0:0,0:0:0:0:
130,50,115573,2,0,P|70:70|179:119,1,289.5,8|0,0:0|0:0,0:0:0:0:
363,90,115916,2,0,P|393:182|293:122,1,275.02499265604
491,203,116259,2,0,B|465:280|387:297|387:297|462:290|508:359,1,260.549992048645,8|0,0:0|0:0,0:0:0:0:
289,131,116602,2,0,P|185:124|251:213,1,246.075004693508,2|0,0:0|0:0,0:0:0:0:
120,52,116945,2,0,B|65:116|88:199|88:199|47:171|54:103,1,231.6,8|0,0:0|0:0,0:0:0:0:
160,306,117288,2,0,L|251:294,1,91.6749975520135
375,141,117459,2,0,L|279:129,1,86.8499973495484
440,247,117631,2,0,B|489:220|501:155|466:115|466:115|477:158|456:190,1,231.6,8|0,0:0|0:0,0:0:0:0:
334,316,117973,6,0,L|337:340,1,21.7124993373871,2|0,0:0|0:0,0:0:0:0:
375,141,118316,1,8,0:0:0:0:
144,215,118659,2,0,B|144:170|178:136|178:136|147:242|233:317,1,275.02499265604
375,141,119002,2,0,P|276:178|366:233,1,260.549992048645,8|0,0:0|0:0,0:0:0:0:
348,28,119345,2,0,L|259:17,1,82.0250015645027,2|0,0:0|0:0,0:0:0:0:
364,233,119516,2,0,L|452:222,1,82.0250015645027
144,215,119688,2,0,P|95:264|209:282,1,231.6,8|0,0:0|0:0,0:0:0:0:
132,114,120031,2,0,B|40:127|2:220|2:220|-18:141|68:105,1,275.02499265604,2|0,0:0|0:0,0:0:0:0:
202,48,120373,1,8,0:0:0:0:
273,102,120488,1,2,0:0:0:0:
390,71,120602,1,2,0:0:0:0:
497,92,120716,6,0,L|502:140,1,44.3899985098572,8|8,0:0|0:0,0:0:0:0:
355,290,121402,1,8,0:0:0:0:
390,71,121745,1,8,0:0:0:0:
203,197,122088,6,0,L|101:184,1,96.5,8|0,0:0|0:0,0:0:0:0:
355,290,122431,2,0,L|450:278,1,96.5,8|0,0:0|0:0,0:0:0:0:
390,71,122773,2,0,B|440:64|473:20|473:20|443:65|472:123,1,193,8|8,0:0|0:0,0:0:0:0:
387,169,123288,1,0,0:0:0:0:
174,37,123459,6,0,L|126:42,1,44.3899985098572,8|8,0:0|0:0,0:0:0:0:
390,71,124145,1,8,0:0:0:0:
354,287,124488,1,8,0:0:0:0:
243,169,124831,6,0,B|207:205|153:188|153:188|99:163|46:215,1,193,8|8,0:0|0:0,0:0:0:0:
354,287,125345,1,0,0:0:0:0:
198,9,125516,2,0,L|184:118,1,96.5,8|0,0:0|0:0,0:0:0:0:
354,287,125859,2,0,L|342:191,1,96.5,8|0,0:0|0:0,0:0:0:0:
66,373,126202,6,0,L|71:328,1,44.3899985098572,8|8,0:0|0:0,0:0:0:0:
89,190,126888,1,8,0:0:0:0:
71,328,127059,1,0,0:0:0:0:
219,226,127231,2,0,L|330:212,1,96.5,8|0,0:0|0:0,0:0:0:0:
89,190,127573,6,0,B|53:188|26:226|26:226|56:171|23:114,1,193,8|8,0:0|0:0,0:0:0:0:
121,56,128088,1,0,0:0:0:0:
314,214,128259,2,0,L|326:112,1,96.5,8|0,0:0|0:0,0:0:0:0:
167,313,128602,1,8,0:0:0:0:
121,56,128773,1,0,0:0:0:0:
314,214,128945,6,0,L|357:208,1,44.3899985098572,8|8,0:0|0:0,0:0:0:0:
121,56,129631,1,8,0:0:0:0:
335,88,129973,1,8,0:0:0:0:
121,56,130316,5,0,0:0:0:0:
278,23,130487,1,0,0:0:0:0:
201,193,130658,5,0,0:0:0:0:
370,219,130830,1,0,0:0:0:0:
89,134,131001,5,0,0:0:0:0:
335,88,131173,1,0,0:0:0:0:
76,136,131345,5,0,0:0:0:0:
347,85,131517,1,0,0:0:0:0:
212,111,131688,5,0,0:0:0:0:
