osu file format v14

[General]
AudioFilename: audio.mp3
AudioLeadIn: 0
PreviewTime: 802
Countdown: 0
SampleSet: Soft
StackLeniency: 0.5
Mode: 0
LetterboxInBreaks: 0
WidescreenStoryboard: 1

[Editor]
Bookmarks: 125919,183095
DistanceSpacing: 0.2
BeatDivisor: 4
GridSize: 32
TimelineZoom: 2.4

[Metadata]
Title:phony
TitleUnicode:フォニイ
Artist:Machita Chima
ArtistUnicode:町田ちま
Creator:Yugu
Version:Very Insane
Source:
Tags:Callionet dahkjdas Seros stllok japanese jpop j-pop Vtuber virtual youtuber バーチャルyoutuber 2434 seeds ichikara anycolor いちから えにから ツミキ tsumiki kafu 可不
BeatmapID:3220058
BeatmapSetID:1560617

[Difficulty]
HPDrainRate:6
CircleSize:4
OverallDifficulty:8
ApproachRate:9
SliderMultiplier:1.7
SliderTickRate:1

[Events]
//Background and Video events
0,0,"4abdede7-fc69-4e79-8544-a98dda27ddb7.png",0,0
Video,0,"videoplayback (2).720p.x264.aac.mp4"
//Break Periods
2,141472,151613
//Storyboard Layer 0 (Background)
//Storyboard Layer 1 (Fail)
//Storyboard Layer 2 (Pass)
//Storyboard Layer 3 (Foreground)
//Storyboard Layer 4 (Overlay)
//Storyboard Sound Samples

[TimingPoints]
96,352.941176470588,4,2,0,35,1,0
1154,-125,4,2,0,35,0,0
1507,-100,4,2,0,35,0,0
11390,-71.4285714285714,4,2,0,80,0,0
17037,-83.3333333333333,4,2,0,60,0,0
27448,-250,4,2,0,60,0,0
28331,-100,4,2,0,60,0,0
33978,-83.3333333333333,4,2,0,60,0,0
50566,-125,4,2,0,80,0,0
50919,-83.3333333333333,4,2,0,60,0,0
56213,-125,4,2,0,60,0,0
56566,-83.3333333333333,4,2,0,60,0,0
62213,-66.6666666666667,4,2,0,80,0,0
84801,-76.9230769230769,4,2,0,50,0,0
96095,-100,4,2,0,50,0,0
105978,-125,4,2,0,50,0,0
107037,-100,4,2,0,50,0,0
107390,-83.3333333333333,4,2,0,50,0,0
117978,-83.3333333333333,4,2,0,55,0,0
118154,-83.3333333333333,4,2,0,60,0,0
118331,-83.3333333333333,4,2,0,65,0,0
118507,-83.3333333333333,4,2,0,70,0,0
118684,-83.3333333333333,4,2,0,80,0,0
119037,-83.3333333333333,4,2,0,60,0,0
129625,-200,4,2,0,65,0,0
129978,-83.3333333333333,4,2,0,70,0,0
134213,-83.3333333333333,4,2,1,5,0,0
134390,-83.3333333333333,4,2,0,70,0,0
135272,-200,4,2,0,70,0,0
135625,-83.3333333333333,4,2,0,70,0,0
139860,-83.3333333333333,4,2,1,5,0,0
140037,-83.3333333333333,4,2,0,70,0,0
140566,-200,4,2,0,50,0,0
152213,-125,4,2,0,50,0,0
152566,-100,4,2,0,50,0,0
158213,-83.3333333333333,4,2,0,55,0,0
159625,-83.3333333333333,4,2,0,65,0,0
160331,-83.3333333333333,4,2,0,70,0,0
161390,-66.6666666666667,4,2,0,80,0,0
182566,-83.3333333333333,4,2,0,80,0,0
183625,-200,4,2,0,35,0,0

[Colours]
Combo1 : 66,88,242
Combo2 : 237,221,187

[HitObjects]
112,147,1154,6,0,P|162:135|208:113,1,102,0|0,0:0|0:0,0:0:0:0:
209,36,1507,6,0,L|293:43,1,85,2|0,0:0|0:0,0:0:0:0:
298,41,1772,1,0,0:0:0:0:
302,39,1860,2,0,L|386:46,1,85,0|2,0:0|0:0,0:0:0:0:
439,165,2213,2,0,B|428:124|465:93|465:93|510:60|500:18,1,170,2|0,0:0|0:0,0:0:0:0:
506,224,2743,1,2,0:0:0:0:
506,224,3095,6,0,P|513:243|518:264,2,42.5,2|0|0,0:0|0:0|0:0,0:0:0:0:
345,168,3448,1,2,0:0:0:0:
430,263,3625,2,0,P|367:257|319:295,1,127.5,2|0,0:0|0:0,0:0:0:0:
317,300,3978,2,0,P|254:305|206:267,1,127.5,2|0,0:0|0:0,0:0:0:0:
204,262,4331,5,2,0:0:0:0:
33,298,4507,1,0,0:0:0:0:
33,298,4595,1,0,0:0:0:0:
33,298,4684,1,0,0:0:0:0:
112,358,4860,1,2,0:0:0:0:
114,328,4948,1,0,0:0:0:0:
125,300,5037,1,2,0:0:0:0:
204,262,5213,1,0,0:0:0:0:
33,298,5390,1,0,0:0:0:0:
204,262,5566,1,2,0:0:0:0:
204,262,5919,5,2,0:0:0:0:
202,232,6007,1,0,0:0:0:0:
191,204,6096,1,0,0:0:0:0:
105,143,6272,1,2,0:0:0:0:
157,10,6448,2,0,P|125:39|86:53,1,85,2|0,0:0|0:0,0:0:0:0:
82,51,6713,1,0,0:0:0:0:
78,48,6801,2,0,P|32:91|23:153,1,127.5,2|0,0:0|0:0,0:0:0:0:
79,230,7154,6,0,L|163:217,1,85,2|0,0:0|0:0,0:0:0:0:
167,219,7419,1,0,0:0:0:0:
171,220,7507,2,0,L|255:207,1,85,0|2,0:0|0:0,0:0:0:0:
331,306,7860,2,0,P|414:307|481:357,1,170,2|0,0:0|0:0,0:0:0:0:
512,237,8390,1,2,0:0:0:0:
512,237,8743,6,0,P|491:240|471:248,2,42.5,2|0|0,0:0|0:0|0:0,0:0:0:0:
370,164,9095,1,2,0:0:0:0:
457,164,9272,2,0,P|465:100|454:38,1,127.5,2|0,0:0|0:0,0:0:0:0:
450,37,9625,2,0,B|389:27|378:73|316:56,1,127.5,2|0,0:0|0:0,0:0:0:0:
326,58,9978,5,2,0:0:0:0:
168,24,10154,1,0,0:0:0:0:
168,24,10243,1,0,0:0:0:0:
168,24,10331,1,0,0:0:0:0:
201,122,10507,1,2,0:0:0:0:
228,110,10595,1,0,0:0:0:0:
257,108,10684,1,2,0:0:0:0:
120,96,10860,2,0,B|57:86|100:74|43:64,1,85,2|0,0:0|0:0,0:0:0:0:
120,96,11390,6,0,P|60:155|95:232,1,178.499994552612,4|0,1:2|0:0,0:0:0:0:
127,306,11743,2,0,P|165:380|248:371,1,178.499994552612,4|0,1:0|0:0,0:0:0:0:
328,364,12095,2,0,P|410:350|427:268,1,178.499994552612,4|0,1:0|0:0,0:0:0:0:
445,190,12448,2,0,P|457:106|384:65,1,178.499994552612,4|0,1:0|0:0,0:0:0:0:
315,24,12801,6,0,P|239:-13|178:42,1,178.499994552612,4|0,1:2|0:0,0:0:0:0:
120,96,13154,2,0,P|60:155|95:232,1,178.499994552612,4|0,1:0|0:0,0:0:0:0:
127,306,13507,2,0,P|165:380|248:371,1,178.499994552612,4|0,1:0|0:0,0:0:0:0:
328,364,13860,2,0,P|410:350|427:268,1,178.499994552612,4|0,1:0|0:0,0:0:0:0:
445,190,14213,6,0,B|406:181|397:191|362:192,1,59.4999981842042,4|0,1:2|0:0,0:0:0:0:
395,58,14390,2,0,B|375:91|382:103|372:137,1,59.4999981842042,0|0,1:0|0:0,0:0:0:0:
256,65,14566,2,0,B|282:94|295:91|324:111,1,59.4999981842042,4|0,1:0|0:0,0:0:0:0:
218,199,14743,2,0,B|253:183|254:169|283:148,1,59.4999981842042,0|0,1:0|0:0,0:0:0:0:
335,277,14919,6,0,B|330:238|318:232|306:199,3,59.4999981842042,4|0|0|0,1:2|1:0|1:0|1:0,0:0:0:0:
218,199,15272,5,4,1:0:0:0:
172,213,15360,5,0,1:0:0:0:
124,208,15448,5,0,1:0:0:0:
78,222,15536,5,0,1:0:0:0:
78,222,17037,5,4,1:0:0:0:
56,143,17213,1,2,0:0:0:0:
135,122,17390,1,8,1:0:0:0:
156,201,17566,1,2,0:0:0:0:
263,314,17743,6,0,B|277:254|295:286|305:223,1,101.999996887207,0|0,1:0|0:0,0:0:0:0:
303,218,18007,1,0,0:0:0:0:
301,213,18095,1,8,1:0:0:0:
416,284,18272,2,0,P|465:294|512:315,1,101.999996887207,2|0,0:0|1:0,0:0:0:0:
314,132,18625,6,0,P|288:132|264:139,1,50.9999984436036,2|0,0:0|0:0,0:0:0:0:
385,176,18801,2,0,P|410:176|434:183,1,50.9999984436036,8|0,1:0|0:0,0:0:0:0:
374,75,18978,1,2,3:0:0:0:
374,75,19066,1,0,3:0:0:0:
374,75,19154,2,0,L|367:16,1,50.9999984436036,0|0,1:0|0:0,0:0:0:0:
314,132,19331,2,0,P|288:132|264:139,1,50.9999984436036,2|0,3:0|0:0,0:0:0:0:
450,256,19507,2,0,P|493:232|510:185,1,101.999996887207,8|0,1:0|1:0,0:0:0:0:
453,23,19860,5,0,1:0:0:0:
374,75,20037,1,0,0:0:0:0:
369,72,20125,1,0,0:0:0:0:
364,69,20213,2,0,B|295:59|305:105|221:113,1,152.999995330811,8|0,1:0|0:0,0:0:0:0:
217,109,20566,2,0,P|124:87|78:80,1,101.999996887207,0|2,1:0|0:0,0:0:0:0:
72,16,20831,1,0,0:0:0:0:
112,9,20919,1,8,1:0:0:0:
251,24,21095,1,2,0:0:0:0:
251,24,21184,1,0,3:0:0:0:
251,24,21272,5,0,1:0:0:0:
168,178,21448,2,0,P|143:169|118:166,1,50.9999984436036,0|2,0:0|3:0,0:0:0:0:
222,242,21625,1,8,1:0:0:0:
217,109,21801,1,2,3:0:0:0:
168,178,21978,1,0,1:0:0:0:
318,274,22154,6,0,P|323:249|330:224,1,50.9999984436036,8|0,0:0|0:0,0:0:0:0:
385,338,22331,2,0,P|401:263|422:189,1,152.999995330811,8|0,0:0|0:0,0:0:0:0:
483,107,22684,5,4,1:2:0:0:
457,75,22772,1,0,0:0:0:0:
417,83,22860,1,2,0:0:0:0:
504,218,23037,2,0,B|481:184|418:191|422:237|330:230,1,152.999995330811,8|0,1:0|0:0,0:0:0:0:
358,227,23390,2,0,P|313:203|262:197,1,101.999996887207,0|2,1:0|0:0,0:0:0:0:
258,201,23654,1,0,0:0:0:0:
254,204,23743,1,8,1:0:0:0:
168,324,23919,2,0,P|123:347|72:353,1,101.999996887207,2|0,0:0|1:0,0:0:0:0:
22,261,24272,5,2,0:0:0:0:
121,189,24448,1,8,1:0:0:0:
50,111,24625,2,0,P|25:104|0:99,1,50.9999984436036,2|0,0:0|3:0,0:0:0:0:
82,33,24801,1,0,1:0:0:0:
131,139,24978,2,0,P|125:163|121:189,1,50.9999984436036,2|0,3:0|0:0,0:0:0:0:
214,119,25154,2,0,P|198:193|189:269,1,152.999995330811,8|0,1:0|1:0,0:0:0:0:
191,274,25507,5,0,1:0:0:0:
302,365,25684,1,0,0:0:0:0:
305,361,25772,1,0,0:0:0:0:
308,357,25860,2,0,B|352:303|378:368|457:357,1,152.999995330811,8|0,1:0|0:0,0:0:0:0:
454,355,26213,2,0,P|460:304|471:254,1,101.999996887207,0|2,1:0|0:0,0:0:0:0:
512,185,26478,1,0,0:0:0:0:
474,169,26566,1,8,1:0:0:0:
348,249,26743,1,2,0:0:0:0:
348,249,26831,1,0,3:0:0:0:
348,249,26919,5,0,1:0:0:0:
255,172,27095,2,0,P|233:159|212:143,1,50.9999984436036,0|2,0:0|3:0,0:0:0:0:
135,125,27272,1,8,1:0:0:0:
257,14,27448,6,0,P|251:30|248:47,1,34,4|4,3:0|3:0,0:0:0:0:
156,1,27801,1,8,3:0:0:0:
156,1,27978,1,4,3:0:0:0:
206,372,28331,6,0,P|221:332|242:294,1,85,4|0,1:2|0:0,0:0:0:0:
242,294,28595,1,0,0:0:0:0:
242,294,28684,1,0,0:0:0:0:
123,288,28860,1,2,0:0:0:0:
111,256,28948,1,0,0:0:0:0:
93,226,29037,2,0,P|115:166|146:110,1,127.5,2|0,0:0|0:0,0:0:0:0:
146,110,29390,1,0,0:0:0:0:
98,13,29566,6,0,P|56:16|29:47,1,85,2|0,0:0|0:0,0:0:0:0:
77,144,29919,2,0,P|118:141|146:110,1,85,2|0,0:0|0:0,0:0:0:0:
232,88,30272,1,2,0:0:0:0:
232,88,30448,1,0,0:0:0:0:
295,149,30625,1,2,0:0:0:0:
255,1,30801,1,2,0:3:0:0:
146,110,30978,1,2,0:3:0:0:
195,182,31154,6,0,P|208:222|219:263,1,85,2|0,0:0|0:0,0:0:0:0:
219,263,31419,1,0,0:0:0:0:
219,263,31507,1,0,0:0:0:0:
328,231,31684,1,2,0:0:0:0:
360,241,31772,1,0,0:0:0:0:
389,255,31860,1,2,0:0:0:0:
337,320,32037,1,0,0:0:0:0:
359,177,32213,1,0,0:0:0:0:
471,268,32390,1,2,0:0:0:0:
478,275,32743,5,2,0:0:0:0:
478,275,32831,1,0,0:0:0:0:
478,275,32919,2,0,P|483:224|493:174,1,85,0|2,0:0|0:0,0:0:0:0:
369,282,33272,2,0,P|374:333|384:383,1,85,2|0,0:0|0:0,0:0:0:0:
380,366,33537,1,0,0:0:0:0:
380,366,33625,1,2,0:0:0:0:
472,365,33801,2,0,P|492:371|512:379,1,42.5,4|0,0:0|0:0,0:0:0:0:
289,340,33978,6,0,P|288:289|294:238,1,101.999996887207,4|0,1:0|0:0,0:0:0:0:
106,343,34507,2,0,P|103:317|106:292,1,50.9999984436036,0|0,1:0|0:0,0:0:0:0:
28,357,34684,2,0,P|27:306|33:255,1,101.999996887207,0|0,1:0|0:0,0:0:0:0:
183,75,35213,6,0,P|133:61|83:53,1,101.999996887207,0|0,1:0|0:0,0:0:0:0:
338,33,35566,2,0,P|288:19|238:11,1,101.999996887207,0|0,1:0|0:0,0:0:0:0:
446,195,35919,2,0,P|421:186|396:182,1,50.9999984436036,0|0,1:0|0:0,0:0:0:0:
485,127,36095,2,0,P|435:113|385:105,1,101.999996887207,0|0,1:0|0:0,0:0:0:0:
205,203,36448,2,0,P|199:186|196:170,4,33.9999989624024,4|0|0|0|0,0:0|0:0|0:0|0:0|0:0,0:0:0:0:
291,163,36801,6,0,P|285:214|274:264,1,101.999996887207,0|0,1:0|0:0,0:0:0:0:
435,292,37331,2,0,P|433:317|427:342,1,50.9999984436036,0|0,1:0|0:0,0:0:0:0:
512,282,37507,2,0,P|506:332|495:382,1,101.999996887207,0|0,1:0|0:0,0:0:0:0:
302,333,37860,2,0,P|286:334|269:337,2,33.9999989624024,0|0|0,0:0|0:0|0:0,0:0:0:0:
318,344,38037,1,0,1:0:0:0:
324,293,38125,1,0,3:0:0:0:
339,244,38213,5,0,1:0:0:0:
189,316,38390,2,0,P|197:265|209:216,1,101.999996887207,0|0,3:0|1:0,0:0:0:0:
161,46,38743,1,0,3:0:0:0:
123,203,38919,2,0,P|118:177|112:153,1,50.9999984436036,0|0,1:0|0:0,0:0:0:0:
51,22,39095,2,0,P|46:47|40:71,1,50.9999984436036,8|8,3:0|3:0,0:0:0:0:
37,195,39272,1,4,3:0:0:0:
55,147,39360,1,4,3:0:0:0:
99,121,39448,1,2,1:2:0:0:
143,94,39537,1,2,1:2:0:0:
161,46,39625,5,4,1:0:0:0:
195,158,39801,1,0,0:0:0:0:
246,60,39978,1,8,0:0:0:0:
280,172,40154,1,2,0:0:0:0:
331,74,40331,6,0,B|407:62|392:22|467:8,1,152.999995330811,0|0,1:0|0:0,0:0:0:0:
466,8,40684,1,8,0:0:0:0:
512,135,40860,2,0,B|437:149|452:189|376:201,1,152.999995330811,2|0,0:0|0:0,0:0:0:0:
376,200,41213,1,2,0:0:0:0:
287,273,41390,2,0,P|336:282|379:308,1,101.999996887207,8|0,0:0|0:0,0:0:0:0:
480,377,41743,2,0,P|482:351|487:326,1,50.9999984436036,0|0,1:2|0:0,0:0:0:0:
510,251,41919,1,2,3:0:0:0:
510,251,42095,2,0,P|509:234|506:217,4,33.9999989624024,2|0|0|2|0,3:0|0:0|0:0|0:0|0:0,0:0:0:0:
446,155,42448,5,0,1:0:0:0:
317,128,42625,1,0,0:2:0:0:
478,76,42801,1,8,0:0:0:0:
349,49,42978,1,2,0:2:0:0:
247,180,43154,6,0,P|233:131|242:81,1,101.999996887207,0|2,1:0|0:2,0:0:0:0:
317,128,43507,1,8,0:0:0:0:
177,232,43684,2,0,P|128:174|118:99,1,152.999995330811,2|0,0:0|0:0,0:0:0:0:
117,99,44037,1,2,0:0:0:0:
142,311,44213,6,0,P|92:298|53:265,2,101.999996887207,8|0|2,0:2|0:0|1:2,0:0:0:0:
177,232,44743,1,8,0:0:0:0:
177,232,44919,1,8,0:0:0:0:
206,378,45095,1,4,0:0:0:0:
343,292,45272,6,0,B|409:302|366:319|434:330,1,101.999996887207,4|0,1:0|0:0,0:0:0:0:
268,193,45625,2,0,B|201:203|244:220|176:231,1,101.999996887207,8|2,0:0|0:0,0:0:0:0:
409,224,45978,2,0,P|415:173|408:123,1,101.999996887207,0|2,1:0|0:0,0:0:0:0:
340,61,46331,1,8,0:0:0:0:
490,98,46507,6,0,P|499:173|490:249,1,152.999995330811,2|0,0:0|0:0,0:0:0:0:
490,249,46860,1,2,0:0:0:0:
368,323,47037,2,0,P|318:332|281:366,2,101.999996887207,8|0|2,0:2|0:0|1:2,0:0:0:0:
479,359,47566,1,2,3:0:0:0:
479,359,47743,2,0,P|467:346|458:331,4,33.9999989624024,2|0|0|2|0,3:0|0:0|0:0|0:0|0:0,0:0:0:0:
489,249,48095,6,0,P|439:252|396:227,1,101.999996887207,0|2,1:0|0:0,0:0:0:0:
247,164,48448,2,0,P|297:167|340:142,1,101.999996887207,8|2,0:0|0:0,0:0:0:0:
370,6,48801,1,0,1:0:0:0:
421,127,48978,2,0,P|411:103|396:82,1,50.9999984436036,4|0,0:0|0:0,0:0:0:0:
285,10,49154,2,0,P|270:31|260:54,1,50.9999984436036,0|0,1:0|0:0,0:0:0:0:
178,114,49331,6,0,P|127:117|84:92,1,101.999996887207,4|0,1:2|0:0,0:0:0:0:
23,0,49684,1,8,3:0:0:0:
0,138,49860,1,4,3:0:0:0:
46,119,49948,1,4,3:0:0:0:
96,120,50037,1,0,1:0:0:0:
142,143,50125,1,0,1:0:0:0:
175,181,50212,1,4,1:0:0:0:
175,181,50566,2,0,L|276:170,1,102,4|0,0:0|0:0,0:0:0:0:
341,125,50919,6,0,P|350:148|354:173,1,50.9999984436036,4|0,1:0|0:0,0:0:0:0:
341,125,51272,1,2,3:0:0:0:
420,220,51448,2,0,P|429:197|433:172,1,50.9999984436036,0|0,1:0|0:0,0:0:0:0:
498,127,51625,2,0,P|507:150|511:175,1,50.9999984436036,0|0,1:0|0:0,0:0:0:0:
512,297,51801,1,2,0:0:0:0:
512,297,51890,2,0,L|443:289,1,50.9999984436036,0|2,1:0|3:0,0:0:0:0:
315,375,52154,6,0,B|328:318|344:341|358:283,1,101.999996887207,2|0,1:2|0:0,0:0:0:0:
358,284,52507,2,0,B|343:226|327:249|314:192,1,101.999996887207,0|2,1:0|3:0,0:0:0:0:
314,193,52860,1,2,1:0:0:0:
239,303,53037,2,0,P|166:285|107:330,1,152.999995330811,2|0,1:0|0:0,0:0:0:0:
184,369,53390,1,8,0:0:0:0:
184,369,53566,1,2,1:0:0:0:
143,200,53743,6,0,P|70:217|11:172,1,152.999995330811,2|0,1:0|0:0,0:0:0:0:
88,134,54095,1,2,3:0:0:0:
241,106,54272,1,0,1:0:0:0:
173,0,54448,2,0,P|163:50|159:100,1,101.999996887207,0|2,1:0|0:2,0:0:0:0:
162,105,54713,1,0,1:0:0:0:
164,109,54801,1,2,3:0:0:0:
270,226,54978,2,0,P|265:175|255:125,1,101.999996887207,2|0,1:2|0:0,0:0:0:0:
255,125,55331,5,0,1:0:0:0:
197,266,55507,1,2,3:0:0:0:
349,247,55684,1,0,1:0:0:0:
255,125,55860,1,0,1:0:0:0:
309,57,56037,5,8,0:0:0:0:
309,57,56213,2,0,B|414:68|309:61|414:72,1,102,8|0,0:0|0:0,0:0:0:0:
435,143,56566,6,0,P|485:90|465:20,1,152.999995330811,4|0,1:2|0:0,0:0:0:0:
465,20,56919,1,0,1:0:0:0:
309,57,57095,1,2,0:0:0:0:
350,140,57272,1,0,1:0:0:0:
254,215,57448,2,0,P|247:239|243:264,1,50.9999984436036,2|2,0:0|0:0,0:0:0:0:
238,342,57625,1,2,1:2:0:0:
326,261,57801,1,2,0:0:0:0:
166,296,57978,2,0,B|89:285|97:251|13:238,1,152.999995330811,2|0,1:2|0:0,0:0:0:0:
24,240,58331,6,2,P|95:249|128:185,1,152.999995330811,2|0,1:2|0:0,1:0:0:0:
128,185,58684,1,2,1:0:0:0:
5,136,58860,1,8,0:0:0:0:
198,148,59037,2,2,P|126:157|93:93,1,152.999995330811,8|0,1:2|0:0,1:0:0:0:
94,93,59390,1,2,1:0:0:0:
217,44,59566,1,0,0:0:0:0:
287,103,59743,6,0,P|298:53|317:6,1,101.999996887207,0|0,1:0|0:0,0:0:0:0:
359,145,60095,2,0,P|371:69|406:2,1,152.999995330811,2|2,1:2|0:0,0:0:0:0:
406,2,60448,2,0,P|406:27|413:52,1,50.9999984436036,0|0,1:0|0:0,0:0:0:0:
512,19,60625,2,0,P|505:43|493:65,1,50.9999984436036,4|0,1:2|0:0,0:0:0:0:
286,235,60978,6,0,P|286:209|293:184,1,50.9999984436036,0|0,1:0|0:0,0:0:0:0:
392,218,61154,2,0,P|385:193|373:171,1,50.9999984436036,4|0,1:2|0:0,0:0:0:0:
223,286,61331,2,0,P|210:263|203:238,1,50.9999984436036,0|0,1:0|0:0,0:0:0:0:
466,250,61507,2,0,P|472:224|472:198,1,50.9999984436036,4|0,1:0|0:0,0:0:0:0:
428,369,61860,5,2,0:0:0:0:
428,369,62213,6,0,B|362:354|334:264|387:204,1,191.250007295609,4|0,1:0|0:0,0:0:0:0:
481,54,62566,2,0,B|505:45|507:-7|436:-14|391:78|448:144,1,191.250007295609,4|0,1:2|0:0,0:0:0:0:
485,193,62919,2,0,P|460:172|432:157,1,63.7500024318696,0|0,1:0|0:0,0:0:0:0:
389,87,63095,2,0,P|357:81|325:82,1,63.7500024318696,2|0,0:0|0:0,0:0:0:0:
252,43,63272,2,0,P|221:53|194:70,1,63.7500024318696,2|0,1:2|0:0,0:0:0:0:
111,73,63448,2,0,P|90:97|75:125,1,63.7500024318696,4|0,1:2|0:0,0:0:0:0:
127,184,63625,6,0,P|65:166|3:152,1,127.500004863739,0|4,1:0|1:2,0:0:0:0:
178,336,63978,2,0,P|195:241|219:149,1,191.250007295609,4|0,1:2|0:0,0:0:0:0:
219,149,64331,2,0,P|280:131|342:117,1,127.500004863739,4|0,1:2|0:0,0:0:0:0:
485,193,64684,1,0,1:2:0:0:
342,116,64860,1,4,1:0:0:0:
461,78,65037,6,0,B|442:170|374:155|357:233,1,191.250007295609,4|0,1:2|0:0,0:0:0:0:
357,233,65390,1,2,1:2:0:0:
492,364,65566,2,0,B|481:290|435:319|430:219,1,127.500004863739,4|0,1:0|3:0,0:0:0:0:
228,311,65919,2,0,B|239:237|285:266|290:166,1,127.500004863739,4|0,1:2|0:0,0:0:0:0:
368,41,66272,6,0,B|371:0|411:-18|457:-2|469:56|452:106|384:90|367:168,1,255.000009727478,4|2,1:2|0:0,0:0:0:0:
357,233,66801,1,0,1:0:0:0:
474,277,66978,1,2,1:2:0:0:
316,365,67154,2,0,P|308:333|307:302,1,63.7500024318696,0|0,1:0|1:0,0:0:0:0:
236,373,67331,2,0,P|228:341|227:310,1,63.7500024318696,0|0,1:0|1:0,0:0:0:0:
160,212,67507,2,0,P|152:243|151:274,1,63.7500024318696,4|4,3:0|3:0,0:0:0:0:
80,204,67684,2,0,P|72:235|71:266,1,63.7500024318696,4|4,3:0|3:0,0:0:0:0:
25,334,67860,5,4,1:0:0:0:
0,155,68037,1,4,0:0:0:0:
177,129,68213,1,0,1:0:0:0:
204,309,68390,1,4,0:0:0:0:
278,237,68566,2,0,B|377:240|349:301|472:321,1,191.250007295609,4|0,1:2|0:0,0:0:0:0:
500,260,68919,5,4,1:0:0:0:
468,122,69095,1,4,0:0:0:0:
330,154,69272,1,0,1:0:0:0:
362,292,69448,1,4,0:0:0:0:
415,207,69625,2,0,P|433:113|455:20,1,191.250007295609,4|0,1:2|0:0,0:0:0:0:
455,20,69978,6,0,P|467:49|475:80,1,63.7500024318696,6|0,1:0|0:0,0:0:0:0:
330,154,70154,1,0,0:0:0:0:
394,267,70331,2,0,P|406:237|415:207,1,63.7500024318696,6|0,1:0|0:0,0:0:0:0:
269,94,70507,1,0,0:0:0:0:
158,179,70684,6,0,P|98:160|73:104,1,127.500004863739,4|2,1:2|1:2,0:0:0:0:
269,94,71037,2,0,P|287:34|343:9,1,127.500004863739,0|2,1:0|1:2,0:0:0:0:
354,205,71390,2,0,P|413:223|438:279,1,127.500004863739,2|2,1:2|1:2,0:0:0:0:
243,290,71743,2,0,P|224:349|168:374,1,127.500004863739,0|2,1:0|1:2,0:0:0:0:
256,192,72095,5,4,0:0:0:0:
57,229,72272,1,2,1:2:0:0:
126,280,72625,5,2,1:2:0:0:
89,81,72801,1,4,1:2:0:0:
89,81,72978,1,0,1:2:0:0:
139,11,73154,6,0,P|171:18|201:28,1,63.7500024318696,4|0,0:0|0:0,0:0:0:0:
166,111,73331,2,0,P|134:117|104:127,1,63.7500024318696,2|0,1:2|0:0,0:0:0:0:
269,70,73507,6,0,B|298:192|333:107|366:259,1,191.250007295609,4|0,1:0|0:0,0:0:0:0:
454,261,73860,2,0,P|365:248|330:329,1,191.250007295609,4|0,1:2|0:0,0:0:0:0:
409,376,74213,2,0,P|410:344|403:314,1,63.7500024318696,0|0,1:0|0:0,0:0:0:0:
255,329,74390,2,0,P|254:297|261:266,1,63.7500024318696,2|0,0:0|0:0,0:0:0:0:
359,233,74566,2,0,P|359:201|352:170,1,63.7500024318696,0|0,1:0|0:0,0:0:0:0:
204,185,74743,2,0,P|203:153|210:122,1,63.7500024318696,4|0,1:2|0:0,0:0:0:0:
273,2,74919,6,0,P|282:65|288:128,1,127.500004863739,0|4,1:0|1:2,0:0:0:0:
504,136,75272,2,0,B|528:117|528:84|508:56|471:54|435:68|435:68|350:104,1,191.250007295609,4|0,1:2|0:0,0:0:0:0:
393,85,75625,2,0,P|383:148|377:211,1,127.500004863739,4|0,1:2|0:0,0:0:0:0:
174,209,75978,5,4,1:0:0:0:
311,143,76154,2,0,B|329:60|287:54|293:15|293:15|221:54|218:107,1,255.000009727478,4|0,1:2|0:0,0:0:0:0:
174,209,76684,1,4,1:0:0:0:
21,220,76860,2,0,B|-36:157|-2:131|-27:100|-27:100|53:98|83:143,1,255.000009727478,4|0,1:2|0:0,0:0:0:0:
174,209,77390,1,4,1:0:0:0:
108,352,77566,2,0,B|129:375|179:367|198:340|202:308|202:308|220:334|251:348|298:330|303:299,1,255.000009727478,4|0,1:2|0:0,0:0:0:0:
456,364,78095,6,0,B|438:250|394:308|374:148,1,191.250007295609,6|0,1:0|0:0,0:0:0:0:
442,138,78448,2,0,P|466:117|495:104,1,63.7500024318696,8|8,3:0|3:0,0:0:0:0:
366,111,78625,2,0,P|360:79|364:47,1,63.7500024318696,4|4,3:0|3:0,0:0:0:0:
304,164,78801,2,0,P|274:152|248:133,1,63.7500024318696,4|0,1:0|1:0,0:0:0:0:
380,191,78978,2,0,P|390:225|408:263,1,63.7500024318696,0|0,1:0|1:0,0:0:0:0:
293,297,79154,6,0,P|230:283|167:274,1,127.500004863739,4|0,1:2|0:0,0:0:0:0:
231,106,79507,2,0,P|168:92|105:83,1,127.500004863739,2|0,1:0|0:0,0:0:0:0:
274,213,79860,2,0,P|337:199|400:190,1,127.500004863739,2|0,1:2|0:0,0:0:0:0:
336,22,80213,2,0,P|399:8|462:-1,1,127.500004863739,2|0,1:0|0:0,0:0:0:0:
501,143,80566,5,2,1:0:0:0:
359,119,80743,1,0,0:0:0:0:
512,228,80919,1,2,1:2:0:0:
370,204,81096,1,0,0:0:0:0:
405,376,81272,2,0,P|416:313|435:252,1,127.500004863739,2|0,1:2|0:0,0:0:0:0:
250,310,81625,2,0,B|182:326|152:277|132:254|60:250,1,191.250007295609,2|0,1:2|0:0,0:0:0:0:
27,319,81978,5,6,1:0:0:0:
27,319,82154,1,0,0:0:0:0:
50,176,82331,5,4,1:2:0:0:
50,176,82507,1,0,0:0:0:0:
162,267,82684,5,4,1:2:0:0:
162,267,82860,1,0,0:0:0:0:
185,124,83037,5,4,1:2:0:0:
185,124,83213,1,0,0:0:0:0:
297,215,83390,5,4,1:0:0:0:
297,215,83566,1,0,0:0:0:0:
320,72,83743,5,4,1:2:0:0:
320,72,83919,1,0,0:0:0:0:
432,163,84095,1,4,1:2:0:0:
455,20,84272,1,0,1:0:0:0:
402,84,84448,5,2,3:0:0:0:
406,88,84537,1,2,3:0:0:0:
410,92,84625,1,2,3:0:0:0:
414,96,84713,1,2,3:0:0:0:
418,99,84801,6,0,B|420:197|362:181|365:279,1,165.749992412568,4|0,1:0|0:0,0:0:0:0:
365,253,85154,1,8,0:0:0:0:
421,358,85331,1,0,3:0:0:0:
426,356,85419,1,0,3:0:0:0:
430,354,85507,2,0,P|435:326|442:299,1,55.2499974708558,2|0,0:2|0:0,0:0:0:0:
298,313,85684,1,2,0:0:0:0:
293,311,85772,2,0,P|288:283|281:256,1,55.2499974708558,0|8,3:0|0:0,0:0:0:0:
155,361,85948,1,2,0:0:0:0:
160,359,86036,1,0,3:0:0:0:
164,357,86124,2,0,P|168:329|175:302,1,55.2499974708558,2|0,0:0|1:0,0:0:0:0:
101,231,86301,5,0,3:0:0:0:
67,210,86390,1,2,0:0:0:0:
71,171,86478,2,0,L|12:158,1,55.2499974708558,2|8,0:0|0:0,0:0:0:0:
225,136,86654,2,0,B|249:128|249:128|254:130|254:130|284:123,1,55.2499974708558,2|0,0:0|3:0,0:0:0:0:
89,93,86831,2,0,L|30:80,1,55.2499974708558,2|0,0:0|3:0,0:0:0:0:
167,8,87007,1,2,0:0:0:0:
197,30,87095,2,0,P|179:51|169:76,1,55.2499974708558,0|0,3:0|0:0,0:0:0:0:
225,136,87272,2,0,L|284:123,1,55.2499974708558,8|0,0:0|0:0,0:0:0:0:
375,188,87448,1,2,0:0:0:0:
405,166,87536,2,0,P|387:145|377:120,1,55.2499974708558,2|0,0:0|3:0,0:0:0:0:
447,20,87713,5,2,0:0:0:0:
474,47,87801,1,2,0:0:0:0:
462,84,87890,1,2,0:0:0:0:
465,88,87978,2,0,L|445:292,1,165.749992412568,8|0,0:0|0:0,0:0:0:0:
448,252,88331,2,0,P|459:278|468:304,1,55.2499974708558,0|0,3:0|0:0,0:0:0:0:
305,285,88507,1,2,0:0:0:0:
309,288,88595,2,0,P|319:313|328:339,1,55.2499974708558,0|8,3:0|0:0,0:0:0:0:
340,170,88772,1,0,3:0:0:0:
344,173,88860,1,2,0:0:0:0:
348,176,88948,2,0,P|358:201|367:227,1,55.2499974708558,2|2,3:0|3:0,0:0:0:0:
150,312,89213,5,2,3:0:0:0:
144,310,89301,1,0,3:0:0:0:
138,308,89390,2,0,P|132:283|124:257,4,27.6249987354279,2|2|2|0|0,0:0|0:0|3:0|0:0|3:0,0:0:0:0:
221,358,89743,1,2,3:0:0:0:
35,305,89919,1,8,0:0:0:0:
35,305,90095,1,8,0:0:0:0:
35,305,90448,5,4,1:2:0:0:
29,303,90537,1,0,3:0:0:0:
23,300,90625,1,2,0:0:0:0:
80,202,90801,2,0,B|106:99|142:164|165:42,1,165.749992412568,8|2,0:0|0:0,0:0:0:0:
160,61,91154,2,0,P|134:51|108:42,1,55.2499974708558,0|0,3:0|0:0,0:0:0:0:
277,45,91331,1,2,0:0:0:0:
281,41,91419,2,0,P|255:31|229:22,1,55.2499974708558,0|8,3:0|0:0,0:0:0:0:
393,28,91596,1,2,0:0:0:0:
397,24,91684,1,0,3:0:0:0:
401,20,91772,2,0,P|375:10|349:1,1,55.2499974708558,0|0,3:0|3:0,0:0:0:0:
451,90,91948,5,2,0:0:0:0:
454,93,92037,1,2,0:0:0:0:
457,96,92125,1,2,0:0:0:0:
460,99,92213,1,8,0:0:0:0:
443,133,92301,1,0,3:0:0:0:
448,171,92390,1,2,0:0:0:0:
431,205,92478,1,2,0:0:0:0:
436,242,92566,2,0,P|424:268|415:294,2,55.2499974708558,0|2|0,3:0|0:0|3:0,0:0:0:0:
338,161,92919,5,8,0:0:0:0:
273,244,93095,1,2,0:0:0:0:
249,275,93184,2,0,P|261:301|270:327,1,55.2499974708558,2|0,0:0|3:0,0:0:0:0:
206,382,93360,2,0,P|189:329|167:278,1,110.499994941712,0|0,3:0|3:0,0:0:0:0:
167,278,93625,2,0,P|88:284|46:217,1,165.749992412568,8|2,0:0|0:0,0:0:0:0:
10,141,93978,1,0,3:0:0:0:
122,183,94154,1,2,3:0:0:0:
127,181,94243,1,2,3:0:0:0:
131,179,94331,2,0,P|138:124|115:75,1,110.499994941712,8|2,0:0|0:0,0:0:0:0:
219,106,94595,5,2,0:0:0:0:
250,129,94684,2,0,P|267:107|274:81,1,55.2499974708558,2|0,3:0|0:0,0:0:0:0:
349,29,94860,1,0,3:0:0:0:
354,27,94948,1,0,3:0:0:0:
359,25,95037,2,0,P|376:47|383:73,1,55.2499974708558,8|0,0:0|0:0,0:0:0:0:
428,148,95213,1,2,3:0:0:0:
511,116,95390,1,0,1:0:0:0:
428,148,95566,1,8,3:0:0:0:
511,116,95743,1,4,3:0:0:0:
428,148,95919,1,4,3:0:0:0:
498,203,96095,6,0,P|484:244|474:285,1,85,4|0,1:0|0:0,0:0:0:0:
376,330,96448,2,0,P|390:289|400:248,1,85,0|0,3:0|0:0,0:0:0:0:
317,159,96801,2,0,P|303:118|293:77,1,85,0|0,3:0|0:0,0:0:0:0:
195,32,97154,2,0,P|209:73|219:114,1,85,0|0,3:0|0:0,0:0:0:0:
116,195,97507,6,0,P|74:189|40:164,1,85,0|0,3:0|0:0,0:0:0:0:
98,78,97860,2,0,P|139:72|173:47,1,85,0|0,3:0|0:0,0:0:0:0:
26,2,98213,1,0,3:0:0:0:
26,2,98390,1,0,1:0:0:0:
26,2,98566,2,0,L|32:40,6,21.25,0|0|0|0|0|0|0,1:0|0:0|0:0|0:0|0:0|0:0|0:0,0:0:0:0:
98,78,98919,6,0,P|95:120|88:162,1,85,0|0,1:0|0:0,0:0:0:0:
194,92,99272,2,0,P|191:134|184:176,1,85,0|0,3:0|0:0,0:0:0:0:
297,255,99625,2,0,P|294:212|287:170,1,85,0|0,3:0|0:0,0:0:0:0:
393,241,99978,2,0,P|390:198|383:156,1,85,0|0,3:0|0:0,0:0:0:0:
447,73,100331,6,0,P|412:49|370:50,1,85,0|0,3:0|0:0,0:0:0:0:
287,120,100684,2,0,P|252:143|210:142,1,85,0|0,3:0|0:0,0:0:0:0:
91,92,101037,1,0,3:0:0:0:
91,92,101213,1,2,3:0:0:0:
91,92,101390,2,0,P|85:72|85:51,2,42.5,2|0|0,3:0|0:0|0:0,0:0:0:0:
146,238,101743,6,0,P|139:280|130:321,1,85,0|0,1:0|0:0,0:0:0:0:
0,369,102095,2,0,P|42:375|83:384,1,85,0|0,3:0|0:0,0:0:0:0:
292,369,102448,2,0,P|285:326|276:285,1,85,0|0,3:0|0:0,0:0:0:0:
146,238,102801,2,0,P|188:231|229:222,1,85,0|0,3:0|0:0,0:0:0:0:
393,157,103154,6,0,P|435:159|471:181,1,85,0|0,3:0|0:0,0:0:0:0:
433,306,103507,2,0,P|390:303|354:281,1,85,0|0,3:0|0:0,0:0:0:0:
256,192,103860,1,0,3:0:0:0:
256,192,104037,1,0,1:0:0:0:
256,192,104213,2,0,L|253:154,6,21.25,0|0|0|0|0|0|0,1:0|0:0|0:0|0:0|0:0|0:0|0:0,0:0:0:0:
184,95,104566,6,0,P|187:52|198:11,1,85,0|0,1:0|0:0,0:0:0:0:
314,11,104919,2,0,P|325:52|328:95,1,85,0|0,3:0|0:0,0:0:0:0:
256,192,105272,2,0,P|214:182|172:176,1,85,0|0,3:0|0:0,0:0:0:0:
256,192,105625,2,0,P|297:182|339:176,1,85,0|0,3:0|0:0,0:0:0:0:
457,264,105978,6,0,B|440:314|407:305|388:366,1,102,4|0,1:3|0:0,0:0:0:0:
351,273,106331,2,0,B|334:323|301:314|282:375,1,102,8|0,1:3|0:0,0:0:0:0:
245,282,106684,2,0,B|228:332|195:323|176:384,1,102,4|0,1:3|0:0,0:0:0:0:
100,362,107037,6,0,P|39:360|9:304,1,127.5,4|0,1:2|0:0,0:0:0:0:
72,241,107390,6,0,B|97:134|2:165|26:54,1,203.999993774414,4|8,1:0|0:0,0:0:0:0:
213,56,107919,1,2,0:0:0:0:
104,85,108095,2,0,P|113:35|151:4,1,101.999996887207,2|0,1:2|0:0,0:0:0:0:
213,56,108360,2,0,P|250:88|258:137,1,101.999996887207,8|0,0:2|0:0,0:0:0:0:
183,164,108625,2,0,P|135:180|89:162,1,101.999996887207,2|0,0:2|1:0,0:0:0:0:
213,56,108978,5,2,0:0:0:0:
347,121,109154,1,8,0:0:0:0:
444,8,109331,1,0,0:0:0:0:
431,113,109507,2,0,B|426:177|400:168|398:208,1,101.999996887207,2|2,1:2|3:0,0:0:0:0:
433,350,109860,2,0,L|478:342,4,33.9999989624024,2|0|0|0|0,3:0|0:0|0:0|1:0|0:0,0:0:0:0:
348,275,110213,5,0,1:0:0:0:
496,194,110390,1,2,0:0:0:0:
503,307,110566,1,8,0:0:0:0:
333,259,110743,2,0,B|197:268|267:316|145:325,1,203.999993774414,2|2,0:0|0:0,0:0:0:0:
288,353,111272,1,8,0:0:0:0:
169,246,111448,6,0,P|94:234|38:184,1,152.999995330811,2|0,0:0|0:0,0:0:0:0:
38,184,111801,1,0,0:0:0:0:
38,184,111890,1,0,0:0:0:0:
38,184,111978,1,8,0:2:0:0:
111,82,112154,2,0,P|104:57|101:32,1,50.9999984436036,2|0,3:0|0:0,0:0:0:0:
193,118,112331,2,0,P|186:142|183:167,1,50.9999984436036,0|0,1:0|0:0,0:0:0:0:
251,49,112507,1,8,0:0:0:0:
251,49,112684,1,8,0:0:0:0:
251,49,113037,6,0,P|275:142|202:204,1,203.999993774414,4|8,1:2|0:0,0:0:0:0:
19,270,113566,1,2,0:0:0:0:
80,331,113743,2,0,P|126:310|163:276,1,101.999996887207,2|0,1:2|0:0,0:0:0:0:
252,240,114007,2,0,P|210:210|162:194,1,101.999996887207,8|0,0:2|0:0,0:0:0:0:
88,136,114272,2,0,P|82:186|93:236,1,101.999996887207,2|0,0:0|1:0,0:0:0:0:
217,341,114625,5,2,0:0:0:0:
335,261,114801,1,8,0:0:0:0:
475,338,114978,1,2,0:0:0:0:
372,361,115154,2,0,B|382:303|409:329|419:257,1,101.999996887207,0|2,1:0|3:0,0:0:0:0:
480,139,115507,2,0,L|516:129,4,33.9999989624024,2|0|0|2|0,1:3|0:0|0:0|1:2|0:0,0:0:0:0:
393,71,115860,5,0,1:0:0:0:
285,186,116037,1,2,0:0:0:0:
416,271,116213,1,8,0:0:0:0:
318,110,116390,2,0,P|245:112|201:172,1,152.999995330811,2|0,0:0|0:0,0:0:0:0:
163,248,116743,2,0,P|174:270|183:294,1,50.9999984436036,4|0,0:0|0:0,0:0:0:0:
89,366,116919,2,0,P|100:343|109:319,1,50.9999984436036,2|0,1:2|0:0,0:0:0:0:
35,178,117095,6,0,P|25:127|21:77,1,101.999996887207,4|0,0:0|1:0,0:0:0:0:
0,284,117448,2,0,P|23:275|49:271,1,50.9999984436036,4|0,3:0|0:0,0:0:0:0:
35,178,117625,2,0,P|60:182|83:191,1,50.9999984436036,8|0,3:0|0:0,0:0:0:0:
118,103,117801,2,0,P|137:119|153:139,1,50.9999984436036,4|0,3:0|0:0,0:0:0:0:
227,79,117978,2,0,P|235:102|239:128,1,50.9999984436036,2|0,1:0|0:0,0:0:0:0:
333,112,118154,2,0,P|328:137|319:160,1,50.9999984436036,4|0,1:0|0:0,0:0:0:0:
408,193,118331,2,0,P|391:212|371:228,1,50.9999984436036,2|0,1:0|0:0,0:0:0:0:
432,300,118507,2,0,P|408:308|382:312,1,50.9999984436036,2|0,1:0|0:0,0:0:0:0:
309,380,118684,5,4,1:0:0:0:
309,380,119037,1,4,1:2:0:0:
264,255,119213,1,2,0:0:0:0:
325,136,119390,1,0,1:0:0:0:
280,11,119566,1,0,0:0:0:0:
279,16,119654,1,2,0:0:0:0:
278,21,119743,1,2,1:2:0:0:
366,52,119919,1,2,0:0:0:0:
239,95,120095,6,0,B|148:87|187:50|98:41,1,152.999995330811,2|0,1:2|0:0,0:0:0:0:
31,88,120448,2,0,P|48:135|80:241,1,152.999995330811,2|0,1:0|0:0,0:0:0:0:
153,264,120801,2,0,P|166:214|180:165,1,101.999996887207,4|0,1:2|0:0,0:0:0:0:
239,95,121154,2,0,P|256:142|288:248,1,152.999995330811,2|0,1:0|0:0,0:0:0:0:
361,271,121507,2,0,P|374:221|388:172,1,101.999996887207,4|0,1:2|0:0,0:0:0:0:
436,11,121860,5,0,1:0:0:0:
474,198,122037,1,2,1:2:0:0:
499,105,122213,2,0,P|424:108|364:63,1,152.999995330811,2|0,1:0|0:0,0:0:0:0:
364,63,122566,1,2,1:2:0:0:
222,145,122743,2,0,P|147:141|87:186,1,152.999995330811,2|0,1:0|0:0,0:0:0:0:
87,187,123096,1,2,1:0:0:0:
242,227,123272,5,0,1:0:0:0:
282,72,123448,1,2,1:0:0:0:
127,32,123625,1,4,1:2:0:0:
184,129,123801,1,8,0:0:0:0:
184,129,123978,2,0,P|195:123|207:120,6,25.4999992218018,8|0|0|0|0|0|0,0:0|0:0|0:0|0:0|0:0|0:0|0:0,0:0:0:0:
87,187,124331,6,0,P|32:137|46:66,1,152.999995330811,4|0,1:0|0:0,0:0:0:0:
127,32,124684,1,2,1:2:0:0:
235,107,124860,1,2,0:0:0:0:
358,57,125037,1,0,1:0:0:0:
466,132,125213,1,2,0:0:0:0:
470,130,125301,1,2,0:0:0:0:
474,128,125390,1,2,1:2:0:0:
449,42,125566,1,2,1:0:0:0:
383,143,125743,6,0,B|388:234|431:202|436:291,1,152.999995330811,2|0,1:0|0:0,0:0:0:0:
386,349,126095,2,0,P|310:336|234:329,1,152.999995330811,6|0,1:0|0:0,0:0:0:0:
225,252,126448,2,0,P|274:241|325:237,1,101.999996887207,4|8,1:2|0:0,0:0:0:0:
272,160,126801,2,0,P|196:147|120:140,1,152.999995330811,6|0,1:0|0:0,0:0:0:0:
111,63,127154,2,0,P|160:52|211:48,1,101.999996887207,4|2,1:2|0:0,0:0:0:0:
446,121,127507,5,0,1:0:0:0:
310,12,127684,1,2,0:0:0:0:
350,133,127860,2,0,B|368:45|404:71|419:0,1,152.999995330811,0|0,1:0|1:0,0:0:0:0:
419,0,128213,1,2,1:2:0:0:
419,0,128390,1,0,1:0:0:0:
486,220,128743,5,4,0:0:0:0:
446,228,128919,1,0,1:0:0:0:
413,252,129095,1,4,0:0:0:0:
392,287,129272,1,4,1:2:0:0:
223,131,129625,6,0,P|215:100|203:70,1,63.75,2|0,0:0|0:0,0:0:0:0:
68,10,129978,6,0,P|39:55|138:127,1,203.999993774414,6|0,1:0|1:0,0:0:0:0:
135,128,130507,1,2,1:0:0:0:
254,34,130684,2,0,P|242:83|223:131,1,101.999996887207,2|0,1:2|0:0,0:0:0:0:
179,201,130948,2,0,P|193:222|205:244,1,50.9999984436036,2|0,1:0|1:0,0:0:0:0:
247,384,131213,2,0,P|266:336|278:287,1,101.999996887207,2|0,1:0|0:0,0:0:0:0:
277,287,131566,5,2,1:0:0:0:
389,308,131743,1,0,1:0:0:0:
461,221,131919,1,2,1:0:0:0:
422,115,132095,1,2,3:0:0:0:
311,96,132272,1,2,1:2:0:0:
311,96,132360,1,0,3:0:0:0:
311,96,132448,1,2,3:0:0:0:
239,182,132625,1,2,1:0:0:0:
389,308,132801,5,0,1:0:0:0:
239,182,132978,1,2,1:2:0:0:
422,115,133154,1,2,1:0:0:0:
350,202,133331,2,0,B|318:163|332:118|332:118|350:51,1,152.999995330811,2|0,1:0|0:0,0:0:0:0:
421,15,133684,1,0,1:0:0:0:
421,15,133772,1,2,1:2:0:0:
421,15,133860,1,2,1:0:0:0:
252,68,134037,6,2,L|79:84,1,152.999995330811,0|0,1:0|0:0,1:0:0:0:
99,82,134390,2,0,P|109:58|117:34,1,50.9999984436036,2|0,1:0|0:0,0:0:0:0:
21,127,134566,2,0,P|17:101|12:76,1,50.9999984436036,2|0,1:2|0:0,0:0:0:0:
142,161,134743,2,0,P|157:140|174:121,1,50.9999984436036,2|0,1:0|0:0,0:0:0:0:
64,206,134919,1,4,1:2:0:0:
96,334,135095,1,8,1:2:0:0:
223,302,135272,6,0,P|255:305|285:316,1,63.75,8|0,1:2|0:0,0:0:0:0:
164,384,135625,6,0,B|120:358|138:299|138:299|169:179,1,203.999993774414,6|0,1:0|1:0,0:0:0:0:
164,195,136154,1,2,1:0:0:0:
56,132,136331,2,0,P|106:122|153:103,1,101.999996887207,2|0,1:2|0:0,0:0:0:0:
196,30,136595,2,0,P|221:33|245:40,1,50.9999984436036,2|0,1:0|1:0,0:0:0:0:
403,76,136860,2,0,P|355:94|305:104,1,101.999996887207,2|0,1:0|0:0,0:0:0:0:
305,104,137213,5,2,1:0:0:0:
328,214,137390,1,0,1:0:0:0:
351,323,137566,1,2,1:0:0:0:
437,191,137743,5,2,3:0:0:0:
335,221,137919,1,2,1:0:0:0:
335,221,138007,1,0,3:0:0:0:
335,221,138095,1,2,3:0:0:0:
218,237,138272,1,2,1:0:0:0:
437,191,138448,5,0,1:0:0:0:
218,237,138625,1,2,0:0:0:0:
437,191,138801,1,2,1:0:0:0:
351,322,138978,2,0,P|353:246|337:172,1,152.999995330811,2|0,1:0|0:0,0:0:0:0:
305,104,139331,1,0,1:0:0:0:
218,237,139507,1,6,1:0:0:0:
60,219,139684,2,2,P|57:142|73:68,1,152.999995330811,6|0,1:0|0:0,1:0:0:0:
106,0,140037,5,0,1:0:0:0:
158,172,140213,1,2,1:0:0:0:
196,23,140390,1,0,1:0:0:0:
247,195,140566,2,0,P|256:153|252:111,1,85,6|2,1:0|0:0,0:0:0:0:
252,111,141272,1,4,1:2:0:0:
182,238,152213,6,0,P|154:195|160:146,1,102,4|0,0:1|0:0,0:0:0:0:
211,69,152566,6,0,P|252:59|294:53,1,85,4|0,1:2|0:0,0:0:0:0:
159,146,152919,2,0,P|119:130|78:118,1,85,2|0,0:0|0:0,0:0:0:0:
42,23,153272,1,0,0:0:0:0:
4,156,153448,1,2,0:0:0:0:
4,156,153537,1,0,0:0:0:0:
4,156,153625,1,0,3:0:0:0:
60,224,153801,1,2,0:0:0:0:
42,361,153978,6,0,P|22:323|0:287,1,85,0|2,3:0|0:0,0:0:0:0:
138,257,154331,2,0,P|158:219|180:183,1,85,2|0,3:0|3:0,0:0:0:0:
330,108,154684,2,0,P|375:63|411:10,1,127.5,0|0,3:0|0:0,0:0:0:0:
412,9,155037,6,0,P|411:51|420:92,1,85,0|2,3:0|0:0,0:0:0:0:
512,205,155390,1,0,3:0:0:0:
512,205,155743,2,0,P|475:182|434:170,1,85,2|0,0:0|3:0,0:0:0:0:
292,194,156095,1,0,3:0:0:0:
292,194,156448,2,0,P|328:172|359:143,1,85,0|2,3:0|0:0,0:0:0:0:
236,108,156801,6,0,P|226:66|208:27,1,85,0|0,3:0|0:0,0:0:0:0:
137,135,157154,2,0,P|94:129|52:135,1,85,0|0,3:0|0:0,0:0:0:0:
131,237,157507,2,0,P|113:274|104:316,1,85,0|0,3:0|1:0,0:0:0:0:
226,272,157860,2,0,P|256:299|293:320,1,85,0|0,1:0|1:0,0:0:0:0:
112,239,158213,6,0,P|95:285|88:337,1,101.999996887207,4|0,1:0|0:0,0:0:0:0:
129,117,158566,2,0,P|79:115|28:125,1,101.999996887207,4|0,1:0|0:0,0:0:0:0:
250,94,158919,2,0,P|235:46|211:0,1,101.999996887207,4|0,1:0|0:0,0:0:0:0:
309,202,159272,2,0,P|350:173|385:136,1,101.999996887207,4|0,1:0|0:0,0:0:0:0:
222,289,159625,6,0,P|242:306|263:321,1,50.9999984436036,4|0,1:0|0:0,0:0:0:0:
349,384,159801,2,0,P|373:375|396:364,1,50.9999984436036,0|0,1:0|0:0,0:0:0:0:
493,321,159978,2,0,P|497:295|499:270,1,50.9999984436036,4|0,1:2|0:0,0:0:0:0:
510,164,160154,2,0,P|490:147|469:132,1,50.9999984436036,0|0,1:0|0:0,0:0:0:0:
382,70,160331,6,0,P|357:78|334:89,1,50.9999984436036,4|0,1:0|1:0,0:0:0:0:
236,133,160507,2,0,P|230:158|228:184,1,50.9999984436036,0|0,1:0|1:0,0:0:0:0:
377,264,160684,1,4,1:2:0:0:
406,222,160772,1,0,1:0:0:0:
377,181,160860,1,0,1:0:0:0:
328,197,160948,1,0,1:0:0:0:
328,248,161037,1,0,0:0:0:0:
328,248,161390,6,0,B|325:233|314:206|271:212|248:239|257:278|229:301|168:295,1,191.250007295609,4|0,1:2|0:0,0:0:0:0:
108,339,161743,2,0,P|96:309|97:277,1,63.7500024318696,0|0,1:0|0:0,0:0:0:0:
52,208,161919,2,0,P|81:196|113:197,1,63.7500024318696,2|0,1:2|0:0,0:0:0:0:
183,153,162095,2,0,P|194:182|193:214,1,63.7500024318696,0|0,1:0|0:0,0:0:0:0:
238,284,162272,2,0,P|208:295|177:295,1,63.7500024318696,4|0,1:2|0:0,0:0:0:0:
52,208,162448,6,0,P|57:144|68:81,1,127.500004863739,4|4,1:0|1:2,0:0:0:0:
238,284,162801,2,0,P|246:188|262:94,1,191.250007295609,4|0,1:2|0:0,0:0:0:0:
262,94,163154,2,0,P|325:90|387:75,1,127.500004863739,4|0,1:0|0:0,0:0:0:0:
387,75,163508,1,0,1:0:0:0:
413,253,163684,1,2,1:2:0:0:
512,190,163860,6,0,P|419:168|323:167,1,191.250007295609,4|0,1:0|0:0,0:0:0:0:
323,167,164214,1,2,1:2:0:0:
383,353,164390,2,0,B|430:348|437:300|412:252,1,127.500004863739,4|0,1:0|0:0,0:0:0:0:
258,64,164743,2,0,B|210:68|203:116|228:164,1,127.500004863739,4|0,1:0|0:0,0:0:0:0:
325,281,165096,6,0,B|322:322|282:340|236:324|224:266|241:216|309:232|326:154,1,255.000009727478,4|0,1:2|0:0,0:0:0:0:
336,90,165625,1,0,1:0:0:0:
228,164,165802,1,0,0:0:0:0:
421,222,165978,2,0,P|423:190|417:158,1,63.7500024318696,0|0,1:0|1:0,0:0:0:0:
336,90,166154,2,0,P|334:122|340:154,1,63.7500024318696,4|4,3:0|3:0,0:0:0:0:
497,146,166331,2,0,P|499:114|493:82,1,63.7500024318696,8|8,3:0|3:0,0:0:0:0:
412,14,166507,2,0,P|410:46|416:78,1,63.7500024318696,4|4,3:0|3:0,0:0:0:0:
421,222,166684,5,4,1:0:0:0:
228,164,166860,1,4,1:2:0:0:
275,361,167037,1,0,1:0:0:0:
421,222,167213,1,4,1:2:0:0:
286,237,167390,2,0,P|343:308|434:300,1,191.250007295609,4|0,1:2|0:0,0:0:0:0:
500,249,167743,5,4,1:0:0:0:
321,152,167919,1,4,1:2:0:0:
495,46,168096,1,0,1:0:0:0:
500,249,168272,1,4,1:2:0:0:
411,201,168448,2,0,P|395:106|384:11,1,191.250007295609,4|0,1:2|0:0,0:0:0:0:
384,11,168801,6,0,P|399:39|411:69,1,63.7500024318696,6|0,1:0|0:0,0:0:0:0:
321,152,168978,1,0,0:0:0:0:
383,258,169154,2,0,P|397:229|410:200,1,63.7500024318696,6|0,1:0|0:0,0:0:0:0:
256,93,169331,1,0,0:0:0:0:
157,192,169507,6,0,B|93:240|143:242|78:290,1,127.500004863739,4|2,1:0|1:2,0:0:0:0:
256,291,169860,2,0,B|304:355|306:305|354:369,1,127.500004863739,0|2,1:0|1:2,0:0:0:0:
355,192,170213,2,0,B|419:144|369:142|433:93,1,127.500004863739,2|0,1:2|1:0,0:0:0:0:
256,93,170566,2,0,B|208:29|206:79|157:14,1,127.500004863739,2|0,1:2|1:0,0:0:0:0:
256,192,170919,5,4,1:2:0:0:
58,145,171096,1,0,1:0:0:0:
140,111,171449,5,0,1:0:0:0:
93,309,171625,1,4,1:2:0:0:
93,309,171801,1,0,1:0:0:0:
171,346,171978,2,0,P|176:314|175:282,1,63.7500024318696,4|4,3:0|3:0,0:0:0:0:
12,282,172154,2,0,P|10:313|16:345,1,63.7500024318696,0|0,1:0|1:0,0:0:0:0:
245,376,172331,6,0,P|254:281|222:192,1,191.250007295609,4|0,1:0|0:0,0:0:0:0:
130,132,172684,2,0,P|209:171|263:101,1,191.250007295609,4|0,1:2|0:0,0:0:0:0:
234,29,173037,2,0,P|207:45|189:72,1,63.7500024318696,0|0,1:0|0:0,0:0:0:0:
340,112,173213,2,0,P|339:80|324:52,1,63.7500024318696,2|0,1:2|0:0,0:0:0:0:
215,163,173390,2,0,P|242:177|274:179,1,63.7500024318696,4|0,1:2|0:0,0:0:0:0:
234,29,173566,2,0,P|207:45|189:72,1,63.7500024318696,4|0,1:2|0:0,0:0:0:0:
147,212,173743,6,0,P|158:274|169:337,1,127.500004863739,4|4,1:0|1:2,0:0:0:0:
388,300,174095,2,0,B|426:316|413:371|352:385|297:370|283:323|280:260,1,191.250007295609,0|0,1:2|0:0,0:0:0:0:
288,312,174448,2,0,P|298:249|310:186,1,127.500004863739,4|0,1:2|0:0,0:0:0:0:
165,179,174801,5,4,1:2:0:0:
26,136,174978,2,0,B|1:55|27:19|32:8|32:8|107:40|115:93,1,255.000009727478,6|0,1:0|0:0,0:0:0:0:
165,179,175506,1,4,1:2:0:0:
309,186,175684,2,0,B|359:118|348:75|346:62|346:62|265:68|239:115,1,255.000009727478,6|0,1:0|0:0,0:0:0:0:
165,179,176213,1,4,1:2:0:0:
62,234,176390,2,0,B|106:276|135:338|135:338|184:289|237:264,1,255.000009727478,6|0,1:0|0:0,0:0:0:0:
361,376,176919,6,0,P|376:283|449:224,1,191.250007295609,4|0,1:2|0:0,0:0:0:0:
512,271,177272,2,0,P|515:302|504:331,1,63.7500024318696,0|0,1:0|1:0,0:0:0:0:
361,376,177448,2,0,P|331:363|311:339,1,63.7500024318696,4|4,3:0|3:0,0:0:0:0:
345,192,177625,2,0,P|370:173|401:168,1,63.7500024318696,8|8,3:0|3:0,0:0:0:0:
512,271,177801,2,0,P|515:302|504:331,1,63.7500024318696,4|4,3:0|3:0,0:0:0:0:
387,279,177978,6,0,P|324:265|261:256,1,127.500004863739,4|0,1:0|0:0,0:0:0:0:
153,348,178331,2,0,P|167:285|176:222,1,127.500004863739,6|0,1:0|0:0,0:0:0:0:
29,159,178684,2,0,P|92:145|155:136,1,127.500004863739,4|0,1:0|0:0,0:0:0:0:
263,228,179037,2,0,P|249:165|240:102,1,127.500004863739,6|0,1:0|0:0,0:0:0:0:
353,8,179390,5,0,1:0:0:0:
331,153,179566,1,0,0:0:0:0:
476,175,179743,1,4,1:2:0:0:
498,30,179919,1,0,0:0:0:0:
394,229,180095,2,0,B|403:300|441:279|448:341,1,127.500004863739,4|0,1:0|0:0,0:0:0:0:
241,378,180448,2,0,P|212:288|240:198,1,191.250007295609,4|0,1:2|0:0,0:0:0:0:
211,114,180801,6,0,P|149:96|86:85,1,127.500004863739,4|0,1:2|0:0,0:0:0:0:
334,147,181154,2,0,P|351:85|362:22,1,127.500004863739,4|0,1:2|0:0,0:0:0:0:
178,237,181507,1,4,1:2:0:0:
301,270,181684,1,0,0:0:0:0:
334,147,181860,1,4,1:2:0:0:
211,114,182037,6,0,B|106:111|63:206|63:206|88:231|91:268,1,255.000009727478,4|0,0:0|1:0,0:0:0:0:
49,380,182566,2,0,P|-8:338|11:269,1,152.999995330811,4|0,1:0|0:0,0:0:0:0:
161,220,182919,1,0,1:0:0:0:
181,223,183095,1,0,1:0:0:0:
201,226,183272,1,4,1:2:0:0:
221,229,183448,1,0,1:0:0:0:
208,330,183625,6,0,P|165:332|123:337,1,85,4|2,0:2|0:0,0:0:0:0:
310,256,184331,2,0,P|267:253|225:248,1,85,0|2,0:0|0:0,0:0:0:0:
374,361,185037,2,0,P|331:363|289:368,1,85,0|2,0:0|0:0,0:0:0:0:
476,287,185743,2,0,P|433:284|391:279,2,85,0|2|2,0:0|0:0|0:0,0:0:0:0:
