osu file format v14

[General]
AudioFilename: audio.mp3
AudioLeadIn: 0
PreviewTime: 802
Countdown: 0
SampleSet: Soft
StackLeniency: 0.5
Mode: 0
LetterboxInBreaks: 0
WidescreenStoryboard: 1

[Editor]
Bookmarks: 39625,61860,105978,129978
DistanceSpacing: 1.1
BeatDivisor: 4
GridSize: 32
TimelineZoom: 2.4

[Metadata]
Title:phony
TitleUnicode:フォニイ
Artist:Machita Chima
ArtistUnicode:町田ちま
Creator:Yugu
Version:Insane
Source:
Tags:Callionet dahkjdas Seros stllok japanese jpop j-pop Vtuber virtual youtuber バーチャルyoutuber 2434 seeds ichikara anycolor いちから えにから ツミキ tsumiki kafu 可不
BeatmapID:3274541
BeatmapSetID:1560617

[Difficulty]
HPDrainRate:5
CircleSize:4
OverallDifficulty:7.4
ApproachRate:8.5
SliderMultiplier:1.5
SliderTickRate:1

[Events]
//Background and Video events
0,0,"4abdede7-fc69-4e79-8544-a98dda27ddb7.png",0,0
Video,0,"videoplayback (2).720p.x264.aac.mp4"
//Break Periods
2,96295,100538
2,101942,105303
2,141472,145891
2,147118,151538
//Storyboard Layer 0 (Background)
//Storyboard Layer 1 (Fail)
//Storyboard Layer 2 (Pass)
//Storyboard Layer 3 (Foreground)
//Storyboard Layer 4 (Overlay)
//Storyboard Sound Samples

[TimingPoints]
96,352.941176470588,4,2,0,35,1,0
801,-111.111111111111,4,2,0,35,0,0
11390,-100,4,2,0,80,0,0
17037,-100,4,2,0,60,0,0
28331,-111.111111111111,4,2,0,60,0,0
38213,-100,4,2,0,60,0,0
50566,-111.111111111111,4,2,0,80,0,0
50919,-100,4,2,0,60,0,0
62213,-90.9090909090909,4,2,0,80,0,0
84801,-100,4,2,0,50,0,0
117978,-100,4,2,0,55,0,0
118154,-100,4,2,0,60,0,0
118331,-100,4,2,0,65,0,0
118507,-100,4,2,0,70,0,0
118684,-100,4,2,0,80,0,0
119037,-100,4,2,0,60,0,0
129625,-100,4,2,0,65,0,0
129978,-100,4,2,0,70,0,0
134213,-100,4,2,1,5,0,0
134390,-100,4,2,0,70,0,0
139860,-100,4,2,1,5,0,0
140037,-100,4,2,0,70,0,0
140566,-100,4,2,0,50,0,0
152213,-111.111111111111,4,2,0,50,0,0
158213,-90.9090909090909,4,2,0,55,0,0
159625,-90.9090909090909,4,2,0,65,0,0
160331,-90.9090909090909,4,2,0,70,0,0
161390,-90.9090909090909,4,2,0,80,0,0
183625,-111.111111111111,4,2,0,35,0,0

[Colours]
Combo1 : 66,88,242
Combo2 : 237,221,187

[HitObjects]
58,127,1154,6,0,L|191:108,1,134.999995880127,0|2,0:0|0:0,0:0:0:0:
271,268,2037,1,2,0:0:0:0:
322,205,2213,2,0,L|455:186,1,134.999995880127,2|0,0:0|0:0,0:0:0:0:
455,186,2743,2,0,P|484:245|461:306,1,134.999995880127,2|2,0:0|0:0,0:0:0:0:
312,368,3448,5,2,0:0:0:0:
239,330,3625,2,0,P|211:288|209:238,1,101.249996910095,2|0,0:0|0:0,0:0:0:0:
239,210,3978,2,0,P|266:168|268:118,1,101.249996910095,2|0,0:0|0:0,0:0:0:0:
250,81,4331,1,2,0:0:0:0:
34,23,4860,5,2,0:0:0:0:
86,85,5037,2,0,L|108:243,1,134.999995880127,2|0,0:0|0:0,0:0:0:0:
104,218,5566,2,0,P|53:216|44:298,1,134.999995880127,2|2,0:0|0:0,0:0:0:0:
179,357,6272,5,2,0:0:0:0:
238,303,6448,2,0,P|288:293|339:290,1,101.249996910095,2|0,0:0|0:0,0:0:0:0:
372,313,6801,2,0,P|421:322|472:325,1,101.249996910095,2|0,0:0|0:0,0:0:0:0:
508,307,7154,5,2,0:0:0:0:
401,61,7684,1,2,0:0:0:0:
330,100,7860,2,0,P|265:86|222:36,1,134.999995880127,2|0,0:0|0:0,0:0:0:0:
222,36,8390,2,0,L|251:180,1,134.999995880127,2|2,0:0|0:0,0:0:0:0:
208,325,9095,5,2,0:0:0:0:
158,260,9272,2,0,P|109:245|60:234,1,101.249996910095,2|0,0:0|0:0,0:0:0:0:
19,238,9625,2,0,P|33:189|44:140,1,101.249996910095,2|0,0:0|0:0,0:0:0:0:
36,100,9978,1,2,0:0:0:0:
224,13,10507,2,0,L|235:147,1,134.999995880127,2|2,0:0|0:0,0:0:0:0:
353,356,11390,6,0,P|356:300|370:246,1,112.5,4|0,1:2|0:0,0:0:0:0:
387,204,11743,2,0,P|398:168|414:134,1,75,4|0,1:0|0:0,0:0:0:0:
284,232,12095,2,0,P|296:177|320:126,1,112.5,4|0,1:0|0:0,0:0:0:0:
342,86,12448,2,0,P|359:52|380:21,1,75,4|0,1:0|0:0,0:0:0:0:
223,10,12801,6,0,P|226:66|240:120,1,112.5,4|0,1:2|0:0,0:0:0:0:
257,162,13154,2,0,P|268:198|284:232,1,75,4|0,1:0|0:0,0:0:0:0:
154,134,13507,2,0,P|166:188|190:239,1,112.5,4|0,1:0|0:0,0:0:0:0:
212,280,13860,2,0,P|229:313|250:344,1,75,4|0,1:0|0:0,0:0:0:0:
404,314,14213,6,0,L|397:350,1,37.5,4|0,1:2|0:0,0:0:0:0:
425,190,14390,2,0,L|434:137,1,37.5,0|0,1:0|0:0,0:0:0:0:
353,241,14566,2,0,L|300:232,1,37.5,4|0,1:0|0:0,0:0:0:0:
476,264,14743,2,0,L|512:270,1,37.5,0|0,1:0|0:0,0:0:0:0:
425,190,14919,5,4,1:2:0:0:
421,160,15007,1,0,1:0:0:0:
426,130,15095,1,0,1:0:0:0:
440,103,15184,1,0,1:0:0:0:
460,81,15272,2,0,L|504:73,3,37.5,4|0|0|0,1:0|1:0|1:0|1:0,0:0:0:0:
21,99,17037,6,0,L|95:92,1,75,4|2,1:0|0:0,0:0:0:0:
182,117,17390,2,0,L|256:110,1,75,8|2,1:0|0:0,0:0:0:0:
116,178,17743,2,0,B|102:237|73:224|68:291,1,112.5,0|0,1:0|0:0,0:0:0:0:
79,314,18095,1,8,1:0:0:0:
166,291,18272,1,2,0:0:0:0:
166,291,18625,5,2,0:0:0:0:
229,354,18802,1,8,1:0:0:0:
316,331,18978,1,2,3:0:0:0:
316,331,19066,1,0,3:0:0:0:
316,331,19154,2,0,P|324:294|322:257,1,75,0|2,1:0|3:0,0:0:0:0:
276,151,19507,2,0,B|341:164|322:180|382:189,1,112.5,8|0,1:0|1:0,0:0:0:0:
413,208,19860,6,0,L|426:123,1,75,0|0,1:0|0:0,0:0:0:0:
491,73,20213,2,0,L|504:-12,1,75,8|0,1:0|0:0,0:0:0:0:
379,60,20566,2,0,P|324:54|270:67,1,112.5,0|0,1:0|0:0,0:0:0:0:
238,88,20919,2,0,L|134:68,1,75,8|2,1:0|0:0,0:0:0:0:
127,65,21184,1,0,3:0:0:0:
127,65,21272,1,0,1:0:0:0:
41,102,21448,5,0,0:0:0:0:
41,102,21537,1,2,3:0:0:0:
41,102,21625,2,0,P|60:144|69:173,1,75,8|2,1:0|3:0,0:0:0:0:
69,261,21978,1,0,1:0:0:0:
159,360,22154,1,8,0:0:0:0:
159,359,22331,2,0,P|168:304|181:249,1,112.5,8|0,0:0|0:0,0:0:0:0:
210,224,22684,5,4,1:2:0:0:
239,220,22772,1,0,0:0:0:0:
268,217,22860,1,2,0:0:0:0:
341,269,23037,2,0,P|377:277|414:281,1,75,8|0,1:0|0:0,0:0:0:0:
268,331,23390,2,0,P|213:336|166:305,1,112.5,0|0,1:0|0:0,0:0:0:0:
132,290,23743,1,8,1:0:0:0:
43,273,23919,1,2,0:0:0:0:
43,273,24272,5,2,0:0:0:0:
102,205,24448,1,8,1:0:0:0:
64,123,24625,1,2,0:0:0:0:
64,123,24713,1,0,3:0:0:0:
64,122,24801,2,0,P|63:85|56:48,1,75,0|2,1:0|3:0,0:0:0:0:
176,89,25154,2,0,P|269:80|304:72,1,112.5,8|0,1:0|1:0,0:0:0:0:
305,42,25507,6,0,L|291:115,1,75,0|0,1:0|0:0,0:0:0:0:
297,205,25860,2,0,L|283:278,1,75,8|0,1:0|0:0,0:0:0:0:
378,150,26213,2,0,B|453:130|436:153|489:139,1,112.5,0|0,1:0|0:0,0:0:0:0:
498,102,26566,2,0,P|494:58|458:31,1,75,8|2,1:0|0:0,0:0:0:0:
438,22,26831,1,0,3:0:0:0:
438,22,26919,1,0,1:0:0:0:
358,62,27095,5,0,0:0:0:0:
358,62,27184,1,2,3:0:0:0:
358,62,27272,1,8,1:0:0:0:
279,17,27448,2,0,P|246:33|226:64,1,75,4|4,3:0|3:0,0:0:0:0:
143,100,27801,5,8,3:0:0:0:
143,100,27978,1,4,3:0:0:0:
179,319,28331,6,0,P|146:312|113:307,1,67.4999979400635,4|0,1:2|0:0,0:0:0:0:
80,315,28595,1,0,0:0:0:0:
80,315,28684,1,0,0:0:0:0:
20,259,28860,2,0,L|16:225,2,33.7499989700318,2|0|2,0:0|0:0|0:0,0:0:0:0:
245,146,29566,6,0,P|294:133|340:114,1,101.249996910095,2|0,0:0|0:0,0:0:0:0:
365,90,29919,1,2,0:0:0:0:
469,213,30272,1,2,0:0:0:0:
388,223,30448,2,0,P|388:189|404:160,1,67.4999979400635,0|2,0:0|0:0,0:0:0:0:
446,91,30801,2,0,P|445:57|429:28,1,67.4999979400635,2|2,0:3|0:3,0:0:0:0:
300,37,31154,6,0,L|232:30,1,67.4999979400635,2|0,0:0|0:0,0:0:0:0:
198,27,31419,1,0,0:0:0:0:
198,27,31507,1,0,0:0:0:0:
132,75,31684,2,0,L|85:80,2,33.7499989700318,2|0|2,0:0|0:0|0:0,0:0:0:0:
239,222,32390,6,0,B|251:282|268:257|278:315,1,101.249996910095,2|0,0:0|0:0,0:0:0:0:
267,346,32743,1,2,0:0:0:0:
118,281,33095,1,2,0:0:0:0:
42,310,33272,2,0,P|35:277|43:244,1,67.4999979400635,2|0,0:0|0:0,0:0:0:0:
63,217,33537,1,0,0:0:0:0:
63,217,33625,2,0,P|69:184|61:151,1,67.4999979400635,2|4,0:0|0:0,0:0:0:0:
23,79,33978,5,4,1:0:0:0:
250,15,34507,2,0,L|283:18,1,33.7499989700318,0|0,1:0|0:0,0:0:0:0:
323,45,34684,2,0,L|255:52,1,67.4999979400635,0|0,1:0|0:0,0:0:0:0:
130,149,35213,6,0,P|119:180|124:213,1,67.4999979400635,0|0,1:0|0:0,0:0:0:0:
196,250,35566,2,0,P|206:281|201:314,1,67.4999979400635,0|0,1:0|0:0,0:0:0:0:
40,355,35919,2,0,L|73:351,1,33.7499989700318,0|0,1:0|0:0,0:0:0:0:
120,365,36095,2,0,P|125:331|114:300,1,67.4999979400635,0|0,1:0|0:0,0:0:0:0:
53,246,36448,2,0,L|23:243,4,22.4999993133545,4|0|0|0|0,0:0|0:0|0:0|0:0|0:0,0:0:0:0:
74,230,36801,6,0,P|71:196|66:162,1,67.4999979400635,0|0,1:0|0:0,0:0:0:0:
223,124,37331,2,0,P|221:107|219:90,1,33.7499989700318,0|0,1:0|0:0,0:0:0:0:
245,50,37507,2,0,P|242:84|237:118,1,67.4999979400635,0|0,1:0|0:0,0:0:0:0:
370,227,38037,5,0,1:0:0:0:
387,256,38125,1,0,3:0:0:0:
371,285,38213,1,0,1:0:0:0:
292,329,38390,2,0,P|365:319|430:354,1,150,0|0,3:0|3:0,0:0:0:0:
498,252,38919,2,0,L|505:215,1,37.5,0|0,1:0|0:0,0:0:0:0:
426,198,39095,2,0,L|419:235,1,37.5,8|8,3:0|3:0,0:0:0:0:
455,330,39272,1,4,3:0:0:0:
455,330,39360,1,4,3:0:0:0:
455,330,39448,1,2,1:2:0:0:
455,330,39537,1,2,1:2:0:0:
454,330,39625,6,0,P|417:327|383:341,1,75,4|0,1:0|0:0,0:0:0:0:
292,329,39978,2,0,P|254:331|220:317,1,75,8|2,0:0|0:0,0:0:0:0:
109,266,40331,1,0,1:0:0:0:
51,334,40507,1,2,0:0:0:0:
139,351,40684,1,8,0:0:0:0:
109,266,40860,6,0,P|115:191|128:117,1,150,2|2,0:0|0:0,0:0:0:0:
193,50,41390,2,0,P|161:29|125:26,1,75,8|0,0:0|0:0,0:0:0:0:
48,74,41743,1,0,1:2:0:0:
127,117,41919,1,2,3:0:0:0:
193,50,42095,2,0,L|225:46,4,25,2|0|0|2|0,3:0|0:0|0:0|0:0|0:0,0:0:0:0:
207,29,42448,6,0,L|299:39,1,75,0|0,1:0|0:2,0:0:0:0:
359,81,42801,2,0,L|451:71,1,75,8|2,0:0|0:2,0:0:0:0:
512,170,43154,1,0,1:0:0:0:
424,153,43330,1,2,0:2:0:0:
454,238,43507,1,8,0:0:0:0:
424,153,43684,6,0,P|349:160|271:172,1,150,2|2,0:0|0:0,0:0:0:0:
191,137,44213,2,0,P|183:173|192:209,1,75,8|0,0:2|0:0,0:0:0:0:
257,271,44566,1,2,1:2:0:0:
178,314,44743,1,8,0:0:0:0:
178,314,44919,1,8,0:0:0:0:
116,248,45095,1,4,0:0:0:0:
35,354,45272,6,0,P|31:316|25:279,1,75,4|0,1:0|0:0,0:0:0:0:
46,191,45625,2,0,P|42:153|36:116,1,75,8|2,0:0|0:0,0:0:0:0:
97,14,45978,1,0,1:0:0:0:
185,31,46154,1,2,0:0:0:0:
127,99,46331,1,8,0:0:0:0:
185,31,46507,6,0,B|278:38|236:72|324:78,1,150,2|2,0:0|0:0,0:0:0:0:
409,48,47037,2,0,P|401:84|397:121,1,75,8|0,0:2|0:0,0:0:0:0:
433,204,47390,1,2,1:2:0:0:
369,267,47566,1,2,3:0:0:0:
414,344,47743,2,0,L|449:338,4,25,2|0|0|2|0,3:0|0:0|0:0|0:0|0:0,0:0:0:0:
395,374,48095,6,0,P|357:370|326:350,1,75,0|2,1:0|0:0,0:0:0:0:
260,289,48448,2,0,P|222:292|191:312,1,75,8|2,0:0|0:0,0:0:0:0:
50,365,48801,1,0,1:0:0:0:
138,382,48977,1,4,0:0:0:0:
108,297,49154,1,0,1:0:0:0:
50,365,49331,6,0,P|27:307|68:214,1,150,4|8,1:2|3:0,0:0:0:0:
115,160,49860,1,4,3:0:0:0:
133,127,49948,1,4,3:0:0:0:
138,91,50037,1,0,1:0:0:0:
130,54,50125,1,0,1:0:0:0:
111,22,50213,1,4,1:0:0:0:
111,22,50566,6,0,P|162:27|214:32,1,101.249996910095,4|0,0:0|0:0,0:0:0:0:
247,20,50919,6,0,P|275:80|247:170,1,150,4|2,1:0|3:0,0:0:0:0:
255,158,51448,1,0,1:0:0:0:
309,235,51625,2,0,P|345:224|382:220,1,75,0|2,1:0|0:0,0:0:0:0:
419,222,51890,1,0,1:0:0:0:
419,222,51978,1,2,3:0:0:0:
255,158,52154,6,0,P|227:218|255:308,1,150,2|0,1:2|1:0,0:0:0:0:
246,296,52684,2,2,P|209:285|172:281,1,75,2|0,3:0|0:0,1:0:0:0:
77,356,53037,2,0,P|23:347|0:298,1,112.5,2|0,1:0|0:0,0:0:0:0:
18,264,53390,2,2,P|25:227|27:189,1,75,8|0,0:0|0:0,1:0:0:0:
18,79,53743,6,0,P|71:70|95:21,1,112.5,2|0,1:0|0:0,0:0:0:0:
95,21,54095,1,2,3:0:0:0:
179,53,54272,1,0,1:0:0:0:
294,0,54448,2,0,P|296:50|286:96,1,75,0|2,1:0|0:2,0:0:0:0:
271,106,54713,1,0,1:0:0:0:
271,106,54801,1,2,3:0:0:0:
146,166,54978,6,0,P|201:168|250:194,1,112.5,2|0,1:2|0:0,0:0:0:0:
319,234,55331,2,0,P|374:231|423:205,1,112.5,0|0,1:0|0:0,0:0:0:0:
492,166,55684,1,0,1:0:0:0:
443,47,55860,1,0,1:0:0:0:
358,77,56037,1,8,0:0:0:0:
358,77,56213,1,8,0:0:0:0:
358,77,56566,6,0,P|257:60|226:58,1,112.5,4|0,1:2|0:0,0:0:0:0:
211,72,56919,2,0,P|200:36|196:-1,1,75,0|2,1:0|0:0,0:0:0:0:
85,29,57272,2,0,P|88:66|99:102,1,75,0|2,1:0|0:0,0:0:0:0:
120,133,57537,1,2,0:0:0:0:
120,133,57625,1,2,1:2:0:0:
65,222,57801,1,2,0:0:0:0:
153,278,57978,2,0,P|189:271|227:266,1,75,2|0,1:2|0:0,0:0:0:0:
312,326,58331,6,2,P|327:272|336:217,1,112.5,2|0,1:2|0:0,1:0:0:0:
324,181,58684,2,0,P|360:174|398:169,1,75,2|8,1:0|0:0,0:0:0:0:
512,199,59037,2,2,P|496:144|487:89,1,112.5,8|0,1:2|0:0,1:0:0:0:
500,53,59390,2,0,P|464:46|426:41,1,75,2|0,1:0|0:0,0:0:0:0:
306,80,59743,5,0,1:0:0:0:
210,36,59919,1,0,0:0:0:0:
163,129,60095,2,0,P|155:166|166:202,1,75,2|0,1:2|0:0,0:0:0:0:
153,351,60448,1,0,1:0:0:0:
255,323,60625,2,0,P|266:287|259:251,1,75,4|0,1:2|0:0,0:0:0:0:
259,251,60978,5,0,1:0:0:0:
412,273,61154,1,4,1:2:0:0:
259,251,61331,1,0,1:0:0:0:
412,273,61507,1,4,1:0:0:0:
502,150,61860,5,2,0:0:0:0:
502,150,62213,6,0,P|418:134|348:124,1,123.75000377655,4|0,1:0|0:0,0:0:0:0:
312,83,62566,2,0,P|228:67|158:57,1,123.75000377655,4|0,1:2|0:0,0:0:0:0:
128,14,62919,1,0,1:0:0:0:
150,129,63095,1,2,0:0:0:0:
47,30,63272,1,2,1:2:0:0:
69,145,63448,1,4,1:2:0:0:
7,232,63625,6,0,P|47:230|84:248,1,82.5000025177003,0|4,1:0|1:2,0:0:0:0:
157,361,63978,2,0,P|158:300|203:261,1,123.75000377655,4|0,1:2|0:0,0:0:0:0:
279,246,64331,2,0,P|310:220|322:181,1,82.5000025177003,4|0,1:2|0:0,0:0:0:0:
348,10,64684,1,0,1:2:0:0:
268,95,64860,1,4,1:0:0:0:
268,7,65037,6,0,P|197:42|187:121,1,165.000005035401,4|2,1:2|1:2,0:0:0:0:
320,160,65566,2,0,P|346:129|353:89,1,82.5000025177003,4|0,1:0|3:0,0:0:0:0:
236,196,65919,2,0,P|242:236|268:267,1,82.5000025177003,4|0,1:2|0:0,0:0:0:0:
449,330,66272,1,4,1:2:0:0:
366,384,66448,6,0,P|358:325|372:217,1,165.000005035401,2|0,3:0|1:0,0:0:0:0:
463,133,66978,1,2,1:2:0:0:
323,32,67154,1,0,1:0:0:0:
341,146,67331,1,0,1:0:0:0:
227,164,67507,1,4,3:0:0:0:
209,50,67684,1,4,3:0:0:0:
341,146,67860,6,0,P|367:113|394:83,1,82.5000025177003,4|4,1:0|0:0,0:0:0:0:
227,164,68213,2,0,P|199:194|173:226,1,82.5000025177003,0|4,1:0|0:0,0:0:0:0:
267,326,68566,2,0,P|303:278|285:221,1,123.75000377655,4|0,1:2|0:0,0:0:0:0:
227,164,68919,2,0,P|229:122|236:82,1,82.5000025177003,4|4,1:0|0:0,0:0:0:0:
102,28,69272,6,0,P|109:68|111:109,1,82.5000025177003,0|4,1:0|0:0,0:0:0:0:
0,162,69625,2,0,P|59:168|98:215,1,123.75000377655,4|0,1:2|0:0,0:0:0:0:
80,293,69978,1,6,1:0:0:0:
266,257,70154,1,0,0:0:0:0:
152,348,70331,2,0,B|159:263|182:308|191:232,1,123.75000377655,6|0,1:0|0:0,0:0:0:0:
164,163,70684,5,4,1:2:0:0:
181,47,70860,1,2,1:2:0:0:
247,178,71037,1,0,1:0:0:0:
264,62,71213,1,2,1:2:0:0:
343,34,71390,2,0,P|350:74|357:115,1,82.5000025177003,2|2,1:2|1:2,0:0:0:0:
422,13,71743,2,0,P|429:53|436:94,1,82.5000025177003,0|2,1:0|1:2,0:0:0:0:
448,226,72095,5,4,0:0:0:0:
448,226,72272,2,0,P|387:212|326:205,1,123.75000377655,2|0,1:2|0:0,0:0:0:0:
291,271,72625,1,2,1:2:0:0:
350,369,72801,1,4,1:2:0:0:
350,369,72978,2,0,P|430:352|512:343,1,165.000005035401,0|2,1:2|1:2,0:0:0:0:
350,369,73507,6,0,P|327:312|338:252,1,123.75000377655,4|0,1:0|0:0,0:0:0:0:
381,191,73860,2,0,P|405:134|394:74,1,123.75000377655,4|0,1:2|0:0,0:0:0:0:
340,22,74213,1,0,1:0:0:0:
225,39,74390,1,2,0:0:0:0:
322,102,74566,1,0,1:0:0:0:
207,119,74743,1,4,1:2:0:0:
298,191,74919,6,0,P|308:230|319:270,1,82.5000025177003,0|4,1:0|1:2,0:0:0:0:
238,353,75272,2,0,P|177:348|130:310,1,123.75000377655,4|0,1:2|0:0,0:0:0:0:
93,243,75625,2,0,P|51:242|10:244,1,82.5000025177003,4|0,1:2|0:0,0:0:0:0:
23,77,75978,1,4,1:0:0:0:
126,108,76154,6,0,B|208:123|187:177|278:190,1,165.000005035401,4|0,1:2|0:0,0:0:0:0:
293,44,76684,1,4,1:0:0:0:
372,129,76860,2,0,B|454:114|433:60|524:47,1,165.000005035401,4|0,1:2|0:0,0:0:0:0:
456,208,77390,1,4,1:0:0:0:
372,129,77566,2,0,P|363:211|354:292,1,165.000005035401,4|0,1:2|0:0,0:0:0:0:
250,372,78095,6,0,P|243:310|236:249,1,123.75000377655,6|0,1:0|0:0,0:0:0:0:
171,210,78448,1,8,3:0:0:0:
61,244,78625,1,4,3:0:0:0:
27,134,78801,1,4,1:0:0:0:
137,100,78978,1,0,1:0:0:0:
171,210,79154,6,0,P|212:211|252:217,1,82.5000025177003,4|0,1:2|0:0,0:0:0:0:
351,155,79507,2,0,P|393:153|433:147,1,82.5000025177003,2|0,1:0|0:0,0:0:0:0:
265,135,79860,2,0,P|267:93|273:53,1,82.5000025177003,2|0,1:2|0:0,0:0:0:0:
340,237,80213,2,0,P|339:278|333:318,1,82.5000025177003,2|0,1:0|0:0,0:0:0:0:
142,364,80566,5,2,1:0:0:0:
118,250,80743,1,0,0:0:0:0:
232,226,80919,1,2,1:2:0:0:
256,340,81095,1,0,0:0:0:0:
142,364,81272,2,0,P|100:364|59:360,1,82.5000025177003,2|0,1:2|0:0,0:0:0:0:
118,250,81625,2,0,P|76:249|35:245,1,82.5000025177003,2|0,1:2|0:0,0:0:0:0:
134,135,81978,5,6,1:0:0:0:
134,135,82154,1,0,0:0:0:0:
38,69,82331,1,4,1:2:0:0:
38,69,82507,1,0,0:0:0:0:
143,18,82684,1,4,1:2:0:0:
143,18,82860,1,0,0:0:0:0:
134,135,83037,2,0,P|194:136|240:97,1,123.75000377655,4|0,1:2|0:0,0:0:0:0:
300,51,83390,5,4,1:0:0:0:
300,51,83566,1,0,0:0:0:0:
411,82,83743,1,4,1:2:0:0:
411,82,83919,1,0,0:0:0:0:
328,162,84095,2,0,P|331:210|343:256,1,82.5000025177003,4|0,1:2|1:0,0:0:0:0:
408,335,84448,1,2,3:0:0:0:
408,335,84537,1,2,3:0:0:0:
408,335,84625,1,2,3:0:0:0:
408,335,84713,1,2,3:0:0:0:
408,335,84801,6,0,B|331:324|327:366|255:356,1,150,4|8,1:0|0:0,0:0:0:0:
171,370,85331,1,0,3:0:0:0:
169,347,85419,1,0,3:0:0:0:
167,324,85507,2,0,P|109:307|51:294,1,112.5,2|0,0:2|3:0,0:0:0:0:
35,297,85860,1,8,0:0:0:0:
35,297,85948,2,0,L|44:252,2,37.5,2|0|0,0:0|0:0|0:0,0:0:0:0:
98,206,86213,6,0,P|91:168|89:131,1,75,0|2,1:0|0:0,0:0:0:0:
34,46,86566,1,8,0:0:0:0:
54,36,86654,2,0,P|129:38|184:79,1,112.5,2|0,0:0|3:0,0:0:0:0:
231,110,87095,1,0,3:0:0:0:
289,41,87272,1,8,0:0:0:0:
371,76,87448,1,2,0:0:0:0:
393,73,87537,2,0,L|478:64,1,75,2|2,0:0|0:0,0:0:0:0:
497,82,87801,5,2,0:0:0:0:
497,82,87890,1,2,0:0:0:0:
497,82,87978,2,0,P|510:123|469:228,1,150,8|0,0:0|3:0,0:0:0:0:
391,250,88507,1,2,0:0:0:0:
391,250,88595,1,0,3:0:0:0:
391,250,88684,1,8,0:0:0:0:
393,339,88860,6,0,L|442:332,2,37.5,2|2|2,0:0|3:0|3:0,0:0:0:0:
312,380,89213,1,2,3:0:0:0:
289,377,89301,1,0,3:0:0:0:
266,374,89390,2,0,L|191:364,1,75,2|0,0:0|3:0,0:0:0:0:
126,301,89743,1,2,3:0:0:0:
189,237,89919,1,8,0:0:0:0:
189,237,90095,1,8,0:0:0:0:
189,237,90448,5,4,1:2:0:0:
189,237,90537,1,0,3:0:0:0:
189,237,90625,1,2,0:0:0:0:
140,161,90801,2,0,B|127:97|101:117|91:60,1,112.5,8|2,0:0|0:0,0:0:0:0:
102,25,91154,2,0,L|177:36,1,75,0|2,3:0|0:0,0:0:0:0:
198,40,91419,1,0,3:0:0:0:
284,17,91595,1,2,0:0:0:0:
287,39,91684,1,0,3:0:0:0:
284,61,91772,1,0,3:0:0:0:
284,61,91860,6,0,L|289:111,3,37.5,0|2|2|2,3:0|0:0|0:0|0:0,0:0:0:0:
368,72,92213,2,0,L|373:122,3,37.5,8|0|2|2,0:0|3:0|0:0|0:0,0:0:0:0:
452,83,92566,1,0,3:0:0:0:
475,170,92743,1,0,3:0:0:0:
403,224,92919,2,0,L|307:206,1,75,8|2,0:0|0:0,0:0:0:0:
307,218,93184,1,2,0:0:0:0:
285,225,93272,6,0,L|189:207,1,75,0|0,3:0|3:0,0:0:0:0:
138,158,93625,2,0,P|117:209|135:261,1,112.5,8|2,0:0|0:0,0:0:0:0:
153,275,93978,1,0,3:0:0:0:
201,350,94154,1,2,3:0:0:0:
201,350,94243,1,2,3:0:0:0:
201,350,94331,1,8,0:0:0:0:
283,315,94507,6,0,L|289:273,2,37.5,2|2|2,0:0|0:0|3:0,0:0:0:0:
360,360,94860,1,0,3:0:0:0:
378,347,94948,1,0,3:0:0:0:
400,344,95037,1,8,0:0:0:0:
465,282,95213,1,2,3:0:0:0:
407,212,95390,2,0,P|406:169|415:132,1,75,0|8,1:0|3:0,0:0:0:0:
466,65,95743,1,4,3:0:0:0:
466,65,95919,1,4,3:0:0:0:
335,107,96095,5,4,1:0:0:0:
256,192,101213,5,2,3:0:0:0:
256,192,101390,2,0,B|241:106|269:141|256:42,1,150,2|0,3:0|1:0,0:0:0:0:
256,192,105978,12,4,107037,1:2:0:0:
90,33,107390,6,0,P|105:106|119:180,1,150,4|8,1:0|0:0,0:0:0:0:
49,246,107919,1,2,0:0:0:0:
97,320,108095,2,0,P|133:331|170:324,1,75,2|0,1:2|0:0,0:0:0:0:
207,329,108360,2,0,P|233:303|245:268,1,75,8|0,0:2|0:0,0:0:0:0:
241,229,108625,1,2,0:2:0:0:
241,229,108978,5,2,0:0:0:0:
281,148,109154,1,8,0:0:0:0:
371,149,109331,1,0,0:0:0:0:
327,233,109507,2,0,P|343:267|352:304,1,75,2|2,1:2|3:0,0:0:0:0:
425,357,109860,2,0,P|440:323|449:286,1,75,2|0,3:0|1:0,0:0:0:0:
492,207,110213,5,0,1:0:0:0:
477,117,110390,1,2,0:0:0:0:
463,28,110566,1,8,0:0:0:0:
392,137,110743,2,0,P|349:130|277:74,1,112.5,2|0,0:0|0:0,0:0:0:0:
291,93,111095,5,2,0:0:0:0:
209,53,111272,1,8,0:0:0:0:
129,93,111448,2,0,P|72:125|43:186,1,112.5,2|0,0:0|0:0,0:0:0:0:
48,164,111801,1,0,0:0:0:0:
110,229,111978,1,8,0:2:0:0:
182,175,112154,1,2,3:0:0:0:
243,239,112331,1,0,1:0:0:0:
315,185,112507,1,8,0:0:0:0:
315,185,112684,2,0,P|379:189|454:174,1,112.5,8|0,0:0|0:0,0:0:0:0:
485,130,113037,6,0,P|452:197|439:270,1,150,4|8,1:2|0:0,0:0:0:0:
388,344,113566,1,2,0:0:0:0:
299,360,113743,2,0,P|267:339|233:324,1,75,2|0,1:2|0:0,0:0:0:0:
206,298,114007,2,0,P|168:296|131:300,1,75,8|0,0:2|0:0,0:0:0:0:
94,290,114272,1,2,0:0:0:0:
94,290,114625,5,2,0:0:0:0:
41,217,114801,1,8,0:0:0:0:
89,141,114978,1,2,0:0:0:0:
36,67,115154,2,0,P|89:53|140:72,1,112.5,0|0,1:0|0:0,0:0:0:0:
140,72,115507,1,2,1:3:0:0:
220,30,115684,1,2,1:2:0:0:
281,95,115860,6,0,P|334:109|385:90,1,112.5,0|0,1:0|0:0,0:0:0:0:
385,90,116213,1,8,0:0:0:0:
477,33,116390,2,0,P|465:88|456:143,1,112.5,2|0,0:0|0:0,0:0:0:0:
456,143,116743,1,4,0:0:0:0:
467,232,116919,1,2,1:2:0:0:
477,321,117095,1,4,0:0:0:0:
477,321,117448,6,0,L|420:333,1,37.5,4|0,3:0|0:0,0:0:0:0:
371,283,117625,2,0,L|359:226,1,37.5,8|0,3:0|0:0,0:0:0:0:
288,213,117801,2,0,L|231:225,1,37.5,4|0,3:0|0:0,0:0:0:0:
182,175,117978,2,0,L|170:118,1,37.5,2|0,1:0|0:0,0:0:0:0:
99,105,118154,2,0,L|42:117,1,37.5,4|0,1:0|0:0,0:0:0:0:
20,41,118331,2,0,L|98:24,1,75,2|2,1:0|1:0,0:0:0:0:
200,0,118684,5,4,1:0:0:0:
200,0,119037,5,4,1:2:0:0:
270,55,119213,1,2,0:0:0:0:
340,110,119390,1,0,1:0:0:0:
285,180,119566,1,0,0:0:0:0:
285,180,119654,1,2,0:0:0:0:
285,180,119743,1,2,1:2:0:0:
230,250,119919,1,2,0:0:0:0:
300,305,120095,6,0,B|317:373|317:373|248:360,1,112.5,2|0,1:2|0:0,0:0:0:0:
237,362,120448,2,0,L|146:371,1,75,2|0,1:0|0:0,0:0:0:0:
89,315,120801,2,0,P|97:252|119:186,1,112.5,4|0,1:2|0:0,0:0:0:0:
125,170,121154,2,0,L|34:161,1,75,2|0,1:0|0:0,0:0:0:0:
10,81,121507,6,0,P|35:31|86:10,1,112.5,4|0,1:2|0:0,0:0:0:0:
122,22,121860,1,0,1:0:0:0:
192,78,122037,1,2,1:2:0:0:
273,40,122213,2,0,P|345:40|399:52,1,112.5,2|0,1:0|0:0,0:0:0:0:
422,56,122566,1,2,1:2:0:0:
381,136,122743,6,0,P|309:136|255:148,1,112.5,2|0,1:0|0:0,0:0:0:0:
232,152,123096,1,2,1:0:0:0:
266,235,123272,1,0,1:0:0:0:
183,269,123448,1,2,1:0:0:0:
149,186,123625,1,4,1:2:0:0:
183,269,123801,1,8,0:0:0:0:
183,269,123978,1,8,0:0:0:0:
183,269,124331,6,0,P|82:286|51:288,1,112.5,4|0,1:0|0:0,0:0:0:0:
36,274,124684,2,0,P|25:310|21:347,1,75,2|2,1:2|0:0,0:0:0:0:
148,373,125037,2,0,P|151:336|162:300,1,75,0|2,1:0|0:0,0:0:0:0:
183,269,125301,1,2,0:0:0:0:
183,269,125390,1,2,1:2:0:0:
246,185,125566,1,2,1:0:0:0:
175,106,125743,6,0,P|139:99|101:94,1,75,2|0,1:0|0:0,0:0:0:0:
266,82,126095,2,0,P|279:31|288:-24,1,75,6|0,1:0|0:0,0:0:0:0:
246,185,126448,2,0,P|282:178|320:173,1,75,4|8,1:2|0:0,0:0:0:0:
433,120,126801,2,0,P|417:175|408:230,1,112.5,6|0,1:0|0:0,0:0:0:0:
421,266,127154,2,0,P|385:273|347:278,1,75,4|2,1:2|0:0,0:0:0:0:
262,342,127508,5,0,1:0:0:0:
181,275,127684,1,2,0:0:0:0:
82,311,127860,2,0,P|74:274|85:238,1,75,0|0,1:0|0:0,0:0:0:0:
29,149,128213,1,2,1:2:0:0:
118,93,128390,2,0,P|126:56|115:20,1,75,0|0,1:0|0:0,0:0:0:0:
219,40,128743,5,4,0:0:0:0:
219,40,128919,1,0,1:0:0:0:
219,40,129095,1,4,0:0:0:0:
219,40,129272,1,4,1:2:0:0:
219,40,129625,2,0,P|294:57|348:68,1,112.5,2|2,0:0|0:0,0:0:0:0:
385,16,129978,6,0,P|399:86|346:135,1,150,6|0,1:0|1:0,0:0:0:0:
239,229,130507,1,2,1:0:0:0:
303,291,130684,2,0,P|340:286|376:278,1,75,2|0,1:2|0:0,0:0:0:0:
376,278,130948,2,0,L|427:290,1,37.5,2|0,1:0|1:0,0:0:0:0:
318,378,131213,2,0,P|280:372|244:364,1,75,2|0,1:0|0:0,0:0:0:0:
107,372,131566,5,2,1:0:0:0:
70,289,131743,1,0,1:0:0:0:
123,216,131919,1,2,1:0:0:0:
86,133,132095,2,0,P|80:95|72:59,1,75,2|2,3:0|1:2,0:0:0:0:
58,24,132360,1,0,0:0:0:0:
58,24,132448,1,2,3:0:0:0:
147,37,132625,1,2,1:0:0:0:
248,165,132801,5,0,1:0:0:0:
281,80,132978,1,2,1:2:0:0:
337,152,133154,1,2,1:0:0:0:
180,115,133331,2,0,P|142:120|106:127,1,75,2|0,1:0|1:0,0:0:0:0:
241,220,133684,1,0,1:0:0:0:
254,194,133772,1,2,1:2:0:0:
248,165,133860,1,2,1:0:0:0:
299,286,134037,6,2,P|336:291|372:298,1,75,0|0,1:0|1:0,1:0:0:0:
264,369,134390,1,2,1:0:0:0:
299,286,134566,1,2,1:2:0:0:
353,357,134743,1,2,1:0:0:0:
460,268,134919,2,0,B|453:209|488:216|478:158,1,112.5,4|0,1:2|0:0,0:0:0:0:
405,142,135272,2,0,B|398:83|433:90|423:32,1,112.5,8|0,1:2|0:0,0:0:0:0:
348,48,135625,6,0,L|199:26,1,150,6|0,1:0|1:0,0:0:0:0:
83,119,136154,1,2,1:0:0:0:
170,94,136331,2,0,P|172:139|160:175,1,75,2|0,1:2|0:0,0:0:0:0:
163,167,136595,2,0,L|222:160,1,37.5,2|0,1:0|1:0,0:0:0:0:
92,236,136860,2,0,P|90:281|102:317,1,75,2|0,1:0|0:0,0:0:0:0:
240,358,137213,5,2,1:0:0:0:
329,346,137390,1,0,1:0:0:0:
418,335,137566,1,2,1:0:0:0:
366,261,137743,2,0,P|367:223|372:186,1,75,2|2,3:0|1:0,0:0:0:0:
381,150,138007,1,0,0:0:0:0:
381,150,138095,1,2,3:0:0:0:
463,112,138272,1,2,1:0:0:0:
282,2,138448,5,0,1:0:0:0:
303,89,138625,1,2,0:0:0:0:
217,63,138801,1,2,1:0:0:0:
195,185,138978,2,0,P|160:170|124:161,1,75,2|0,1:0|0:0,0:0:0:0:
0,272,139331,1,0,1:0:0:0:
88,255,139507,1,6,1:0:0:0:
148,321,139684,2,2,P|184:312|218:297,1,75,6|0,1:0|0:0,1:0:0:0:
382,349,140037,5,0,1:0:0:0:
359,209,140213,1,2,1:0:0:0:
382,349,140390,1,0,1:0:0:0:
359,209,140566,1,6,1:0:0:0:
467,139,141272,5,4,1:2:0:0:
239,134,146566,6,0,B|225:90|256:63|256:63|287:37|272:-2,1,150,0|4,1:0|1:2,0:0:0:0:
109,280,152213,6,0,P|158:272|192:237,1,101.249996910095,4|0,0:1|0:0,0:0:0:0:
195,203,152566,2,0,P|161:197|128:191,1,67.4999979400635,4|0,1:2|0:0,0:0:0:0:
90,119,152919,2,0,P|56:113|23:107,1,67.4999979400635,2|0,0:0|0:0,0:0:0:0:
58,33,153272,1,0,0:0:0:0:
134,8,153448,1,2,0:0:0:0:
134,8,153537,1,0,0:0:0:0:
134,8,153625,1,0,3:0:0:0:
190,66,153801,1,2,0:0:0:0:
266,41,153978,6,0,P|299:45|332:50,1,67.4999979400635,0|2,3:0|0:0,0:0:0:0:
411,31,154331,2,0,P|406:64|401:97,1,67.4999979400635,2|0,3:0|3:0,0:0:0:0:
445,166,154684,2,0,P|478:170|511:175,1,67.4999979400635,0|0,3:0|0:0,0:0:0:0:
497,255,155037,5,0,3:0:0:0:
497,255,155213,1,2,0:0:0:0:
356,273,155390,1,0,3:0:0:0:
401,347,155743,5,2,0:0:0:0:
401,347,155919,1,0,3:0:0:0:
260,329,156096,1,0,3:0:0:0:
305,255,156448,5,0,3:0:0:0:
305,255,156624,1,2,0:0:0:0:
164,273,156801,1,0,3:0:0:0:
209,347,157154,6,0,P|160:360|86:311,1,134.999995880127,0|0,3:0|3:0,0:0:0:0:
40,254,157684,1,0,1:0:0:0:
96,196,157860,2,0,P|99:162|107:129,1,67.4999979400635,0|0,1:0|1:0,0:0:0:0:
79,32,158213,6,0,L|174:23,1,82.5000025177003,4|0,1:0|0:0,0:0:0:0:
272,73,158566,2,0,L|366:63,1,82.5000025177003,4|0,1:0|0:0,0:0:0:0:
107,129,158919,2,0,L|201:119,1,82.5000025177003,4|0,1:0|0:0,0:0:0:0:
299,169,159272,2,0,L|393:159,1,82.5000025177003,4|0,1:0|0:0,0:0:0:0:
438,283,159625,5,4,1:0:0:0:
323,274,159801,1,0,1:0:0:0:
208,265,159978,1,4,1:2:0:0:
93,256,160154,1,0,1:0:0:0:
177,354,160331,5,4,1:0:0:0:
193,316,160419,1,0,1:0:0:0:
191,274,160507,1,0,1:0:0:0:
174,236,160595,1,0,1:0:0:0:
156,198,160684,2,0,P|158:171|173:137,4,41.2500012588501,4|0|0|0|0,1:2|1:0|1:0|1:0|0:0,0:0:0:0:
0,69,161390,6,0,P|84:53|154:43,1,123.75000377655,4|0,1:2|0:0,0:0:0:0:
184,0,161743,1,0,1:0:0:0:
162,115,161919,1,2,1:2:0:0:
265,16,162095,1,0,1:0:0:0:
243,131,162272,1,4,1:2:0:0:
366,80,162448,6,0,P|406:75|447:69,1,82.5000025177003,4|4,1:0|1:2,0:0:0:0:
507,218,162801,2,0,P|447:230|395:200,1,123.75000377655,4|0,1:2|0:0,0:0:0:0:
313,175,163154,2,0,P|321:215|329:255,1,82.5000025177003,4|0,1:0|0:0,0:0:0:0:
168,366,163508,1,0,1:0:0:0:
248,281,163684,1,2,1:2:0:0:
248,369,163861,6,0,P|319:334|329:255,1,165.000005035401,4|2,1:0|1:2,0:0:0:0:
196,216,164390,2,0,P|170:247|163:287,1,82.5000025177003,4|0,1:0|0:0,0:0:0:0:
121,145,164743,2,0,P|81:137|43:151,1,82.5000025177003,4|0,1:0|0:0,0:0:0:0:
209,0,165095,1,4,1:2:0:0:
231,89,165272,6,0,P|150:71|69:57,1,165.000005035401,2|0,3:0|1:0,0:0:0:0:
87,220,165802,1,0,0:0:0:0:
202,171,165978,1,0,1:0:0:0:
214,285,166155,1,4,3:0:0:0:
328,273,166331,1,8,3:0:0:0:
316,158,166508,1,4,3:0:0:0:
214,285,166684,6,0,P|219:325|233:364,1,82.5000025177003,4|4,1:0|1:2,0:0:0:0:
316,158,167037,2,0,P|310:117|296:78,1,82.5000025177003,0|4,1:0|1:2,0:0:0:0:
328,273,167390,2,0,P|386:253|445:234,1,123.75000377655,4|0,1:2|0:0,0:0:0:0:
468,306,167743,2,0,P|428:317|389:332,1,82.5000025177003,4|4,1:0|1:2,0:0:0:0:
246,237,168095,6,0,P|206:225|167:210,1,82.5000025177003,0|4,1:0|1:2,0:0:0:0:
99,312,168448,2,0,P|86:238|64:160,1,123.75000377655,4|0,1:2|0:0,0:0:0:0:
23,130,168801,1,6,1:0:0:0:
204,82,168978,1,0,0:0:0:0:
138,0,169154,2,0,P|125:74|103:152,1,123.75000377655,6|0,1:0|0:0,0:0:0:0:
73,190,169507,5,4,1:0:0:0:
209,218,169684,1,2,1:2:0:0:
77,274,169860,1,0,1:0:0:0:
213,302,170037,1,2,1:2:0:0:
91,355,170214,2,0,P|84:315|77:274,1,82.5000025177003,2|0,1:2|1:0,0:0:0:0:
14,374,170566,2,0,P|7:334|0:293,1,82.5000025177003,2|0,1:2|1:0,0:0:0:0:
213,302,170919,5,4,1:2:0:0:
213,302,171095,2,0,P|272:310|323:277,1,123.75000377655,0|0,1:0|0:0,0:0:0:0:
323,201,171448,1,0,1:0:0:0:
383,78,171625,1,4,1:2:0:0:
383,78,171801,2,0,P|462:75|512:137,1,165.000005035401,0|0,1:0|1:0,0:0:0:0:
445,295,172331,6,0,P|384:284|322:277,1,123.75000377655,4|0,1:0|0:0,0:0:0:0:
249,316,172684,2,0,P|188:305|126:298,1,123.75000377655,4|0,1:2|0:0,0:0:0:0:
50,327,173037,1,0,1:0:0:0:
13,202,173213,1,2,1:2:0:0:
126,298,173390,1,4,1:2:0:0:
89,173,173566,1,4,1:2:0:0:
177,81,173743,6,0,P|218:76|258:69,1,82.5000025177003,4|4,1:0|1:2,0:0:0:0:
395,10,174095,2,0,P|417:65|390:118,1,123.75000377655,0|0,1:2|0:0,0:0:0:0:
323,166,174448,2,0,P|281:161|241:154,1,82.5000025177003,4|0,1:2|0:0,0:0:0:0:
488,217,174802,1,4,1:2:0:0:
385,248,174978,6,0,B|303:263|324:317|233:330,1,165.000005035401,6|0,1:0|0:0,0:0:0:0:
241,154,175508,1,4,1:2:0:0:
162,239,175684,2,0,B|80:224|101:170|10:157,1,165.000005035401,6|0,1:0|0:0,0:0:0:0:
45,322,176213,1,4,1:2:0:0:
162,239,176390,2,0,P|146:158|141:75,1,165.000005035401,6|0,1:0|0:0,0:0:0:0:
319,0,176919,6,0,P|359:45|357:105,1,123.75000377655,4|0,1:2|0:0,0:0:0:0:
306,163,177272,1,0,1:0:0:0:
162,239,177449,1,4,3:0:0:0:
196,129,177625,1,8,3:0:0:0:
272,273,177801,1,4,3:0:0:0:
392,129,177978,6,0,P|432:119|472:112,1,82.5000025177003,4|0,1:0|0:0,0:0:0:0:
451,268,178331,2,0,P|410:258|370:251,1,82.5000025177003,6|0,1:0|0:0,0:0:0:0:
226,177,178684,2,0,P|266:167|306:160,1,82.5000025177003,4|0,1:0|0:0,0:0:0:0:
285,316,179037,2,0,P|244:306|204:299,1,82.5000025177003,6|0,1:0|0:0,0:0:0:0:
69,124,179390,5,0,1:0:0:0:
183,100,179567,1,0,0:0:0:0:
207,214,179743,1,4,1:2:0:0:
93,238,179919,1,0,0:0:0:0:
69,124,180095,2,0,P|73:84|80:43,1,82.5000025177003,4|0,1:0|0:0,0:0:0:0:
183,100,180448,2,0,P|187:59|194:18,1,82.5000025177003,4|0,1:2|0:0,0:0:0:0:
324,135,180801,6,0,P|339:172|338:213,1,82.5000025177003,4|0,1:2|0:0,0:0:0:0:
251,261,181154,2,0,P|235:298|236:339,1,82.5000025177003,4|0,1:2|0:0,0:0:0:0:
327,378,181507,1,4,1:2:0:0:
425,363,181684,1,0,0:0:0:0:
479,280,181860,1,4,1:2:0:0:
444,186,182037,6,0,P|434:133|432:5,1,165.000005035401,4|0,0:0|1:0,0:0:0:0:
325,101,182566,2,0,P|265:104|226:150,1,123.75000377655,4|0,1:0|0:0,0:0:0:0:
200,183,182919,1,0,1:0:0:0:
118,171,183095,1,0,1:0:0:0:
95,91,183272,1,4,1:2:0:0:
13,103,183448,1,0,1:0:0:0:
10,210,183625,6,0,P|63:222|119:150,1,134.999995880127,4|2,0:2|0:0,0:0:0:0:
198,329,184331,2,0,P|256:299|314:329,1,134.999995880127,0|2,0:0|0:0,0:0:0:0:
502,210,185037,2,0,P|449:222|393:150,1,134.999995880127,0|2,0:0|0:0,0:0:0:0:
314,54,185743,2,0,P|256:84|198:55,2,134.999995880127,0|2|2,0:0|0:0|0:0,0:0:0:0:
