osu file format v14

[General]
AudioFilename: audio.mp3
AudioLeadIn: 0
PreviewTime: 56127
Countdown: 0
SampleSet: Normal
StackLeniency: 0.7
Mode: 1
LetterboxInBreaks: 0
WidescreenStoryboard: 1

[Editor]
Bookmarks: 28333,50921,62215,84804,96098,118686,129980
DistanceSpacing: 1.1
BeatDivisor: 4
GridSize: 32
TimelineZoom: 1.4

[Metadata]
Title:phony
TitleUnicode:フォニイ
Artist:Machita Chima
ArtistUnicode:町田ちま
Creator:Faputa
Version:oni
Source:
Tags:Phoney Fonii japanese pop jpop j-pop Vtuber virtual youtuber バーチャルyoutuber 2434 にじさんじ nijisanji seeds ichikara anycolor いちから えにから ツミキ tsumiki kafu 可不
BeatmapID:3439958
BeatmapSetID:1682173

[Difficulty]
HPDrainRate:5.5
CircleSize:2
OverallDifficulty:5.5
ApproachRate:10
SliderMultiplier:1.4
SliderTickRate:1

[Events]
//Background and Video events
Video,-80,"chima.mp4"
0,0,"93323191_p0.jpg",0,30
//Break Periods
//Storyboard Layer 0 (Background)
//Storyboard Layer 1 (Fail)
//Storyboard Layer 2 (Pass)
//Storyboard Layer 3 (Foreground)
//Storyboard Layer 4 (Overlay)
//Storyboard Sound Samples

[TimingPoints]
-4137,352.941176470588,4,1,0,60,1,0
98,-117.647058823529,4,1,0,60,0,0
11215,-100,4,1,0,80,0,0
11745,-98.159509202454,4,1,0,80,0,0
12098,-96.3855421686747,4,1,0,80,0,0
12451,-94.6745562130178,4,1,0,80,0,0
12804,-93.0232558139535,4,1,0,80,0,0
13157,-91.4285714285714,4,1,0,80,0,0
13510,-89.8876404494382,4,1,0,80,0,0
13862,-88.3977900552486,4,1,0,80,0,0
14215,-86.9565217391304,4,1,0,80,0,0
14392,-87.6693882167082,4,1,0,80,0,0
14568,-88.3939612781413,4,1,0,80,0,0
14745,-89.1306905489381,4,1,0,80,0,0
14921,-89.8798037384606,4,1,0,80,0,0
15098,-90.641533582235,4,1,0,80,0,0
15274,-91.4163686493049,4,1,0,80,0,0
15362,-91.8087330303033,4,1,0,80,0,0
15451,-92.2045650480155,4,1,0,80,0,0
15539,-92.6037393389945,4,1,0,80,0,0
15627,-93.0063848883226,4,1,0,80,0,0
15980,-94.6526908813491,4,1,0,80,0,0
16333,-96.3584224969936,4,1,0,80,0,0
16686,-98.1266638602441,4,1,0,80,0,0
17039,-99.9610152040704,4,1,0,80,0,0
17215,-100,4,1,0,70,0,0
22068,-90.9090909090909,4,1,0,70,0,0
22510,-100,4,1,0,70,0,0
28510,-111.111111111111,4,1,0,60,0,0
33186,-109.89010989011,4,1,0,60,0,0
33362,-108.695652173913,4,1,0,60,0,0
33539,-107.52688172043,4,1,0,60,0,0
33715,-106.382978723404,4,1,0,60,0,0
33892,-105.263157894737,4,1,0,60,0,0
38304,-95.2380952380952,4,1,0,60,0,0
38745,-105.263157894737,4,1,0,60,0,0
38921,-104.166666666667,4,1,0,60,0,0
39010,-103.626943005181,4,1,0,60,0,0
39098,-103.092783505155,4,1,0,60,0,0
39274,-102.040816326531,4,1,0,60,0,0
39362,-101.522842639594,4,1,0,60,0,0
39451,-101.010101010101,4,1,0,60,0,0
39539,-100,4,1,0,65,0,0
44657,-90.9090909090909,4,1,0,65,0,0
45098,-100,4,1,0,65,0,0
51098,-111.111111111111,4,1,0,70,0,0
53127,-100,4,1,0,70,0,0
53568,-111.111111111111,4,1,0,70,0,0
55951,-100,4,1,0,70,0,0
56392,-105.263157894737,4,1,0,75,0,0
58774,-95.2380952380952,4,1,0,75,0,0
59215,-105.263157894737,4,1,0,75,0,0
60980,-105.263157894737,4,1,0,75,0,0
61068,-104.089250286766,4,1,0,75,0,0
61157,-102.941131055383,4,1,0,75,0,0
61333,-100.719438952437,4,1,0,75,0,0
61421,-99.6441706665498,4,1,0,75,0,0
61510,-98.5915215235151,4,1,0,75,0,0
61862,-94.594581811543,4,1,0,75,0,0
62215,-90.9090909090909,4,1,0,80,0,1
62392,-95.2380952380952,4,1,0,80,0,1
82157,-97.5609756097561,4,1,0,80,0,1
84804,-97.5609756097561,4,1,0,80,0,0
84980,-100,4,1,0,70,0,0
89833,-90.9090909090909,4,1,0,70,0,0
90274,-100,4,1,0,70,0,0
94686,-100,4,1,0,70,0,0
94951,-101.900754778891,4,1,0,70,0,0
95039,-102.550429173546,4,1,0,70,0,0
95215,-103.875166979331,4,1,0,70,0,0
95392,-105.23446765566,4,1,0,70,0,0
95745,-108.062663377239,4,1,0,70,0,0
95921,-109.534663887407,4,1,0,70,0,0
96010,-111.111111111111,4,1,0,60,0,0
105892,-111.111111111111,4,1,0,65,0,0
107304,-105.263157894737,4,1,0,70,0,0
112421,-95.2380952380952,4,1,0,70,0,0
112862,-105.263157894737,4,1,0,70,0,0
117274,-105.263157894737,4,1,0,70,0,0
117451,-104.57866302454,4,1,0,70,0,0
117539,-104.239851729235,4,1,0,70,0,0
117627,-103.903120730231,4,1,0,70,0,0
117686,-103.67980358898,4,1,0,70,0,0
117804,-103.236143386744,4,1,0,70,0,0
117980,-102.577779601383,4,1,0,70,0,0
118157,-101.927655827,4,1,0,70,0,0
118245,-101.605674473708,4,1,0,70,0,0
118333,-101.285720941633,4,1,0,70,0,0
118510,-100.651922502046,4,1,0,70,0,0
118686,-100.025906709838,4,1,0,70,0,0
118862,-90.9090909090909,4,1,0,85,0,0
119127,-95.2380952380952,4,1,0,75,0,0
119304,-97.5609756097561,4,1,0,75,0,0
119480,-98.7654320987654,4,1,0,75,0,0
119612,-99.3788819875776,4,1,0,75,0,0
119701,-100,4,1,0,75,0,0
120892,-90.9090909090909,4,1,0,75,0,0
121333,-100,4,1,0,75,0,0
123715,-90.9090909090909,4,1,0,75,0,0
124157,-100,4,1,0,75,0,0
126539,-90.9090909090909,4,1,0,75,0,0
126980,-100,4,1,0,75,0,0
128657,-100,4,1,0,60,0,0
128921,-99.2907660580474,4,1,0,60,0,0
129098,-98.0392156862745,4,1,0,60,0,0
129274,-96.1538461538461,4,1,0,60,0,0
129451,-93.4579439252336,4,1,0,60,0,0
129804,-90.9090909090909,4,1,0,75,0,0
130157,-97.5609756097561,4,1,0,75,0,0
135010,-88.8888888888889,4,1,0,75,0,0
135451,-97.5609756097561,4,1,0,75,0,0
140127,-95.6937799043062,4,1,0,75,0,0
140304,-93.8967136150235,4,1,0,75,0,0
140480,-92.1658986175115,4,1,0,75,0,0
140657,-91.324200913242,4,1,0,75,0,0
141098,-90.9090909090909,4,1,0,60,0,0
141451,-95.2380952380952,4,1,0,60,0,0
141804,-98.0392156862745,4,1,0,60,0,0
142068,-100,4,1,0,60,0,0
142245,-102.040816326531,4,1,0,60,0,0
142421,-104.166666666667,4,1,0,60,0,0
142598,-105.263157894737,4,1,0,60,0,0
142774,-106.382978723404,4,1,0,60,0,0
142951,-107.52688172043,4,1,0,60,0,0
143215,-108.695652173913,4,1,0,60,0,0
143568,-109.89010989011,4,1,0,60,0,0
143921,-111.111111111111,4,1,0,60,0,0
151774,-109.89010989011,4,1,0,60,0,0
152127,-107.52688172043,4,1,0,60,0,0
152304,-106.382978723404,4,1,0,60,0,0
152480,-105.263157894737,4,1,0,65,0,0
152745,-108.108108108108,4,1,0,65,0,0
154510,-106.951871657754,4,1,0,65,0,0
155568,-105.820105820106,4,1,0,65,0,0
156274,-104.712041884817,4,1,0,70,0,0
157333,-104.166666666667,4,1,0,75,0,0
157598,-103.092783505155,4,1,0,75,0,0
157774,-102.040816326531,4,1,0,75,0,0
157951,-101.010101010101,4,1,0,75,0,0
158127,-100,4,1,0,80,0,0
158568,-98.1642307212813,4,1,0,80,0,0
158921,-96.3945544788284,4,1,0,80,0,0
159274,-94.6876443986577,4,1,0,80,0,0
159627,-93.0401328613097,4,1,0,80,0,0
159804,-92.2376484564952,4,1,0,80,0,0
159980,-91.4489723878973,4,1,0,80,0,0
160157,-90.6735868748169,4,1,0,80,0,0
160333,-89.9112396242429,4,1,0,80,0,0
160510,-89.1616840145583,4,1,0,80,0,0
160686,-88.4244444071097,4,1,0,80,0,0
160774,-88.0604164905458,4,1,0,80,0,0
160862,-87.6992966516409,4,1,0,80,0,0
160951,-87.3412027757034,4,1,0,80,0,0
161039,-86.9860213463696,4,1,0,80,0,0
161215,-83.3333333333333,4,1,0,85,0,0
161392,-83.3333333333333,4,1,0,90,0,1
161568,-86.9565217391304,4,1,0,90,0,1
182745,-91.743119266055,4,1,0,90,0,1
183010,-92.5925925925926,4,1,0,90,0,1
183186,-93.4579439252336,4,1,0,90,0,1
183362,-94.3396226415094,4,1,0,90,0,1
183627,-95.2380952380952,4,1,0,90,0,0
183804,-95.6937799043062,4,1,0,60,0,0
184157,-96.1538461538461,4,1,0,60,0,0
184510,-96.6183574879227,4,1,0,60,0,0
184862,-97.0873786407767,4,1,0,60,0,0
185215,-97.5609756097561,4,1,0,60,0,0
185568,-98.0392156862745,4,1,0,60,0,0
185921,-99.2555831265509,4,1,0,60,0,0
186274,-100,4,1,0,60,0,0

[HitObjects]
256,192,1157,5,8,0:0:0:0:
256,192,1510,1,0,0:0:0:0:
256,192,1862,1,8,0:0:0:0:
256,192,2039,1,0,0:0:0:0:
256,192,2215,1,8,0:0:0:0:
256,192,2568,1,8,0:0:0:0:
256,192,2745,1,8,0:0:0:0:
256,192,2921,1,0,0:0:0:0:
256,192,3274,1,8,0:0:0:0:
256,192,3627,1,8,0:0:0:0:
256,192,3980,1,0,0:0:0:0:
256,192,4333,1,8,0:0:0:0:
256,192,4686,1,0,0:0:0:0:
256,192,5039,1,8,0:0:0:0:
256,192,5215,1,0,0:0:0:0:
256,192,5392,1,8,0:0:0:0:
256,192,5745,1,0,0:0:0:0:
256,192,6274,1,0,0:0:0:0:
256,192,6451,1,8,0:0:0:0:
256,192,6627,1,8,0:0:0:0:
256,192,6804,1,0,0:0:0:0:
256,192,7157,1,8,0:0:0:0:
256,192,7510,1,8,0:0:0:0:
256,192,7686,1,0,0:0:0:0:
256,192,7862,1,8,0:0:0:0:
256,192,8215,1,8,0:0:0:0:
256,192,8392,1,8,0:0:0:0:
256,192,8568,1,0,0:0:0:0:
256,192,8921,1,8,0:0:0:0:
256,192,9274,1,8,0:0:0:0:
256,192,9627,1,0,0:0:0:0:
256,192,9980,1,8,0:0:0:0:
256,192,10333,1,8,0:0:0:0:
256,192,10686,1,8,0:0:0:0:
256,192,10862,1,0,0:0:0:0:
256,192,11039,1,8,0:0:0:0:
256,192,11392,1,4,0:0:0:0:
256,192,11745,1,4,0:0:0:0:
256,192,12098,1,4,0:0:0:0:
256,192,12451,1,4,0:0:0:0:
256,192,12804,1,4,0:0:0:0:
256,192,13157,1,4,0:0:0:0:
256,192,13510,1,4,0:0:0:0:
256,192,13862,1,4,0:0:0:0:
256,192,14215,1,4,0:0:0:0:
256,192,14392,1,0,0:0:0:0:
256,192,14568,1,0,0:0:0:0:
256,192,14745,1,0,0:0:0:0:
256,192,14921,1,8,0:0:0:0:
256,192,15098,1,0,0:0:0:0:
256,192,15274,1,8,0:0:0:0:
256,192,15362,1,8,0:0:0:0:
256,192,15451,1,8,0:0:0:0:
256,192,15539,1,8,0:0:0:0:
256,192,15627,1,0,0:0:0:0:
256,192,15980,1,8,0:0:0:0:
256,192,16333,1,0,0:0:0:0:
256,192,16686,1,8,0:0:0:0:
256,192,17039,1,4,0:0:0:0:
256,192,17392,1,8,0:0:0:0:
256,192,17568,1,0,0:0:0:0:
256,192,17745,1,8,0:0:0:0:
256,192,18010,1,8,0:0:0:0:
256,192,18274,1,8,0:0:0:0:
256,192,18451,1,0,0:0:0:0:
256,192,18627,1,8,0:0:0:0:
256,192,18715,1,8,0:0:0:0:
256,192,18804,1,0,0:0:0:0:
256,192,18980,1,0,0:0:0:0:
256,192,19157,1,8,0:0:0:0:
256,192,19333,1,8,0:0:0:0:
256,192,19510,1,0,0:0:0:0:
256,192,19862,1,0,0:0:0:0:
256,192,20215,1,8,0:0:0:0:
256,192,20392,1,0,0:0:0:0:
256,192,20568,1,8,0:0:0:0:
256,192,20833,1,8,0:0:0:0:
256,192,21098,1,8,0:0:0:0:
256,192,21274,1,0,0:0:0:0:
256,192,21451,1,8,0:0:0:0:
256,192,21539,1,8,0:0:0:0:
256,192,21627,1,0,0:0:0:0:
256,192,21804,1,8,0:0:0:0:
256,192,21980,1,0,0:0:0:0:
256,192,22157,1,12,0:0:0:0:
256,192,22333,1,12,0:0:0:0:
256,192,22686,1,4,0:0:0:0:
256,192,22862,1,8,0:0:0:0:
256,192,22951,1,8,0:0:0:0:
256,192,23039,1,0,0:0:0:0:
256,192,23215,1,0,0:0:0:0:
256,192,23392,1,8,0:0:0:0:
256,192,23657,1,8,0:0:0:0:
256,192,23921,1,8,0:0:0:0:
256,192,24098,1,0,0:0:0:0:
256,192,24274,1,8,0:0:0:0:
256,192,24362,1,8,0:0:0:0:
256,192,24451,1,0,0:0:0:0:
256,192,24627,1,0,0:0:0:0:
256,192,24804,1,8,0:0:0:0:
256,192,24980,1,8,0:0:0:0:
256,192,25157,1,0,0:0:0:0:
256,192,25333,1,0,0:0:0:0:
256,192,25510,1,8,0:0:0:0:
256,192,25862,1,8,0:0:0:0:
256,192,26039,1,0,0:0:0:0:
256,192,26215,1,8,0:0:0:0:
256,192,26480,1,8,0:0:0:0:
256,192,26745,1,8,0:0:0:0:
256,192,26921,1,0,0:0:0:0:
256,192,27098,1,8,0:0:0:0:
256,192,27186,1,8,0:0:0:0:
256,192,27274,1,0,0:0:0:0:
256,192,27451,1,8,0:0:0:0:
256,192,27627,1,0,0:0:0:0:
256,192,27804,1,8,0:0:0:0:
256,192,27980,1,8,0:0:0:0:
256,192,28333,1,12,0:0:0:0:
256,192,28686,1,8,0:0:0:0:
256,192,28862,1,0,0:0:0:0:
256,192,29039,1,8,0:0:0:0:
256,192,29392,1,8,0:0:0:0:
256,192,29568,1,8,0:0:0:0:
256,192,29745,1,0,0:0:0:0:
256,192,30098,1,8,0:0:0:0:
256,192,30451,1,8,0:0:0:0:
256,192,30804,1,0,0:0:0:0:
256,192,30892,1,0,0:0:0:0:
256,192,30980,1,0,0:0:0:0:
256,192,31157,1,8,0:0:0:0:
256,192,31510,1,0,0:0:0:0:
256,192,31862,1,8,0:0:0:0:
256,192,32039,1,0,0:0:0:0:
256,192,32215,1,8,0:0:0:0:
256,192,32568,1,0,0:0:0:0:
256,192,33098,1,0,0:0:0:0:
256,192,33274,1,8,0:0:0:0:
256,192,33451,1,8,0:0:0:0:
256,192,33627,1,0,0:0:0:0:
256,192,33980,1,0,0:0:0:0:
256,192,34333,1,8,0:0:0:0:
256,192,34510,1,0,0:0:0:0:
256,192,34686,1,0,0:0:0:0:
256,192,35039,1,8,0:0:0:0:
256,192,35215,1,0,0:0:0:0:
256,192,35568,1,0,0:0:0:0:
256,192,35745,1,8,0:0:0:0:
256,192,35921,1,0,0:0:0:0:
256,192,36098,1,0,0:0:0:0:
256,192,36451,1,8,0:0:0:0:
256,192,36539,1,8,0:0:0:0:
256,192,36627,1,8,0:0:0:0:
256,192,36804,1,0,0:0:0:0:
256,192,37157,1,8,0:0:0:0:
256,192,37333,1,0,0:0:0:0:
256,192,37510,1,8,0:0:0:0:
256,192,37686,1,8,0:0:0:0:
256,192,37862,1,0,0:0:0:0:
256,192,38039,1,8,0:0:0:0:
256,192,38127,1,8,0:0:0:0:
256,192,38215,1,0,0:0:0:0:
256,192,38392,1,12,0:0:0:0:
256,192,38745,1,0,0:0:0:0:
256,192,38921,1,8,0:0:0:0:
256,192,39010,1,8,0:0:0:0:
256,192,39098,1,8,0:0:0:0:
256,192,39274,1,0,0:0:0:0:
256,192,39362,1,0,0:0:0:0:
256,192,39451,1,8,0:0:0:0:
256,192,39627,1,4,0:0:0:0:
256,192,39804,1,8,0:0:0:0:
256,192,39980,1,8,0:0:0:0:
256,192,40157,1,0,0:0:0:0:
256,192,40333,1,8,0:0:0:0:
256,192,40510,1,0,0:0:0:0:
256,192,40686,1,8,0:0:0:0:
256,192,40862,1,8,0:0:0:0:
256,192,40951,1,8,0:0:0:0:
256,192,41039,1,8,0:0:0:0:
256,192,41215,1,0,0:0:0:0:
256,192,41392,1,8,0:0:0:0:
256,192,41745,1,0,0:0:0:0:
256,192,42098,1,8,0:0:0:0:
256,192,42186,1,8,0:0:0:0:
256,192,42274,1,0,0:0:0:0:
256,192,42451,1,8,0:0:0:0:
256,192,42627,1,0,0:0:0:0:
256,192,42804,1,8,0:0:0:0:
256,192,42980,1,8,0:0:0:0:
256,192,43157,1,0,0:0:0:0:
256,192,43333,1,0,0:0:0:0:
256,192,43510,1,8,0:0:0:0:
256,192,43686,1,8,0:0:0:0:
256,192,43774,1,8,0:0:0:0:
256,192,43862,1,0,0:0:0:0:
256,192,44039,1,0,0:0:0:0:
256,192,44215,1,8,0:0:0:0:
256,192,44392,1,8,0:0:0:0:
256,192,44480,1,8,0:0:0:0:
256,192,44568,1,0,0:0:0:0:
256,192,44745,1,12,0:0:0:0:
256,192,44921,1,12,0:0:0:0:
256,192,45274,1,4,0:0:0:0:
256,192,45451,1,8,0:0:0:0:
256,192,45627,1,0,0:0:0:0:
256,192,45804,1,8,0:0:0:0:
256,192,45980,1,8,0:0:0:0:
256,192,46157,1,0,0:0:0:0:
256,192,46333,1,8,0:0:0:0:
256,192,46421,1,8,0:0:0:0:
256,192,46510,1,8,0:0:0:0:
256,192,46686,1,0,0:0:0:0:
256,192,46862,1,8,0:0:0:0:
256,192,47039,1,0,0:0:0:0:
256,192,47392,1,8,0:0:0:0:
256,192,47745,1,8,0:0:0:0:
256,192,47833,1,8,0:0:0:0:
256,192,47921,1,0,0:0:0:0:
256,192,48098,1,8,0:0:0:0:
256,192,48274,1,0,0:0:0:0:
256,192,48451,1,8,0:0:0:0:
256,192,48627,1,8,0:0:0:0:
256,192,48804,1,0,0:0:0:0:
256,192,48980,1,8,0:0:0:0:
256,192,49068,1,8,0:0:0:0:
256,192,49157,1,8,0:0:0:0:
256,192,49333,1,8,0:0:0:0:
256,192,49510,1,0,0:0:0:0:
256,192,49686,1,8,0:0:0:0:
256,192,49774,1,8,0:0:0:0:
256,192,49862,1,8,0:0:0:0:
256,192,50039,1,0,0:0:0:0:
256,192,50127,1,0,0:0:0:0:
256,192,50215,1,8,0:0:0:0:
256,192,50568,1,8,0:0:0:0:
256,192,50921,1,4,0:0:0:0:
256,192,51274,1,8,0:0:0:0:
256,192,51451,1,0,0:0:0:0:
256,192,51627,1,0,0:0:0:0:
256,192,51804,1,8,0:0:0:0:
256,192,51892,1,8,0:0:0:0:
256,192,51980,1,0,0:0:0:0:
256,192,52157,1,0,0:0:0:0:
256,192,52333,1,8,0:0:0:0:
256,192,52510,1,8,0:0:0:0:
256,192,52686,1,0,0:0:0:0:
256,192,53039,1,0,0:0:0:0:
256,192,53215,1,12,0:0:0:0:
256,192,53392,1,12,0:0:0:0:
256,192,53745,1,0,0:0:0:0:
256,192,54098,1,8,0:0:0:0:
256,192,54274,1,0,0:0:0:0:
256,192,54451,1,8,0:0:0:0:
256,192,54627,1,8,0:0:0:0:
256,192,54715,1,8,0:0:0:0:
256,192,54804,1,0,0:0:0:0:
256,192,54980,1,8,0:0:0:0:
256,192,55333,1,0,0:0:0:0:
256,192,55510,1,8,0:0:0:0:
256,192,55686,1,0,0:0:0:0:
256,192,55862,1,0,0:0:0:0:
256,192,56039,1,12,0:0:0:0:
256,192,56215,1,12,0:0:0:0:
256,192,56568,1,4,0:0:0:0:
256,192,56921,1,8,0:0:0:0:
256,192,57098,1,0,0:0:0:0:
256,192,57274,1,8,0:0:0:0:
256,192,57451,1,8,0:0:0:0:
256,192,57539,1,8,0:0:0:0:
256,192,57627,1,0,0:0:0:0:
256,192,57804,1,8,0:0:0:0:
256,192,57980,1,0,0:0:0:0:
256,192,58157,1,0,0:0:0:0:
256,192,58333,1,8,0:0:0:0:
256,192,58510,1,8,0:0:0:0:
256,192,58598,1,8,0:0:0:0:
256,192,58686,1,0,0:0:0:0:
256,192,58862,1,12,0:0:0:0:
256,192,59039,1,12,0:0:0:0:
256,192,59392,1,0,0:0:0:0:
256,192,59745,1,8,0:0:0:0:
256,192,59921,1,8,0:0:0:0:
256,192,60098,1,0,0:0:0:0:
256,192,60274,1,8,0:0:0:0:
256,192,60451,1,0,0:0:0:0:
256,192,60539,1,0,0:0:0:0:
256,192,60627,1,8,0:0:0:0:
256,192,60980,1,8,0:0:0:0:
256,192,61068,1,0,0:0:0:0:
256,192,61157,1,8,0:0:0:0:
256,192,61333,1,0,0:0:0:0:
256,192,61421,1,0,0:0:0:0:
256,192,61510,1,8,0:0:0:0:
256,192,61862,1,8,0:0:0:0:
256,192,62215,1,12,0:0:0:0:
256,192,62568,1,8,0:0:0:0:
256,192,62657,1,8,0:0:0:0:
256,192,62745,1,0,0:0:0:0:
256,192,62921,1,8,0:0:0:0:
256,192,63098,1,8,0:0:0:0:
256,192,63274,1,0,0:0:0:0:
256,192,63362,1,0,0:0:0:0:
256,192,63451,1,0,0:0:0:0:
256,192,63627,1,8,0:0:0:0:
256,192,63804,1,8,0:0:0:0:
256,192,63980,1,8,0:0:0:0:
256,192,64157,1,0,0:0:0:0:
256,192,64333,1,8,0:0:0:0:
256,192,64686,1,8,0:0:0:0:
256,192,64774,1,8,0:0:0:0:
256,192,64862,1,0,0:0:0:0:
256,192,65039,1,8,0:0:0:0:
256,192,65215,1,0,0:0:0:0:
256,192,65392,1,8,0:0:0:0:
256,192,65568,1,8,0:0:0:0:
256,192,65657,1,8,0:0:0:0:
256,192,65745,1,0,0:0:0:0:
256,192,65921,1,8,0:0:0:0:
256,192,66098,1,0,0:0:0:0:
256,192,66186,1,0,0:0:0:0:
256,192,66274,1,8,0:0:0:0:
256,192,66451,1,0,0:0:0:0:
256,192,66804,1,8,0:0:0:0:
256,192,66980,1,0,0:0:0:0:
256,192,67068,1,0,0:0:0:0:
256,192,67157,1,8,0:0:0:0:
256,192,67333,1,8,0:0:0:0:
256,192,67510,1,8,0:0:0:0:
256,192,67686,1,0,0:0:0:0:
256,192,67862,1,12,0:0:0:0:
256,192,68039,1,0,0:0:0:0:
256,192,68215,1,8,0:0:0:0:
256,192,68392,1,8,0:0:0:0:
256,192,68480,1,8,0:0:0:0:
256,192,68568,1,0,0:0:0:0:
256,192,68921,1,8,0:0:0:0:
256,192,69098,1,0,0:0:0:0:
256,192,69274,1,8,0:0:0:0:
256,192,69451,1,0,0:0:0:0:
256,192,69539,1,8,0:0:0:0:
256,192,69627,1,0,0:0:0:0:
256,192,69980,1,8,0:0:0:0:
256,192,70068,1,8,0:0:0:0:
256,192,70157,1,0,0:0:0:0:
256,192,70333,1,8,0:0:0:0:
256,192,70421,1,8,0:0:0:0:
256,192,70510,1,8,0:0:0:0:
256,192,70598,1,8,0:0:0:0:
256,192,70686,1,0,0:0:0:0:
256,192,70862,1,8,0:0:0:0:
256,192,71039,1,0,0:0:0:0:
256,192,71215,1,8,0:0:0:0:
256,192,71392,1,8,0:0:0:0:
256,192,71745,1,8,0:0:0:0:
256,192,71921,1,0,0:0:0:0:
256,192,72098,1,8,0:0:0:0:
256,192,72274,1,8,0:0:0:0:
256,192,72451,1,0,0:0:0:0:
256,192,72627,1,8,0:0:0:0:
256,192,72715,1,8,0:0:0:0:
256,192,72804,1,0,0:0:0:0:
256,192,72980,1,8,0:0:0:0:
256,192,73157,1,0,0:0:0:0:
256,192,73333,1,0,0:0:0:0:
256,192,73510,1,12,0:0:0:0:
256,192,73862,1,8,0:0:0:0:
256,192,73951,1,8,0:0:0:0:
256,192,74039,1,0,0:0:0:0:
256,192,74215,1,8,0:0:0:0:
256,192,74392,1,0,0:0:0:0:
256,192,74568,1,8,0:0:0:0:
256,192,74657,1,8,0:0:0:0:
256,192,74745,1,8,0:0:0:0:
256,192,74921,1,0,0:0:0:0:
256,192,75098,1,0,0:0:0:0:
256,192,75274,1,8,0:0:0:0:
256,192,75451,1,0,0:0:0:0:
256,192,75627,1,8,0:0:0:0:
256,192,75980,1,8,0:0:0:0:
256,192,76068,1,0,0:0:0:0:
256,192,76157,1,0,0:0:0:0:
256,192,76333,1,8,0:0:0:0:
256,192,76510,1,0,0:0:0:0:
256,192,76686,1,8,0:0:0:0:
256,192,76774,1,8,0:0:0:0:
256,192,76862,1,0,0:0:0:0:
256,192,77039,1,8,0:0:0:0:
256,192,77215,1,0,0:0:0:0:
256,192,77392,1,8,0:0:0:0:
256,192,77480,1,8,0:0:0:0:
256,192,77568,1,8,0:0:0:0:
256,192,77745,1,8,0:0:0:0:
256,192,77921,1,0,0:0:0:0:
256,192,78098,1,8,0:0:0:0:
256,192,78451,1,8,0:0:0:0:
256,192,78627,1,8,0:0:0:0:
256,192,78804,1,0,0:0:0:0:
256,192,78980,1,0,0:0:0:0:
256,192,79157,1,12,0:0:0:0:
256,192,79510,1,8,0:0:0:0:
256,192,79686,1,0,0:0:0:0:
256,192,79774,1,0,0:0:0:0:
256,192,79862,1,8,0:0:0:0:
256,192,80039,1,0,0:0:0:0:
256,192,80215,1,8,0:0:0:0:
256,192,80392,1,8,0:0:0:0:
256,192,80568,1,0,0:0:0:0:
256,192,80745,1,0,0:0:0:0:
256,192,80833,1,0,0:0:0:0:
256,192,80921,1,8,0:0:0:0:
256,192,81098,1,8,0:0:0:0:
256,192,81274,1,0,0:0:0:0:
256,192,81362,1,0,0:0:0:0:
256,192,81451,1,8,0:0:0:0:
256,192,81539,1,8,0:0:0:0:
256,192,81627,1,0,0:0:0:0:
256,192,81804,1,8,0:0:0:0:
256,192,81980,1,4,0:0:0:0:
256,192,82333,1,8,0:0:0:0:
256,192,82510,1,0,0:0:0:0:
256,192,82686,1,8,0:0:0:0:
256,192,82862,1,0,0:0:0:0:
256,192,83039,1,8,0:0:0:0:
256,192,83392,1,0,0:0:0:0:
256,192,83568,1,8,0:0:0:0:
256,192,83745,1,0,0:0:0:0:
256,192,83921,1,8,0:0:0:0:
256,192,84098,1,0,0:0:0:0:
256,192,84274,1,0,0:0:0:0:
256,192,84451,1,8,0:0:0:0:
256,192,84539,1,8,0:0:0:0:
256,192,84627,1,8,0:0:0:0:
256,192,84804,1,4,0:0:0:0:
256,192,85157,1,8,0:0:0:0:
256,192,85333,1,0,0:0:0:0:
256,192,85510,1,8,0:0:0:0:
256,192,85774,1,0,0:0:0:0:
256,192,85951,1,8,0:0:0:0:
256,192,86039,1,8,0:0:0:0:
256,192,86127,1,8,0:0:0:0:
256,192,86304,1,0,0:0:0:0:
256,192,86392,1,0,0:0:0:0:
256,192,86480,1,8,0:0:0:0:
256,192,86657,1,8,0:0:0:0:
256,192,86833,1,0,0:0:0:0:
256,192,87010,1,0,0:0:0:0:
256,192,87274,1,8,0:0:0:0:
256,192,87451,1,8,0:0:0:0:
256,192,87539,1,0,0:0:0:0:
256,192,87715,1,8,0:0:0:0:
256,192,87804,1,0,0:0:0:0:
256,192,87980,1,8,0:0:0:0:
256,192,88157,1,0,0:0:0:0:
256,192,88245,1,0,0:0:0:0:
256,192,88333,1,8,0:0:0:0:
256,192,88598,1,8,0:0:0:0:
256,192,88774,1,0,0:0:0:0:
256,192,88862,1,8,0:0:0:0:
256,192,89039,1,0,0:0:0:0:
256,192,89215,1,8,0:0:0:0:
256,192,89304,1,8,0:0:0:0:
256,192,89392,1,0,0:0:0:0:
256,192,89568,1,8,0:0:0:0:
256,192,89745,1,0,0:0:0:0:
256,192,89921,1,12,0:0:0:0:
256,192,90098,1,12,0:0:0:0:
256,192,90451,1,4,0:0:0:0:
256,192,90804,1,0,0:0:0:0:
256,192,90980,1,0,0:0:0:0:
256,192,91068,1,0,0:0:0:0:
256,192,91157,1,8,0:0:0:0:
256,192,91421,1,0,0:0:0:0:
256,192,91598,1,8,0:0:0:0:
256,192,91686,1,8,0:0:0:0:
256,192,91774,1,8,0:0:0:0:
256,192,91951,1,0,0:0:0:0:
256,192,92039,1,0,0:0:0:0:
256,192,92127,1,8,0:0:0:0:
256,192,92304,1,8,0:0:0:0:
256,192,92480,1,8,0:0:0:0:
256,192,92745,1,0,0:0:0:0:
256,192,92921,1,0,0:0:0:0:
256,192,93098,1,8,0:0:0:0:
256,192,93186,1,0,0:0:0:0:
256,192,93362,1,8,0:0:0:0:
256,192,93539,1,0,0:0:0:0:
256,192,93627,1,8,0:0:0:0:
256,192,93804,1,0,0:0:0:0:
256,192,93892,1,0,0:0:0:0:
256,192,93980,1,8,0:0:0:0:
256,192,94245,1,8,0:0:0:0:
256,192,94421,1,0,0:0:0:0:
256,192,94510,1,8,0:0:0:0:
256,192,94686,1,0,0:0:0:0:
256,192,94951,1,8,0:0:0:0:
256,192,95039,1,0,0:0:0:0:
256,192,95215,1,0,0:0:0:0:
256,192,95392,1,8,0:0:0:0:
256,192,95745,1,8,0:0:0:0:
256,192,95921,1,8,0:0:0:0:
256,192,96098,1,4,0:0:0:0:
256,192,96274,1,8,0:0:0:0:
256,192,96451,1,0,0:0:0:0:
256,192,96627,1,0,0:0:0:0:
256,192,96804,1,8,0:0:0:0:
256,192,96980,1,8,0:0:0:0:
256,192,97157,1,0,0:0:0:0:
256,192,97245,1,0,0:0:0:0:
256,192,97333,1,8,0:0:0:0:
256,192,97510,1,0,0:0:0:0:
256,192,97686,1,0,0:0:0:0:
256,192,97862,1,8,0:0:0:0:
256,192,98215,1,0,0:0:0:0:
256,192,98568,1,8,0:0:0:0:
256,192,98657,1,8,0:0:0:0:
256,192,98745,1,0,0:0:0:0:
256,192,98921,1,8,0:0:0:0:
256,192,99098,1,0,0:0:0:0:
256,192,99274,1,8,0:0:0:0:
256,192,99451,1,0,0:0:0:0:
256,192,99627,1,8,0:0:0:0:
256,192,99804,1,0,0:0:0:0:
256,192,99980,1,8,0:0:0:0:
256,192,100068,1,8,0:0:0:0:
256,192,100157,1,8,0:0:0:0:
256,192,100333,1,8,0:0:0:0:
256,192,100510,1,0,0:0:0:0:
256,192,100686,1,8,0:0:0:0:
256,192,100774,1,8,0:0:0:0:
256,192,100862,1,8,0:0:0:0:
256,192,101039,1,0,0:0:0:0:
256,192,101215,1,8,0:0:0:0:
256,192,101392,1,8,0:0:0:0:
256,192,101745,1,12,0:0:0:0:
256,192,101921,1,0,0:0:0:0:
256,192,102098,1,8,0:0:0:0:
256,192,102274,1,0,0:0:0:0:
256,192,102451,1,8,0:0:0:0:
256,192,102627,1,0,0:0:0:0:
256,192,102804,1,8,0:0:0:0:
256,192,102892,1,8,0:0:0:0:
256,192,102980,1,8,0:0:0:0:
256,192,103157,1,0,0:0:0:0:
256,192,103333,1,0,0:0:0:0:
256,192,103510,1,8,0:0:0:0:
256,192,103862,1,0,0:0:0:0:
256,192,104039,1,0,0:0:0:0:
256,192,104215,1,8,0:0:0:0:
256,192,104304,1,8,0:0:0:0:
256,192,104392,1,0,0:0:0:0:
256,192,104568,1,8,0:0:0:0:
256,192,104745,1,0,0:0:0:0:
256,192,104921,1,8,0:0:0:0:
256,192,105098,1,8,0:0:0:0:
256,192,105274,1,0,0:0:0:0:
256,192,105451,1,8,0:0:0:0:
256,192,105627,1,0,0:0:0:0:
256,192,105715,1,0,0:0:0:0:
256,192,105804,1,8,0:0:0:0:
256,192,105980,1,8,0:0:0:0:
256,192,106157,1,0,0:0:0:0:
256,192,106245,1,0,0:0:0:0:
256,192,106333,1,8,0:0:0:0:
256,192,106686,1,0,0:0:0:0:
256,192,107039,1,8,0:0:0:0:
256,192,107392,1,4,0:0:0:0:
256,192,107745,1,8,0:0:0:0:
256,192,107921,1,0,0:0:0:0:
256,192,108098,1,8,0:0:0:0:
256,192,108362,1,0,0:0:0:0:
256,192,108627,1,8,0:0:0:0:
256,192,108804,1,0,0:0:0:0:
256,192,108980,1,8,0:0:0:0:
256,192,109068,1,8,0:0:0:0:
256,192,109157,1,8,0:0:0:0:
256,192,109333,1,0,0:0:0:0:
256,192,109510,1,8,0:0:0:0:
256,192,109686,1,0,0:0:0:0:
256,192,109862,1,8,0:0:0:0:
256,192,109951,1,8,0:0:0:0:
256,192,110039,1,0,0:0:0:0:
256,192,110215,1,8,0:0:0:0:
256,192,110392,1,0,0:0:0:0:
256,192,110568,1,8,0:0:0:0:
256,192,110745,1,8,0:0:0:0:
256,192,111098,1,8,0:0:0:0:
256,192,111186,1,0,0:0:0:0:
256,192,111274,1,8,0:0:0:0:
256,192,111451,1,8,0:0:0:0:
256,192,111627,1,0,0:0:0:0:
256,192,111804,1,8,0:0:0:0:
256,192,111980,1,0,0:0:0:0:
256,192,112068,1,0,0:0:0:0:
256,192,112157,1,8,0:0:0:0:
256,192,112333,1,0,0:0:0:0:
256,192,112510,1,12,0:0:0:0:
256,192,112686,1,12,0:0:0:0:
256,192,113039,1,4,0:0:0:0:
256,192,113392,1,8,0:0:0:0:
256,192,113568,1,0,0:0:0:0:
256,192,113745,1,8,0:0:0:0:
256,192,114010,1,0,0:0:0:0:
256,192,114274,1,8,0:0:0:0:
256,192,114451,1,0,0:0:0:0:
256,192,114627,1,8,0:0:0:0:
256,192,114715,1,8,0:0:0:0:
256,192,114804,1,0,0:0:0:0:
256,192,114980,1,8,0:0:0:0:
256,192,115157,1,0,0:0:0:0:
256,192,115333,1,8,0:0:0:0:
256,192,115510,1,0,0:0:0:0:
256,192,115598,1,0,0:0:0:0:
256,192,115686,1,8,0:0:0:0:
256,192,115862,1,0,0:0:0:0:
256,192,116039,1,0,0:0:0:0:
256,192,116215,1,8,0:0:0:0:
256,192,116392,1,8,0:0:0:0:
256,192,116745,1,8,0:0:0:0:
256,192,116921,1,0,0:0:0:0:
256,192,117010,1,0,0:0:0:0:
256,192,117098,1,8,0:0:0:0:
256,192,117274,1,0,0:0:0:0:
256,192,117451,1,8,0:0:0:0:
256,192,117539,1,8,0:0:0:0:
256,192,117627,1,0,0:0:0:0:
256,192,117715,1,0,0:0:0:0:
256,192,117804,1,8,0:0:0:0:
256,192,117980,1,0,0:0:0:0:
256,192,118157,1,8,0:0:0:0:
256,192,118245,1,8,0:0:0:0:
256,192,118333,1,8,0:0:0:0:
256,192,118510,1,0,0:0:0:0:
256,192,118686,1,8,0:0:0:0:
256,192,119039,1,12,0:0:0:0:
256,192,119215,1,0,0:0:0:0:
256,192,119392,1,8,0:0:0:0:
256,192,119568,1,8,0:0:0:0:
256,192,119657,1,8,0:0:0:0:
256,192,119745,1,0,0:0:0:0:
256,192,119921,1,0,0:0:0:0:
256,192,120098,1,8,0:0:0:0:
256,192,120274,1,0,0:0:0:0:
256,192,120451,1,8,0:0:0:0:
256,192,120627,1,0,0:0:0:0:
256,192,120715,1,0,0:0:0:0:
256,192,120804,1,0,0:0:0:0:
256,192,120980,1,12,0:0:0:0:
256,192,121157,1,12,0:0:0:0:
256,192,121510,1,0,0:0:0:0:
256,192,121862,1,8,0:0:0:0:
256,192,122039,1,0,0:0:0:0:
256,192,122215,1,8,0:0:0:0:
256,192,122392,1,8,0:0:0:0:
256,192,122568,1,0,0:0:0:0:
256,192,122657,1,0,0:0:0:0:
256,192,122745,1,8,0:0:0:0:
256,192,122921,1,0,0:0:0:0:
256,192,123098,1,8,0:0:0:0:
256,192,123274,1,0,0:0:0:0:
256,192,123362,1,8,0:0:0:0:
256,192,123451,1,0,0:0:0:0:
256,192,123627,1,0,0:0:0:0:
256,192,123804,1,12,0:0:0:0:
256,192,123980,1,12,0:0:0:0:
256,192,124333,1,4,0:0:0:0:
256,192,124686,1,8,0:0:0:0:
256,192,124862,1,0,0:0:0:0:
256,192,125039,1,8,0:0:0:0:
256,192,125215,1,8,0:0:0:0:
256,192,125304,1,8,0:0:0:0:
256,192,125392,1,0,0:0:0:0:
256,192,125568,1,8,0:0:0:0:
256,192,125745,1,0,0:0:0:0:
256,192,125921,1,0,0:0:0:0:
256,192,126098,1,8,0:0:0:0:
256,192,126274,1,0,0:0:0:0:
256,192,126362,1,0,0:0:0:0:
256,192,126451,1,0,0:0:0:0:
256,192,126627,1,12,0:0:0:0:
256,192,126804,1,12,0:0:0:0:
256,192,127157,1,0,0:0:0:0:
256,192,127510,1,8,0:0:0:0:
256,192,127686,1,8,0:0:0:0:
256,192,127862,1,0,0:0:0:0:
256,192,128039,1,8,0:0:0:0:
256,192,128127,1,8,0:0:0:0:
256,192,128215,1,0,0:0:0:0:
256,192,128304,1,0,0:0:0:0:
256,192,128392,1,8,0:0:0:0:
256,192,128745,1,0,0:0:0:0:
256,192,128921,1,8,0:0:0:0:
256,192,129098,1,8,0:0:0:0:
256,192,129274,1,0,0:0:0:0:
256,192,129627,1,8,0:0:0:0:
256,192,129980,1,4,0:0:0:0:
256,192,130333,1,8,0:0:0:0:
256,192,130510,1,8,0:0:0:0:
256,192,130686,1,0,0:0:0:0:
256,192,130951,1,8,0:0:0:0:
256,192,131215,1,8,0:0:0:0:
256,192,131392,1,0,0:0:0:0:
256,192,131568,1,8,0:0:0:0:
256,192,131657,1,8,0:0:0:0:
256,192,131745,1,8,0:0:0:0:
256,192,131921,1,0,0:0:0:0:
256,192,132098,1,8,0:0:0:0:
256,192,132274,1,0,0:0:0:0:
256,192,132362,1,8,0:0:0:0:
256,192,132451,1,0,0:0:0:0:
256,192,132627,1,8,0:0:0:0:
256,192,132804,1,0,0:0:0:0:
256,192,132980,1,0,0:0:0:0:
256,192,133157,1,8,0:0:0:0:
256,192,133333,1,8,0:0:0:0:
256,192,133421,1,8,0:0:0:0:
256,192,133510,1,0,0:0:0:0:
256,192,133686,1,0,0:0:0:0:
256,192,133774,1,8,0:0:0:0:
256,192,133862,1,0,0:0:0:0:
256,192,134039,1,8,0:0:0:0:
256,192,134215,1,0,0:0:0:0:
256,192,134392,1,8,0:0:0:0:
256,192,134568,1,8,0:0:0:0:
256,192,134745,1,0,0:0:0:0:
256,192,134833,1,0,0:0:0:0:
256,192,134921,1,0,0:0:0:0:
256,192,135098,1,12,0:0:0:0:
256,192,135274,1,12,0:0:0:0:
256,192,135627,1,4,0:0:0:0:
256,192,135980,1,8,0:0:0:0:
256,192,136157,1,8,0:0:0:0:
256,192,136333,1,0,0:0:0:0:
256,192,136598,1,8,0:0:0:0:
256,192,136862,1,8,0:0:0:0:
256,192,137039,1,0,0:0:0:0:
256,192,137215,1,8,0:0:0:0:
256,192,137304,1,8,0:0:0:0:
256,192,137392,1,0,0:0:0:0:
256,192,137568,1,8,0:0:0:0:
256,192,137745,1,8,0:0:0:0:
256,192,137921,1,0,0:0:0:0:
256,192,138010,1,8,0:0:0:0:
256,192,138098,1,0,0:0:0:0:
256,192,138274,1,8,0:0:0:0:
256,192,138451,1,0,0:0:0:0:
256,192,138627,1,8,0:0:0:0:
256,192,138715,1,8,0:0:0:0:
256,192,138804,1,8,0:0:0:0:
256,192,138980,1,0,0:0:0:0:
256,192,139157,1,8,0:0:0:0:
256,192,139333,1,0,0:0:0:0:
256,192,139421,1,0,0:0:0:0:
256,192,139510,1,8,0:0:0:0:
256,192,139686,1,8,0:0:0:0:
256,192,140039,1,0,0:0:0:0:
256,192,140215,1,8,0:0:0:0:
256,192,140392,1,8,0:0:0:0:
256,192,140568,1,8,0:0:0:0:
256,192,140921,1,0,0:0:0:0:
256,192,141274,1,12,0:0:0:0:
256,192,141627,1,0,0:0:0:0:
256,192,141980,1,8,0:0:0:0:
256,192,142157,1,0,0:0:0:0:
256,192,142333,1,8,0:0:0:0:
256,192,142510,1,8,0:0:0:0:
256,192,142686,1,0,0:0:0:0:
256,192,142862,1,0,0:0:0:0:
256,192,143039,1,8,0:0:0:0:
256,192,143392,1,0,0:0:0:0:
256,192,143745,1,0,0:0:0:0:
256,192,144098,1,8,0:0:0:0:
256,192,144804,1,0,0:0:0:0:
256,192,144980,1,8,0:0:0:0:
256,192,145333,1,8,0:0:0:0:
256,192,145510,1,0,0:0:0:0:
256,192,145862,1,0,0:0:0:0:
256,192,146215,1,8,0:0:0:0:
256,192,146568,1,0,0:0:0:0:
256,192,146921,1,8,0:0:0:0:
256,192,147274,1,0,0:0:0:0:
256,192,147627,1,8,0:0:0:0:
256,192,147804,1,8,0:0:0:0:
256,192,147980,1,0,0:0:0:0:
256,192,148157,1,8,0:0:0:0:
256,192,148333,1,0,0:0:0:0:
256,192,148510,1,0,0:0:0:0:
256,192,148686,1,8,0:0:0:0:
256,192,149039,1,0,0:0:0:0:
256,192,149215,1,8,0:0:0:0:
256,192,149392,1,0,0:0:0:0:
256,192,149745,1,0,0:0:0:0:
256,192,150451,1,0,0:0:0:0:
256,192,150804,1,0,0:0:0:0:
256,192,150980,1,8,0:0:0:0:
256,192,151157,1,0,0:0:0:0:
256,192,151510,1,0,0:0:0:0:
256,192,151862,1,0,0:0:0:0:
256,192,152215,1,8,0:0:0:0:
256,192,152392,1,0,0:0:0:0:
256,192,152568,1,12,0:0:0:0:
256,192,152921,1,8,0:0:0:0:
256,192,153274,1,8,0:0:0:0:
256,192,153451,1,8,0:0:0:0:
256,192,153627,1,0,0:0:0:0:
256,192,153804,1,0,0:0:0:0:
256,192,153980,1,8,0:0:0:0:
256,192,154157,1,8,0:0:0:0:
256,192,154333,1,8,0:0:0:0:
256,192,154686,1,0,0:0:0:0:
256,192,155039,1,8,0:0:0:0:
256,192,155215,1,0,0:0:0:0:
256,192,155392,1,0,0:0:0:0:
256,192,155745,1,8,0:0:0:0:
256,192,155921,1,0,0:0:0:0:
256,192,156098,1,8,0:0:0:0:
256,192,156451,1,8,0:0:0:0:
256,192,156627,1,8,0:0:0:0:
256,192,156804,1,8,0:0:0:0:
256,192,157157,1,8,0:0:0:0:
256,192,157510,1,0,0:0:0:0:
256,192,157686,1,0,0:0:0:0:
256,192,157862,1,8,0:0:0:0:
256,192,158039,1,8,0:0:0:0:
256,192,158215,1,4,0:0:0:0:
256,192,158568,1,0,0:0:0:0:
256,192,158921,1,0,0:0:0:0:
256,192,159274,1,0,0:0:0:0:
256,192,159627,1,0,0:0:0:0:
256,192,159804,1,0,0:0:0:0:
256,192,159980,1,0,0:0:0:0:
256,192,160157,1,0,0:0:0:0:
256,192,160333,1,8,0:0:0:0:
256,192,160510,1,0,0:0:0:0:
256,192,160686,1,8,0:0:0:0:
256,192,160774,1,8,0:0:0:0:
256,192,160862,1,8,0:0:0:0:
256,192,160951,1,8,0:0:0:0:
256,192,161039,1,0,0:0:0:0:
256,192,161392,1,12,0:0:0:0:
256,192,161745,1,8,0:0:0:0:
256,192,161921,1,8,0:0:0:0:
256,192,162098,1,0,0:0:0:0:
256,192,162186,1,0,0:0:0:0:
256,192,162274,1,8,0:0:0:0:
256,192,162451,1,0,0:0:0:0:
256,192,162627,1,8,0:0:0:0:
256,192,162804,1,8,0:0:0:0:
256,192,162980,1,0,0:0:0:0:
256,192,163157,1,8,0:0:0:0:
256,192,163333,1,0,0:0:0:0:
256,192,163421,1,0,0:0:0:0:
256,192,163510,1,8,0:0:0:0:
256,192,163598,1,8,0:0:0:0:
256,192,163686,1,0,0:0:0:0:
256,192,163862,1,8,0:0:0:0:
256,192,164039,1,0,0:0:0:0:
256,192,164127,1,0,0:0:0:0:
256,192,164215,1,8,0:0:0:0:
256,192,164392,1,8,0:0:0:0:
256,192,164568,1,0,0:0:0:0:
256,192,164745,1,8,0:0:0:0:
256,192,164833,1,8,0:0:0:0:
256,192,164921,1,0,0:0:0:0:
256,192,165098,1,8,0:0:0:0:
256,192,165274,1,0,0:0:0:0:
256,192,165627,1,0,0:0:0:0:
256,192,165804,1,8,0:0:0:0:
256,192,165892,1,8,0:0:0:0:
256,192,165980,1,0,0:0:0:0:
256,192,166157,1,8,0:0:0:0:
256,192,166333,1,8,0:0:0:0:
256,192,166510,1,0,0:0:0:0:
256,192,166686,1,12,0:0:0:0:
256,192,166862,1,0,0:0:0:0:
256,192,167039,1,8,0:0:0:0:
256,192,167215,1,8,0:0:0:0:
256,192,167304,1,8,0:0:0:0:
256,192,167392,1,8,0:0:0:0:
256,192,167568,1,0,0:0:0:0:
256,192,167745,1,8,0:0:0:0:
256,192,167921,1,8,0:0:0:0:
256,192,168010,1,8,0:0:0:0:
256,192,168098,1,0,0:0:0:0:
256,192,168274,1,8,0:0:0:0:
256,192,168451,1,8,0:0:0:0:
256,192,168627,1,0,0:0:0:0:
256,192,168804,1,8,0:0:0:0:
256,192,168892,1,8,0:0:0:0:
256,192,168980,1,0,0:0:0:0:
256,192,169068,1,0,0:0:0:0:
256,192,169157,1,8,0:0:0:0:
256,192,169333,1,0,0:0:0:0:
256,192,169510,1,8,0:0:0:0:
256,192,169862,1,0,0:0:0:0:
256,192,170039,1,8,0:0:0:0:
256,192,170127,1,8,0:0:0:0:
256,192,170215,1,8,0:0:0:0:
256,192,170392,1,0,0:0:0:0:
256,192,170568,1,8,0:0:0:0:
256,192,170745,1,0,0:0:0:0:
256,192,170921,1,8,0:0:0:0:
256,192,171098,1,8,0:0:0:0:
256,192,171274,1,0,0:0:0:0:
256,192,171451,1,8,0:0:0:0:
256,192,171539,1,8,0:0:0:0:
256,192,171627,1,8,0:0:0:0:
256,192,171804,1,8,0:0:0:0:
256,192,171980,1,0,0:0:0:0:
256,192,172157,1,0,0:0:0:0:
256,192,172333,1,12,0:0:0:0:
256,192,172686,1,8,0:0:0:0:
256,192,172862,1,8,0:0:0:0:
256,192,173039,1,0,0:0:0:0:
256,192,173127,1,0,0:0:0:0:
256,192,173215,1,8,0:0:0:0:
256,192,173304,1,8,0:0:0:0:
256,192,173392,1,0,0:0:0:0:
256,192,173568,1,0,0:0:0:0:
256,192,173745,1,8,0:0:0:0:
256,192,173921,1,8,0:0:0:0:
256,192,174010,1,8,0:0:0:0:
256,192,174098,1,8,0:0:0:0:
256,192,174274,1,0,0:0:0:0:
256,192,174451,1,8,0:0:0:0:
256,192,174539,1,8,0:0:0:0:
256,192,174627,1,0,0:0:0:0:
256,192,174804,1,8,0:0:0:0:
256,192,174980,1,0,0:0:0:0:
256,192,175068,1,0,0:0:0:0:
256,192,175157,1,8,0:0:0:0:
256,192,175333,1,0,0:0:0:0:
256,192,175510,1,8,0:0:0:0:
256,192,175686,1,8,0:0:0:0:
256,192,175774,1,0,0:0:0:0:
256,192,175862,1,8,0:0:0:0:
256,192,176039,1,0,0:0:0:0:
256,192,176215,1,8,0:0:0:0:
256,192,176392,1,8,0:0:0:0:
256,192,176480,1,8,0:0:0:0:
256,192,176568,1,8,0:0:0:0:
256,192,176745,1,0,0:0:0:0:
256,192,176921,1,8,0:0:0:0:
256,192,177274,1,8,0:0:0:0:
256,192,177451,1,8,0:0:0:0:
256,192,177627,1,0,0:0:0:0:
256,192,177715,1,0,0:0:0:0:
256,192,177804,1,0,0:0:0:0:
256,192,177980,1,12,0:0:0:0:
256,192,178157,1,0,0:0:0:0:
256,192,178333,1,8,0:0:0:0:
256,192,178421,1,8,0:0:0:0:
256,192,178510,1,8,0:0:0:0:
256,192,178686,1,0,0:0:0:0:
256,192,178862,1,0,0:0:0:0:
256,192,179039,1,8,0:0:0:0:
256,192,179127,1,8,0:0:0:0:
256,192,179215,1,0,0:0:0:0:
256,192,179304,1,0,0:0:0:0:
256,192,179392,1,8,0:0:0:0:
256,192,179568,1,0,0:0:0:0:
256,192,179745,1,8,0:0:0:0:
256,192,179833,1,8,0:0:0:0:
256,192,179921,1,8,0:0:0:0:
256,192,180098,1,0,0:0:0:0:
256,192,180274,1,0,0:0:0:0:
256,192,180451,1,8,0:0:0:0:
256,192,180539,1,8,0:0:0:0:
256,192,180627,1,0,0:0:0:0:
256,192,180804,1,8,0:0:0:0:
256,192,181157,1,0,0:0:0:0:
256,192,181333,1,0,0:0:0:0:
256,192,181510,1,8,0:0:0:0:
256,192,181686,1,0,0:0:0:0:
256,192,181774,1,0,0:0:0:0:
256,192,181862,1,8,0:0:0:0:
256,192,181951,1,8,0:0:0:0:
256,192,182039,1,0,0:0:0:0:
256,192,182215,1,8,0:0:0:0:
256,192,182392,1,0,0:0:0:0:
256,192,182568,1,12,0:0:0:0:
256,192,182921,1,8,0:0:0:0:
256,192,183098,1,8,0:0:0:0:
256,192,183274,1,8,0:0:0:0:
256,192,183451,1,8,0:0:0:0:
256,192,183627,1,0,0:0:0:0:
256,192,183980,1,8,0:0:0:0:
256,192,184333,1,0,0:0:0:0:
256,192,184686,1,8,0:0:0:0:
256,192,185039,1,0,0:0:0:0:
256,192,185392,1,8,0:0:0:0:
256,192,185745,1,8,0:0:0:0:
256,192,186098,1,0,0:0:0:0:
256,192,186451,1,8,0:0:0:0:
