osu file format v14

[General]
AudioFilename: audio.mp3
AudioLeadIn: 0
PreviewTime: 77004
Countdown: 0
SampleSet: Soft
StackLeniency: 0.7
Mode: 0
LetterboxInBreaks: 0
WidescreenStoryboard: 1

[Editor]
Bookmarks: 385,11294,22203,33112,44021,54930,56635,57487,60385,62089,65839,76748,87657,98566,104191,109475,116464,116635,116805,116975,117146,117316,117487,120385,131294
DistanceSpacing: 1.1
BeatDivisor: 4
GridSize: 32
TimelineZoom: 1.9

[Metadata]
Title:FORGET ME TOO (if found DnB Flip)
TitleUnicode:FORGET ME TOO (if found DnB Flip)
Artist:Machine Gun Kelly feat. Halsey
ArtistUnicode:Machine Gun Kelly feat. Halsey
Creator:Asphyxia
Version:EXPERT
Source:
Tags:dnb drum and bass electronic english remix tickets ticket's to my downfall mgk
BeatmapID:4145088
BeatmapSetID:1992291

[Difficulty]
HPDrainRate:4.8
CircleSize:4
OverallDifficulty:9
ApproachRate:9.2
SliderMultiplier:1.9
SliderTickRate:1

[Events]
//Background and Video events
0,0,"vecteezy_bright-festive-sparkler-in-hand-burning-sparkle-in_11100448_155.jpg",0,0
//Break Periods
2,17905,18670
//Storyboard Layer 0 (Background)
//Storyboard Layer 1 (Fail)
//Storyboard Layer 2 (Pass)
//Storyboard Layer 3 (Foreground)
//Storyboard Layer 4 (Overlay)
//Storyboard Sound Samples

[TimingPoints]
320,340.909090909091,4,2,1,50,1,0
320,-166.666666666667,4,2,1,50,0,0
11229,-125,4,2,1,40,0,0
13615,-100,4,2,1,40,0,0
13956,-125,4,2,1,40,0,0
21797,-100,4,2,1,50,0,0
33047,-125,4,2,2,60,0,0
33068,-125,4,2,1,60,0,0
34070,-83.3333333333333,4,2,1,60,0,0
34751,-125,4,2,2,60,0,0
34773,-125,4,2,1,60,0,0
35433,-125,4,2,2,60,0,0
35454,-125,4,2,1,60,0,0
38501,-125,4,2,2,60,0,0
38523,-125,4,2,1,60,0,0
39524,-83.3333333333333,4,2,1,60,0,0
40206,-125,4,2,2,60,0,0
40227,-125,4,2,1,60,0,0
40888,-125,4,2,2,60,0,0
40909,-125,4,2,1,60,0,0
43274,-125,4,2,1,75,0,0
43956,-100,4,2,1,75,0,0
49410,-66.6666666666667,4,2,1,80,0,0
54183,-66.6666666666667,4,2,1,60,0,0
54865,-50,4,2,1,80,0,0
55206,-200,4,2,1,60,0,0
56399,-200,4,2,1,5,0,0
56570,-105.263157894737,4,2,1,60,0,0
57251,-133.333333333333,4,2,1,5,0,0
57422,-105.263157894737,4,2,1,60,0,0
57933,-200,4,2,1,60,0,0
60149,-200,4,2,1,5,0,0
60320,-50,4,2,1,80,0,0
60660,-200,4,2,1,60,0,0
61854,-200,4,2,1,5,0,0
62024,-133.333333333333,4,2,1,60,0,0
64410,-133.333333333333,4,2,1,5,0,0
64581,-133.333333333333,4,2,1,60,0,0
64922,-133.333333333333,4,2,1,5,0,0
65092,-50,4,2,2,50,0,0
65263,-55.5555555555556,4,2,1,50,0,0
65433,-62.5,4,2,1,50,0,0
65604,-71.4285714285714,4,2,1,50,0,0
65774,-50,4,2,1,75,0,0
65945,-100,4,2,1,60,0,0
66456,-50,4,2,1,60,0,0
68501,-50,4,2,1,60,0,0
69183,-50,4,2,1,60,0,0
71229,-50,4,2,1,75,0,0
71399,-100,4,2,1,75,0,0
71570,-50,4,2,1,75,0,0
71740,-100,4,2,1,75,0,0
71910,-50,4,2,1,75,0,0
72081,-100,4,2,1,75,0,0
72251,-50,4,2,1,75,0,0
72422,-100,4,2,1,75,0,0
72592,-50,4,2,1,75,0,0
72763,-100,4,2,1,75,0,0
72933,-50,4,2,1,75,0,0
73104,-100,4,2,1,75,0,0
73274,-50,4,2,1,75,0,0
73445,-100,4,2,1,75,0,0
73615,-50,4,2,1,75,0,0
73785,-100,4,2,1,75,0,0
73956,-50,4,2,1,80,0,0
75660,-50,4,2,1,50,0,0
76342,-100,4,2,1,60,0,0
76683,-125,4,2,1,75,0,0
77024,-66.6666666666667,4,1,1,70,0,1
77706,-66.6666666666667,4,1,1,70,0,1
79410,-133.333333333333,4,1,1,70,0,1
79751,-66.6666666666667,4,1,1,70,0,1
84865,-133.333333333333,4,1,1,70,0,1
85206,-66.6666666666667,4,1,1,70,0,1
86229,-133.333333333333,4,1,1,70,0,1
86570,-66.6666666666667,4,1,1,70,0,1
87251,-133.333333333333,4,1,1,70,0,1
87787,-66.6666666666667,4,1,1,70,0,1
87884,-66.6666666666667,4,2,1,5,0,1
87933,-66.6666666666667,4,1,1,70,0,1
88615,-66.6666666666667,4,1,1,70,0,1
90320,-133.333333333333,4,1,1,70,0,1
90660,-66.6666666666667,4,1,1,70,0,1
93047,-66.6666666666667,4,1,1,70,0,1
93388,-66.6666666666667,4,1,1,70,0,1
95092,-66.6666666666667,4,1,1,70,0,1
95774,-500,4,1,1,85,0,0
95795,-500,4,1,1,40,0,0
97052,-500,4,1,1,5,0,0
97138,-66.6666666666667,4,1,1,70,0,0
98331,-166.666666666667,4,1,1,60,0,0
98842,-57.1428571428571,4,1,1,85,0,1
99524,-57.1428571428571,4,1,1,85,0,1
100206,-57.1428571428571,4,1,1,85,0,1
100888,-57.1428571428571,4,1,1,85,0,1
101058,-57.1428571428571,4,1,1,85,0,1
102251,-57.1428571428571,4,1,1,85,0,1
102763,-57.1428571428571,4,1,1,85,0,1
102933,-100,4,1,1,85,0,1
103274,-57.1428571428571,4,1,1,85,0,1
103615,-57.1428571428571,4,1,1,85,0,1
103956,-500,4,1,1,85,0,1
103998,-500,4,1,1,5,0,1
104297,-57.1428571428571,4,1,1,85,0,1
104979,-57.1428571428571,4,1,1,85,0,1
105320,-57.1428571428571,4,1,1,85,0,1
106001,-57.1428571428571,4,1,1,85,0,1
106683,-133.333333333333,4,1,1,85,0,1
107024,-57.1428571428571,4,1,1,85,0,1
107706,-57.1428571428571,4,1,1,85,0,1
109410,-500,4,1,1,60,0,0
109751,-57.1428571428571,4,1,1,85,0,1
110433,-57.1428571428571,4,1,1,85,0,1
110774,-57.1428571428571,4,1,1,85,0,1
111797,-500,4,1,1,85,0,1
111818,-500,4,1,1,5,0,1
112138,-57.1428571428571,4,1,1,85,0,1
112820,-57.1428571428571,4,1,1,85,0,1
114865,-133.333333333333,4,1,1,85,0,1
115206,-57.1428571428571,4,1,1,85,0,1
115888,-57.1428571428571,4,1,1,85,0,1
116229,-57.1428571428571,4,1,1,85,0,1
116399,-57.1428571428571,4,1,1,85,0,1
116570,-57.1428571428571,4,1,1,85,0,1
116740,-57.1428571428571,4,1,1,85,0,1
116910,-125,4,1,1,85,0,1
117081,-200,4,1,1,85,0,1
117251,-500,4,1,1,85,0,1
117422,-1000,4,1,1,85,0,1
117592,-57.1428571428571,4,1,1,85,0,1
118615,-57.1428571428571,4,1,1,85,0,1
118956,-57.1428571428571,4,1,1,70,0,1
119126,-133.333333333333,4,2,1,50,0,0

[Colours]
Combo1 : 252,119,63
Combo2 : 253,218,113

[HitObjects]
168,51,10547,5,0,0:0:0:0:
231,104,10717,1,0,0:0:0:0:
152,130,10888,5,0,0:0:0:0:
243,23,11058,1,0,0:0:0:0:
210,183,11229,6,0,P|280:188|384:211,1,152,6|0,0:0|0:0,0:0:0:0:
432,157,11740,1,2,0:0:0:0:
432,157,11825,1,0,0:0:0:0:
432,157,11910,2,0,P|483:226|447:304,1,152
388,315,12422,1,2,0:0:0:0:
388,315,12933,5,0,0:0:0:0:
388,315,13274,2,0,P|333:305|295:297,1,76,2|0,0:0|0:0,0:0:0:0:
135,240,13615,6,0,P|73:260|57:302,1,95,0|0,1:0|0:0,0:0:0:0:
83,362,13871,1,0,0:0:0:0:
83,362,13956,6,0,P|144:364|194:294,1,152,2|2,0:0|0:0,0:0:0:0:
135,240,14467,2,0,P|147:158|171:71,1,152,2|0,0:0|0:0,0:0:0:0:
131,0,14979,1,0,0:0:0:0:
164,91,15149,1,0,0:0:0:0:
274,18,15320,6,0,P|263:72|260:110,1,76,2|0,0:0|0:0,0:0:0:0:
369,86,15660,1,2,0:0:0:0:
258,104,15831,6,0,P|269:158|272:196,1,76,2|0,0:0|0:0,0:0:0:0:
155,221,16172,1,0,0:0:0:0:
284,330,16342,2,0,P|338:336|391:291,1,114
318,261,16683,6,0,P|307:330|373:381,1,152,2|0,0:0|0:0,0:0:0:0:
344,178,17195,1,0,0:0:0:0:
344,178,17280,1,0,0:0:0:0:
344,178,17365,2,0,B|252:187|289:218|200:231,1,152,2|0,0:0|0:0,0:0:0:0:
123,343,19240,5,0,0:0:0:0:
144,352,19325,1,0,0:0:0:0:
159,361,19410,6,0,P|226:371|309:382,1,152,2|2,0:0|0:0,0:0:0:0:
334,304,19922,2,0,P|401:314|484:325,1,152
371,215,20433,1,2,0:2:0:0:
362,198,20604,1,2,0:0:0:0:
453,156,20774,5,0,0:0:0:0:
461,123,20945,1,0,0:0:0:0:
504,222,21115,1,2,0:0:0:0:
428,266,21285,1,0,0:0:0:0:
329,228,21456,1,0,0:0:0:0:
186,202,21626,1,0,0:0:0:0:
16,297,21797,6,0,P|-11:342|8:389,1,95,2|0,0:0|0:0,0:0:0:0:
211,313,22138,6,0,L|186:197,1,95,4|0,0:0|0:0,0:0:0:0:
311,169,22479,1,2,0:0:0:0:
485,101,22649,1,2,0:0:0:0:
302,147,22820,1,0,0:0:0:0:
462,92,22990,2,0,L|487:-24,1,95
504,178,23331,6,0,P|447:243|329:220,2,190,2|0|2,0:0|0:0|0:0,0:0:0:0:
358,157,24183,1,0,0:0:0:0:
200,191,24354,2,0,B|180:147|180:147|209:93,1,95,2|0,0:0|0:0,0:0:0:0:
368,169,24695,6,0,L|275:148,1,95,0|2,0:0|0:0,0:0:0:0:
111,271,25035,1,2,0:0:0:0:
111,271,25376,1,0,0:0:0:0:
0,153,25547,2,0,L|92:132,1,95,2|0,0:0|0:0,0:0:0:0:
21,69,25888,1,0,0:0:0:0:
162,181,26058,1,0,0:0:0:0:
214,33,26229,6,0,P|277:44|297:85,1,95,2|0,0:0|0:0,0:0:0:0:
168,99,26570,1,2,0:0:0:0:
376,45,26740,2,0,L|355:137,1,95,2|0,0:0|0:0,0:0:0:0:
447,206,27081,2,0,B|323:207|394:265|260:258,1,190
90,212,27592,6,0,P|166:215|281:265,1,190,2|2,0:0|0:0,0:0:0:0:
128,294,28104,1,2,0:0:0:0:
191,357,28274,2,0,P|245:353|289:341,1,95
270,257,28615,1,0,0:0:0:0:
35,384,28785,6,0,P|25:321|-5:179,2,190,2|0|2,0:0|0:0|0:0,0:0:0:0:
138,172,29638,1,0,0:0:0:0:
176,261,29808,2,0,P|123:266|94:230,1,95,2|0,0:0|0:0,0:0:0:0:
209,128,30149,6,0,P|250:161|245:207,1,95,0|2,0:0|0:0,0:0:0:0:
111,85,30490,1,0,0:0:0:0:
334,21,30660,2,0,L|316:125,1,95,2|2,0:0|0:0,0:0:0:0:
512,149,31001,1,0,0:0:0:0:
425,82,31172,1,0,0:0:0:0:
427,280,31342,2,0,L|410:186,1,95,2|0,0:0|0:0,0:0:0:0:
410,186,31683,5,2,0:0:0:0:
334,304,31854,1,0,0:0:0:0:
155,237,32024,1,0,0:0:0:0:
428,280,32195,2,0,B|373:268|373:268|353:274|353:274|236:246,1,190,2|2,0:0|0:0,0:0:0:0:
94,307,32706,2,0,B|79:323|79:323|63:185,1,142.5
86,131,33047,6,0,P|142:115|183:159,1,114,6|0,0:0|0:0,0:0:0:0:
192,224,33388,1,0,0:0:0:0:
192,224,33899,5,0,0:0:0:0:
86,131,34070,2,0,P|142:115|183:159,1,114,2|0,0:0|0:0,0:0:0:0:
192,224,34581,5,0,0:0:0:0:
86,131,34751,2,0,P|103:74|117:31,1,76,2|0,0:0|0:0,0:0:0:0:
35,30,35092,1,2,0:0:0:0:
192,103,35263,1,0,0:0:0:0:
22,197,35433,6,0,P|1:269|81:282,1,152,2|0,0:0|0:0,0:0:0:0:
144,310,35945,1,0,0:0:0:0:
163,227,36115,1,0,0:0:0:0:
163,227,36285,1,2,0:0:0:0:
237,291,36456,1,0,0:0:0:0:
247,190,36626,1,0,0:0:0:0:
179,283,36797,1,2,0:0:0:0:
277,244,36967,1,2,0:0:0:0:
187,187,37138,5,0,0:0:0:0:
353,237,37308,1,0,0:0:0:0:
315,78,37479,1,2,0:0:0:0:
265,146,37649,1,2,0:0:0:0:
474,106,37820,1,0,0:0:0:0:
474,106,37990,2,0,P|477:151|500:188,1,76
470,289,38331,1,2,0:0:0:0:
470,289,38416,1,0,0:0:0:0:
470,289,38501,6,0,B|401:292|430:328|348:334,1,114,2|0,0:0|0:0,0:0:0:0:
288,312,38842,1,2,0:0:0:0:
288,312,39354,5,0,0:0:0:0:
470,289,39524,2,0,B|401:292|430:328|348:334,1,114,2|0,0:0|0:0,0:0:0:0:
288,312,40035,5,0,0:0:0:0:
470,289,40206,2,0,P|455:347|449:379,1,76,2|0,0:0|0:0,0:0:0:0:
369,150,40547,2,0,P|354:208|348:240,1,76,2|0,0:0|0:0,0:0:0:0:
235,189,40888,1,2,0:0:0:0:
288,312,41058,1,0,0:0:0:0:
203,269,41229,5,2,0:0:0:0:
185,277,41399,1,0,0:0:0:0:
64,352,41570,1,2,0:0:0:0:
52,334,41740,1,0,0:0:0:0:
124,215,41910,1,2,0:0:0:0:
30,238,42081,1,2,0:0:0:0:
233,269,42251,1,0,0:0:0:0:
101,134,42422,1,2,0:0:0:0:
148,315,42592,5,0,0:0:0:0:
327,214,42763,1,0,0:0:0:0:
327,214,42933,2,0,L|343:124,1,76,0|2,0:0|0:0,0:0:0:0:
0,0,43274,5,8,3:2:0:0:
0,0,43956,5,2,1:2:0:0:
9,15,44126,1,0,1:0:0:0:
139,86,44297,1,0,1:0:0:0:
36,122,44467,1,0,1:0:0:0:
177,162,44638,5,2,1:2:0:0:
308,232,44808,1,0,1:0:0:0:
121,273,44979,1,0,1:0:0:0:
217,251,45149,1,0,1:0:0:0:
353,332,45320,5,2,1:2:0:0:
351,353,45490,1,0,1:0:0:0:
219,328,45660,1,2,1:2:0:0:
444,371,45831,1,2,1:2:0:0:
295,273,46001,5,2,1:2:0:0:
412,249,46172,1,0,1:0:0:0:
311,181,46342,1,2,1:2:0:0:
269,92,46513,1,0,1:0:0:0:
486,163,46683,5,2,1:2:0:0:
474,141,46854,1,0,1:0:0:0:
499,18,47024,1,0,1:0:0:0:
477,29,47195,1,0,1:0:0:0:
355,166,47365,5,2,1:2:0:0:
317,34,47535,1,0,1:0:0:0:
216,198,47706,1,0,1:0:0:0:
225,52,47876,1,0,1:0:0:0:
129,271,48047,5,2,1:2:0:0:
140,91,48217,1,0,1:0:0:0:
93,365,48388,1,0,1:0:0:0:
60,144,48558,1,2,1:2:0:0:
202,332,48729,5,2,1:2:0:0:
277,114,48899,1,0,1:0:0:0:
306,348,49070,1,2,1:2:0:0:
390,210,49240,1,0,1:0:0:0:
393,384,49410,6,0,P|384:329|377:303,1,71.2500027179719,8|0,1:0|0:0,0:0:0:0:
437,265,49581,2,0,P|401:221|382:202,1,71.2500027179719,8|0,1:0|0:0,0:0:0:0:
412,134,49751,2,0,P|358:113|332:106,1,71.2500027179719,8|0,1:0|0:0,0:0:0:0:
336,35,49922,2,0,P|279:44|253:51,1,71.2500027179719,8|0,1:0|0:0,0:0:0:0:
208,0,50092,6,0,P|164:36|144:55,1,71.2500027179719,8|0,1:0|0:0,0:0:0:0:
80,34,50263,2,0,P|59:87|52:113,1,71.2500027179719,8|0,1:0|0:0,0:0:0:0:
0,151,50433,2,0,P|9:207|15:233,1,71.2500027179719,8|0,1:0|0:0,0:0:0:0:
0,292,50604,2,0,P|35:336|54:356,1,71.2500027179719,8|0,1:0|0:0,0:0:0:0:
306,363,50774,6,0,P|297:308|290:282,1,71.2500027179719,8|0,1:0|0:0,0:0:0:0:
357,153,50945,2,0,P|349:187|344:222,1,71.2500027179719,8|0,1:0|0:0,0:0:0:0:
219,369,51115,6,0,P|210:314|203:288,1,71.2500027179719,8|0,1:0|0:0,0:0:0:0:
266,113,51285,2,0,P|258:147|253:182,1,71.2500027179719,8|0,1:0|0:0,0:0:0:0:
129,379,51456,6,0,P|120:324|113:298,1,71.2500027179719,8|0,1:0|0:0,0:0:0:0:
180,85,51626,2,0,P|172:119|167:154,1,71.2500027179719,8|0,1:0|0:0,0:0:0:0:
39,384,51797,6,0,P|30:329|23:303,1,71.2500027179719,8|0,1:0|0:0,0:0:0:0:
97,58,51967,2,0,P|89:92|84:127,1,71.2500027179719,8|0,1:0|0:0,0:0:0:0:
39,384,52138,5,8,0:1:0:0:
352,51,54013,5,2,0:0:0:0:
352,51,54183,5,2,0:0:0:0:
414,118,54354,1,0,0:0:0:0:
339,131,54524,1,0,0:0:0:0:
428,48,54695,1,2,0:0:0:0:
339,131,54865,6,0,B|289:109|289:109|370:165,1,95,2|0,3:2|0:0,0:0:0:0:
325,222,55206,6,0,B|264:232|202:210|123:128|123:128|169:176|167:224,1,332.5,2|0,1:2|0:0,0:0:0:0:
169,293,56570,6,0,P|145:346|98:213,1,360.99999036026,0|0,1:0|0:0,0:0:0:0:
166,215,57422,1,2,1:2:0:0:
166,215,57933,6,0,B|495:266|495:266|218:205,1,617.5,0|0,1:0|0:0,0:0:0:0:
84,190,60320,1,2,3:2:0:0:
84,190,60660,6,0,B|77:146|108:95|171:78|219:117|219:117|204:72|224:40|242:15|281:5,1,332.5,2|0,1:2|0:0,0:0:0:0:
344,38,62024,6,0,B|315:256|315:256|350:179,1,285.000010871888,2|0,1:2|1:0,0:0:0:0:
238,183,62876,1,2,0:0:0:0:
238,183,63217,6,0,B|344:198|344:198|391:253|391:253|441:202|441:202|510:167|510:167|464:21|464:21|446:56,1,498.750019025803,0|0,1:0|0:0,0:0:0:0:
456,36,64581,6,0,L|305:16,1,142.500005435944,0|0,1:0|0:0,0:0:0:0:
72,61,65092,6,0,B|91:54|91:54|2:43,1,95,10|0,0:0|0:0,0:0:0:0:
109,150,65263,6,0,B|128:143|128:143|39:132,1,85.4999973907472
142,230,65433,6,0,B|161:223|161:223|72:212,1,76,2|0,0:0|0:0,0:0:0:0:
164,318,65604,6,0,B|183:311|183:311|94:300,1,66.4999979705811
90,329,65774,6,0,B|57:321|57:321|179:337,1,95,6|0,3:2|0:0,0:0:0:0:
232,371,65945,1,0,1:0:0:0:
350,322,66115,1,10,0:0:0:0:
456,280,66285,1,0,0:0:0:0:
456,280,66456,6,0,B|442:300|442:300|466:176,1,95,0|0,3:0|0:0,0:0:0:0:
400,154,66626,1,0,1:0:0:0:
230,114,66797,1,8,0:0:0:0:
30,85,66967,1,0,0:0:0:0:
30,85,67138,6,0,B|90:80|90:80|30:108,1,95,0|0,3:0|0:0,0:0:0:0:
99,111,67308,1,0,1:0:0:0:
302,73,67479,1,8,0:0:0:0:
502,33,67649,1,0,0:0:0:0:
502,33,67820,6,0,B|448:77|448:77|497:64,1,95,2|0,3:2|0:0,0:0:0:0:
496,148,67990,1,0,1:0:0:0:
486,323,68160,1,10,0:0:0:0:
409,187,68331,1,0,0:0:0:0:
322,344,68501,6,0,B|262:338|171:366|171:366|123:331,1,190,2|2,3:2|1:3,0:0:0:0:
69,314,68757,1,0,0:0:0:0:
69,314,68842,1,10,0:0:0:0:
301,267,69013,1,0,0:0:0:0:
301,267,69098,1,0,0:0:0:0:
301,267,69183,6,0,P|228:256|144:246,1,95,2|0,3:2|0:0,0:0:0:0:
105,244,69354,1,0,1:0:0:0:
69,78,69524,1,8,0:0:0:0:
105,244,69695,1,0,0:0:0:0:
69,78,69865,6,0,P|142:67|226:57,1,95,0|0,3:0|0:0,0:0:0:0:
268,58,70035,1,0,1:0:0:0:
122,149,70206,1,8,0:0:0:0:
268,58,70376,1,2,0:0:0:0:
122,149,70547,6,0,P|195:160|279:170,1,95,2|0,3:2|0:0,0:0:0:0:
309,129,70717,1,2,1:2:0:0:
299,254,70888,6,0,P|372:265|456:275,1,95,10|0,0:0|0:0,0:0:0:0:
499,140,71058,1,2,0:0:0:0:
499,140,71229,6,0,B|488:151|488:151|511:13,1,95,10|0,3:2|0:0,0:0:0:0:
424,96,71399,2,0,L|435:34,1,47.5,2|0,1:0|0:0,0:0:0:0:
335,131,71570,6,0,B|327:144|327:144|313:5,1,95,10|0,3:2|0:0,0:0:0:0:
250,119,71740,2,0,L|244:56,1,47.5,2|0,1:0|0:0,0:0:0:0:
109,162,71910,6,0,B|98:173|98:173|121:35,1,95,8|0,3:2|0:0,0:0:0:0:
37,78,72081,2,0,L|29:125,1,47.5,2|0,1:0|0:0,0:0:0:0:
152,251,72251,6,0,B|180:233|180:233|66:265,1,95,8|0,3:2|0:0,0:0:0:0:
61,293,72422,2,0,L|45:351,1,47.5,2|0,1:0|0:0,0:0:0:0:
292,276,72592,6,0,B|320:294|320:294|206:262,1,95,8|0,3:2|0:0,0:0:0:0:
202,324,72763,2,0,L|218:382,1,47.5,2|0,1:0|0:0,0:0:0:0:
499,298,72933,6,0,B|527:280|527:280|413:312,1,95,8|0,3:2|0:0,0:0:0:0:
398,332,73104,2,0,L|382:390,1,47.5,2|0,1:0|0:0,0:0:0:0:
418,220,73274,6,0,B|368:209|368:209|485:164,1,95,8|0,3:2|0:0,0:0:0:0:
473,124,73445,2,0,B|489:129|489:129|439:141,1,47.5,2|0,1:0|0:0,0:0:0:0:
334,139,73615,6,0,B|284:128|284:128|401:83,1,95,8|0,3:2|0:0,0:0:0:0:
429,42,73785,2,0,B|445:47|445:47|395:59,1,47.5,2|0,1:0|0:0,0:0:0:0:
287,13,73956,6,0,B|302:2|302:2|177:31,1,95,8|0,3:2|0:0,0:0:0:0:
163,48,74126,2,0,B|146:58|146:58|279:28,1,95,8|0,3:2|0:0,0:0:0:0:
271,125,74297,2,0,B|281:111|281:111|119:151,1,95,8|0,3:2|0:0,0:0:0:0:
193,170,74467,2,0,B|203:156|203:156|41:196,1,95,8|0,3:2|0:0,0:0:0:0:
1,309,74638,6,0,B|17:313|17:313|153:283,1,95,8|0,3:2|0:0,0:0:0:0:
202,269,74808,2,0,B|133:287|133:287|170:263,1,95,8|0,3:2|0:0,0:0:0:0:
274,294,74979,2,0,B|238:259|238:259|258:215,1,95,8|0,3:2|0:0,0:0:0:0:
334,238,75149,2,0,B|389:226|389:226|395:228|395:228|453:217,1,95,8|0,3:2|0:0,0:0:0:0:
449,224,75320,5,0,3:0:0:0:
416,114,75660,1,2,0:0:0:0:
449,224,76001,1,2,0:0:0:0:
416,114,76342,6,0,B|297:95|297:95|343:66|352:27,1,190,8|0,0:0|3:0,0:0:0:0:
345,46,77024,6,0,P|299:40|270:7,1,71.2500027179719,12|0,0:0|0:0,0:0:0:0:
95,2,77195,1,0,0:0:0:0:
95,2,77280,1,0,0:0:0:0:
95,2,77365,1,0,0:0:0:0:
20,212,77535,1,0,3:0:0:0:
206,213,77706,6,0,B|333:241|333:241|298:193|304:137,1,213.750008153916,8|0,0:0|0:0,0:0:0:0:
388,174,78047,6,0,P|368:265|350:366,1,142.500005435944,0|0,3:0|0:0,0:0:0:0:
455,49,78388,1,8,0:0:0:0:
250,336,78558,1,0,0:0:0:0:
250,336,78643,1,0,0:0:0:0:
250,336,78729,1,0,0:0:0:0:
474,220,78899,1,0,3:0:0:0:
213,81,79070,1,8,0:0:0:0:
345,201,79240,2,0,B|353:235|353:235|328:268,1,71.2500027179719
262,213,79410,6,0,P|212:191|138:169,1,106.875004076958,0|0,3:0|0:0,0:0:0:0:
114,257,79751,6,0,P|66:277|37:294,1,71.2500027179719,8|0,0:0|0:0,0:0:0:0:
0,165,79922,1,0,0:0:0:0:
0,165,80007,1,0,0:0:0:0:
0,165,80092,2,0,P|16:133|29:100,1,71.2500027179719
232,163,80263,2,0,P|180:169|148:178,1,71.2500027179719,0|0,3:0|0:0,0:0:0:0:
130,82,80433,2,0,P|153:55|174:26,1,71.2500027179719,8|0,0:0|0:0,0:0:0:0:
279,61,80604,1,0,0:0:0:0:
279,61,80689,1,0,0:0:0:0:
279,61,80774,5,0,3:0:0:0:
454,231,80945,1,0,0:0:0:0:
207,316,81115,1,8,0:0:0:0:
367,119,81285,1,0,0:0:0:0:
363,133,81371,1,0,0:0:0:0:
358,149,81456,1,0,0:0:0:0:
353,167,81541,1,0,0:0:0:0:
348,183,81626,1,0,3:0:0:0:
444,256,81797,2,0,B|381:228|330:273|359:309|345:356|287:356,1,213.750008153916,8|0,0:0|0:0,0:0:0:0:
207,316,82138,5,4,3:0:0:0:
218,271,82235,5,4,0:3:0:0:
230,221,82332,5,4,0:3:0:0:
31,181,82479,6,0,B|-3:123|-3:123|39:44,1,142.500005435944,8|0,0:0|0:0,0:0:0:0:
336,189,82820,1,0,0:0:0:0:
133,98,82990,1,0,3:0:0:0:
133,98,83075,1,0,0:0:0:0:
133,98,83160,2,0,P|229:119|319:125,1,142.500005435944,8|0,0:0|0:0,0:0:0:0:
401,78,83501,6,0,B|414:10|414:10|486:64|507:143|466:203,1,285.000010871888,0|8,3:0|0:0,0:0:0:0:
344,356,84013,2,0,P|225:351|284:214,1,285.000010871888,0|0,0:0|3:0,0:0:0:0:
509,279,84524,2,0,P|496:325|492:363,1,71.2500027179719,8|0,0:0|0:0,0:0:0:0:
394,315,84695,1,0,0:0:0:0:
394,315,84780,1,0,0:0:0:0:
394,315,84865,6,0,L|309:305,1,71.2500027179719,0|0,3:0|0:0,0:0:0:0:
223,300,85121,1,0,0:0:0:0:
205,282,85206,6,0,P|134:289|71:322,1,142.500005435944,8|0,0:0|0:0,0:0:0:0:
48,224,85462,1,0,0:0:0:0:
64,205,85547,2,0,P|53:135|23:111,1,71.2500027179719
203,153,85717,1,0,3:0:0:0:
197,126,85802,1,0,0:0:0:0:
188,98,85888,2,0,B|265:113|323:125|323:125|256:69,1,213.750008153916,8|0,0:0|0:0,0:0:0:0:
191,20,86229,6,0,P|148:30|120:64,1,71.2500027179719,0|0,3:0|0:0,0:0:0:0:
54,136,86484,1,0,0:0:0:0:
45,157,86570,6,0,P|91:220|166:203,1,142.500005435944,8|0,0:0|0:0,0:0:0:0:
310,256,86825,1,0,0:0:0:0:
290,233,86910,6,0,P|299:173|309:116,1,71.2500027179719
434,326,87081,2,0,P|398:331|363:336,1,71.2500027179719,0|0,3:0|0:0,0:0:0:0:
211,359,87251,6,0,B|239:347|239:347|159:359,1,106.875004076958,8|0,0:0|0:0,0:0:0:0:
51,369,87592,5,2,3:1:0:0:
51,369,87787,6,0,B|31:349|31:349|50:277,1,81.428574534825,2|0,0:1|0:0,0:0:0:0:
63,210,87933,6,0,B|44:197|44:197|105:211,1,71.2500027179719,12|0,0:0|0:0,0:0:0:0:
289,259,88104,1,0,0:0:0:0:
289,259,88189,1,0,0:0:0:0:
289,259,88274,1,0,0:0:0:0:
98,14,88445,1,0,3:0:0:0:
317,96,88615,2,0,B|386:109|386:109|462:49,1,142.500005435944,8|0,0:0|0:0,0:0:0:0:
428,40,88871,1,0,0:0:0:0:
446,24,88956,6,0,B|434:81|434:81|440:97|440:97|414:198,1,142.500005435944,0|0,3:0|0:0,0:0:0:0:
383,363,89297,1,8,0:0:0:0:
221,198,89467,1,0,0:0:0:0:
196,204,89552,1,0,0:0:0:0:
173,212,89638,2,0,L|268:226,1,71.2500027179719
291,318,89808,2,0,L|386:332,1,71.2500027179719,0|0,3:0|0:0,0:0:0:0:
383,363,89979,2,0,B|212:337|212:337|286:314,1,213.750008153916,8|0,0:0|0:0,0:0:0:0:
291,318,90320,6,0,P|268:258|237:215,1,106.875004076958,0|0,3:0|0:0,0:0:0:0:
350,236,90660,6,0,P|307:167|292:155,1,71.2500027179719,8|0,0:0|0:0,0:0:0:0:
153,295,90831,1,0,0:0:0:0:
153,295,90916,1,0,0:0:0:0:
153,295,91001,2,0,P|196:364|211:376,1,71.2500027179719
373,355,91172,2,0,P|394:326|408:293,1,71.2500027179719,0|0,3:0|0:0,0:0:0:0:
116,171,91342,2,0,P|94:199|80:232,1,71.2500027179719,8|0,0:0|0:0,0:0:0:0:
244,223,91513,1,0,0:0:0:0:
392,71,91683,6,0,B|408:142|408:142|461:79,2,142.500005435944,0|0|8,3:0|0:0|0:0,0:0:0:0:
102,81,92195,1,0,0:0:0:0:
102,81,92280,1,0,0:0:0:0:
102,81,92365,2,0,P|56:98|22:103,1,71.2500027179719
281,0,92535,1,0,3:0:0:0:
37,205,92706,6,0,P|103:193|188:141,1,142.500005435944,8|0,0:0|0:0,0:0:0:0:
210,92,92962,1,0,0:0:0:0:
210,92,93047,6,0,P|237:117|245:158,2,71.2500027179719,0|2|2,3:0|0:1|0:1,0:0:0:0:
94,328,93388,6,0,B|59:316|59:316|105:321,1,71.2500027179719,8|0,0:0|0:0,0:0:0:0:
172,347,93558,2,0,L|263:366,1,71.2500027179719
358,364,93729,2,0,B|338:319|338:319|345:297|345:297|308:212,1,142.500005435944,0|0,0:0|3:0,0:0:0:0:
237,216,93984,1,0,0:0:0:0:
276,143,94070,2,0,B|296:98|296:98|289:76|289:76|317:11,1,142.500005435944,8|0,0:0|0:0,0:0:0:0:
494,77,94410,6,0,B|535:42|535:42|430:68,1,142.500005435944,0|0,3:0|0:0,0:0:0:0:
178,36,94751,2,0,B|198:18|198:18|146:31,1,71.2500027179719,8|0,0:0|0:0,0:0:0:0:
87,119,94922,2,0,B|107:101|107:101|55:114,1,71.2500027179719
30,11,95092,5,0,0:0:0:0:
258,107,95263,1,0,3:0:0:0:
216,162,95348,1,0,0:0:0:0:
261,210,95433,1,8,0:0:0:0:
237,252,95518,1,0,0:0:0:0:
259,278,95604,1,0,0:0:0:0:
247,294,95689,1,0,0:0:0:0:
252,304,95774,6,0,L|398:286,1,142.5,4|0,3:2|0:0,0:0:0:0:
471,309,97138,6,0,L|461:353,4,35.625001358986,2|0|0|0|2,0:3|0:0|0:0|0:0|0:3,0:0:0:0:
471,309,97479,5,0,0:0:0:0:
114,171,97649,1,2,0:3:0:0:
453,201,97820,5,0,0:0:0:0:
106,314,97990,1,2,0:3:0:0:
430,98,98160,5,2,0:3:0:0:
107,84,98331,2,0,L|110:66,2,14.2499995651245
75,95,98501,5,0,3:0:0:0:
75,95,98842,6,0,B|53:108|53:108|69:22,1,83.1250007927418,12|0,0:0|0:0,0:0:0:0:
127,226,99013,1,0,0:0:0:0:
127,226,99098,1,0,0:0:0:0:
127,226,99183,2,0,B|105:239|105:239|121:153,1,83.1250007927418
345,81,99354,1,0,3:0:0:0:
345,81,99439,1,0,0:0:0:0:
345,81,99524,6,0,B|258:95|258:95|190:29,2,166.250001585484,10|2|0,0:1|0:1|3:0,0:0:0:0:
436,10,100035,1,0,0:0:0:0:
490,214,100206,6,0,B|486:306|434:250|426:362,1,166.250001585484,8|0,0:0|0:0,0:0:0:0:
366,299,100462,1,0,0:0:0:0:
366,299,100547,6,0,B|369:274|383:260|383:260|244:308,1,166.250001585484,0|0,0:0|3:0,0:0:0:0:
203,349,100802,1,0,0:0:0:0:
168,281,100888,6,0,B|156:261|156:261|183:102,1,166.250001585484,10|0,0:1|0:0,0:0:0:0:
78,360,101229,6,0,B|29:319|29:319|66:113,1,249.375002378225,0|0,3:0|0:0,0:0:0:0:
21,62,101570,6,0,L|132:34,1,83.1250007927418,8|0,0:0|0:0,0:0:0:0:
214,10,101740,1,0,0:0:0:0:
214,10,101825,1,0,0:0:0:0:
214,10,101910,1,0,0:0:0:0:
461,140,102081,1,0,3:0:0:0:
228,110,102251,1,10,0:1:0:0:
476,38,102422,1,2,0:1:0:0:
381,193,102592,6,0,P|367:261|359:293,1,83.1250007927418,2|0,3:1|0:0,0:0:0:0:
438,328,102763,1,2,0:1:0:0:
318,360,102933,6,0,P|363:348|439:328,1,95,8|0,0:0|0:0,0:0:0:0:
438,328,103189,1,0,0:0:0:0:
407,311,103274,6,0,L|326:294,1,83.1250007927418
235,310,103445,2,0,B|215:346|215:346|220:298,1,83.1250007927418,0|0,3:0|0:0,0:0:0:0:
159,218,103615,2,0,B|183:221|183:221|97:239,1,83.1250007927418,10|0,0:1|0:0,0:0:0:0:
18,263,103785,1,0,0:0:0:0:
18,263,103956,6,0,L|45:268,1,28.5,0|0,3:0|0:0,0:0:0:0:
0,343,104297,6,0,P|10:260|23:152,1,166.250001585484,8|0,0:0|0:0,0:0:0:0:
19,177,104638,1,0,0:0:0:0:
195,331,104808,1,0,3:0:0:0:
195,331,104893,1,0,0:0:0:0:
195,331,104979,6,0,P|205:248|218:140,1,166.250001585484,10|0,0:1|0:0,0:0:0:0:
327,384,105320,6,0,P|337:301|350:193,1,166.250001585484,0|0,3:0|0:0,0:0:0:0:
374,21,105660,1,8,0:0:0:0:
439,329,105831,1,0,0:0:0:0:
439,329,105916,1,0,0:0:0:0:
439,329,106001,6,0,P|445:278|452:213,1,83.1250007927418
428,158,106172,2,0,P|434:107|441:42,1,83.1250007927418,0|0,3:0|0:0,0:0:0:0:
428,158,106342,2,0,B|499:144|499:144|307:96,1,249.375002378225,10|0,0:1|0:0,0:0:0:0:
246,87,106683,6,0,P|237:147|291:140,1,106.875004076958,0|0,3:0|0:0,0:0:0:0:
327,101,107024,6,0,B|247:76|196:108|235:186|170:211|96:189,1,249.375002378225,8|0,0:0|0:0,0:0:0:0:
43,206,107365,6,0,P|23:163|4:117,1,83.1250007927418
106,83,107535,1,0,3:0:0:0:
106,83,107621,1,0,0:0:0:0:
106,83,107706,2,0,P|122:44|139:7,1,83.1250007927418,10|0,0:1|0:0,0:0:0:0:
10,19,107876,1,2,0:1:0:0:
44,305,108047,6,0,B|22:334|22:334|54:138,2,166.250001585484,0|0|8,3:0|0:0|0:0,0:0:0:0:
130,173,108558,1,0,0:0:0:0:
196,160,108643,1,0,0:0:0:0:
240,167,108729,1,0,0:0:0:0:
270,191,108814,1,0,0:0:0:0:
284,209,108899,1,0,0:0:0:0:
303,227,108984,1,0,0:0:0:0:
317,231,109070,1,0,0:0:0:0:
480,52,109240,5,0,0:0:0:0:
470,46,109325,1,0,0:0:0:0:
477,61,109410,2,0,L|472:94,1,28.5,2|0,3:1|0:0,0:0:0:0:
464,245,109751,6,0,B|474:194|474:194|480:183|480:183|499:83,1,166.250001585484,12|0,0:0|0:0,0:0:0:0:
343,19,110092,6,0,B|323:118|323:118|317:129|317:129|307:180,1,166.250001585484,0|0,0:0|3:0,0:0:0:0:
307,180,110433,6,0,P|194:204|29:239,1,249.375002378225,10|0,0:1|0:0,0:0:0:0:
62,306,110774,6,0,B|22:294|22:294|64:341,1,83.1250007927418
161,370,110945,2,0,B|173:365|173:365|142:274,1,83.1250007927418
357,276,111115,6,0,B|344:316|344:316|392:274,1,83.1250007927418,8|0,0:0|0:0,0:0:0:0:
164,123,111285,2,0,B|159:111|159:111|68:142,1,83.1250007927418
262,325,111456,6,0,B|383:343|293:359|441:368,1,166.250001585484,0|0,0:0|3:0,0:0:0:0:
465,309,111712,1,0,0:0:0:0:
491,331,111797,6,0,P|496:307|497:297,1,28.5,10|0,0:1|0:0,0:0:0:0:
512,136,112138,6,0,P|406:94|381:225,1,249.375002378225,0|0,3:0|0:0,0:0:0:0:
390,275,112479,2,0,P|407:151|431:4,1,249.375002378225,8|0,0:0|0:0,0:0:0:0:
298,34,112820,6,0,B|324:40|324:40|176:74,1,166.250001585484,0|0,0:0|3:0,0:0:0:0:
113,277,113160,1,10,0:1:0:0:
320,239,113331,1,0,0:0:0:0:
320,239,113416,1,0,0:0:0:0:
320,239,113501,5,0,3:0:0:0:
51,197,113672,1,0,0:0:0:0:
395,161,113842,1,8,0:0:0:0:
174,345,114013,1,0,0:0:0:0:
290,111,114183,2,0,L|274:21,1,83.1250007927418
371,44,114354,1,0,3:0:0:0:
371,44,114439,1,0,0:0:0:0:
371,44,114524,1,10,0:1:0:0:
111,96,114695,1,0,0:0:0:0:
276,30,114865,6,0,L|297:143,1,106.875004076958,0|0,3:0|0:0,0:0:0:0:
298,202,115206,6,0,B|218:170|218:170|405:209,1,249.375002378225,8|0,0:0|0:0,0:0:0:0:
450,201,115547,6,0,P|424:269|390:278,1,83.1250007927418
331,319,115717,1,0,3:0:0:0:
331,319,115802,1,0,0:0:0:0:
331,319,115888,6,0,B|296:351|296:351|333:197,2,166.250001585484,10|0|0,0:1|0:0|3:0,0:0:0:0:
420,359,116399,5,0,0:0:0:0:
282,162,116570,1,8,0:0:0:0:
141,374,116740,5,0,0:0:0:0:
359,258,116910,1,0,0:0:0:0:
17,91,117081,5,0,3:0:0:0:
257,322,117251,1,10,0:1:0:0:
0,274,117422,1,0,0:0:0:0:
282,162,117592,6,0,B|254:138|254:138|276:0,1,166.250001585484,0|0,3:0|0:0,0:0:0:0:
409,113,117933,1,8,0:0:0:0:
177,227,118104,1,0,0:0:0:0:
177,227,118189,1,0,0:0:0:0:
177,227,118274,2,0,P|120:220|86:194,1,83.1250007927418
96,123,118445,1,0,3:0:0:0:
189,312,118615,2,0,P|104:307|30:259,1,166.250001585484,10|0,0:1|0:0,0:0:0:0:
355,112,118956,1,0,3:0:0:0:
433,135,119126,6,0,P|393:184|303:178,1,142.500005435944,6|0,1:2|0:0,0:0:0:0:
415,319,119638,2,0,P|375:319|349:289,1,71.2500027179719,2|0,0:0|0:0,0:0:0:0:
383,213,119979,2,0,P|422:212|448:242,1,71.2500027179719,2|0,0:0|0:0,0:0:0:0:
256,248,120320,5,4,0:0:0:0:
256,192,120405,12,0,123047,0:0:0:0:
