osu file format v14

[General]
AudioFilename: audio.mp3
AudioLeadIn: 0
PreviewTime: 78000
Countdown: 0
SampleSet: Normal
StackLeniency: 0.7
Mode: 1
LetterboxInBreaks: 0
WidescreenStoryboard: 1

[Editor]
DistanceSpacing: 3.3
BeatDivisor: 1
GridSize: 4
TimelineZoom: 1.9

[Metadata]
Title:Out By 16, Dead on the Scene
TitleUnicode:Out By 16, Dead on the Scene
Artist:Machine Girl
ArtistUnicode:Machine Girl
Creator:ZTH
Version:Kantan
Source:
Tags:WLFGRL+ Rave Dred Collective Footwork Electronic Instrumental
BeatmapID:3886994
BeatmapSetID:1116495

[Difficulty]
HPDrainRate:8
CircleSize:5
OverallDifficulty:3
ApproachRate:5
SliderMultiplier:1.4
SliderTickRate:1

[Events]
//Background and Video events
0,0,"mary-lee-dex-prarie-final.jpg",0,-40
//Break Periods
//Storyboard Layer 0 (Background)
//Storyboard Layer 1 (Fail)
//Storyboard Layer 2 (Pass)
//Storyboard Layer 3 (Foreground)
//Storyboard Layer 4 (Overlay)
//Storyboard Sound Samples

[TimingPoints]
12000,375,4,1,0,80,1,8
114000,-100,4,1,0,90,0,1
137250,-100,4,1,0,80,0,0

[HitObjects]
235,199,18000,5,4,0:0:0:0:
255,218,18750,1,8,0:0:0:0:
236,205,19875,1,0,0:0:0:0:
236,205,20250,1,8,0:0:0:0:
211,199,21000,1,4,0:0:0:0:
204,200,21750,1,8,0:0:0:0:
215,207,22125,1,0,0:0:0:0:
215,207,22875,1,0,0:0:0:0:
215,223,23250,1,8,0:0:0:0:
235,199,24000,5,4,0:0:0:0:
255,218,24750,1,8,0:0:0:0:
236,205,25875,1,0,0:0:0:0:
236,205,26250,1,8,0:0:0:0:
211,199,27000,1,4,0:0:0:0:
219,199,27750,1,8,0:0:0:0:
215,207,28500,1,0,0:0:0:0:
215,207,28875,1,0,0:0:0:0:
215,223,29250,1,8,0:0:0:0:
235,199,30000,5,4,0:0:0:0:
255,218,30750,1,8,0:0:0:0:
236,205,31875,1,0,0:0:0:0:
236,205,32250,1,8,0:0:0:0:
211,199,33000,1,4,0:0:0:0:
219,199,33750,1,8,0:0:0:0:
215,210,34500,1,0,0:0:0:0:
229,218,35625,1,12,0:0:0:0:
235,199,36000,5,4,0:0:0:0:
241,220,36750,1,8,0:0:0:0:
236,205,37875,1,0,0:0:0:0:
236,205,38250,1,8,0:0:0:0:
211,199,39000,1,4,0:0:0:0:
219,199,39750,1,8,0:0:0:0:
215,207,40125,1,8,0:0:0:0:
215,207,40875,1,0,0:0:0:0:
215,223,41250,1,8,0:0:0:0:
224,219,42000,1,4,0:0:0:0:
227,184,42750,1,8,0:0:0:0:
236,205,43875,1,0,0:0:0:0:
236,205,44250,1,8,0:0:0:0:
211,199,45000,1,4,0:0:0:0:
219,199,45750,1,8,0:0:0:0:
215,207,46125,1,0,0:0:0:0:
215,207,46500,1,0,0:0:0:0:
215,207,46875,1,0,0:0:0:0:
215,223,47250,1,8,0:0:0:0:
235,199,48000,5,4,0:0:0:0:
255,218,48750,1,8,0:0:0:0:
241,220,49875,1,0,0:0:0:0:
236,205,50250,1,8,0:0:0:0:
211,199,51000,1,0,0:0:0:0:
219,199,51750,1,0,0:0:0:0:
234,212,52500,1,0,0:0:0:0:
228,222,53250,1,8,0:0:0:0:
243,208,53625,1,8,0:0:0:0:
228,222,54000,1,0,0:0:0:0:
260,241,54750,1,0,0:0:0:0:
266,242,55125,1,8,0:0:0:0:
266,221,55500,1,0,0:0:0:0:
269,198,56250,1,8,0:0:0:0:
282,212,57375,1,0,0:0:0:0:
270,201,57750,1,8,0:0:0:0:
285,186,58500,1,0,0:0:0:0:
285,186,58875,1,0,0:0:0:0:
285,186,59250,1,8,0:0:0:0:
293,212,60000,1,0,0:0:0:0:
293,212,60750,1,8,0:0:0:0:
298,205,61500,1,0,0:0:0:0:
297,205,61875,1,0,0:0:0:0:
297,205,62250,1,8,0:0:0:0:
266,220,63375,1,0,0:0:0:0:
255,210,63750,1,8,0:0:0:0:
252,237,64500,1,0,0:0:0:0:
257,237,64875,1,0,0:0:0:0:
277,237,65250,1,8,0:0:0:0:
273,251,66000,1,0,0:0:0:0:
279,255,67500,1,0,0:0:0:0:
274,254,68250,1,8,0:0:0:0:
278,259,68625,1,8,0:0:0:0:
263,245,69000,1,0,0:0:0:0:
270,250,69750,1,8,0:0:0:0:
270,250,70500,1,0,0:0:0:0:
270,250,71250,1,0,0:0:0:0:
270,250,71625,1,8,0:0:0:0:
270,250,72000,1,0,0:0:0:0:
208,222,72750,1,8,0:0:0:0:
263,207,73875,1,0,0:0:0:0:
263,207,74250,1,8,0:0:0:0:
263,207,75000,1,0,0:0:0:0:
263,207,75750,1,8,0:0:0:0:
250,219,76500,1,0,0:0:0:0:
260,221,76875,1,0,0:0:0:0:
263,207,77250,1,8,0:0:0:0:
241,237,78000,5,0,0:0:0:0:
278,265,78750,1,8,0:0:0:0:
278,265,79500,1,0,0:0:0:0:
264,233,79875,1,0,0:0:0:0:
255,222,80250,1,8,0:0:0:0:
280,226,81000,1,0,0:0:0:0:
264,207,82125,1,8,0:0:0:0:
274,216,82500,1,0,0:0:0:0:
264,216,82875,1,0,0:0:0:0:
265,215,83250,1,8,0:0:0:0:
241,237,84000,5,0,0:0:0:0:
260,237,84750,1,8,0:0:0:0:
280,229,85500,1,0,0:0:0:0:
256,226,85875,1,0,0:0:0:0:
255,222,86250,1,8,0:0:0:0:
280,226,87000,1,0,0:0:0:0:
264,207,88125,1,8,0:0:0:0:
274,216,88500,1,0,0:0:0:0:
264,216,88875,1,8,0:0:0:0:
265,215,89250,1,8,0:0:0:0:
241,237,90000,5,0,0:0:0:0:
260,237,90750,1,8,0:0:0:0:
260,237,91875,1,0,0:0:0:0:
255,222,92250,1,8,0:0:0:0:
280,232,93000,1,0,0:0:0:0:
262,195,93750,1,8,0:0:0:0:
267,231,94125,1,8,0:0:0:0:
264,207,94500,1,0,0:0:0:0:
264,207,94875,1,0,0:0:0:0:
265,215,95250,1,8,0:0:0:0:
241,237,96000,5,0,0:0:0:0:
278,265,96750,1,8,0:0:0:0:
260,237,97875,1,8,0:0:0:0:
260,237,98250,1,8,0:0:0:0:
280,226,99000,1,0,0:0:0:0:
265,233,99375,1,0,0:0:0:0:
270,216,99750,1,8,0:0:0:0:
270,210,100125,1,8,0:0:0:0:
253,200,100500,1,0,0:0:0:0:
265,215,101250,1,8,0:0:0:0:
221,229,101625,1,8,0:0:0:0:
255,223,102000,1,0,0:0:0:0:
260,237,102750,1,8,0:0:0:0:
260,237,103875,1,0,0:0:0:0:
251,214,104250,1,8,0:0:0:0:
280,226,105000,1,0,0:0:0:0:
258,245,105750,1,8,0:0:0:0:
264,207,106125,1,8,0:0:0:0:
274,216,106500,1,0,0:0:0:0:
270,216,106875,1,8,0:0:0:0:
265,215,107250,1,8,0:0:0:0:
241,237,108000,5,0,0:0:0:0:
278,265,108750,1,8,0:0:0:0:
251,214,109875,1,8,0:0:0:0:
255,222,110250,1,8,0:0:0:0:
280,226,111000,1,0,0:0:0:0:
265,233,111375,1,8,0:0:0:0:
270,216,111750,1,8,0:0:0:0:
272,223,112125,1,8,0:0:0:0:
274,216,112500,1,0,0:0:0:0:
265,215,113250,1,8,0:0:0:0:
241,237,114000,5,0,0:0:0:0:
262,208,114375,1,0,0:0:0:0:
258,207,114750,1,8,0:0:0:0:
255,201,115875,1,0,0:0:0:0:
255,201,116250,1,8,0:0:0:0:
255,201,117000,1,0,0:0:0:0:
273,176,117375,1,0,0:0:0:0:
255,201,117750,1,8,0:0:0:0:
281,234,118125,1,0,0:0:0:0:
275,199,118875,5,0,0:0:0:0:
273,191,119250,1,8,0:0:0:0:
258,207,120000,5,0,0:0:0:0:
277,227,120375,1,8,0:0:0:0:
258,207,120750,1,8,0:0:0:0:
255,201,121875,1,0,0:0:0:0:
255,201,122250,1,8,0:0:0:0:
255,201,123000,1,0,0:0:0:0:
273,176,123375,1,0,0:0:0:0:
272,180,123750,1,8,0:0:0:0:
277,202,124125,1,8,0:0:0:0:
265,201,124500,1,0,0:0:0:0:
273,191,125250,1,8,0:0:0:0:
277,202,125625,1,8,0:0:0:0:
240,208,126000,1,0,0:0:0:0:
262,208,126375,1,0,0:0:0:0:
295,184,126750,1,8,0:0:0:0:
255,201,127875,1,0,0:0:0:0:
255,201,128250,1,8,0:0:0:0:
255,201,129000,1,0,0:0:0:0:
273,176,129375,1,8,0:0:0:0:
255,201,129750,1,8,0:0:0:0:
286,206,130125,1,0,0:0:0:0:
273,191,130875,1,0,0:0:0:0:
273,191,131250,1,8,0:0:0:0:
258,207,132000,5,0,0:0:0:0:
262,208,132375,1,8,0:0:0:0:
258,207,132750,1,8,0:0:0:0:
255,201,133875,1,0,0:0:0:0:
255,201,134250,1,8,0:0:0:0:
255,201,135000,1,0,0:0:0:0:
255,201,135375,1,0,0:0:0:0:
255,201,135750,1,8,0:0:0:0:
255,201,136125,1,8,0:0:0:0:
277,190,136500,1,0,0:0:0:0:
273,191,136875,1,0,0:0:0:0:
273,191,137250,1,8,0:0:0:0:
160,192,138000,1,0,0:0:0:0:
