osu file format v14

[General]
AudioFilename: audio.mp3
AudioLeadIn: 0
PreviewTime: 10971
Countdown: 0
SampleSet: Normal
StackLeniency: 0.7
Mode: 1
LetterboxInBreaks: 0
WidescreenStoryboard: 1

[Editor]
DistanceSpacing: 1
BeatDivisor: 4
GridSize: 32
TimelineZoom: 1.900004

[Metadata]
Title:MG2
TitleUnicode:MG2
Artist:Machine Girl
ArtistUnicode:Machine Girl
Creator:Horiiizon
Version:Futsuu
Source:
Tags:Hardcore Breaks Breakcore Footwork WLFGRL+ electronic instrumental english
BeatmapID:3842512
BeatmapSetID:1867950

[Difficulty]
HPDrainRate:8
CircleSize:5
OverallDifficulty:4
ApproachRate:5
SliderMultiplier:1.4
SliderTickRate:1

[Events]
//Background and Video events
0,0,"ogix225r6oy21.jpg",0,119
//Break Periods
//Storyboard Layer 0 (Background)
//Storyboard Layer 1 (Fail)
//Storyboard Layer 2 (Pass)
//Storyboard Layer 3 (Foreground)
//Storyboard Layer 4 (Overlay)
//Storyboard Sound Samples

[TimingPoints]
973,333.333333333333,4,1,0,100,1,0
8972,333.333333333333,4,1,0,100,1,8
11638,-100,4,1,0,100,0,1
21638,-100,4,1,0,100,0,0
22305,-100,4,1,0,100,0,1
32971,-100,4,1,0,100,0,0
33305,-100,4,1,0,100,0,1
35638,-100,4,1,0,100,0,0
35971,-100,4,1,0,100,0,1
38305,-100,4,1,0,100,0,0
38638,-100,4,1,0,100,0,1
40971,-100,4,1,0,100,0,0
41305,-100,4,1,0,100,0,1
46305,-100,4,1,0,100,0,0
46638,-100,4,1,0,100,0,1
48971,-100,4,1,0,100,0,0
49305,-100,4,1,0,100,0,1
51638,-100,4,1,0,100,0,0
51971,-100,4,1,0,100,0,1
54305,-100,4,1,0,75,0,0

[HitObjects]
150,268,972,5,0,0:0:0:0:
150,268,1306,1,8,0:0:0:0:
146,207,1806,1,8,0:0:0:0:
154,179,2139,1,8,0:0:0:0:
172,185,2306,1,0,0:0:0:0:
134,207,2639,1,8,0:0:0:0:
137,202,3139,1,0,0:0:0:0:
137,202,3306,1,8,0:0:0:0:
129,221,3639,1,0,0:0:0:0:
146,240,3972,1,8,0:0:0:0:
149,246,4472,1,0,0:0:0:0:
141,207,4639,1,8,0:0:0:0:
166,232,4972,1,0,0:0:0:0:
143,260,5306,1,8,0:0:0:0:
145,265,5806,1,0,0:0:0:0:
145,266,5972,1,8,0:0:0:0:
124,225,6306,1,0,0:0:0:0:
135,235,6639,1,8,0:0:0:0:
127,184,7139,1,8,0:0:0:0:
159,194,7472,1,8,0:0:0:0:
159,194,7639,1,0,0:0:0:0:
120,254,7972,1,8,0:0:0:0:
152,243,9472,1,8,0:0:0:0:
145,192,9638,1,8,0:0:0:0:
123,247,9805,1,0,0:0:0:0:
143,204,10138,1,8,0:0:0:0:
126,189,10305,1,0,0:0:0:0:
103,224,10471,1,0,0:0:0:0:
104,229,10638,1,0,0:0:0:0:
136,221,11638,5,0,0:0:0:0:
141,236,11971,1,8,0:0:0:0:
146,232,12138,1,0,0:0:0:0:
151,211,12305,1,8,0:0:0:0:
135,217,12471,1,8,0:0:0:0:
135,190,12805,1,8,0:0:0:0:
136,192,12971,1,0,0:0:0:0:
146,200,13138,1,0,0:0:0:0:
140,207,13305,1,8,0:0:0:0:
165,184,13638,1,0,0:0:0:0:
121,207,13805,1,0,0:0:0:0:
129,155,13971,1,8,0:0:0:0:
132,227,14305,1,0,0:0:0:0:
151,211,14971,1,8,0:0:0:0:
150,209,15138,1,8,0:0:0:0:
137,169,15471,1,0,0:0:0:0:
137,169,15638,1,8,0:0:0:0:
146,200,15805,1,0,0:0:0:0:
140,207,15971,1,8,0:0:0:0:
136,223,16305,1,0,0:0:0:0:
121,207,16471,1,0,0:0:0:0:
150,190,16638,1,8,0:0:0:0:
136,221,16971,5,0,0:0:0:0:
141,236,17304,1,8,0:0:0:0:
146,232,17471,1,0,0:0:0:0:
151,211,17638,1,8,0:0:0:0:
135,217,17804,1,8,0:0:0:0:
135,190,18138,1,8,0:0:0:0:
136,192,18304,1,0,0:0:0:0:
146,200,18471,1,0,0:0:0:0:
140,207,18638,1,8,0:0:0:0:
165,184,18971,1,0,0:0:0:0:
121,207,19138,1,0,0:0:0:0:
129,155,19304,1,8,0:0:0:0:
132,227,19638,1,0,0:0:0:0:
151,211,20304,1,8,0:0:0:0:
150,209,20471,1,8,0:0:0:0:
81,112,20805,1,0,0:0:0:0:
76,202,20971,1,8,0:0:0:0:
146,200,21138,1,0,0:0:0:0:
140,207,21304,1,8,0:0:0:0:
136,223,21638,5,0,0:0:0:0:
136,221,22305,5,0,0:0:0:0:
141,236,22638,1,8,0:0:0:0:
146,232,22805,1,0,0:0:0:0:
151,211,22972,1,8,0:0:0:0:
135,217,23138,1,8,0:0:0:0:
135,190,23472,1,8,0:0:0:0:
136,192,23638,1,0,0:0:0:0:
146,200,23805,1,0,0:0:0:0:
140,207,23972,1,8,0:0:0:0:
165,184,24305,1,0,0:0:0:0:
121,207,24472,1,0,0:0:0:0:
129,155,24638,1,8,0:0:0:0:
132,227,24972,1,0,0:0:0:0:
151,211,25638,1,8,0:0:0:0:
150,209,25805,1,8,0:0:0:0:
137,169,26138,1,0,0:0:0:0:
137,169,26305,1,8,0:0:0:0:
146,200,26472,1,0,0:0:0:0:
140,207,26638,1,8,0:0:0:0:
136,223,26972,1,0,0:0:0:0:
121,207,27138,1,0,0:0:0:0:
150,190,27305,1,8,0:0:0:0:
136,221,27638,5,0,0:0:0:0:
141,236,27971,1,8,0:0:0:0:
146,232,28138,1,0,0:0:0:0:
151,211,28305,1,8,0:0:0:0:
135,217,28471,1,8,0:0:0:0:
135,190,28805,1,8,0:0:0:0:
136,192,28971,1,0,0:0:0:0:
146,200,29138,1,0,0:0:0:0:
140,207,29305,1,8,0:0:0:0:
165,184,29638,1,0,0:0:0:0:
121,207,29805,1,0,0:0:0:0:
129,155,29971,1,8,0:0:0:0:
132,227,30305,1,0,0:0:0:0:
151,211,30971,1,8,0:0:0:0:
150,209,31138,1,8,0:0:0:0:
81,112,31472,1,0,0:0:0:0:
76,202,31638,1,8,0:0:0:0:
146,200,31805,1,0,0:0:0:0:
140,207,31971,1,8,0:0:0:0:
136,223,32305,5,0,0:0:0:0:
141,158,32471,1,0,0:0:0:0:
146,158,32638,1,8,0:0:0:0:
142,190,32971,1,0,0:0:0:0:
128,176,33305,1,8,0:0:0:0:
144,124,33471,1,8,0:0:0:0:
149,124,33638,1,0,0:0:0:0:
144,124,33971,1,0,0:0:0:0:
154,195,34138,1,8,0:0:0:0:
142,152,34305,1,0,0:0:0:0:
134,219,34638,1,0,0:0:0:0:
139,221,34805,1,0,0:0:0:0:
140,207,34971,1,8,0:0:0:0:
156,214,35638,1,0,0:0:0:0:
155,121,35971,1,8,0:0:0:0:
152,181,36138,1,0,0:0:0:0:
121,240,36305,1,8,0:0:0:0:
152,181,36638,1,8,0:0:0:0:
189,196,36805,1,8,0:0:0:0:
142,179,36971,1,8,0:0:0:0:
132,170,37305,1,8,0:0:0:0:
131,168,37471,1,8,0:0:0:0:
145,246,37638,1,0,0:0:0:0:
149,167,38305,1,0,0:0:0:0:
128,176,38639,1,8,0:0:0:0:
144,124,38805,1,8,0:0:0:0:
149,124,38972,1,0,0:0:0:0:
144,124,39305,1,0,0:0:0:0:
154,195,39472,1,8,0:0:0:0:
142,152,39639,1,0,0:0:0:0:
134,219,39972,1,0,0:0:0:0:
139,221,40139,1,0,0:0:0:0:
140,207,40305,1,8,0:0:0:0:
156,214,40972,1,0,0:0:0:0:
155,121,41305,1,8,0:0:0:0:
152,181,41472,1,0,0:0:0:0:
121,240,41639,1,8,0:0:0:0:
152,181,41972,1,8,0:0:0:0:
189,196,42139,1,8,0:0:0:0:
142,179,42305,1,8,0:0:0:0:
132,170,42639,1,8,0:0:0:0:
131,168,42805,1,8,0:0:0:0:
145,246,42972,1,0,0:0:0:0:
149,167,43639,1,0,0:0:0:0:
128,176,43972,1,8,0:0:0:0:
144,124,44138,1,8,0:0:0:0:
149,124,44305,1,0,0:0:0:0:
171,185,44471,1,8,0:0:0:0:
144,124,44638,1,0,0:0:0:0:
142,152,44972,1,0,0:0:0:0:
134,219,45305,1,0,0:0:0:0:
139,221,45472,1,0,0:0:0:0:
140,207,45638,1,8,0:0:0:0:
156,214,46305,1,0,0:0:0:0:
155,121,46638,1,8,0:0:0:0:
152,181,46805,1,0,0:0:0:0:
121,240,46972,1,8,0:0:0:0:
158,174,47138,1,8,0:0:0:0:
161,167,47305,1,0,0:0:0:0:
142,179,47638,1,8,0:0:0:0:
132,170,47972,1,8,0:0:0:0:
131,168,48138,1,8,0:0:0:0:
145,246,48305,1,0,0:0:0:0:
149,167,48971,1,0,0:0:0:0:
128,176,49304,1,8,0:0:0:0:
144,124,49470,1,8,0:0:0:0:
149,124,49637,1,0,0:0:0:0:
171,185,49805,1,8,0:0:0:0:
144,124,49970,1,0,0:0:0:0:
142,152,50304,1,0,0:0:0:0:
134,219,50637,1,0,0:0:0:0:
139,221,50804,1,0,0:0:0:0:
140,207,50970,1,8,0:0:0:0:
156,214,51637,1,0,0:0:0:0:
155,121,51970,1,8,0:0:0:0:
152,181,52137,1,0,0:0:0:0:
121,240,52304,1,8,0:0:0:0:
158,174,52470,1,8,0:0:0:0:
161,167,52637,1,0,0:0:0:0:
142,179,52970,1,8,0:0:0:0:
132,170,53304,1,8,0:0:0:0:
131,168,53470,5,8,0:0:0:0:
145,246,53637,1,0,0:0:0:0:
136,221,54305,5,0,0:0:0:0:
141,236,54638,1,8,0:0:0:0:
146,232,54805,1,0,0:0:0:0:
151,211,54972,1,8,0:0:0:0:
135,217,55138,1,8,0:0:0:0:
135,190,55472,1,8,0:0:0:0:
136,192,55638,1,0,0:0:0:0:
140,207,55972,1,8,0:0:0:0:
165,184,56305,1,0,0:0:0:0:
121,207,56472,1,0,0:0:0:0:
129,155,56638,1,8,0:0:0:0:
132,227,56972,1,0,0:0:0:0:
151,211,57638,1,8,0:0:0:0:
150,209,57805,1,8,0:0:0:0:
142,147,58138,1,8,0:0:0:0:
142,147,58305,1,0,0:0:0:0:
140,207,58638,1,8,0:0:0:0:
136,223,58972,1,0,0:0:0:0:
121,207,59138,1,0,0:0:0:0:
150,190,59305,1,8,0:0:0:0:
136,221,59638,5,0,0:0:0:0:
141,236,59971,1,8,0:0:0:0:
