osu file format v14

[General]
AudioFilename: audio.ogg
AudioLeadIn: 0
PreviewTime: 38362
Countdown: 0
SampleSet: Normal
StackLeniency: 0.7
Mode: 1
LetterboxInBreaks: 0
WidescreenStoryboard: 0

[Editor]
Bookmarks: 9600,28800,48000,67200,76800,86400,105600,115200,134400,153600,172800,182400,201600,220800,240000
DistanceSpacing: 1.2
BeatDivisor: 4
GridSize: 32
TimelineZoom: 2.1

[Metadata]
Title:Cloud Nine
TitleUnicode:Cloud Nine
Artist:Machine Girl
ArtistUnicode:Machine Girl
Creator:ZTH
Version:Teezel's Muzukashii
Source:Neon White
Tags:electronic 9 The Wicked Heart Video Game Instrumental hardcore breaks Breakcore Teezel maxie Horiiizon
BeatmapID:4107433
BeatmapSetID:1900011

[Difficulty]
HPDrainRate:6
CircleSize:5
OverallDifficulty:5
ApproachRate:5
SliderMultiplier:1.4
SliderTickRate:1

[Events]
//Background and Video events
0,0,"FPGohA4aMAIxHaV.jpeg",0,-70
//Break Periods
2,105800,114000
//Storyboard Layer 0 (Background)
//Storyboard Layer 1 (Fail)
//Storyboard Layer 2 (Pass)
//Storyboard Layer 3 (Foreground)
//Storyboard Layer 4 (Overlay)
//Storyboard Sound Samples

[TimingPoints]
8400,300,4,1,0,82,1,8
86400,-100,4,1,0,82,0,1
105600,-100,4,1,0,82,0,0
201600,-100,4,1,0,82,0,1
219750,-100,4,1,0,82,0,0

[HitObjects]
256,192,9600,5,0,0:0:0:0:
256,192,9750,1,0,0:0:0:0:
256,192,9825,1,0,0:0:0:0:
256,192,9900,1,0,0:0:0:0:
256,192,10200,1,8,0:0:0:0:
256,192,10650,1,0,0:0:0:0:
256,192,10950,1,8,0:0:0:0:
256,192,11100,1,0,0:0:0:0:
256,192,11250,1,0,0:0:0:0:
256,192,11400,1,8,0:0:0:0:
256,192,11700,1,0,0:0:0:0:
256,192,12000,1,0,0:0:0:0:
256,192,12150,1,0,0:0:0:0:
256,192,12225,1,0,0:0:0:0:
256,192,12300,1,0,0:0:0:0:
256,192,12600,1,8,0:0:0:0:
256,192,12750,1,0,0:0:0:0:
256,192,13050,1,0,0:0:0:0:
256,192,13350,1,8,0:0:0:0:
256,192,13500,1,0,0:0:0:0:
256,192,13650,1,0,0:0:0:0:
256,192,13800,1,8,0:0:0:0:
256,192,13950,1,8,0:0:0:0:
256,192,14250,1,8,0:0:0:0:
256,192,14400,1,0,0:0:0:0:
256,192,14550,1,0,0:0:0:0:
256,192,14625,1,0,0:0:0:0:
256,192,14700,1,0,0:0:0:0:
256,192,15000,1,8,0:0:0:0:
256,192,15450,1,0,0:0:0:0:
256,192,15750,1,8,0:0:0:0:
256,192,15900,1,0,0:0:0:0:
256,192,16050,1,0,0:0:0:0:
256,192,16200,1,8,0:0:0:0:
256,192,16500,1,0,0:0:0:0:
256,192,16800,1,0,0:0:0:0:
256,192,16950,1,0,0:0:0:0:
256,192,17025,1,0,0:0:0:0:
256,192,17100,1,0,0:0:0:0:
256,192,17400,1,8,0:0:0:0:
256,192,17550,1,0,0:0:0:0:
256,192,17850,1,8,0:0:0:0:
256,192,18150,1,8,0:0:0:0:
256,192,18300,1,0,0:0:0:0:
256,192,18450,1,0,0:0:0:0:
256,192,18600,1,8,0:0:0:0:
256,192,18900,1,8,0:0:0:0:
256,192,19200,1,0,0:0:0:0:
256,192,19350,1,0,0:0:0:0:
256,192,19425,1,0,0:0:0:0:
256,192,19500,1,0,0:0:0:0:
256,192,19800,1,8,0:0:0:0:
256,192,20250,1,0,0:0:0:0:
256,192,20550,1,8,0:0:0:0:
256,192,20700,1,0,0:0:0:0:
256,192,20850,1,0,0:0:0:0:
256,192,21000,1,8,0:0:0:0:
256,192,21300,1,0,0:0:0:0:
256,192,21600,1,0,0:0:0:0:
256,192,21750,1,0,0:0:0:0:
256,192,21825,1,0,0:0:0:0:
256,192,21900,1,0,0:0:0:0:
256,192,22200,1,8,0:0:0:0:
256,192,22350,1,0,0:0:0:0:
256,192,22650,1,0,0:0:0:0:
256,192,22950,1,8,0:0:0:0:
256,192,23100,1,0,0:0:0:0:
256,192,23250,1,0,0:0:0:0:
256,192,23400,1,8,0:0:0:0:
256,192,23550,1,8,0:0:0:0:
256,192,23850,1,8,0:0:0:0:
256,192,24000,1,0,0:0:0:0:
256,192,24150,1,0,0:0:0:0:
256,192,24225,1,0,0:0:0:0:
256,192,24300,1,0,0:0:0:0:
256,192,24600,1,8,0:0:0:0:
256,192,25050,1,0,0:0:0:0:
256,192,25350,1,8,0:0:0:0:
256,192,25500,1,0,0:0:0:0:
256,192,25650,1,0,0:0:0:0:
256,192,25800,1,8,0:0:0:0:
256,192,26100,1,0,0:0:0:0:
256,192,26400,1,0,0:0:0:0:
256,192,26550,1,0,0:0:0:0:
256,192,26625,1,0,0:0:0:0:
256,192,26700,1,0,0:0:0:0:
256,192,27000,1,8,0:0:0:0:
256,192,27150,1,0,0:0:0:0:
256,192,27450,1,0,0:0:0:0:
256,192,27750,1,0,0:0:0:0:
256,192,27825,1,0,0:0:0:0:
256,192,27900,1,0,0:0:0:0:
256,192,28050,1,0,0:0:0:0:
256,192,28200,1,8,0:0:0:0:
256,192,28800,5,0,0:0:0:0:
256,192,28950,1,0,0:0:0:0:
256,192,29100,1,8,0:0:0:0:
256,192,29400,1,0,0:0:0:0:
256,192,29550,1,8,0:0:0:0:
256,192,29700,1,8,0:0:0:0:
256,192,29775,1,8,0:0:0:0:
256,192,29850,1,8,0:0:0:0:
256,192,30000,1,0,0:0:0:0:
256,192,30300,1,8,0:0:0:0:
256,192,30450,1,0,0:0:0:0:
256,192,30600,1,8,0:0:0:0:
256,192,30750,1,0,0:0:0:0:
256,192,30900,1,8,0:0:0:0:
256,192,31200,1,0,0:0:0:0:
256,192,31350,1,0,0:0:0:0:
256,192,31425,1,0,0:0:0:0:
256,192,31500,1,8,0:0:0:0:
256,192,31950,1,0,0:0:0:0:
256,192,32100,1,8,0:0:0:0:
256,192,32400,1,0,0:0:0:0:
256,192,32475,1,0,0:0:0:0:
256,192,32550,1,0,0:0:0:0:
256,192,32700,1,8,0:0:0:0:
256,192,32850,1,8,0:0:0:0:
256,192,33000,1,0,0:0:0:0:
256,192,33150,1,0,0:0:0:0:
256,192,33300,1,8,0:0:0:0:
256,192,33600,1,0,0:0:0:0:
256,192,33750,1,0,0:0:0:0:
256,192,33900,1,8,0:0:0:0:
256,192,34200,1,0,0:0:0:0:
256,192,34350,1,8,0:0:0:0:
256,192,34500,1,8,0:0:0:0:
256,192,34575,1,8,0:0:0:0:
256,192,34650,1,8,0:0:0:0:
256,192,34800,1,0,0:0:0:0:
256,192,35100,1,8,0:0:0:0:
256,192,35250,1,0,0:0:0:0:
256,192,35400,1,8,0:0:0:0:
256,192,35550,1,0,0:0:0:0:
256,192,35700,1,8,0:0:0:0:
256,192,36000,1,8,0:0:0:0:
256,192,36150,1,8,0:0:0:0:
256,192,36225,1,8,0:0:0:0:
256,192,36300,1,0,0:0:0:0:
256,192,36750,1,0,0:0:0:0:
256,192,36900,1,8,0:0:0:0:
256,192,37200,1,0,0:0:0:0:
256,192,37500,1,8,0:0:0:0:
256,192,37575,1,8,0:0:0:0:
256,192,37650,1,8,0:0:0:0:
256,192,37800,1,8,0:0:0:0:
256,192,37950,1,8,0:0:0:0:
256,192,38100,1,8,0:0:0:0:
256,192,38400,1,0,0:0:0:0:
256,192,38550,1,0,0:0:0:0:
256,192,38700,1,8,0:0:0:0:
256,192,39000,1,0,0:0:0:0:
256,192,39150,1,8,0:0:0:0:
256,192,39300,1,8,0:0:0:0:
256,192,39375,1,8,0:0:0:0:
256,192,39450,1,8,0:0:0:0:
256,192,39600,1,0,0:0:0:0:
256,192,39900,1,8,0:0:0:0:
256,192,40050,1,8,0:0:0:0:
256,192,40200,1,0,0:0:0:0:
256,192,40350,1,0,0:0:0:0:
256,192,40500,1,8,0:0:0:0:
256,192,40800,1,0,0:0:0:0:
256,192,40950,1,0,0:0:0:0:
256,192,41025,1,0,0:0:0:0:
256,192,41100,1,8,0:0:0:0:
256,192,41550,1,0,0:0:0:0:
256,192,41700,1,8,0:0:0:0:
256,192,42000,1,8,0:0:0:0:
256,192,42300,1,8,0:0:0:0:
256,192,42600,1,8,0:0:0:0:
256,192,42900,1,0,0:0:0:0:
256,192,42975,1,0,0:0:0:0:
256,192,43050,1,0,0:0:0:0:
256,192,43200,1,0,0:0:0:0:
256,192,43350,1,0,0:0:0:0:
256,192,43500,1,8,0:0:0:0:
256,192,43800,1,0,0:0:0:0:
256,192,43950,1,8,0:0:0:0:
256,192,44100,1,8,0:0:0:0:
256,192,44175,1,8,0:0:0:0:
256,192,44250,1,8,0:0:0:0:
256,192,44400,1,0,0:0:0:0:
256,192,44700,1,8,0:0:0:0:
256,192,44850,1,8,0:0:0:0:
256,192,45000,1,0,0:0:0:0:
256,192,45150,1,0,0:0:0:0:
256,192,45300,1,8,0:0:0:0:
256,192,45600,1,8,0:0:0:0:
256,192,45750,1,8,0:0:0:0:
256,192,45825,1,8,0:0:0:0:
256,192,45900,1,0,0:0:0:0:
256,192,46350,1,0,0:0:0:0:
256,192,46500,1,8,0:0:0:0:
256,192,46800,1,0,0:0:0:0:
256,192,46875,1,0,0:0:0:0:
256,192,46950,1,0,0:0:0:0:
256,192,47100,1,8,0:0:0:0:
256,192,47400,1,8,0:0:0:0:
256,192,47700,1,0,0:0:0:0:
256,192,48000,5,0,0:0:0:0:
256,192,48150,1,8,0:0:0:0:
256,192,48225,1,8,0:0:0:0:
256,192,48300,1,8,0:0:0:0:
256,192,48450,1,0,0:0:0:0:
256,192,48900,1,8,0:0:0:0:
256,192,49200,1,0,0:0:0:0:
256,192,49275,1,0,0:0:0:0:
256,192,49350,1,0,0:0:0:0:
256,192,49500,1,8,0:0:0:0:
256,192,49650,1,8,0:0:0:0:
256,192,49800,1,0,0:0:0:0:
256,192,49950,1,0,0:0:0:0:
256,192,50100,1,8,0:0:0:0:
256,192,50400,1,8,0:0:0:0:
256,192,50700,1,8,0:0:0:0:
256,192,50850,1,8,0:0:0:0:
256,192,51075,1,8,0:0:0:0:
256,192,51150,1,8,0:0:0:0:
256,192,51300,1,8,0:0:0:0:
256,192,51525,1,8,0:0:0:0:
256,192,51675,1,8,0:0:0:0:
256,192,51750,1,8,0:0:0:0:
256,192,51900,1,8,0:0:0:0:
256,192,52125,1,8,0:0:0:0:
256,192,52350,1,8,0:0:0:0:
256,192,52500,1,8,0:0:0:0:
256,192,52575,1,8,0:0:0:0:
256,192,52650,1,8,0:0:0:0:
256,192,52800,1,0,0:0:0:0:
256,192,52950,1,0,0:0:0:0:
256,192,53100,1,8,0:0:0:0:
256,192,53400,1,0,0:0:0:0:
256,192,53550,1,8,0:0:0:0:
256,192,53700,1,8,0:0:0:0:
256,192,53775,1,8,0:0:0:0:
256,192,53850,1,8,0:0:0:0:
256,192,54000,1,0,0:0:0:0:
256,192,54300,1,8,0:0:0:0:
256,192,54450,1,0,0:0:0:0:
256,192,54600,1,8,0:0:0:0:
256,192,55200,1,8,0:0:0:0:
256,192,55350,1,0,0:0:0:0:
256,192,55425,1,0,0:0:0:0:
256,192,55500,1,0,0:0:0:0:
256,192,55650,1,8,0:0:0:0:
256,192,55950,1,0,0:0:0:0:
256,192,56100,1,8,0:0:0:0:
256,192,56400,1,8,0:0:0:0:
256,192,56475,1,8,0:0:0:0:
256,192,56550,1,8,0:0:0:0:
256,192,56700,1,0,0:0:0:0:
256,192,56850,1,0,0:0:0:0:
256,192,57000,1,8,0:0:0:0:
256,192,57150,1,0,0:0:0:0:
256,192,57300,1,8,0:0:0:0:
256,192,57600,1,0,0:0:0:0:
256,192,57750,1,8,0:0:0:0:
256,192,57825,1,8,0:0:0:0:
256,192,57900,1,8,0:0:0:0:
256,192,58050,1,0,0:0:0:0:
256,192,58500,1,8,0:0:0:0:
256,192,58800,1,0,0:0:0:0:
256,192,58875,1,0,0:0:0:0:
256,192,58950,1,0,0:0:0:0:
256,192,59100,1,8,0:0:0:0:
256,192,59250,1,8,0:0:0:0:
256,192,59400,1,0,0:0:0:0:
256,192,59550,1,0,0:0:0:0:
256,192,59700,1,8,0:0:0:0:
256,192,60000,1,0,0:0:0:0:
256,192,60075,1,0,0:0:0:0:
256,192,60150,1,0,0:0:0:0:
256,192,60300,1,8,0:0:0:0:
256,192,60450,1,0,0:0:0:0:
256,192,60750,1,0,0:0:0:0:
256,192,60900,1,8,0:0:0:0:
256,192,61200,1,8,0:0:0:0:
256,192,61275,1,8,0:0:0:0:
256,192,61350,1,8,0:0:0:0:
256,192,61500,1,0,0:0:0:0:
256,192,61650,1,0,0:0:0:0:
256,192,61800,1,8,0:0:0:0:
256,192,61950,1,0,0:0:0:0:
256,192,62100,1,8,0:0:0:0:
256,192,62400,1,0,0:0:0:0:
256,192,62550,1,0,0:0:0:0:
256,192,62625,1,0,0:0:0:0:
256,192,62700,1,0,0:0:0:0:
256,192,62925,1,0,0:0:0:0:
256,192,63150,1,0,0:0:0:0:
256,192,63375,1,0,0:0:0:0:
256,192,63450,1,0,0:0:0:0:
256,192,63525,1,0,0:0:0:0:
256,192,63900,1,8,0:0:0:0:
256,192,64200,1,0,0:0:0:0:
256,192,64500,1,8,0:0:0:0:
256,192,64800,1,0,0:0:0:0:
256,192,64950,1,8,0:0:0:0:
256,192,65025,1,8,0:0:0:0:
256,192,65100,1,8,0:0:0:0:
256,192,65250,1,0,0:0:0:0:
256,192,65550,1,0,0:0:0:0:
256,192,65700,1,8,0:0:0:0:
256,192,66000,1,0,0:0:0:0:
256,192,66075,1,0,0:0:0:0:
256,192,66150,1,0,0:0:0:0:
256,192,66300,1,8,0:0:0:0:
256,192,66450,1,0,0:0:0:0:
256,192,66600,1,8,0:0:0:0:
256,192,66750,1,0,0:0:0:0:
256,192,66900,1,8,0:0:0:0:
256,192,67200,5,0,0:0:0:0:
256,192,67350,1,0,0:0:0:0:
256,192,67500,1,8,0:0:0:0:
256,192,67800,1,0,0:0:0:0:
256,192,68100,1,8,0:0:0:0:
256,192,68250,1,0,0:0:0:0:
256,192,68400,1,0,0:0:0:0:
256,192,68700,1,8,0:0:0:0:
256,192,69150,1,0,0:0:0:0:
256,192,69300,1,8,0:0:0:0:
256,192,69450,1,8,0:0:0:0:
256,192,69600,1,0,0:0:0:0:
256,192,69900,1,8,0:0:0:0:
256,192,70050,1,0,0:0:0:0:
256,192,70200,1,8,0:0:0:0:
256,192,70500,1,8,0:0:0:0:
256,192,70950,1,0,0:0:0:0:
256,192,71100,1,8,0:0:0:0:
256,192,71400,1,0,0:0:0:0:
256,192,71700,1,8,0:0:0:0:
256,192,72000,1,0,0:0:0:0:
256,192,72150,1,0,0:0:0:0:
256,192,72300,1,8,0:0:0:0:
256,192,72600,1,0,0:0:0:0:
256,192,72900,1,8,0:0:0:0:
256,192,73050,1,0,0:0:0:0:
256,192,73200,1,0,0:0:0:0:
256,192,73500,1,8,0:0:0:0:
256,192,73800,1,0,0:0:0:0:
256,192,74100,1,8,0:0:0:0:
256,192,74550,1,0,0:0:0:0:
256,192,74700,1,8,0:0:0:0:
256,192,75000,1,0,0:0:0:0:
256,192,75300,1,8,0:0:0:0:
256,192,75450,1,0,0:0:0:0:
256,192,75750,1,0,0:0:0:0:
256,192,76200,1,8,0:0:0:0:
256,192,76500,1,0,0:0:0:0:
256,192,76800,5,0,0:0:0:0:
256,192,77100,1,8,0:0:0:0:
256,192,77250,1,0,0:0:0:0:
256,192,77325,1,0,0:0:0:0:
256,192,77400,1,0,0:0:0:0:
256,192,77550,1,0,0:0:0:0:
256,192,77700,1,8,0:0:0:0:
256,192,78000,1,0,0:0:0:0:
256,192,78150,1,0,0:0:0:0:
256,192,78300,1,8,0:0:0:0:
256,192,78450,1,0,0:0:0:0:
256,192,78525,1,8,0:0:0:0:
256,192,78600,1,0,0:0:0:0:
256,192,78900,1,8,0:0:0:0:
256,192,79200,1,0,0:0:0:0:
256,192,79500,1,8,0:0:0:0:
256,192,79650,1,0,0:0:0:0:
256,192,79800,1,0,0:0:0:0:
256,192,79950,1,8,0:0:0:0:
256,192,80100,1,8,0:0:0:0:
256,192,80400,1,8,0:0:0:0:
256,192,80475,1,8,0:0:0:0:
256,192,80550,1,8,0:0:0:0:
256,192,80700,1,0,0:0:0:0:
256,192,80850,1,0,0:0:0:0:
256,192,81000,1,8,0:0:0:0:
256,192,81150,1,0,0:0:0:0:
256,192,81300,1,8,0:0:0:0:
256,192,81600,1,0,0:0:0:0:
256,192,81900,1,8,0:0:0:0:
256,192,82050,1,0,0:0:0:0:
256,192,82125,1,0,0:0:0:0:
256,192,82200,1,0,0:0:0:0:
256,192,82350,1,8,0:0:0:0:
256,192,82500,1,8,0:0:0:0:
256,192,82650,1,0,0:0:0:0:
256,192,83100,1,8,0:0:0:0:
256,192,83250,1,8,0:0:0:0:
256,192,83400,1,0,0:0:0:0:
256,192,83550,1,0,0:0:0:0:
256,192,83700,1,8,0:0:0:0:
256,192,84000,1,0,0:0:0:0:
256,192,84300,1,8,0:0:0:0:
256,192,84450,1,0,0:0:0:0:
256,192,84600,1,0,0:0:0:0:
256,192,84750,1,8,0:0:0:0:
256,192,84825,1,0,0:0:0:0:
256,192,84900,1,8,0:0:0:0:
256,192,85200,1,0,0:0:0:0:
256,192,85500,1,0,0:0:0:0:
256,192,85800,1,0,0:0:0:0:
256,192,86100,1,0,0:0:0:0:
256,192,86400,5,8,0:0:0:0:
256,192,86550,1,0,0:0:0:0:
256,192,86625,1,0,0:0:0:0:
256,192,86700,1,0,0:0:0:0:
256,192,86850,1,8,0:0:0:0:
256,192,87150,1,0,0:0:0:0:
256,192,87300,1,8,0:0:0:0:
256,192,87600,1,0,0:0:0:0:
256,192,87675,1,0,0:0:0:0:
256,192,87750,1,0,0:0:0:0:
256,192,87900,1,8,0:0:0:0:
256,192,88050,1,8,0:0:0:0:
256,192,88200,1,0,0:0:0:0:
256,192,88350,1,8,0:0:0:0:
256,192,88500,1,0,0:0:0:0:
256,192,88800,1,0,0:0:0:0:
256,192,88950,1,8,0:0:0:0:
256,192,89025,1,0,0:0:0:0:
256,192,89100,1,8,0:0:0:0:
256,192,89400,1,8,0:0:0:0:
256,192,89700,1,0,0:0:0:0:
256,192,90000,1,0,0:0:0:0:
256,192,90150,1,0,0:0:0:0:
256,192,90300,1,8,0:0:0:0:
256,192,90600,1,0,0:0:0:0:
256,192,90750,1,8,0:0:0:0:
256,192,90825,1,0,0:0:0:0:
256,192,90900,1,8,0:0:0:0:
256,192,91200,1,0,0:0:0:0:
256,192,91350,1,8,0:0:0:0:
256,192,91425,1,8,0:0:0:0:
256,192,91500,1,8,0:0:0:0:
256,192,91650,1,0,0:0:0:0:
256,192,91950,1,0,0:0:0:0:
256,192,92100,1,8,0:0:0:0:
256,192,92400,1,8,0:0:0:0:
256,192,92475,1,8,0:0:0:0:
256,192,92550,1,8,0:0:0:0:
256,192,92700,1,0,0:0:0:0:
256,192,92850,1,0,0:0:0:0:
256,192,93000,1,8,0:0:0:0:
256,192,93150,1,8,0:0:0:0:
256,192,93300,1,0,0:0:0:0:
256,192,93600,1,8,0:0:0:0:
256,192,93750,1,0,0:0:0:0:
256,192,93825,1,8,0:0:0:0:
256,192,93900,1,0,0:0:0:0:
256,192,94200,1,0,0:0:0:0:
256,192,94500,1,8,0:0:0:0:
256,192,94800,1,8,0:0:0:0:
256,192,94950,1,8,0:0:0:0:
256,192,95100,1,0,0:0:0:0:
256,192,95400,1,8,0:0:0:0:
256,192,95550,1,0,0:0:0:0:
256,192,95625,1,8,0:0:0:0:
256,192,95700,1,0,0:0:0:0:
256,192,96000,1,8,0:0:0:0:
256,192,96150,1,0,0:0:0:0:
256,192,96225,1,0,0:0:0:0:
256,192,96300,1,0,0:0:0:0:
256,192,96450,1,8,0:0:0:0:
256,192,96750,1,0,0:0:0:0:
256,192,96900,1,8,0:0:0:0:
256,192,97200,1,0,0:0:0:0:
256,192,97275,1,0,0:0:0:0:
256,192,97350,1,0,0:0:0:0:
256,192,97500,1,8,0:0:0:0:
256,192,97650,1,8,0:0:0:0:
256,192,97800,1,0,0:0:0:0:
256,192,97950,1,8,0:0:0:0:
256,192,98100,1,0,0:0:0:0:
256,192,98400,1,0,0:0:0:0:
256,192,98550,1,8,0:0:0:0:
256,192,98625,1,0,0:0:0:0:
256,192,98700,1,8,0:0:0:0:
256,192,99000,1,8,0:0:0:0:
256,192,99300,1,0,0:0:0:0:
256,192,99600,1,0,0:0:0:0:
256,192,99750,1,0,0:0:0:0:
256,192,99900,1,8,0:0:0:0:
256,192,100200,1,0,0:0:0:0:
256,192,100350,1,8,0:0:0:0:
256,192,100425,1,0,0:0:0:0:
256,192,100500,1,8,0:0:0:0:
256,192,100800,1,0,0:0:0:0:
256,192,100950,1,8,0:0:0:0:
256,192,101025,1,8,0:0:0:0:
256,192,101100,1,8,0:0:0:0:
256,192,101250,1,0,0:0:0:0:
256,192,101550,1,0,0:0:0:0:
256,192,101700,1,8,0:0:0:0:
256,192,102000,1,8,0:0:0:0:
256,192,102075,1,8,0:0:0:0:
256,192,102150,1,8,0:0:0:0:
256,192,102300,1,0,0:0:0:0:
256,192,102450,1,0,0:0:0:0:
256,192,102600,1,8,0:0:0:0:
256,192,102750,1,8,0:0:0:0:
256,192,102900,1,0,0:0:0:0:
256,192,103200,1,8,0:0:0:0:
256,192,103350,1,0,0:0:0:0:
256,192,103425,1,8,0:0:0:0:
256,192,103500,1,0,0:0:0:0:
256,192,103800,1,0,0:0:0:0:
256,192,104100,1,8,0:0:0:0:
256,192,104400,1,8,0:0:0:0:
256,192,104550,1,8,0:0:0:0:
256,192,104700,1,0,0:0:0:0:
256,192,105000,1,8,0:0:0:0:
256,192,105150,1,0,0:0:0:0:
256,192,105225,1,8,0:0:0:0:
256,192,105300,1,0,0:0:0:0:
256,192,105600,1,0,0:0:0:0:
256,192,115200,5,0,0:0:0:0:
256,192,115650,1,0,0:0:0:0:
256,192,115950,1,0,0:0:0:0:
256,192,116100,1,8,0:0:0:0:
256,192,116250,1,0,0:0:0:0:
256,192,116400,1,8,0:0:0:0:
256,192,116700,1,0,0:0:0:0:
256,192,117300,1,0,0:0:0:0:
256,192,117600,1,0,0:0:0:0:
256,192,118050,1,0,0:0:0:0:
256,192,118350,1,0,0:0:0:0:
256,192,118500,1,8,0:0:0:0:
256,192,118650,1,0,0:0:0:0:
256,192,118800,1,8,0:0:0:0:
256,192,119100,1,0,0:0:0:0:
256,192,119550,1,0,0:0:0:0:
256,192,119700,1,8,0:0:0:0:
256,192,120000,1,0,0:0:0:0:
256,192,120450,1,0,0:0:0:0:
256,192,120750,1,0,0:0:0:0:
256,192,120900,1,8,0:0:0:0:
256,192,121050,1,0,0:0:0:0:
256,192,121200,1,8,0:0:0:0:
256,192,121500,1,0,0:0:0:0:
256,192,122100,1,0,0:0:0:0:
256,192,122400,1,0,0:0:0:0:
256,192,122850,1,0,0:0:0:0:
256,192,123150,1,0,0:0:0:0:
256,192,123300,1,8,0:0:0:0:
256,192,123450,1,0,0:0:0:0:
256,192,123600,1,8,0:0:0:0:
256,192,123900,1,0,0:0:0:0:
256,192,124200,1,8,0:0:0:0:
256,192,124350,1,8,0:0:0:0:
256,192,124500,1,8,0:0:0:0:
256,192,124650,1,8,0:0:0:0:
256,192,124800,1,0,0:0:0:0:
256,192,124950,1,0,0:0:0:0:
256,192,125025,1,0,0:0:0:0:
256,192,125100,1,0,0:0:0:0:
256,192,125400,1,8,0:0:0:0:
256,192,125850,1,0,0:0:0:0:
256,192,126150,1,0,0:0:0:0:
256,192,126225,1,0,0:0:0:0:
256,192,126300,1,0,0:0:0:0:
256,192,126450,1,0,0:0:0:0:
256,192,126600,1,8,0:0:0:0:
256,192,126900,1,0,0:0:0:0:
256,192,127200,1,0,0:0:0:0:
256,192,127350,1,0,0:0:0:0:
256,192,127425,1,0,0:0:0:0:
256,192,127500,1,0,0:0:0:0:
256,192,127800,1,8,0:0:0:0:
256,192,127950,1,0,0:0:0:0:
256,192,128250,1,0,0:0:0:0:
256,192,128550,1,0,0:0:0:0:
256,192,128625,1,0,0:0:0:0:
256,192,128700,1,0,0:0:0:0:
256,192,128850,1,0,0:0:0:0:
256,192,129000,1,8,0:0:0:0:
256,192,129150,1,8,0:0:0:0:
256,192,129450,1,8,0:0:0:0:
256,192,129600,1,0,0:0:0:0:
256,192,129750,1,0,0:0:0:0:
256,192,129825,1,0,0:0:0:0:
256,192,129900,1,0,0:0:0:0:
256,192,130200,1,8,0:0:0:0:
256,192,130650,1,0,0:0:0:0:
256,192,130950,1,0,0:0:0:0:
256,192,131025,1,0,0:0:0:0:
256,192,131100,1,0,0:0:0:0:
256,192,131250,1,0,0:0:0:0:
256,192,131400,1,8,0:0:0:0:
256,192,131700,1,0,0:0:0:0:
256,192,132000,1,0,0:0:0:0:
256,192,132150,1,0,0:0:0:0:
256,192,132225,1,0,0:0:0:0:
256,192,132300,1,0,0:0:0:0:
256,192,132600,1,8,0:0:0:0:
256,192,132750,1,0,0:0:0:0:
256,192,133050,1,0,0:0:0:0:
256,192,133350,1,0,0:0:0:0:
256,192,133425,1,0,0:0:0:0:
256,192,133500,1,0,0:0:0:0:
256,192,133650,1,0,0:0:0:0:
256,192,133950,1,8,0:0:0:0:
256,192,134025,1,8,0:0:0:0:
256,192,134100,1,8,0:0:0:0:
256,192,134250,1,8,0:0:0:0:
256,192,134400,5,0,0:0:0:0:
256,192,134550,1,0,0:0:0:0:
256,192,134700,1,8,0:0:0:0:
256,192,135000,1,0,0:0:0:0:
256,192,135150,1,8,0:0:0:0:
256,192,135300,1,8,0:0:0:0:
256,192,135375,1,8,0:0:0:0:
256,192,135450,1,8,0:0:0:0:
256,192,135600,1,0,0:0:0:0:
256,192,135900,1,8,0:0:0:0:
256,192,136050,1,0,0:0:0:0:
256,192,136200,1,8,0:0:0:0:
256,192,136350,1,0,0:0:0:0:
256,192,136500,1,8,0:0:0:0:
256,192,136800,1,0,0:0:0:0:
256,192,136950,1,0,0:0:0:0:
256,192,137025,1,0,0:0:0:0:
256,192,137100,1,8,0:0:0:0:
256,192,137550,1,0,0:0:0:0:
256,192,137700,1,8,0:0:0:0:
256,192,137850,1,8,0:0:0:0:
256,192,138000,1,0,0:0:0:0:
256,192,138075,1,0,0:0:0:0:
256,192,138150,1,0,0:0:0:0:
256,192,138300,1,8,0:0:0:0:
256,192,138600,1,8,0:0:0:0:
256,192,138750,1,8,0:0:0:0:
256,192,138900,1,8,0:0:0:0:
256,192,138975,1,8,0:0:0:0:
256,192,139050,1,8,0:0:0:0:
256,192,139200,1,0,0:0:0:0:
256,192,139350,1,0,0:0:0:0:
256,192,139500,1,8,0:0:0:0:
256,192,139800,1,0,0:0:0:0:
256,192,139950,1,8,0:0:0:0:
256,192,140100,1,8,0:0:0:0:
256,192,140175,1,8,0:0:0:0:
256,192,140250,1,8,0:0:0:0:
256,192,140400,1,0,0:0:0:0:
256,192,140700,1,8,0:0:0:0:
256,192,140850,1,0,0:0:0:0:
256,192,141000,1,8,0:0:0:0:
256,192,141150,1,0,0:0:0:0:
256,192,141300,1,8,0:0:0:0:
256,192,141600,1,8,0:0:0:0:
256,192,141750,1,8,0:0:0:0:
256,192,141825,1,8,0:0:0:0:
256,192,141900,1,0,0:0:0:0:
256,192,142350,1,0,0:0:0:0:
256,192,142500,1,8,0:0:0:0:
256,192,142800,1,8,0:0:0:0:
256,192,142950,1,0,0:0:0:0:
256,192,143025,1,0,0:0:0:0:
256,192,143100,1,0,0:0:0:0:
256,192,143250,1,8,0:0:0:0:
256,192,143400,1,0,0:0:0:0:
256,192,143550,1,0,0:0:0:0:
256,192,143700,1,8,0:0:0:0:
256,192,144000,1,0,0:0:0:0:
256,192,144150,1,0,0:0:0:0:
256,192,144300,1,8,0:0:0:0:
256,192,144600,1,0,0:0:0:0:
256,192,144750,1,8,0:0:0:0:
256,192,144900,1,8,0:0:0:0:
256,192,144975,1,8,0:0:0:0:
256,192,145050,1,8,0:0:0:0:
256,192,145200,1,0,0:0:0:0:
256,192,145500,1,8,0:0:0:0:
256,192,145650,1,8,0:0:0:0:
256,192,145800,1,0,0:0:0:0:
256,192,145950,1,0,0:0:0:0:
256,192,146100,1,8,0:0:0:0:
256,192,146400,1,0,0:0:0:0:
256,192,146550,1,0,0:0:0:0:
256,192,146625,1,0,0:0:0:0:
256,192,146700,1,8,0:0:0:0:
256,192,147150,1,0,0:0:0:0:
256,192,147300,1,8,0:0:0:0:
256,192,147450,1,8,0:0:0:0:
256,192,147600,1,0,0:0:0:0:
256,192,147675,1,0,0:0:0:0:
256,192,147750,1,0,0:0:0:0:
256,192,147900,1,8,0:0:0:0:
256,192,148200,1,8,0:0:0:0:
256,192,148350,1,8,0:0:0:0:
256,192,148500,1,8,0:0:0:0:
256,192,148575,1,8,0:0:0:0:
256,192,148650,1,8,0:0:0:0:
256,192,148800,1,0,0:0:0:0:
256,192,148950,1,0,0:0:0:0:
256,192,149100,1,8,0:0:0:0:
256,192,149400,1,0,0:0:0:0:
256,192,149550,1,8,0:0:0:0:
256,192,149700,1,8,0:0:0:0:
256,192,149775,1,8,0:0:0:0:
256,192,149850,1,8,0:0:0:0:
256,192,150000,1,0,0:0:0:0:
256,192,150300,1,8,0:0:0:0:
256,192,150450,1,8,0:0:0:0:
256,192,150600,1,0,0:0:0:0:
256,192,150750,1,0,0:0:0:0:
256,192,150900,1,8,0:0:0:0:
256,192,151200,1,8,0:0:0:0:
256,192,151350,1,8,0:0:0:0:
256,192,151425,1,8,0:0:0:0:
256,192,151500,1,0,0:0:0:0:
256,192,151950,1,0,0:0:0:0:
256,192,152100,1,8,0:0:0:0:
256,192,152400,1,8,0:0:0:0:
256,192,152550,1,0,0:0:0:0:
256,192,152625,1,0,0:0:0:0:
256,192,152700,1,0,0:0:0:0:
256,192,152850,1,8,0:0:0:0:
256,192,153000,1,0,0:0:0:0:
256,192,153150,1,0,0:0:0:0:
256,192,153300,1,8,0:0:0:0:
256,192,153600,5,0,0:0:0:0:
256,192,153750,1,8,0:0:0:0:
256,192,153825,1,8,0:0:0:0:
256,192,153900,1,8,0:0:0:0:
256,192,154050,1,0,0:0:0:0:
256,192,154350,1,0,0:0:0:0:
256,192,154500,1,8,0:0:0:0:
256,192,154800,1,0,0:0:0:0:
256,192,154875,1,0,0:0:0:0:
256,192,154950,1,0,0:0:0:0:
256,192,155100,1,8,0:0:0:0:
256,192,155250,1,8,0:0:0:0:
256,192,155400,1,0,0:0:0:0:
256,192,155700,1,8,0:0:0:0:
256,192,156000,1,0,0:0:0:0:
256,192,156150,1,8,0:0:0:0:
256,192,156225,1,8,0:0:0:0:
256,192,156300,1,8,0:0:0:0:
256,192,156450,1,0,0:0:0:0:
256,192,156900,1,8,0:0:0:0:
256,192,157200,1,0,0:0:0:0:
256,192,157275,1,0,0:0:0:0:
256,192,157350,1,0,0:0:0:0:
256,192,157500,1,8,0:0:0:0:
256,192,157650,1,0,0:0:0:0:
256,192,157800,1,8,0:0:0:0:
256,192,157950,1,0,0:0:0:0:
256,192,158100,1,8,0:0:0:0:
256,192,158400,1,0,0:0:0:0:
256,192,158550,1,0,0:0:0:0:
256,192,158700,1,8,0:0:0:0:
256,192,159000,1,8,0:0:0:0:
256,192,159150,1,8,0:0:0:0:
256,192,159300,1,8,0:0:0:0:
256,192,159375,1,8,0:0:0:0:
256,192,159450,1,8,0:0:0:0:
256,192,159600,1,0,0:0:0:0:
256,192,159900,1,8,0:0:0:0:
256,192,160050,1,0,0:0:0:0:
256,192,160500,1,8,0:0:0:0:
256,192,160800,1,8,0:0:0:0:
256,192,160950,1,0,0:0:0:0:
256,192,161025,1,0,0:0:0:0:
256,192,161100,1,0,0:0:0:0:
256,192,161250,1,8,0:0:0:0:
256,192,161550,1,0,0:0:0:0:
256,192,161700,1,8,0:0:0:0:
256,192,161775,1,8,0:0:0:0:
256,192,161850,1,8,0:0:0:0:
256,192,162000,1,0,0:0:0:0:
256,192,162300,1,8,0:0:0:0:
256,192,162600,1,0,0:0:0:0:
256,192,162900,1,8,0:0:0:0:
256,192,163200,1,0,0:0:0:0:
256,192,163350,1,8,0:0:0:0:
256,192,163425,1,8,0:0:0:0:
256,192,163500,1,8,0:0:0:0:
256,192,163650,1,0,0:0:0:0:
256,192,163950,1,0,0:0:0:0:
256,192,164100,1,8,0:0:0:0:
256,192,164400,1,0,0:0:0:0:
256,192,164475,1,0,0:0:0:0:
256,192,164550,1,0,0:0:0:0:
256,192,164700,1,8,0:0:0:0:
256,192,164850,1,8,0:0:0:0:
256,192,165000,1,0,0:0:0:0:
256,192,165150,1,0,0:0:0:0:
256,192,165300,1,8,0:0:0:0:
256,192,165600,1,0,0:0:0:0:
256,192,165750,1,8,0:0:0:0:
256,192,165825,1,8,0:0:0:0:
256,192,165900,1,8,0:0:0:0:
256,192,166050,1,0,0:0:0:0:
256,192,166500,1,8,0:0:0:0:
256,192,166800,1,0,0:0:0:0:
256,192,166875,1,0,0:0:0:0:
256,192,166950,1,0,0:0:0:0:
256,192,167100,1,8,0:0:0:0:
256,192,167250,1,0,0:0:0:0:
256,192,167400,1,8,0:0:0:0:
256,192,167550,1,0,0:0:0:0:
256,192,167700,1,8,0:0:0:0:
256,192,168000,1,0,0:0:0:0:
256,192,168150,1,0,0:0:0:0:
256,192,168300,1,8,0:0:0:0:
256,192,168600,1,0,0:0:0:0:
256,192,168750,1,0,0:0:0:0:
256,192,168900,1,8,0:0:0:0:
256,192,168975,1,8,0:0:0:0:
256,192,169050,1,8,0:0:0:0:
256,192,169200,1,0,0:0:0:0:
256,192,169500,1,8,0:0:0:0:
256,192,169650,1,0,0:0:0:0:
256,192,170100,1,8,0:0:0:0:
256,192,170400,1,8,0:0:0:0:
256,192,170550,1,0,0:0:0:0:
256,192,170625,1,0,0:0:0:0:
256,192,170700,1,0,0:0:0:0:
256,192,170850,1,8,0:0:0:0:
256,192,171150,1,0,0:0:0:0:
256,192,171300,1,8,0:0:0:0:
256,192,171600,1,8,0:0:0:0:
256,192,171675,1,8,0:0:0:0:
256,192,171750,1,8,0:0:0:0:
256,192,171900,1,0,0:0:0:0:
256,192,172050,1,0,0:0:0:0:
256,192,172200,1,8,0:0:0:0:
256,192,172350,1,0,0:0:0:0:
256,192,172500,1,8,0:0:0:0:
256,192,172800,5,0,0:0:0:0:
256,192,172950,1,0,0:0:0:0:
256,192,173025,1,0,0:0:0:0:
256,192,173250,1,0,0:0:0:0:
256,192,173550,1,0,0:0:0:0:
256,192,173850,1,0,0:0:0:0:
256,192,174150,1,0,0:0:0:0:
256,192,174300,1,0,0:0:0:0:
256,192,174450,1,0,0:0:0:0:
256,192,174600,1,0,0:0:0:0:
256,192,174900,1,0,0:0:0:0:
256,192,175200,1,0,0:0:0:0:
256,192,175350,1,0,0:0:0:0:
256,192,175425,1,0,0:0:0:0:
256,192,175650,1,0,0:0:0:0:
256,192,175950,1,0,0:0:0:0:
256,192,176250,1,0,0:0:0:0:
256,192,176550,1,0,0:0:0:0:
256,192,176700,1,0,0:0:0:0:
256,192,176850,1,0,0:0:0:0:
256,192,177000,1,0,0:0:0:0:
256,192,177300,1,0,0:0:0:0:
256,192,177600,1,0,0:0:0:0:
256,192,177750,1,0,0:0:0:0:
256,192,177825,1,0,0:0:0:0:
256,192,178050,1,0,0:0:0:0:
256,192,178350,1,0,0:0:0:0:
256,192,178650,1,0,0:0:0:0:
256,192,178950,1,0,0:0:0:0:
256,192,179100,1,0,0:0:0:0:
256,192,179250,1,0,0:0:0:0:
256,192,179400,1,0,0:0:0:0:
256,192,179700,1,0,0:0:0:0:
256,192,180000,1,0,0:0:0:0:
256,192,180600,1,8,0:0:0:0:
256,192,180900,1,8,0:0:0:0:
256,192,181350,1,0,0:0:0:0:
256,192,181800,1,0,0:0:0:0:
256,192,182100,1,8,0:0:0:0:
256,192,182400,5,0,0:0:0:0:
256,192,182550,1,0,0:0:0:0:
256,192,182700,1,8,0:0:0:0:
256,192,183000,1,0,0:0:0:0:
256,192,183150,1,8,0:0:0:0:
256,192,183225,1,8,0:0:0:0:
256,192,183300,1,8,0:0:0:0:
256,192,183450,1,0,0:0:0:0:
256,192,183600,1,8,0:0:0:0:
256,192,183900,1,8,0:0:0:0:
256,192,184050,1,0,0:0:0:0:
256,192,184200,1,8,0:0:0:0:
256,192,184275,1,8,0:0:0:0:
256,192,184350,1,8,0:0:0:0:
256,192,184500,1,0,0:0:0:0:
256,192,184800,1,8,0:0:0:0:
256,192,184950,1,0,0:0:0:0:
256,192,185100,1,8,0:0:0:0:
256,192,185550,1,0,0:0:0:0:
256,192,185700,1,8,0:0:0:0:
256,192,185850,1,8,0:0:0:0:
256,192,186000,1,0,0:0:0:0:
256,192,186075,1,0,0:0:0:0:
256,192,186150,1,0,0:0:0:0:
256,192,186300,1,8,0:0:0:0:
256,192,186600,1,0,0:0:0:0:
256,192,186750,1,8,0:0:0:0:
256,192,186825,1,0,0:0:0:0:
256,192,186900,1,8,0:0:0:0:
256,192,187200,1,0,0:0:0:0:
256,192,187350,1,0,0:0:0:0:
256,192,187500,1,8,0:0:0:0:
256,192,187800,1,8,0:0:0:0:
256,192,187950,1,0,0:0:0:0:
256,192,188025,1,0,0:0:0:0:
256,192,188100,1,0,0:0:0:0:
256,192,188250,1,8,0:0:0:0:
256,192,188400,1,0,0:0:0:0:
256,192,188700,1,0,0:0:0:0:
256,192,188850,1,8,0:0:0:0:
256,192,189000,1,0,0:0:0:0:
256,192,189075,1,0,0:0:0:0:
256,192,189150,1,0,0:0:0:0:
256,192,189300,1,8,0:0:0:0:
256,192,189600,1,8,0:0:0:0:
256,192,189750,1,0,0:0:0:0:
256,192,189900,1,8,0:0:0:0:
256,192,190350,1,8,0:0:0:0:
256,192,190500,1,0,0:0:0:0:
256,192,190650,1,0,0:0:0:0:
256,192,190800,1,8,0:0:0:0:
256,192,190875,1,8,0:0:0:0:
256,192,190950,1,8,0:0:0:0:
256,192,191100,1,0,0:0:0:0:
256,192,191400,1,8,0:0:0:0:
256,192,191550,1,0,0:0:0:0:
256,192,191625,1,8,0:0:0:0:
256,192,191700,1,0,0:0:0:0:
256,192,192000,1,0,0:0:0:0:
256,192,192150,1,0,0:0:0:0:
256,192,192300,1,8,0:0:0:0:
256,192,192600,1,0,0:0:0:0:
256,192,192750,1,8,0:0:0:0:
256,192,192825,1,8,0:0:0:0:
256,192,192900,1,8,0:0:0:0:
256,192,193050,1,0,0:0:0:0:
256,192,193200,1,8,0:0:0:0:
256,192,193500,1,8,0:0:0:0:
256,192,193650,1,0,0:0:0:0:
256,192,193800,1,8,0:0:0:0:
256,192,193875,1,8,0:0:0:0:
256,192,193950,1,8,0:0:0:0:
256,192,194100,1,0,0:0:0:0:
256,192,194400,1,8,0:0:0:0:
256,192,194550,1,0,0:0:0:0:
256,192,194700,1,8,0:0:0:0:
256,192,195150,1,0,0:0:0:0:
256,192,195300,1,8,0:0:0:0:
256,192,195450,1,8,0:0:0:0:
256,192,195600,1,0,0:0:0:0:
256,192,195675,1,0,0:0:0:0:
256,192,195750,1,0,0:0:0:0:
256,192,195900,1,8,0:0:0:0:
256,192,196200,1,0,0:0:0:0:
256,192,196350,1,8,0:0:0:0:
256,192,196425,1,0,0:0:0:0:
256,192,196500,1,8,0:0:0:0:
256,192,196800,1,0,0:0:0:0:
256,192,196950,1,0,0:0:0:0:
256,192,197100,1,8,0:0:0:0:
256,192,197400,1,8,0:0:0:0:
256,192,197550,1,0,0:0:0:0:
256,192,197625,1,0,0:0:0:0:
256,192,197700,1,0,0:0:0:0:
256,192,197850,1,8,0:0:0:0:
256,192,198000,1,0,0:0:0:0:
256,192,198300,1,0,0:0:0:0:
256,192,198450,1,8,0:0:0:0:
256,192,198600,1,0,0:0:0:0:
256,192,198675,1,0,0:0:0:0:
256,192,198750,1,0,0:0:0:0:
256,192,198900,1,8,0:0:0:0:
256,192,199200,1,0,0:0:0:0:
256,192,199350,1,8,0:0:0:0:
256,192,199425,1,8,0:0:0:0:
256,192,199500,1,8,0:0:0:0:
256,192,199950,1,0,0:0:0:0:
256,192,200100,1,8,0:0:0:0:
256,192,200250,1,8,0:0:0:0:
256,192,200325,1,8,0:0:0:0:
256,192,200400,1,8,0:0:0:0:
256,192,200550,1,0,0:0:0:0:
256,192,200700,1,8,0:0:0:0:
256,192,201000,1,0,0:0:0:0:
256,192,201150,1,8,0:0:0:0:
256,192,201225,1,0,0:0:0:0:
256,192,201300,1,8,0:0:0:0:
256,192,201600,5,8,0:0:0:0:
256,192,201750,1,0,0:0:0:0:
256,192,201825,1,0,0:0:0:0:
256,192,201900,1,0,0:0:0:0:
256,192,202050,1,8,0:0:0:0:
256,192,202350,1,0,0:0:0:0:
256,192,202500,1,8,0:0:0:0:
256,192,202800,1,0,0:0:0:0:
256,192,202875,1,0,0:0:0:0:
256,192,202950,1,0,0:0:0:0:
256,192,203100,1,8,0:0:0:0:
256,192,203250,1,8,0:0:0:0:
256,192,203400,1,0,0:0:0:0:
256,192,203550,1,8,0:0:0:0:
256,192,203700,1,0,0:0:0:0:
256,192,204000,1,8,0:0:0:0:
256,192,204150,1,0,0:0:0:0:
256,192,204300,1,8,0:0:0:0:
256,192,204375,1,8,0:0:0:0:
256,192,204450,1,0,0:0:0:0:
256,192,204900,1,0,0:0:0:0:
256,192,205050,1,0,0:0:0:0:
256,192,205200,1,8,0:0:0:0:
256,192,205275,1,8,0:0:0:0:
256,192,205350,1,8,0:0:0:0:
256,192,205500,1,0,0:0:0:0:
256,192,205800,1,8,0:0:0:0:
256,192,205950,1,0,0:0:0:0:
256,192,206025,1,8,0:0:0:0:
256,192,206100,1,0,0:0:0:0:
256,192,206400,1,0,0:0:0:0:
256,192,206550,1,8,0:0:0:0:
256,192,206625,1,8,0:0:0:0:
256,192,206700,1,8,0:0:0:0:
256,192,206850,1,0,0:0:0:0:
256,192,207150,1,0,0:0:0:0:
256,192,207300,1,8,0:0:0:0:
256,192,207600,1,8,0:0:0:0:
256,192,207675,1,8,0:0:0:0:
256,192,207750,1,8,0:0:0:0:
256,192,207900,1,0,0:0:0:0:
256,192,208050,1,0,0:0:0:0:
256,192,208200,1,8,0:0:0:0:
256,192,208350,1,8,0:0:0:0:
256,192,208500,1,0,0:0:0:0:
256,192,208800,1,0,0:0:0:0:
256,192,208950,1,8,0:0:0:0:
256,192,209100,1,0,0:0:0:0:
256,192,209175,1,0,0:0:0:0:
256,192,209250,1,8,0:0:0:0:
256,192,209700,1,8,0:0:0:0:
256,192,209850,1,8,0:0:0:0:
256,192,210000,1,0,0:0:0:0:
256,192,210075,1,0,0:0:0:0:
256,192,210150,1,0,0:0:0:0:
256,192,210300,1,8,0:0:0:0:
256,192,210600,1,0,0:0:0:0:
256,192,210750,1,8,0:0:0:0:
256,192,210825,1,0,0:0:0:0:
256,192,210900,1,8,0:0:0:0:
256,192,211200,1,8,0:0:0:0:
256,192,211350,1,0,0:0:0:0:
256,192,211425,1,0,0:0:0:0:
256,192,211500,1,0,0:0:0:0:
256,192,211650,1,8,0:0:0:0:
256,192,211950,1,0,0:0:0:0:
256,192,212100,1,8,0:0:0:0:
256,192,212400,1,0,0:0:0:0:
256,192,212475,1,0,0:0:0:0:
256,192,212550,1,0,0:0:0:0:
256,192,212700,1,8,0:0:0:0:
256,192,212850,1,8,0:0:0:0:
256,192,213000,1,0,0:0:0:0:
256,192,213150,1,8,0:0:0:0:
256,192,213300,1,0,0:0:0:0:
256,192,213600,1,8,0:0:0:0:
256,192,213750,1,0,0:0:0:0:
256,192,213900,1,8,0:0:0:0:
256,192,213975,1,8,0:0:0:0:
256,192,214050,1,0,0:0:0:0:
256,192,214500,1,0,0:0:0:0:
256,192,214650,1,8,0:0:0:0:
256,192,214950,1,8,0:0:0:0:
256,192,215100,1,0,0:0:0:0:
256,192,215175,1,0,0:0:0:0:
256,192,215250,1,0,0:0:0:0:
256,192,215400,1,8,0:0:0:0:
256,192,215700,1,8,0:0:0:0:
256,192,215850,1,8,0:0:0:0:
256,192,216000,1,0,0:0:0:0:
256,192,216150,1,8,0:0:0:0:
256,192,216225,1,8,0:0:0:0:
256,192,216300,1,8,0:0:0:0:
256,192,216450,1,0,0:0:0:0:
256,192,216750,1,0,0:0:0:0:
256,192,216900,1,8,0:0:0:0:
256,192,217200,1,8,0:0:0:0:
256,192,217275,1,8,0:0:0:0:
256,192,217350,1,8,0:0:0:0:
256,192,217500,1,0,0:0:0:0:
256,192,217650,1,0,0:0:0:0:
256,192,217800,1,8,0:0:0:0:
256,192,218100,1,0,0:0:0:0:
256,192,218400,1,0,0:0:0:0:
256,192,218550,1,8,0:0:0:0:
256,192,218700,1,0,0:0:0:0:
256,192,218775,1,0,0:0:0:0:
256,192,218850,1,8,0:0:0:0:
256,192,219300,1,8,0:0:0:0:
256,192,219450,1,8,0:0:0:0:
256,192,219600,1,0,0:0:0:0:
256,192,219750,12,0,220500,0:0:0:0:
256,192,220800,5,0,0:0:0:0:
256,192,220950,1,8,0:0:0:0:
256,192,221025,1,8,0:0:0:0:
256,192,221100,1,8,0:0:0:0:
256,192,221250,1,0,0:0:0:0:
256,192,221400,1,0,0:0:0:0:
256,192,221700,1,8,0:0:0:0:
256,192,221775,1,8,0:0:0:0:
256,192,221850,1,8,0:0:0:0:
256,192,222000,1,0,0:0:0:0:
256,192,222450,1,8,0:0:0:0:
256,192,222525,1,8,0:0:0:0:
256,192,222600,1,8,0:0:0:0:
256,192,222750,1,0,0:0:0:0:
256,192,222900,1,8,0:0:0:0:
256,192,223200,1,8,0:0:0:0:
256,192,223350,1,0,0:0:0:0:
256,192,223425,1,0,0:0:0:0:
256,192,223500,1,0,0:0:0:0:
256,192,223650,1,8,0:0:0:0:
256,192,223800,1,8,0:0:0:0:
256,192,224100,1,0,0:0:0:0:
256,192,224175,1,0,0:0:0:0:
256,192,224250,1,0,0:0:0:0:
256,192,224400,1,8,0:0:0:0:
256,192,224850,1,0,0:0:0:0:
256,192,224925,1,0,0:0:0:0:
256,192,225000,1,0,0:0:0:0:
256,192,225150,1,8,0:0:0:0:
256,192,225300,1,0,0:0:0:0:
256,192,225600,1,0,0:0:0:0:
256,192,225750,1,8,0:0:0:0:
256,192,225825,1,8,0:0:0:0:
256,192,225900,1,8,0:0:0:0:
256,192,226050,1,0,0:0:0:0:
256,192,226200,1,0,0:0:0:0:
256,192,226500,1,8,0:0:0:0:
256,192,226575,1,8,0:0:0:0:
256,192,226650,1,8,0:0:0:0:
256,192,226800,1,0,0:0:0:0:
256,192,227250,1,8,0:0:0:0:
256,192,227325,1,8,0:0:0:0:
256,192,227400,1,8,0:0:0:0:
256,192,227550,1,0,0:0:0:0:
256,192,227700,1,8,0:0:0:0:
256,192,228000,1,8,0:0:0:0:
256,192,228150,1,0,0:0:0:0:
256,192,228225,1,0,0:0:0:0:
256,192,228300,1,0,0:0:0:0:
256,192,228450,1,8,0:0:0:0:
256,192,228600,1,8,0:0:0:0:
256,192,228900,1,0,0:0:0:0:
256,192,228975,1,0,0:0:0:0:
256,192,229050,1,0,0:0:0:0:
256,192,229200,1,8,0:0:0:0:
256,192,229650,1,0,0:0:0:0:
256,192,229725,1,0,0:0:0:0:
256,192,229800,1,0,0:0:0:0:
256,192,229950,1,8,0:0:0:0:
256,192,230100,1,0,0:0:0:0:
256,192,230400,1,0,0:0:0:0:
256,192,230550,1,8,0:0:0:0:
256,192,230625,1,8,0:0:0:0:
256,192,230700,1,8,0:0:0:0:
256,192,230850,1,0,0:0:0:0:
256,192,231000,1,0,0:0:0:0:
256,192,231300,1,8,0:0:0:0:
256,192,231375,1,0,0:0:0:0:
256,192,231450,1,8,0:0:0:0:
256,192,231600,1,0,0:0:0:0:
256,192,232050,1,8,0:0:0:0:
256,192,232125,1,8,0:0:0:0:
256,192,232200,1,8,0:0:0:0:
256,192,232350,1,0,0:0:0:0:
256,192,232500,1,8,0:0:0:0:
256,192,232800,1,8,0:0:0:0:
256,192,232950,1,0,0:0:0:0:
256,192,233025,1,0,0:0:0:0:
256,192,233100,1,0,0:0:0:0:
256,192,233250,1,8,0:0:0:0:
256,192,233400,1,8,0:0:0:0:
256,192,233700,1,0,0:0:0:0:
256,192,233775,1,8,0:0:0:0:
256,192,233850,1,0,0:0:0:0:
256,192,234000,1,8,0:0:0:0:
256,192,234450,1,0,0:0:0:0:
256,192,234525,1,0,0:0:0:0:
256,192,234600,1,0,0:0:0:0:
256,192,234750,1,8,0:0:0:0:
256,192,234900,1,0,0:0:0:0:
256,192,235200,1,0,0:0:0:0:
256,192,235350,1,8,0:0:0:0:
256,192,235425,1,8,0:0:0:0:
256,192,235500,1,8,0:0:0:0:
256,192,235650,1,0,0:0:0:0:
256,192,235800,1,0,0:0:0:0:
256,192,236100,1,8,0:0:0:0:
256,192,236175,1,0,0:0:0:0:
256,192,236250,1,8,0:0:0:0:
256,192,236400,1,0,0:0:0:0:
256,192,236850,1,8,0:0:0:0:
256,192,236925,1,8,0:0:0:0:
256,192,237000,1,8,0:0:0:0:
256,192,237150,1,0,0:0:0:0:
256,192,237300,1,8,0:0:0:0:
256,192,237600,1,8,0:0:0:0:
256,192,237750,1,0,0:0:0:0:
256,192,237825,1,0,0:0:0:0:
256,192,237900,1,0,0:0:0:0:
256,192,238050,1,8,0:0:0:0:
256,192,238200,1,8,0:0:0:0:
256,192,238500,1,0,0:0:0:0:
256,192,238575,1,8,0:0:0:0:
256,192,238650,1,0,0:0:0:0:
256,192,238800,1,8,0:0:0:0:
256,192,239250,1,0,0:0:0:0:
256,192,239325,1,0,0:0:0:0:
256,192,239400,1,0,0:0:0:0:
256,192,239550,1,8,0:0:0:0:
256,192,239700,1,0,0:0:0:0:
256,192,240000,12,0,248400,0:0:0:0:
