osu file format v14

[General]
AudioFilename: audio.ogg
AudioLeadIn: 0
PreviewTime: 38362
Countdown: 0
SampleSet: Normal
StackLeniency: 0.7
Mode: 1
LetterboxInBreaks: 0
WidescreenStoryboard: 0

[Editor]
Bookmarks: 9600,19200,28800,38400,67200,86400,105600,115200,124800,134400,153600,172800,182400,201600,220800,240000,248400
DistanceSpacing: 1.3
BeatDivisor: 4
GridSize: 32
TimelineZoom: 2.1

[Metadata]
Title:Cloud Nine
TitleUnicode:Cloud Nine
Artist:Machine Girl
ArtistUnicode:Machine Girl
Creator:ZTH
Version:Inner Oni
Source:Neon White
Tags:electronic 9 The Wicked Heart Video Game Instrumental hardcore breaks Breakcore Teezel maxie Horiiizon
BeatmapID:3916436
BeatmapSetID:1900011

[Difficulty]
HPDrainRate:5
CircleSize:5
OverallDifficulty:7
ApproachRate:5
SliderMultiplier:1.4
SliderTickRate:1

[Events]
//Background and Video events
0,0,"FPGohA4aMAIxHaV.jpeg",0,-70
//Break Periods
//Storyboard Layer 0 (Background)
//Storyboard Layer 1 (Fail)
//Storyboard Layer 2 (Pass)
//Storyboard Layer 3 (Foreground)
//Storyboard Layer 4 (Overlay)
//Storyboard Sound Samples

[TimingPoints]
8400,300,4,1,0,40,1,8
8400,-142.857142857143,4,1,0,40,0,0
9595,-142.857142857143,4,1,0,77,0,0
19347,-141.906873614191,4,1,0,77,0,0
19422,-141.436464088398,4,1,0,77,0,0
19497,-140.969162995595,4,1,0,77,0,0
19647,-140.043763676149,4,1,0,77,0,0
19797,-139.130434782609,4,1,0,77,0,0
19872,-138.678223185265,4,1,0,77,0,0
19947,-138.228941684665,4,1,0,77,0,0
20022,-137.78256189451,4,1,0,77,0,0
20097,-137.339055793991,4,1,0,77,0,0
20247,-136.460554371002,4,1,0,77,0,0
20397,-135.593220338983,4,1,0,77,0,0
20547,-134.736842105263,4,1,0,77,0,0
20622,-134.312696747114,4,1,0,77,0,0
20697,-133.891213389121,4,1,0,77,0,0
20847,-133.056133056133,4,1,0,77,0,0
20997,-132.231404958678,4,1,0,77,0,0
21072,-131.822863027806,4,1,0,77,0,0
21147,-131.416837782341,4,1,0,77,0,0
21297,-130.612244897959,4,1,0,77,0,0
21372,-130.213631739573,4,1,0,77,0,0
21447,-129.817444219067,4,1,0,77,0,0
21597,-129.032258064516,4,1,0,77,0,0
21747,-128.256513026052,4,1,0,77,0,0
21822,-127.872127872128,4,1,0,77,0,0
21897,-127.490039840637,4,1,0,77,0,0
22047,-126.732673267327,4,1,0,77,0,0
22197,-125.984251968504,4,1,0,77,0,0
22272,-125.613346418057,4,1,0,77,0,0
22347,-125.244618395303,4,1,0,77,0,0
22422,-124.878048780488,4,1,0,77,0,0
22497,-124.513618677043,4,1,0,77,0,0
22647,-123.791102514507,4,1,0,77,0,0
22797,-123.076923076923,4,1,0,77,0,0
22947,-122.370936902486,4,1,0,77,0,0
23022,-122.020972354623,4,1,0,77,0,0
23097,-121.673003802281,4,1,0,77,0,0
23172,-121.327014218009,4,1,0,77,0,0
23247,-120.982986767486,4,1,0,77,0,0
23397,-120.300751879699,4,1,0,77,0,0
23472,-119.962511715089,4,1,0,77,0,0
23547,-119.626168224299,4,1,0,77,0,0
23697,-118.959107806691,4,1,0,77,0,0
23772,-118.628359592215,4,1,0,77,0,0
23847,-118.299445471349,4,1,0,77,0,0
23997,-117.647058823529,4,1,0,77,0,0
24147,-117.001828153565,4,1,0,77,0,0
24222,-116.681859617138,4,1,0,77,0,0
24297,-116.363636363636,4,1,0,77,0,0
24447,-115.732368896926,4,1,0,77,0,0
24597,-115.107913669065,4,1,0,77,0,0
24672,-114.798206278027,4,1,0,77,0,0
24747,-114.490161001789,4,1,0,77,0,0
24822,-114.183764495986,4,1,0,77,0,0
24897,-113.879003558719,4,1,0,77,0,0
25047,-113.274336283186,4,1,0,77,0,0
25197,-112.676056338028,4,1,0,77,0,0
25272,-112.379280070237,4,1,0,77,0,0
25347,-112.084063047285,4,1,0,77,0,0
25422,-111.7903930131,4,1,0,77,0,0
25497,-111.498257839721,4,1,0,77,0,0
25647,-110.918544194107,4,1,0,77,0,0
25797,-110.344827586207,4,1,0,77,0,0
25872,-110.06018916595,4,1,0,77,0,0
25947,-109.777015437393,4,1,0,77,0,0
26097,-109.215017064846,4,1,0,77,0,0
26172,-108.936170212766,4,1,0,77,0,0
26247,-108.658743633277,4,1,0,77,0,0
26397,-108.108108108108,4,1,0,77,0,0
26547,-107.563025210084,4,1,0,77,0,0
26622,-107.292539815591,4,1,0,77,0,0
26697,-107.023411371237,4,1,0,77,0,0
26847,-106.48918469218,4,1,0,77,0,0
26997,-105.960264900662,4,1,0,77,0,0
27072,-105.697770437655,4,1,0,77,0,0
27147,-105.436573311367,4,1,0,77,0,0
27222,-105.176663927691,4,1,0,77,0,0
27297,-104.918032786885,4,1,0,77,0,0
27447,-104.404567699837,4,1,0,77,0,0
27597,-103.896103896104,4,1,0,77,0,0
27747,-103.392568659128,4,1,0,77,0,0
27822,-103.142626913779,4,1,0,77,0,0
27897,-102.893890675241,4,1,0,77,0,0
27972,-102.646351242983,4,1,0,77,0,0
28047,-102.4,4,1,0,77,0,0
28197,-101.910828025478,4,1,0,77,0,0
28272,-101.667990468626,4,1,0,77,0,0
28347,-101.426307448494,4,1,0,77,0,0
28422,-101.185770750988,4,1,0,77,0,0
28497,-100.946372239748,4,1,0,77,0,0
28547,-100.787401574803,4,1,0,77,0,0
28597,-100.62893081761,4,1,0,77,0,0
28647,-100.470957613815,4,1,0,77,0,0
28797,-100,4,1,0,82,0,0
67200,-125,4,1,0,82,0,0
75597,-127.478753541076,4,1,0,82,0,0
75747,-130.057803468208,4,1,0,82,0,0
76197,-138.461538461538,4,1,0,82,0,0
76497,-144.694533762058,4,1,0,82,0,0
76797,-151.515151515152,4,1,0,77,0,0
78522,-148.975791433892,4,1,0,77,0,0
78597,-146.520146520147,4,1,0,77,0,0
78672,-144.144144144144,4,1,0,77,0,0
78747,-141.843971631206,4,1,0,77,0,0
78822,-139.616055846422,4,1,0,77,0,0
78897,-137.45704467354,4,1,0,77,0,0
78972,-135.363790186125,4,1,0,77,0,0
79047,-133.333333333333,4,1,0,77,0,0
79200,-153.846153846154,4,1,0,77,0,0
80847,-151.515151515152,4,1,0,77,0,0
80922,-148.975791433892,4,1,0,77,0,0
80997,-146.520146520147,4,1,0,77,0,0
81072,-144.144144144144,4,1,0,77,0,0
81147,-141.843971631206,4,1,0,77,0,0
81222,-139.616055846422,4,1,0,77,0,0
81297,-137.45704467354,4,1,0,77,0,0
81372,-135.363790186125,4,1,0,77,0,0
81447,-133.333333333333,4,1,0,77,0,0
81600,-151.515151515152,4,1,0,77,0,0
83322,-148.975791433892,4,1,0,77,0,0
83397,-146.520146520147,4,1,0,77,0,0
83472,-144.144144144144,4,1,0,77,0,0
83547,-141.843971631206,4,1,0,77,0,0
83622,-139.616055846422,4,1,0,77,0,0
83697,-137.45704467354,4,1,0,77,0,0
83772,-135.363790186125,4,1,0,77,0,0
83847,-133.333333333333,4,1,0,77,0,0
84000,-151.515151515152,4,1,0,77,0,0
85272,-148.148148148148,4,1,0,77,0,0
85347,-144.927536231884,4,1,0,77,0,0
85422,-141.843971631206,4,1,0,77,0,0
85497,-138.888888888889,4,1,0,77,0,0
85572,-136.054421768707,4,1,0,77,0,0
85647,-133.333333333333,4,1,0,77,0,0
85722,-130.718954248366,4,1,0,77,0,0
85797,-128.205128205128,4,1,0,77,0,0
85872,-125.786163522013,4,1,0,78,0,0
85947,-123.456790123457,4,1,0,79,0,0
86022,-121.212121212121,4,1,0,80,0,0
86097,-119.047619047619,4,1,0,81,0,0
86197,-116.279069767442,4,1,0,82,0,0
86297,-113.636363636364,4,1,0,83,0,0
86397,-111.111111111111,4,1,0,84,0,0
86400,-111.111111111111,4,1,0,85,0,1
95172,-112.14953271028,4,1,0,85,0,1
95247,-113.207547169811,4,1,0,85,0,1
95322,-114.285714285714,4,1,0,85,0,1
95397,-115.384615384615,4,1,0,85,0,1
95472,-116.504854368932,4,1,0,85,0,1
95547,-117.647058823529,4,1,0,85,0,1
95622,-118.811881188119,4,1,0,85,0,1
95697,-120,4,1,0,85,0,1
95772,-121.212121212121,4,1,0,85,0,1
95847,-122.448979591837,4,1,0,85,0,1
95922,-123.711340206186,4,1,0,85,0,1
95997,-125,4,1,0,85,0,1
105600,-125,4,1,0,85,0,0
105897,-127.226463104326,4,1,0,72,0,0
106197,-129.533678756477,4,1,0,72,0,0
106497,-131.926121372032,4,1,0,72,0,0
106797,-134.408602150538,4,1,0,72,0,0
107097,-136.986301369863,4,1,0,72,0,0
107397,-139.664804469274,4,1,0,72,0,0
107697,-142.450142450142,4,1,0,72,0,0
107997,-145.348837209302,4,1,0,72,0,0
108297,-148.367952522255,4,1,0,72,0,0
108597,-151.515151515152,4,1,0,72,0,0
108897,-154.798761609907,4,1,0,72,0,0
109197,-158.227848101266,4,1,0,72,0,0
109497,-161.812297734628,4,1,0,72,0,0
109797,-165.562913907285,4,1,0,72,0,0
110097,-169.491525423729,4,1,0,72,0,0
110397,-173.611111111111,4,1,0,72,0,0
110697,-177.935943060498,4,1,0,72,0,0
110997,-182.481751824818,4,1,0,72,0,0
111297,-187.265917602996,4,1,0,72,0,0
111597,-192.307692307692,4,1,0,72,0,0
111897,-197.628458498024,4,1,0,72,0,0
112197,-203.252032520325,4,1,0,72,0,0
112497,-209.205020920502,4,1,0,72,0,0
112797,-215.51724137931,4,1,0,72,0,0
113097,-222.222222222222,4,1,0,72,0,0
113397,-229.357798165138,4,1,0,72,0,0
113697,-236.96682464455,4,1,0,72,0,0
113997,-245.098039215686,4,1,0,72,0,0
114297,-253.807106598985,4,1,0,72,0,0
114597,-263.157894736842,4,1,0,72,0,0
115197,-138.888888888889,4,1,0,77,0,0
124197,-133.689839572193,4,1,0,77,0,0
124347,-128.865979381443,4,1,0,77,0,0
124497,-124.378109452736,4,1,0,77,0,0
124647,-120.192307692308,4,1,0,77,0,0
124797,-116.279069767442,4,1,0,77,0,0
133897,-113.207547169811,4,1,0,77,0,0
133947,-111.731843575419,4,1,0,77,0,0
133997,-110.294117647059,4,1,0,77,0,0
134047,-108.892921960073,4,1,0,77,0,0
134097,-107.52688172043,4,1,0,78,0,0
134172,-105.540897097625,4,1,0,79,0,0
134247,-103.626943005181,4,1,0,80,0,0
134322,-101.781170483461,4,1,0,81,0,0
134397,-100,4,1,0,82,0,0
172297,-100,4,1,0,81,0,0
172347,-100,4,1,0,80,0,0
172397,-100,4,1,0,79,0,0
172447,-100,4,1,0,78,0,0
172497,-100,4,1,0,77,0,0
172572,-100,4,1,0,76,0,0
172647,-100,4,1,0,75,0,0
172797,-100,4,1,0,72,0,0
172947,-100.90393104898,4,1,0,72,0,0
173022,-101.362052581565,4,1,0,72,0,0
173247,-102.761721258831,4,1,0,72,0,0
173547,-104.689203925845,4,1,0,72,0,0
173847,-106.690375639031,4,1,0,72,0,0
173997,-107.719928186715,4,1,0,72,0,0
174147,-108.769544527532,4,1,0,72,0,0
174297,-109.839816933638,4,1,0,72,0,0
174447,-110.931361220245,4,1,0,72,0,0
174597,-112.044817927171,4,1,0,72,0,0
174897,-114.340161981896,4,1,0,72,0,0
175197,-116.731517509728,4,1,0,72,0,0
175347,-117.965101990661,4,1,0,72,0,0
175422,-118.591723285979,4,1,0,72,0,0
175647,-120.512176751193,4,1,0,72,0,0
175947,-123.171670515781,4,1,0,72,0,0
176247,-125.951193912359,4,1,0,72,0,0
176397,-127.388535031847,4,1,0,72,0,0
176547,-128.859060402685,4,1,0,72,0,0
176697,-130.363932645301,4,1,0,72,0,0
176847,-131.904369332234,4,1,0,72,0,0
176997,-133.481646273637,4,1,0,72,0,0
177297,-136.752136752137,4,1,0,72,0,0
177597,-140.18691588785,4,1,0,72,0,0
177747,-141.969831410825,4,1,0,72,0,0
177822,-142.878404524483,4,1,0,72,0,0
178047,-145.675265553869,4,1,0,72,0,0
178347,-149.5793081957,4,1,0,72,0,0
178647,-153.698366954851,4,1,0,72,0,0
178797,-155.844155844156,4,1,0,72,0,0
178947,-158.050707935463,4,1,0,72,0,0
179097,-160.320641282565,4,1,0,72,0,0
179247,-162.656726533379,4,1,0,72,0,0
179397,-165.061898211829,4,1,0,72,0,0
179697,-170.092133238838,4,1,0,72,0,0
179997,-175.438596491228,4,1,0,72,0,0
180597,-175.438596491228,4,1,0,72,0,0
182395,-111.111111111111,4,1,0,82,0,0
201600,-111.111111111111,4,1,0,82,0,1
219745,-111.111111111111,4,1,0,82,0,1
219750,-80,4,1,0,67,0,0
220797,-100,4,1,0,82,0,0
220872,-100.538599640934,4,1,0,82,0,0
220947,-101.083032490975,4,1,0,82,0,0
221022,-101.633393829401,4,1,0,82,0,0
221097,-102.189781021898,4,1,0,82,0,0
221172,-102.752293577982,4,1,0,82,0,0
221247,-103.321033210332,4,1,0,82,0,0
221322,-103.896103896104,4,1,0,82,0,0
221397,-104.477611940299,4,1,0,82,0,0
221472,-105.065666041276,4,1,0,82,0,0
221547,-105.660377358491,4,1,0,82,0,0
221622,-106.261859582543,4,1,0,82,0,0
221697,-106.870229007634,4,1,0,82,0,0
221772,-107.485604606526,4,1,0,82,0,0
221847,-108.108108108108,4,1,0,82,0,0
221997,-101.522842639594,4,1,0,82,0,0
222072,-102.07801676996,4,1,0,82,0,0
222147,-102.639296187683,4,1,0,82,0,0
222222,-103.206782159971,4,1,0,82,0,0
222297,-103.780578206079,4,1,0,82,0,0
222372,-104.360790160268,4,1,0,82,0,0
222447,-104.947526236882,4,1,0,82,0,0
222522,-105.540897097625,4,1,0,82,0,0
222597,-106.141015921152,4,1,0,82,0,0
222672,-106.747998475029,4,1,0,82,0,0
222747,-107.361963190184,4,1,0,82,0,0
222822,-107.983031237948,4,1,0,82,0,0
222897,-108.611326609775,4,1,0,82,0,0
222972,-109.246976199766,4,1,0,82,0,0
223047,-109.89010989011,4,1,0,82,0,0
223197,-103.092783505155,4,1,0,82,0,0
223272,-103.665309144761,4,1,0,82,0,0
223347,-104.244229337305,4,1,0,82,0,0
223422,-104.829651815799,4,1,0,82,0,0
223497,-105.421686746988,4,1,0,82,0,0
223572,-106.020446800454,4,1,0,82,0,0
223647,-106.626047220107,4,1,0,82,0,0
223722,-107.238605898123,4,1,0,82,0,0
223797,-107.858243451464,4,1,0,82,0,0
223872,-108.485083301046,4,1,0,82,0,0
223947,-109.119251753702,4,1,0,82,0,0
224022,-109.760878087025,4,1,0,82,0,0
224097,-110.410094637224,4,1,0,82,0,0
224172,-111.067036890123,4,1,0,82,0,0
224247,-111.731843575419,4,1,0,82,0,0
224397,-104.712041884817,4,1,0,82,0,0
224472,-105.302745393005,4,1,0,82,0,0
224547,-105.90015128593,4,1,0,82,0,0
224622,-106.504374286801,4,1,0,82,0,0
224697,-107.115531752104,4,1,0,82,0,0
224772,-107.733743747595,4,1,0,82,0,0
224847,-108.359133126935,4,1,0,82,0,0
224922,-108.991825613079,4,1,0,82,0,0
224997,-109.631949882537,4,1,0,82,0,0
225072,-110.279637652619,4,1,0,82,0,0
225147,-110.935023771791,4,1,0,82,0,0
225222,-111.598246313272,4,1,0,82,0,0
225297,-112.269446672013,4,1,0,82,0,0
225372,-112.948769665188,4,1,0,82,0,0
225447,-113.636363636364,4,1,0,82,0,0
225597,-106.382978723404,4,1,0,82,0,0
225672,-106.992739778372,4,1,0,82,0,0
225747,-107.6095311299,4,1,0,82,0,0
225822,-108.233475067646,4,1,0,82,0,0
225897,-108.864696734059,4,1,0,82,0,0
225972,-109.503324208056,4,1,0,82,0,0
226047,-110.14948859166,4,1,0,82,0,0
226122,-110.803324099723,4,1,0,82,0,0
226197,-111.464968152866,4,1,0,82,0,0
226272,-112.134561473769,4,1,0,82,0,0
226347,-112.812248186946,4,1,0,82,0,0
226422,-113.498175922173,4,1,0,82,0,0
226497,-114.192495921697,4,1,0,82,0,0
226572,-114.895363151416,4,1,0,82,0,0
226647,-115.606936416185,4,1,0,82,0,0
226797,-108.108108108108,4,1,0,82,0,0
226872,-108.73786407767,4,1,0,82,0,0
226947,-109.375,4,1,0,82,0,0
227022,-110.019646365422,4,1,0,82,0,0
227097,-110.671936758893,4,1,0,82,0,0
227172,-111.332007952286,4,1,0,82,0,0
227247,-112,4,1,0,82,0,0
227322,-112.676056338028,4,1,0,82,0,0
227397,-113.36032388664,4,1,0,82,0,0
227472,-114.052953156823,4,1,0,82,0,0
227547,-114.754098360656,4,1,0,82,0,0
227622,-115.463917525773,4,1,0,82,0,0
227697,-116.182572614108,4,1,0,82,0,0
227772,-116.910229645094,4,1,0,82,0,0
227847,-117.647058823529,4,1,0,82,0,0
227997,-109.89010989011,4,1,0,82,0,0
228072,-110.540860639558,4,1,0,82,0,0
228147,-111.19936457506,4,1,0,82,0,0
228222,-111.865761086696,4,1,0,82,0,0
228297,-112.540192926045,4,1,0,82,0,0
228372,-113.222806308128,4,1,0,82,0,0
228447,-113.913751017087,4,1,0,82,0,0
228522,-114.613180515759,4,1,0,82,0,0
228597,-115.321252059308,4,1,0,82,0,0
228672,-116.038126813096,4,1,0,82,0,0
228747,-116.763969974979,4,1,0,82,0,0
228822,-117.498950902224,4,1,0,82,0,0
228897,-118.243243243243,4,1,0,82,0,0
228972,-118.997025074373,4,1,0,82,0,0
229047,-119.760479041916,4,1,0,82,0,0
229197,-111.731843575419,4,1,0,82,0,0
229272,-112.404656764352,4,1,0,82,0,0
229347,-113.085621970921,4,1,0,82,0,0
229422,-113.774888256806,4,1,0,82,0,0
229497,-114.472608340147,4,1,0,82,0,0
229572,-115.17893870835,4,1,0,82,0,0
229647,-115.894039735099,4,1,0,82,0,0
229722,-116.618075801749,4,1,0,82,0,0
229797,-117.351215423303,4,1,0,82,0,0
229872,-118.093631379165,4,1,0,82,0,0
229947,-118.845500848896,4,1,0,82,0,0
230022,-119.607005553182,4,1,0,82,0,0
230097,-120.378331900258,4,1,0,82,0,0
230172,-121.159671138035,4,1,0,82,0,0
230247,-121.951219512195,4,1,0,82,0,0
230397,-113.636363636364,4,1,0,82,0,0
230472,-114.332380563495,4,1,0,82,0,0
230547,-115.036976170912,4,1,0,82,0,0
230622,-115.750310045473,4,1,0,82,0,0
230697,-116.472545757072,4,1,0,82,0,0
230772,-117.203850983675,4,1,0,82,0,0
230847,-117.944397641112,4,1,0,82,0,0
230922,-118.694362017804,4,1,0,82,0,0
230997,-119.453924914676,4,1,0,82,0,0
231072,-120.223271790468,4,1,0,82,0,0
231147,-121.002592912705,4,1,0,82,0,0
231222,-121.792083514572,4,1,0,82,0,0
231297,-122.591943957968,4,1,0,82,0,0
231372,-123.402379903041,4,1,0,82,0,0
231447,-124.223602484472,4,1,0,82,0,0
231597,-115.606936416185,4,1,0,82,0,0
231672,-116.327378479435,4,1,0,82,0,0
231747,-117.056856187291,4,1,0,82,0,0
231822,-117.795540597392,4,1,0,82,0,0
231897,-118.543607112616,4,1,0,82,0,0
231972,-119.30123561994,4,1,0,82,0,0
232047,-120.068610634648,4,1,0,82,0,0
232122,-120.845921450151,4,1,0,82,0,0
232197,-121.633362293658,4,1,0,82,0,0
232272,-122.431132487976,4,1,0,82,0,0
232347,-123.239436619718,4,1,0,82,0,0
232422,-124.058484714222,4,1,0,82,0,0
232497,-124.888492417484,4,1,0,82,0,0
232572,-125.729681185451,4,1,0,82,0,0
232647,-126.582278481013,4,1,0,82,0,0
232797,-117.647058823529,4,1,0,82,0,0
232872,-118.393234672304,4,1,0,82,0,0
232947,-119.148936170213,4,1,0,82,0,0
233022,-119.914346895075,4,1,0,82,0,0
233097,-120.689655172414,4,1,0,82,0,0
233172,-121.475054229935,4,1,0,82,0,0
233247,-122.270742358079,4,1,0,82,0,0
233322,-123.076923076923,4,1,0,82,0,0
233397,-123.893805309735,4,1,0,82,0,0
233472,-124.721603563474,4,1,0,82,0,0
233547,-125.560538116592,4,1,0,82,0,0
233622,-126.410835214447,4,1,0,82,0,0
233697,-127.272727272727,4,1,0,82,0,0
233772,-128.146453089245,4,1,0,82,0,0
233847,-129.032258064516,4,1,0,82,0,0
233997,-119.760479041916,4,1,0,82,0,0
234072,-120.533792509686,4,1,0,82,0,0
234147,-121.317157712305,4,1,0,82,0,0
234222,-122.110771914522,4,1,0,82,0,0
234297,-122.914837576822,4,1,0,82,0,0
234372,-123.729562527618,4,1,0,82,0,0
234447,-124.555160142349,4,1,0,82,0,0
234522,-125.391849529781,4,1,0,82,0,0
234597,-126.239855725879,4,1,0,82,0,0
234672,-127.099409895597,4,1,0,82,0,0
234747,-127.970749542962,4,1,0,82,0,0
234822,-128.854118729867,4,1,0,82,0,0
234897,-129.749768303985,4,1,0,82,0,0
234972,-130.657956136258,4,1,0,82,0,0
235047,-131.578947368421,4,1,0,82,0,0
235197,-121.951219512195,4,1,0,82,0,0
235272,-122.753178430513,4,1,0,82,0,0
235347,-123.565754633716,4,1,0,82,0,0
235422,-124.389160373167,4,1,0,82,0,0
235497,-125.223613595707,4,1,0,82,0,0
235572,-126.069338135975,4,1,0,82,0,0
235647,-126.926563916591,4,1,0,82,0,0
235722,-127.79552715655,4,1,0,82,0,0
235797,-128.676470588235,4,1,0,82,0,0
235872,-129.56964368348,4,1,0,82,0,0
235947,-130.475302889096,4,1,0,82,0,0
236022,-131.39371187236,4,1,0,82,0,0
236097,-132.325141776938,4,1,0,82,0,0
236172,-133.269871489767,4,1,0,82,0,0
236247,-134.228187919463,4,1,0,82,0,0
236397,-124.223602484472,4,1,0,82,0,0
236472,-125.055828494864,4,1,0,82,0,0
236547,-125.89928057554,4,1,0,82,0,0
236622,-126.75418741512,4,1,0,82,0,0
236697,-127.620783956244,4,1,0,82,0,0
236772,-128.499311610831,4,1,0,82,0,0
236847,-129.390018484288,4,1,0,82,0,0
236922,-130.293159609121,4,1,0,82,0,0
236997,-131.208997188379,4,1,0,82,0,0
237072,-132.137800849457,4,1,0,82,0,0
237147,-133.079847908745,4,1,0,82,0,0
237222,-134.035423647678,4,1,0,82,0,0
237297,-135.004821600771,4,1,0,82,0,0
237372,-135.988343856241,4,1,0,82,0,0
237447,-136.986301369863,4,1,0,82,0,0
237597,-126.582278481013,4,1,0,82,0,0
237672,-127.446517979062,4,1,0,82,0,0
237747,-128.322639780018,4,1,0,82,0,0
237822,-129.21089063221,4,1,0,82,0,0
237897,-130.111524163569,4,1,0,82,0,0
237972,-131.02480112307,4,1,0,82,0,0
238047,-131.950989632422,4,1,0,82,0,0
238122,-132.890365448505,4,1,0,82,0,0
238197,-133.843212237094,4,1,0,82,0,0
238272,-134.80982185845,4,1,0,82,0,0
238347,-135.790494665373,4,1,0,82,0,0
238422,-136.785539814362,4,1,0,82,0,0
238497,-137.795275590551,4,1,0,82,0,0
238572,-138.820029747149,4,1,0,82,0,0
238647,-139.86013986014,4,1,0,82,0,0
238797,-129.032258064516,4,1,0,82,0,0
238872,-129.930394431555,4,1,0,82,0,0
238947,-130.841121495327,4,1,0,82,0,0
239022,-131.764705882353,4,1,0,82,0,0
239097,-132.701421800948,4,1,0,82,0,0
239172,-133.651551312649,4,1,0,82,0,0
239247,-134.615384615385,4,1,0,82,0,0
239322,-135.593220338983,4,1,0,82,0,0
239397,-136.585365853659,4,1,0,82,0,0
239472,-137.592137592138,4,1,0,82,0,0
239547,-138.613861386139,4,1,0,82,0,0
239622,-139.650872817955,4,1,0,82,0,0
239697,-140.70351758794,4,1,0,82,0,0
239772,-141.772151898734,4,1,0,82,0,0
239847,-142.857142857143,4,1,0,82,0,0
239996,-131.578947368421,4,1,0,67,0,0
240300,-131.578947368421,4,1,0,65,0,0
240600,-131.578947368421,4,1,0,63,0,0
240900,-131.578947368421,4,1,0,61,0,0
241200,-131.578947368421,4,1,0,59,0,0
241500,-131.578947368421,4,1,0,57,0,0
241800,-131.578947368421,4,1,0,55,0,0
242100,-131.578947368421,4,1,0,53,0,0
242400,-131.578947368421,4,1,0,51,0,0
242700,-131.578947368421,4,1,0,49,0,0
243000,-131.578947368421,4,1,0,47,0,0
243300,-131.578947368421,4,1,0,45,0,0
243600,-131.578947368421,4,1,0,43,0,0
243900,-131.578947368421,4,1,0,41,0,0
244200,-131.578947368421,4,1,0,39,0,0
244500,-131.578947368421,4,1,0,37,0,0
244800,-131.578947368421,4,1,0,35,0,0
245100,-131.578947368421,4,1,0,33,0,0
245400,-131.578947368421,4,1,0,31,0,0
245700,-131.578947368421,4,1,0,29,0,0
246000,-131.578947368421,4,1,0,27,0,0
246300,-131.578947368421,4,1,0,25,0,0
246600,-131.578947368421,4,1,0,23,0,0
246900,-131.578947368421,4,1,0,21,0,0
247200,-131.578947368421,4,1,0,19,0,0
247500,-131.578947368421,4,1,0,17,0,0
247800,-131.578947368421,4,1,0,15,0,0
248100,-131.578947368421,4,1,0,13,0,0
248400,-131.578947368421,4,1,0,11,0,0

[HitObjects]
266,195,9600,5,0,0:0:0:0:
266,195,9750,1,0,0:0:0:0:
266,195,9825,1,0,0:0:0:0:
266,195,9900,1,8,0:0:0:0:
266,195,10050,1,0,0:0:0:0:
266,195,10200,1,8,0:0:0:0:
239,195,10350,1,0,0:0:0:0:
262,183,10500,1,0,0:0:0:0:
262,183,10650,1,8,0:0:0:0:
262,183,10800,1,0,0:0:0:0:
244,184,10950,1,8,0:0:0:0:
251,185,11025,1,8,0:0:0:0:
226,195,11100,1,0,0:0:0:0:
251,185,11250,1,0,0:0:0:0:
251,185,11400,1,8,0:0:0:0:
251,185,11550,1,0,0:0:0:0:
251,185,11700,1,0,0:0:0:0:
246,198,11850,1,8,0:0:0:0:
233,195,12000,1,0,0:0:0:0:
219,205,12150,1,0,0:0:0:0:
219,205,12225,1,0,0:0:0:0:
219,205,12300,1,8,0:0:0:0:
215,213,12450,1,0,0:0:0:0:
215,213,12600,1,8,0:0:0:0:
219,204,12750,1,0,0:0:0:0:
183,195,12900,1,0,0:0:0:0:
199,202,13050,1,8,0:0:0:0:
199,202,13200,1,0,0:0:0:0:
199,202,13350,1,8,0:0:0:0:
199,202,13425,1,8,0:0:0:0:
199,202,13500,1,0,0:0:0:0:
199,202,13650,1,0,0:0:0:0:
199,202,13800,1,8,0:0:0:0:
199,202,13950,1,8,0:0:0:0:
199,202,14100,1,0,0:0:0:0:
205,198,14250,1,8,0:0:0:0:
266,195,14400,1,0,0:0:0:0:
266,195,14550,1,0,0:0:0:0:
266,195,14625,1,0,0:0:0:0:
266,195,14700,1,8,0:0:0:0:
266,195,14850,1,0,0:0:0:0:
266,195,15000,1,8,0:0:0:0:
242,203,15150,1,0,0:0:0:0:
262,183,15300,1,0,0:0:0:0:
262,183,15450,1,8,0:0:0:0:
262,183,15600,1,0,0:0:0:0:
244,184,15750,1,8,0:0:0:0:
251,185,15825,1,8,0:0:0:0:
226,195,15900,1,0,0:0:0:0:
251,185,16050,1,0,0:0:0:0:
251,185,16200,1,8,0:0:0:0:
251,185,16350,1,0,0:0:0:0:
251,185,16500,1,0,0:0:0:0:
246,198,16650,1,8,0:0:0:0:
233,195,16800,1,0,0:0:0:0:
219,205,16950,1,0,0:0:0:0:
219,205,17025,1,0,0:0:0:0:
219,205,17100,1,8,0:0:0:0:
215,213,17250,1,0,0:0:0:0:
215,213,17400,1,8,0:0:0:0:
241,205,17550,1,0,0:0:0:0:
183,195,17700,1,0,0:0:0:0:
199,202,17850,1,8,0:0:0:0:
199,202,18000,1,0,0:0:0:0:
199,202,18150,1,8,0:0:0:0:
199,202,18225,1,8,0:0:0:0:
199,202,18300,1,0,0:0:0:0:
199,202,18450,1,0,0:0:0:0:
199,202,18600,1,8,0:0:0:0:
199,202,18750,1,0,0:0:0:0:
199,202,18900,1,8,0:0:0:0:
205,198,19050,1,8,0:0:0:0:
266,195,19200,1,0,0:0:0:0:
266,195,19350,1,0,0:0:0:0:
266,195,19425,1,0,0:0:0:0:
266,195,19500,1,8,0:0:0:0:
266,195,19650,1,0,0:0:0:0:
266,195,19800,1,8,0:0:0:0:
246,194,19875,1,8,0:0:0:0:
220,200,19950,1,0,0:0:0:0:
241,179,20025,1,0,0:0:0:0:
262,183,20100,1,8,0:0:0:0:
262,183,20250,1,0,0:0:0:0:
262,183,20400,1,8,0:0:0:0:
244,184,20550,1,0,0:0:0:0:
265,188,20625,1,0,0:0:0:0:
226,195,20700,1,8,0:0:0:0:
251,185,20850,1,0,0:0:0:0:
251,185,21000,1,8,0:0:0:0:
233,210,21075,1,8,0:0:0:0:
251,185,21150,1,0,0:0:0:0:
251,185,21300,1,8,0:0:0:0:
221,203,21375,1,0,0:0:0:0:
246,198,21450,1,8,0:0:0:0:
233,195,21600,1,0,0:0:0:0:
219,205,21750,1,0,0:0:0:0:
219,205,21825,1,0,0:0:0:0:
219,205,21900,1,8,0:0:0:0:
215,213,22050,1,0,0:0:0:0:
215,213,22200,1,8,0:0:0:0:
187,203,22275,1,8,0:0:0:0:
187,203,22350,1,0,0:0:0:0:
203,190,22425,1,0,0:0:0:0:
183,195,22500,1,8,0:0:0:0:
199,202,22650,1,0,0:0:0:0:
219,205,22800,1,8,0:0:0:0:
199,202,22950,1,0,0:0:0:0:
199,202,23025,1,0,0:0:0:0:
199,202,23100,1,8,0:0:0:0:
199,211,23175,1,8,0:0:0:0:
199,202,23250,1,0,0:0:0:0:
199,202,23400,1,8,0:0:0:0:
222,188,23475,1,0,0:0:0:0:
199,202,23550,1,8,0:0:0:0:
199,202,23700,1,0,0:0:0:0:
214,204,23775,1,0,0:0:0:0:
205,198,23850,1,8,0:0:0:0:
266,195,24000,1,0,0:0:0:0:
266,195,24150,1,0,0:0:0:0:
266,195,24225,1,0,0:0:0:0:
266,195,24300,1,8,0:0:0:0:
266,195,24450,1,0,0:0:0:0:
266,195,24600,1,8,0:0:0:0:
246,194,24675,1,8,0:0:0:0:
220,200,24750,1,0,0:0:0:0:
241,179,24825,1,0,0:0:0:0:
262,183,24900,1,8,0:0:0:0:
262,183,25050,1,0,0:0:0:0:
262,183,25200,1,8,0:0:0:0:
218,194,25275,1,8,0:0:0:0:
244,184,25350,1,8,0:0:0:0:
226,195,25425,1,8,0:0:0:0:
201,188,25500,1,0,0:0:0:0:
251,185,25650,1,0,0:0:0:0:
251,185,25800,1,8,0:0:0:0:
233,210,25875,1,0,0:0:0:0:
251,185,25950,1,8,0:0:0:0:
251,185,26100,1,0,0:0:0:0:
221,203,26175,1,0,0:0:0:0:
246,198,26250,1,8,0:0:0:0:
233,195,26400,1,0,0:0:0:0:
219,205,26550,1,0,0:0:0:0:
219,205,26625,1,0,0:0:0:0:
219,205,26700,1,8,0:0:0:0:
215,213,26850,1,0,0:0:0:0:
215,213,27000,1,8,0:0:0:0:
187,203,27075,1,8,0:0:0:0:
187,203,27150,1,0,0:0:0:0:
203,190,27225,1,0,0:0:0:0:
183,195,27300,1,8,0:0:0:0:
199,202,27450,1,0,0:0:0:0:
219,205,27600,1,8,0:0:0:0:
199,202,27750,1,0,0:0:0:0:
199,202,27825,1,0,0:0:0:0:
199,202,27900,1,8,0:0:0:0:
199,211,27975,1,8,0:0:0:0:
199,202,28050,1,0,0:0:0:0:
199,202,28200,1,8,0:0:0:0:
222,188,28275,1,8,0:0:0:0:
199,202,28350,1,8,0:0:0:0:
199,202,28500,1,0,0:0:0:0:
214,204,28550,1,0,0:0:0:0:
213,186,28600,1,0,0:0:0:0:
212,191,28650,1,8,0:0:0:0:
266,195,28800,1,0,0:0:0:0:
266,195,28950,1,0,0:0:0:0:
266,195,29025,1,0,0:0:0:0:
266,195,29100,1,8,0:0:0:0:
266,195,29250,1,0,0:0:0:0:
266,195,29400,1,8,0:0:0:0:
246,194,29475,1,8,0:0:0:0:
220,200,29550,1,0,0:0:0:0:
246,194,29625,1,0,0:0:0:0:
262,183,29700,1,8,0:0:0:0:
224,224,29775,1,8,0:0:0:0:
262,183,29850,1,0,0:0:0:0:
262,183,30000,1,8,0:0:0:0:
244,184,30150,1,0,0:0:0:0:
265,188,30225,1,0,0:0:0:0:
226,195,30300,1,8,0:0:0:0:
251,185,30450,1,0,0:0:0:0:
251,185,30600,1,8,0:0:0:0:
233,210,30675,1,8,0:0:0:0:
251,185,30750,1,0,0:0:0:0:
224,192,30825,1,0,0:0:0:0:
251,185,30900,1,8,0:0:0:0:
224,192,30975,1,0,0:0:0:0:
246,198,31050,1,8,0:0:0:0:
233,195,31200,1,0,0:0:0:0:
219,205,31350,1,0,0:0:0:0:
219,205,31425,1,0,0:0:0:0:
219,205,31500,1,8,0:0:0:0:
215,213,31650,1,0,0:0:0:0:
215,213,31800,1,8,0:0:0:0:
187,203,31875,1,0,0:0:0:0:
187,203,31950,1,8,0:0:0:0:
183,195,32100,1,8,0:0:0:0:
192,192,32175,1,8,0:0:0:0:
199,202,32250,1,0,0:0:0:0:
219,205,32400,1,8,0:0:0:0:
199,202,32550,1,0,0:0:0:0:
199,202,32625,1,0,0:0:0:0:
199,202,32700,1,8,0:0:0:0:
199,211,32775,1,8,0:0:0:0:
199,202,32850,1,0,0:0:0:0:
199,202,33000,1,8,0:0:0:0:
222,188,33075,1,8,0:0:0:0:
199,202,33150,1,0,0:0:0:0:
245,173,33300,1,8,0:0:0:0:
214,204,33375,1,0,0:0:0:0:
205,198,33450,1,8,0:0:0:0:
266,195,33600,1,0,0:0:0:0:
266,195,33750,1,0,0:0:0:0:
266,195,33825,1,0,0:0:0:0:
266,195,33900,1,8,0:0:0:0:
266,195,34050,1,0,0:0:0:0:
266,195,34200,1,8,0:0:0:0:
256,192,34275,1,8,0:0:0:0:
246,194,34350,1,0,0:0:0:0:
256,192,34425,1,0,0:0:0:0:
262,183,34500,1,8,0:0:0:0:
224,192,34575,1,8,0:0:0:0:
262,183,34650,1,0,0:0:0:0:
262,183,34800,1,8,0:0:0:0:
218,194,34875,1,8,0:0:0:0:
244,184,34950,1,0,0:0:0:0:
226,195,35025,1,0,0:0:0:0:
201,188,35100,1,8,0:0:0:0:
251,185,35250,1,0,0:0:0:0:
251,185,35400,1,8,0:0:0:0:
233,210,35475,1,8,0:0:0:0:
251,185,35550,1,0,0:0:0:0:
218,194,35625,1,0,0:0:0:0:
251,185,35700,1,8,0:0:0:0:
221,203,35775,1,0,0:0:0:0:
246,198,35850,1,8,0:0:0:0:
233,195,36000,1,0,0:0:0:0:
219,205,36150,1,0,0:0:0:0:
219,205,36225,1,0,0:0:0:0:
219,205,36300,1,8,0:0:0:0:
215,213,36450,1,0,0:0:0:0:
215,213,36600,1,8,0:0:0:0:
187,203,36675,1,0,0:0:0:0:
187,203,36750,1,8,0:0:0:0:
183,195,36900,1,8,0:0:0:0:
224,192,36975,1,8,0:0:0:0:
199,202,37050,1,0,0:0:0:0:
219,205,37200,1,8,0:0:0:0:
195,206,37275,1,8,0:0:0:0:
199,202,37350,5,0,0:0:0:0:
199,202,37425,1,0,0:0:0:0:
199,202,37500,1,8,0:0:0:0:
199,211,37575,1,8,0:0:0:0:
199,202,37650,1,8,0:0:0:0:
192,192,37725,1,8,0:0:0:0:
199,202,37800,1,0,0:0:0:0:
199,202,37950,1,8,0:0:0:0:
199,202,38100,1,0,0:0:0:0:
194,194,38250,1,8,0:0:0:0:
160,192,38400,1,0,0:0:0:0:
187,198,38550,1,0,0:0:0:0:
197,197,38625,1,0,0:0:0:0:
194,198,38700,1,8,0:0:0:0:
194,198,38850,1,0,0:0:0:0:
208,193,39000,1,8,0:0:0:0:
208,193,39075,1,8,0:0:0:0:
208,193,39150,1,0,0:0:0:0:
218,198,39300,1,8,0:0:0:0:
192,192,39375,1,0,0:0:0:0:
218,200,39450,1,0,0:0:0:0:
218,200,39525,1,0,0:0:0:0:
218,200,39600,1,8,0:0:0:0:
223,203,39675,1,8,0:0:0:0:
218,200,39750,1,0,0:0:0:0:
218,200,39900,1,8,0:0:0:0:
218,200,40050,1,0,0:0:0:0:
213,203,40125,1,0,0:0:0:0:
218,199,40200,1,8,0:0:0:0:
213,196,40275,1,8,0:0:0:0:
218,198,40350,1,0,0:0:0:0:
218,200,40500,1,8,0:0:0:0:
218,200,40575,1,0,0:0:0:0:
218,200,40650,1,8,0:0:0:0:
218,200,40725,1,8,0:0:0:0:
218,200,40800,1,0,0:0:0:0:
211,211,40950,1,0,0:0:0:0:
212,211,41025,1,0,0:0:0:0:
212,211,41100,1,8,0:0:0:0:
212,211,41250,1,0,0:0:0:0:
218,220,41400,1,8,0:0:0:0:
234,233,41475,1,8,0:0:0:0:
231,212,41550,1,0,0:0:0:0:
231,212,41700,1,8,0:0:0:0:
231,212,41775,1,0,0:0:0:0:
231,212,41850,1,0,0:0:0:0:
235,218,41925,1,0,0:0:0:0:
231,212,42000,1,8,0:0:0:0:
225,216,42075,1,8,0:0:0:0:
231,212,42150,1,0,0:0:0:0:
231,212,42300,1,8,0:0:0:0:
226,216,42375,1,0,0:0:0:0:
229,223,42450,1,0,0:0:0:0:
225,223,42525,1,0,0:0:0:0:
229,223,42600,1,8,0:0:0:0:
237,230,42675,1,8,0:0:0:0:
229,223,42750,1,0,0:0:0:0:
229,223,42900,1,8,0:0:0:0:
200,189,43000,1,8,0:0:0:0:
193,199,43100,1,8,0:0:0:0:
187,198,43200,5,0,0:0:0:0:
187,198,43350,1,0,0:0:0:0:
197,197,43425,1,0,0:0:0:0:
194,198,43500,1,8,0:0:0:0:
194,198,43650,1,0,0:0:0:0:
208,193,43800,1,8,0:0:0:0:
208,193,43875,1,0,0:0:0:0:
208,193,43950,1,8,0:0:0:0:
218,198,44100,1,8,0:0:0:0:
218,200,44250,1,0,0:0:0:0:
218,200,44325,1,0,0:0:0:0:
218,200,44400,1,8,0:0:0:0:
200,215,44475,1,8,0:0:0:0:
218,200,44550,1,0,0:0:0:0:
218,200,44700,1,8,0:0:0:0:
218,200,44850,1,0,0:0:0:0:
213,203,44925,1,0,0:0:0:0:
218,199,45000,1,8,0:0:0:0:
218,198,45075,1,8,0:0:0:0:
218,198,45150,1,0,0:0:0:0:
218,200,45300,1,8,0:0:0:0:
218,200,45375,1,0,0:0:0:0:
218,200,45450,1,8,0:0:0:0:
218,200,45525,1,8,0:0:0:0:
218,200,45600,1,0,0:0:0:0:
211,211,45750,1,0,0:0:0:0:
212,211,45825,1,0,0:0:0:0:
212,211,45900,1,8,0:0:0:0:
212,211,46050,1,0,0:0:0:0:
218,220,46200,1,8,0:0:0:0:
234,233,46275,1,0,0:0:0:0:
231,212,46350,1,8,0:0:0:0:
231,212,46500,1,8,0:0:0:0:
231,212,46650,1,0,0:0:0:0:
231,212,46725,1,0,0:0:0:0:
231,212,46800,1,8,0:0:0:0:
227,217,46875,1,8,0:0:0:0:
231,212,46950,1,0,0:0:0:0:
231,212,47100,1,8,0:0:0:0:
238,202,47175,1,0,0:0:0:0:
229,223,47250,1,0,0:0:0:0:
225,223,47325,1,0,0:0:0:0:
229,223,47400,1,8,0:0:0:0:
241,225,47550,1,0,0:0:0:0:
229,223,47700,1,8,0:0:0:0:
187,198,48000,5,0,0:0:0:0:
187,198,48150,1,0,0:0:0:0:
197,197,48225,1,0,0:0:0:0:
194,198,48300,1,8,0:0:0:0:
194,198,48450,1,0,0:0:0:0:
192,192,48500,1,0,0:0:0:0:
196,189,48550,1,0,0:0:0:0:
192,192,48600,1,8,0:0:0:0:
208,193,48750,1,0,0:0:0:0:
218,198,48900,1,8,0:0:0:0:
192,192,48975,1,8,0:0:0:0:
218,200,49050,1,0,0:0:0:0:
218,200,49125,1,0,0:0:0:0:
218,200,49200,1,8,0:0:0:0:
218,200,49350,1,8,0:0:0:0:
193,215,49400,1,0,0:0:0:0:
188,198,49450,1,0,0:0:0:0:
218,200,49500,1,8,0:0:0:0:
183,195,49575,1,8,0:0:0:0:
218,200,49650,1,0,0:0:0:0:
218,199,49800,1,8,0:0:0:0:
218,198,49950,1,0,0:0:0:0:
201,197,50025,5,0,0:0:0:0:
218,200,50100,1,8,0:0:0:0:
218,200,50175,1,8,0:0:0:0:
218,200,50250,1,0,0:0:0:0:
218,200,50325,1,0,0:0:0:0:
218,200,50400,1,8,0:0:0:0:
211,211,50550,1,0,0:0:0:0:
210,213,50625,1,0,0:0:0:0:
212,211,50700,1,8,0:0:0:0:
218,199,50750,1,8,0:0:0:0:
218,199,50800,1,8,0:0:0:0:
212,211,50850,1,0,0:0:0:0:
218,220,51000,1,8,0:0:0:0:
234,233,51075,1,8,0:0:0:0:
231,212,51150,1,0,0:0:0:0:
231,212,51300,1,8,0:0:0:0:
231,212,51350,1,0,0:0:0:0:
231,212,51400,1,0,0:0:0:0:
231,212,51450,1,8,0:0:0:0:
228,226,51525,1,8,0:0:0:0:
231,212,51600,1,0,0:0:0:0:
231,212,51750,1,8,0:0:0:0:
231,212,51825,1,0,0:0:0:0:
231,212,51900,1,8,0:0:0:0:
229,223,52050,1,0,0:0:0:0:
225,223,52125,1,8,0:0:0:0:
229,223,52200,1,0,0:0:0:0:
229,223,52350,1,8,0:0:0:0:
229,223,52425,1,8,0:0:0:0:
229,223,52500,1,8,0:0:0:0:
187,198,52575,1,0,0:0:0:0:
184,193,52650,1,8,0:0:0:0:
191,208,52700,1,8,0:0:0:0:
187,198,52750,1,8,0:0:0:0:
187,198,52800,5,0,0:0:0:0:
187,198,52950,1,0,0:0:0:0:
197,197,53025,1,0,0:0:0:0:
194,198,53100,1,8,0:0:0:0:
194,198,53250,1,0,0:0:0:0:
208,193,53400,1,8,0:0:0:0:
208,193,53475,1,0,0:0:0:0:
208,193,53550,1,8,0:0:0:0:
218,198,53700,1,8,0:0:0:0:
192,192,53775,1,0,0:0:0:0:
218,200,53850,1,0,0:0:0:0:
218,200,53925,1,0,0:0:0:0:
218,200,54000,1,8,0:0:0:0:
200,215,54075,1,8,0:0:0:0:
218,200,54150,1,0,0:0:0:0:
218,200,54300,1,8,0:0:0:0:
218,200,54450,1,0,0:0:0:0:
213,203,54525,1,0,0:0:0:0:
218,199,54600,1,8,0:0:0:0:
218,200,54675,1,8,0:0:0:0:
218,198,54750,1,0,0:0:0:0:
218,200,54900,1,8,0:0:0:0:
218,200,54975,1,0,0:0:0:0:
218,200,55050,1,8,0:0:0:0:
218,200,55125,1,8,0:0:0:0:
218,200,55200,1,0,0:0:0:0:
211,211,55350,1,0,0:0:0:0:
212,211,55425,1,0,0:0:0:0:
212,211,55500,1,8,0:0:0:0:
212,211,55650,1,0,0:0:0:0:
218,220,55800,1,8,0:0:0:0:
234,233,55875,1,0,0:0:0:0:
231,212,55950,1,8,0:0:0:0:
231,212,56100,1,8,0:0:0:0:
231,212,56175,1,0,0:0:0:0:
231,212,56250,1,0,0:0:0:0:
231,212,56325,1,0,0:0:0:0:
231,212,56400,1,8,0:0:0:0:
231,212,56550,1,0,0:0:0:0:
231,212,56625,1,0,0:0:0:0:
231,212,56700,1,8,0:0:0:0:
272,217,56775,1,8,0:0:0:0:
229,223,56850,1,0,0:0:0:0:
229,223,57000,1,8,0:0:0:0:
212,202,57050,1,0,0:0:0:0:
197,206,57100,1,0,0:0:0:0:
163,205,57150,1,8,0:0:0:0:
229,223,57300,1,8,0:0:0:0:
212,200,57350,1,0,0:0:0:0:
197,206,57400,1,0,0:0:0:0:
191,209,57450,1,8,0:0:0:0:
187,198,57600,5,0,0:0:0:0:
187,198,57750,1,0,0:0:0:0:
197,197,57825,1,0,0:0:0:0:
194,198,57900,1,8,0:0:0:0:
194,198,58050,1,0,0:0:0:0:
208,193,58200,1,8,0:0:0:0:
208,193,58275,1,8,0:0:0:0:
208,193,58350,1,0,0:0:0:0:
218,198,58500,1,8,0:0:0:0:
217,195,58575,1,0,0:0:0:0:
218,200,58650,1,0,0:0:0:0:
218,200,58725,1,0,0:0:0:0:
218,200,58800,1,8,0:0:0:0:
223,203,58875,1,8,0:0:0:0:
218,200,58950,1,0,0:0:0:0:
218,200,59100,1,8,0:0:0:0:
218,200,59250,1,0,0:0:0:0:
213,203,59325,1,0,0:0:0:0:
218,199,59400,1,8,0:0:0:0:
218,200,59475,1,8,0:0:0:0:
218,198,59550,1,0,0:0:0:0:
218,200,59700,1,8,0:0:0:0:
218,200,59775,1,0,0:0:0:0:
218,200,59850,1,8,0:0:0:0:
218,200,59925,1,8,0:0:0:0:
218,200,60000,1,0,0:0:0:0:
211,211,60150,1,0,0:0:0:0:
212,211,60225,1,0,0:0:0:0:
212,211,60300,1,8,0:0:0:0:
212,211,60450,1,0,0:0:0:0:
218,220,60600,1,8,0:0:0:0:
234,233,60675,1,8,0:0:0:0:
231,212,60750,1,0,0:0:0:0:
231,212,60900,1,8,0:0:0:0:
231,212,60975,1,0,0:0:0:0:
231,212,61050,1,0,0:0:0:0:
235,218,61125,1,0,0:0:0:0:
231,212,61200,1,8,0:0:0:0:
231,212,61350,1,0,0:0:0:0:
250,211,61425,1,0,0:0:0:0:
231,212,61500,1,8,0:0:0:0:
226,216,61575,1,8,0:0:0:0:
229,223,61650,1,0,0:0:0:0:
225,223,61725,1,0,0:0:0:0:
229,223,61800,1,8,0:0:0:0:
229,223,61950,1,0,0:0:0:0:
229,223,62100,1,8,0:0:0:0:
200,189,62175,1,8,0:0:0:0:
200,189,62250,1,8,0:0:0:0:
193,199,62325,1,8,0:0:0:0:
187,198,62400,5,0,0:0:0:0:
187,198,62550,1,8,0:0:0:0:
197,197,62625,1,0,0:0:0:0:
194,198,62700,1,0,0:0:0:0:
194,198,62850,1,8,0:0:0:0:
192,192,62925,1,0,0:0:0:0:
208,193,63075,1,8,0:0:0:0:
208,193,63150,1,0,0:0:0:0:
218,198,63300,1,8,0:0:0:0:
192,192,63375,1,0,0:0:0:0:
218,200,63450,1,0,0:0:0:0:
192,192,63525,1,0,0:0:0:0:
207,205,63600,1,8,0:0:0:0:
226,204,63650,1,8,0:0:0:0:
218,200,63700,1,8,0:0:0:0:
192,192,63750,1,0,0:0:0:0:
228,223,63825,1,0,0:0:0:0:
218,200,63900,1,8,0:0:0:0:
218,200,64050,1,0,0:0:0:0:
218,199,64200,1,8,0:0:0:0:
218,200,64275,1,8,0:0:0:0:
218,198,64350,1,0,0:0:0:0:
218,200,64500,1,8,0:0:0:0:
218,200,64575,1,0,0:0:0:0:
218,200,64650,1,8,0:0:0:0:
218,200,64725,1,8,0:0:0:0:
218,200,64800,1,0,0:0:0:0:
211,211,64950,1,0,0:0:0:0:
212,211,65025,1,0,0:0:0:0:
212,211,65100,1,8,0:0:0:0:
212,211,65250,1,0,0:0:0:0:
218,220,65400,1,8,0:0:0:0:
234,233,65475,1,0,0:0:0:0:
231,212,65550,1,8,0:0:0:0:
231,212,65700,1,8,0:0:0:0:
231,212,65850,1,0,0:0:0:0:
231,212,65925,1,0,0:0:0:0:
231,212,66000,1,8,0:0:0:0:
227,217,66075,1,8,0:0:0:0:
231,212,66150,1,0,0:0:0:0:
192,192,66225,1,0,0:0:0:0:
231,212,66300,1,8,0:0:0:0:
229,223,66450,1,0,0:0:0:0:
225,223,66525,1,0,0:0:0:0:
229,223,66600,1,8,0:0:0:0:
224,224,66675,1,8,0:0:0:0:
224,224,66750,1,0,0:0:0:0:
203,212,66800,1,0,0:0:0:0:
188,204,66850,1,0,0:0:0:0:
229,223,66900,1,8,0:0:0:0:
187,198,67200,5,0,0:0:0:0:
187,198,67350,1,0,0:0:0:0:
197,197,67425,1,0,0:0:0:0:
194,198,67500,1,8,0:0:0:0:
194,198,67650,1,0,0:0:0:0:
208,193,67800,1,8,0:0:0:0:
208,193,67950,1,0,0:0:0:0:
224,192,68025,1,0,0:0:0:0:
218,198,68100,1,8,0:0:0:0:
192,192,68175,1,8,0:0:0:0:
218,200,68250,1,0,0:0:0:0:
218,200,68400,1,0,0:0:0:0:
218,200,68550,1,8,0:0:0:0:
223,203,68625,1,0,0:0:0:0:
218,200,68700,1,8,0:0:0:0:
218,200,68850,1,0,0:0:0:0:
218,199,69000,1,8,0:0:0:0:
218,198,69150,1,0,0:0:0:0:
201,197,69225,5,0,0:0:0:0:
218,200,69300,1,8,0:0:0:0:
218,200,69375,1,8,0:0:0:0:
218,200,69450,1,0,0:0:0:0:
218,200,69600,1,8,0:0:0:0:
211,211,69750,1,0,0:0:0:0:
210,213,69825,1,0,0:0:0:0:
212,211,69900,1,8,0:0:0:0:
212,211,70050,1,0,0:0:0:0:
218,220,70200,1,8,0:0:0:0:
234,233,70275,1,8,0:0:0:0:
231,212,70350,1,0,0:0:0:0:
231,212,70500,1,8,0:0:0:0:
231,212,70575,1,8,0:0:0:0:
231,212,70650,1,8,0:0:0:0:
231,212,70800,1,0,0:0:0:0:
231,212,70950,1,8,0:0:0:0:
231,212,71025,1,0,0:0:0:0:
231,212,71100,1,8,0:0:0:0:
229,223,71250,1,0,0:0:0:0:
225,223,71325,1,0,0:0:0:0:
229,223,71400,1,8,0:0:0:0:
229,223,71475,1,8,0:0:0:0:
229,223,71550,1,0,0:0:0:0:
229,223,71700,1,8,0:0:0:0:
187,198,71775,1,8,0:0:0:0:
191,208,71850,1,8,0:0:0:0:
187,198,72000,5,0,0:0:0:0:
187,198,72150,1,0,0:0:0:0:
197,197,72225,1,0,0:0:0:0:
194,198,72300,1,8,0:0:0:0:
194,198,72450,1,0,0:0:0:0:
208,193,72600,1,8,0:0:0:0:
208,193,72675,1,8,0:0:0:0:
208,193,72750,1,0,0:0:0:0:
218,198,72900,1,8,0:0:0:0:
188,195,72975,1,0,0:0:0:0:
218,200,73050,1,8,0:0:0:0:
224,192,73125,1,8,0:0:0:0:
218,200,73200,1,0,0:0:0:0:
218,200,73350,1,0,0:0:0:0:
218,200,73500,1,8,0:0:0:0:
218,200,73650,1,0,0:0:0:0:
213,203,73725,1,0,0:0:0:0:
218,199,73800,1,8,0:0:0:0:
218,198,73950,1,0,0:0:0:0:
218,200,74100,1,8,0:0:0:0:
218,200,74175,1,0,0:0:0:0:
218,200,74250,1,8,0:0:0:0:
218,200,74400,1,0,0:0:0:0:
211,211,74550,1,0,0:0:0:0:
212,211,74625,1,0,0:0:0:0:
212,211,74700,1,8,0:0:0:0:
212,211,74850,1,0,0:0:0:0:
218,220,75000,1,8,0:0:0:0:
234,233,75075,1,8,0:0:0:0:
231,212,75150,1,0,0:0:0:0:
231,212,75300,1,8,0:0:0:0:
231,212,75375,1,8,0:0:0:0:
231,212,75450,1,8,0:0:0:0:
221,230,75600,1,0,0:0:0:0:
231,212,75750,1,8,0:0:0:0:
229,223,76200,1,0,0:0:0:0:
224,224,76500,1,8,0:0:0:0:
224,224,76800,1,0,0:0:0:0:
224,224,76950,1,0,0:0:0:0:
224,224,77100,1,8,0:0:0:0:
224,224,77250,1,0,0:0:0:0:
224,224,77325,1,0,0:0:0:0:
224,224,77400,1,0,0:0:0:0:
224,192,77475,1,0,0:0:0:0:
224,224,77550,1,8,0:0:0:0:
224,224,77700,1,8,0:0:0:0:
224,224,77850,1,0,0:0:0:0:
224,224,77925,1,0,0:0:0:0:
224,224,78000,1,0,0:0:0:0:
224,192,78150,1,8,0:0:0:0:
224,224,78225,1,0,0:0:0:0:
256,224,78300,1,8,0:0:0:0:
224,224,78450,1,0,0:0:0:0:
226,216,78525,1,0,0:0:0:0:
224,224,78600,1,8,0:0:0:0:
224,224,78675,1,8,0:0:0:0:
192,224,78750,1,0,0:0:0:0:
224,224,78825,1,0,0:0:0:0:
224,224,78900,1,8,0:0:0:0:
224,224,78975,1,8,0:0:0:0:
222,217,79050,1,8,0:0:0:0:
224,224,79200,1,0,0:0:0:0:
224,224,79350,1,0,0:0:0:0:
224,224,79500,1,8,0:0:0:0:
224,224,79650,1,0,0:0:0:0:
224,224,79725,1,0,0:0:0:0:
224,224,79800,1,0,0:0:0:0:
224,224,79875,1,0,0:0:0:0:
224,224,79950,1,8,0:0:0:0:
224,224,80100,1,8,0:0:0:0:
224,224,80250,1,0,0:0:0:0:
224,224,80325,1,0,0:0:0:0:
224,224,80400,1,8,0:0:0:0:
256,224,80475,1,8,0:0:0:0:
224,192,80550,1,0,0:0:0:0:
224,224,80600,1,0,0:0:0:0:
224,224,80650,1,0,0:0:0:0:
256,224,80700,1,8,0:0:0:0:
224,224,80850,1,0,0:0:0:0:
226,216,80925,1,0,0:0:0:0:
224,224,81000,1,8,0:0:0:0:
224,224,81075,1,8,0:0:0:0:
224,224,81150,1,0,0:0:0:0:
224,224,81225,1,0,0:0:0:0:
224,224,81300,1,8,0:0:0:0:
224,224,81375,1,0,0:0:0:0:
224,224,81450,1,8,0:0:0:0:
224,224,81600,1,0,0:0:0:0:
224,224,81750,1,0,0:0:0:0:
224,224,81900,1,8,0:0:0:0:
224,224,82050,1,0,0:0:0:0:
224,224,82125,1,0,0:0:0:0:
224,224,82200,1,0,0:0:0:0:
224,224,82275,5,0,0:0:0:0:
224,224,82350,1,8,0:0:0:0:
224,224,82500,1,8,0:0:0:0:
224,224,82650,1,0,0:0:0:0:
224,224,82725,1,8,0:0:0:0:
224,224,82800,1,0,0:0:0:0:
224,192,82950,1,8,0:0:0:0:
224,224,83025,1,0,0:0:0:0:
256,224,83100,1,8,0:0:0:0:
224,224,83250,1,0,0:0:0:0:
226,216,83325,1,0,0:0:0:0:
224,224,83400,1,8,0:0:0:0:
224,224,83475,1,8,0:0:0:0:
192,224,83550,1,0,0:0:0:0:
224,224,83625,1,0,0:0:0:0:
224,224,83700,1,8,0:0:0:0:
224,224,83775,1,8,0:0:0:0:
224,224,83850,1,8,0:0:0:0:
224,224,84000,1,0,0:0:0:0:
224,224,84150,1,0,0:0:0:0:
224,224,84300,1,8,0:0:0:0:
224,224,84450,1,0,0:0:0:0:
224,224,84525,1,0,0:0:0:0:
224,224,84600,1,0,0:0:0:0:
224,224,84675,1,0,0:0:0:0:
224,224,84750,1,8,0:0:0:0:
224,224,84900,1,8,0:0:0:0:
244,228,84975,1,0,0:0:0:0:
239,229,85050,1,8,0:0:0:0:
224,224,85200,1,0,0:0:0:0:
256,224,85275,1,0,0:0:0:0:
256,224,85350,1,0,0:0:0:0:
224,224,85425,1,0,0:0:0:0:
256,224,85500,1,8,0:0:0:0:
256,224,85575,1,8,0:0:0:0:
224,224,85650,1,0,0:0:0:0:
256,224,85725,1,0,0:0:0:0:
224,224,85800,1,8,0:0:0:0:
224,224,85875,1,8,0:0:0:0:
224,224,85950,1,0,0:0:0:0:
224,224,86025,1,0,0:0:0:0:
224,224,86100,1,8,0:0:0:0:
224,224,86200,1,8,0:0:0:0:
224,224,86300,1,8,0:0:0:0:
224,224,86400,1,0,0:0:0:0:
224,224,86550,1,8,0:0:0:0:
224,224,86625,1,0,0:0:0:0:
224,224,86700,1,8,0:0:0:0:
160,224,86850,1,0,0:0:0:0:
160,224,87000,1,8,0:0:0:0:
160,224,87150,1,0,0:0:0:0:
160,224,87225,1,0,0:0:0:0:
192,224,87300,1,8,0:0:0:0:
192,224,87375,1,8,0:0:0:0:
192,224,87450,1,0,0:0:0:0:
192,224,87600,1,8,0:0:0:0:
192,224,87675,1,8,0:0:0:0:
192,224,87750,1,0,0:0:0:0:
192,224,87900,1,8,0:0:0:0:
192,224,88050,1,0,0:0:0:0:
190,200,88125,1,0,0:0:0:0:
192,224,88200,1,8,0:0:0:0:
192,224,88275,1,8,0:0:0:0:
192,224,88350,1,0,0:0:0:0:
192,224,88500,1,8,0:0:0:0:
192,224,88575,1,0,0:0:0:0:
192,224,88650,1,8,0:0:0:0:
192,224,88800,1,0,0:0:0:0:
192,224,88950,1,8,0:0:0:0:
192,224,89025,1,0,0:0:0:0:
192,224,89100,1,8,0:0:0:0:
224,224,89250,1,0,0:0:0:0:
224,224,89400,1,8,0:0:0:0:
192,224,89475,1,8,0:0:0:0:
256,224,89550,1,0,0:0:0:0:
224,224,89625,1,0,0:0:0:0:
256,224,89700,1,8,0:0:0:0:
256,224,89775,1,0,0:0:0:0:
256,224,89850,1,8,0:0:0:0:
224,224,90000,1,0,0:0:0:0:
224,224,90075,1,8,0:0:0:0:
224,224,90150,1,0,0:0:0:0:
224,224,90300,1,8,0:0:0:0:
224,224,90450,1,0,0:0:0:0:
207,213,90525,1,0,0:0:0:0:
224,224,90600,1,8,0:0:0:0:
224,224,90675,1,8,0:0:0:0:
224,224,90750,1,0,0:0:0:0:
224,224,90825,1,0,0:0:0:0:
224,224,90900,1,8,0:0:0:0:
224,224,90975,1,0,0:0:0:0:
224,224,91050,1,8,0:0:0:0:
224,224,91200,1,0,0:0:0:0:
224,224,91350,1,8,0:0:0:0:
224,224,91425,1,0,0:0:0:0:
224,224,91500,1,8,0:0:0:0:
160,224,91650,1,0,0:0:0:0:
160,224,91800,1,8,0:0:0:0:
160,224,91950,1,0,0:0:0:0:
160,224,92025,1,0,0:0:0:0:
192,224,92100,1,8,0:0:0:0:
192,224,92175,1,8,0:0:0:0:
192,224,92250,1,0,0:0:0:0:
192,224,92400,1,8,0:0:0:0:
192,224,92475,1,8,0:0:0:0:
192,224,92550,1,0,0:0:0:0:
192,224,92700,1,8,0:0:0:0:
192,224,92850,1,0,0:0:0:0:
200,231,92925,1,0,0:0:0:0:
192,224,93000,1,8,0:0:0:0:
192,224,93075,1,8,0:0:0:0:
192,224,93150,1,0,0:0:0:0:
192,224,93300,1,8,0:0:0:0:
192,224,93375,1,0,0:0:0:0:
192,224,93450,1,8,0:0:0:0:
192,224,93600,1,0,0:0:0:0:
192,224,93750,1,8,0:0:0:0:
192,224,93825,1,0,0:0:0:0:
192,224,93900,1,8,0:0:0:0:
224,224,94050,1,0,0:0:0:0:
224,224,94125,1,0,0:0:0:0:
224,224,94200,1,8,0:0:0:0:
256,224,94275,1,8,0:0:0:0:
256,224,94350,1,0,0:0:0:0:
256,224,94500,1,8,0:0:0:0:
256,224,94575,1,0,0:0:0:0:
256,224,94650,1,8,0:0:0:0:
224,224,94800,1,0,0:0:0:0:
224,224,94875,1,8,0:0:0:0:
224,224,94950,1,0,0:0:0:0:
224,224,95100,1,8,0:0:0:0:
213,218,95175,1,8,0:0:0:0:
224,224,95250,1,0,0:0:0:0:
234,225,95325,1,0,0:0:0:0:
224,224,95400,1,8,0:0:0:0:
224,224,95475,1,8,0:0:0:0:
224,224,95550,1,0,0:0:0:0:
224,224,95625,1,0,0:0:0:0:
224,224,95700,1,8,0:0:0:0:
224,224,95775,1,8,0:0:0:0:
224,224,95850,1,8,0:0:0:0:
192,224,95925,1,8,0:0:0:0:
224,224,96000,1,0,0:0:0:0:
224,224,96150,1,8,0:0:0:0:
224,224,96225,1,0,0:0:0:0:
224,224,96300,1,8,0:0:0:0:
160,224,96450,1,0,0:0:0:0:
160,224,96600,1,8,0:0:0:0:
160,224,96750,1,0,0:0:0:0:
160,224,96825,1,0,0:0:0:0:
192,224,96900,1,8,0:0:0:0:
192,224,97050,1,0,0:0:0:0:
192,224,97200,1,8,0:0:0:0:
192,224,97275,1,8,0:0:0:0:
192,224,97350,1,0,0:0:0:0:
192,224,97500,1,8,0:0:0:0:
192,224,97650,1,0,0:0:0:0:
181,198,97725,1,0,0:0:0:0:
192,224,97800,1,8,0:0:0:0:
192,224,97875,1,8,0:0:0:0:
192,224,97950,1,0,0:0:0:0:
192,224,98100,1,8,0:0:0:0:
187,211,98175,1,0,0:0:0:0:
192,224,98250,1,8,0:0:0:0:
192,224,98400,1,0,0:0:0:0:
192,224,98550,1,8,0:0:0:0:
192,224,98625,1,0,0:0:0:0:
192,224,98700,1,8,0:0:0:0:
224,224,98850,1,0,0:0:0:0:
224,224,99000,1,8,0:0:0:0:
224,224,99075,1,8,0:0:0:0:
256,224,99150,1,0,0:0:0:0:
185,218,99225,1,0,0:0:0:0:
256,224,99300,1,8,0:0:0:0:
256,224,99375,1,0,0:0:0:0:
256,224,99450,1,8,0:0:0:0:
224,224,99600,1,0,0:0:0:0:
224,224,99675,1,8,0:0:0:0:
224,224,99750,1,0,0:0:0:0:
224,224,99900,1,8,0:0:0:0:
224,224,100050,1,0,0:0:0:0:
207,229,100125,1,0,0:0:0:0:
224,224,100200,1,8,0:0:0:0:
224,224,100275,1,8,0:0:0:0:
224,224,100350,1,0,0:0:0:0:
199,224,100425,1,0,0:0:0:0:
224,224,100500,1,8,0:0:0:0:
188,211,100575,1,0,0:0:0:0:
224,224,100650,1,8,0:0:0:0:
224,224,100800,1,0,0:0:0:0:
224,224,100950,1,8,0:0:0:0:
224,224,101025,1,0,0:0:0:0:
224,224,101100,1,8,0:0:0:0:
160,224,101250,1,0,0:0:0:0:
160,224,101400,1,8,0:0:0:0:
160,224,101550,1,0,0:0:0:0:
160,224,101625,1,0,0:0:0:0:
192,224,101700,1,8,0:0:0:0:
192,224,101850,1,0,0:0:0:0:
192,224,102000,1,8,0:0:0:0:
192,224,102075,1,8,0:0:0:0:
192,224,102150,1,0,0:0:0:0:
192,224,102300,1,8,0:0:0:0:
192,224,102450,1,0,0:0:0:0:
199,192,102525,1,0,0:0:0:0:
192,224,102600,1,8,0:0:0:0:
192,224,102675,1,8,0:0:0:0:
192,224,102750,1,0,0:0:0:0:
192,224,102900,1,8,0:0:0:0:
188,211,102975,1,0,0:0:0:0:
192,224,103050,1,8,0:0:0:0:
192,224,103200,1,0,0:0:0:0:
192,224,103350,1,8,0:0:0:0:
192,224,103425,1,0,0:0:0:0:
192,224,103500,1,8,0:0:0:0:
224,224,103650,1,0,0:0:0:0:
245,235,103725,1,0,0:0:0:0:
224,224,103800,1,8,0:0:0:0:
224,224,103875,1,8,0:0:0:0:
256,224,103950,1,0,0:0:0:0:
256,224,104100,1,8,0:0:0:0:
256,224,104175,1,0,0:0:0:0:
256,224,104250,1,8,0:0:0:0:
224,224,104400,1,0,0:0:0:0:
234,233,104475,1,8,0:0:0:0:
224,224,104550,1,0,0:0:0:0:
224,224,104700,1,8,0:0:0:0:
185,211,104775,1,8,0:0:0:0:
224,224,104850,1,0,0:0:0:0:
207,229,104925,1,0,0:0:0:0:
224,224,105000,1,8,0:0:0:0:
224,224,105075,1,8,0:0:0:0:
224,224,105150,1,0,0:0:0:0:
224,224,105225,1,0,0:0:0:0:
224,224,105300,1,8,0:0:0:0:
224,224,105375,1,8,0:0:0:0:
224,224,105450,1,8,0:0:0:0:
192,224,105525,1,8,0:0:0:0:
224,224,105600,1,0,0:0:0:0:
255,230,105900,1,0,0:0:0:0:
255,230,106200,1,0,0:0:0:0:
255,230,106500,1,0,0:0:0:0:
237,222,106800,1,0,0:0:0:0:
255,230,107100,1,0,0:0:0:0:
237,222,107400,1,0,0:0:0:0:
255,230,107700,1,0,0:0:0:0:
237,222,108000,1,0,0:0:0:0:
237,222,108300,1,0,0:0:0:0:
237,222,108600,1,0,0:0:0:0:
237,222,108900,1,0,0:0:0:0:
237,222,109200,1,0,0:0:0:0:
237,222,109500,1,0,0:0:0:0:
237,222,109800,1,0,0:0:0:0:
237,222,110100,1,0,0:0:0:0:
237,222,110400,1,0,0:0:0:0:
237,222,110700,1,0,0:0:0:0:
237,222,111000,1,0,0:0:0:0:
237,222,111300,1,0,0:0:0:0:
237,222,111600,1,0,0:0:0:0:
237,222,111900,1,0,0:0:0:0:
237,222,112200,1,0,0:0:0:0:
237,222,112500,1,0,0:0:0:0:
237,222,112800,1,0,0:0:0:0:
237,222,113100,1,0,0:0:0:0:
237,222,113400,1,0,0:0:0:0:
237,222,113700,1,0,0:0:0:0:
237,222,114000,1,0,0:0:0:0:
237,222,114300,1,0,0:0:0:0:
237,222,114600,1,0,0:0:0:0:
266,195,115200,1,0,0:0:0:0:
266,195,115350,1,0,0:0:0:0:
266,195,115425,1,0,0:0:0:0:
266,195,115500,1,8,0:0:0:0:
266,195,115650,1,0,0:0:0:0:
266,195,115800,1,8,0:0:0:0:
246,194,115875,1,8,0:0:0:0:
220,200,115950,1,0,0:0:0:0:
262,183,116100,1,8,0:0:0:0:
244,190,116175,1,0,0:0:0:0:
262,183,116250,1,0,0:0:0:0:
268,177,116325,1,0,0:0:0:0:
262,183,116400,1,8,0:0:0:0:
237,184,116475,1,8,0:0:0:0:
225,187,116550,1,0,0:0:0:0:
226,195,116700,1,8,0:0:0:0:
219,186,116775,1,0,0:0:0:0:
251,185,116850,1,0,0:0:0:0:
251,185,117000,1,8,0:0:0:0:
251,185,117150,1,0,0:0:0:0:
251,185,117300,1,0,0:0:0:0:
221,203,117375,1,0,0:0:0:0:
246,198,117450,1,8,0:0:0:0:
233,195,117600,1,0,0:0:0:0:
219,205,117750,1,8,0:0:0:0:
219,205,117825,1,0,0:0:0:0:
219,205,117900,1,8,0:0:0:0:
215,213,118050,1,0,0:0:0:0:
215,213,118200,1,8,0:0:0:0:
187,203,118275,1,0,0:0:0:0:
203,190,118350,1,0,0:0:0:0:
183,195,118500,1,8,0:0:0:0:
213,209,118575,1,8,0:0:0:0:
199,202,118650,1,0,0:0:0:0:
219,211,118725,1,0,0:0:0:0:
219,205,118800,1,8,0:0:0:0:
213,209,118875,1,8,0:0:0:0:
199,202,118950,1,0,0:0:0:0:
199,202,119100,1,8,0:0:0:0:
199,211,119175,1,8,0:0:0:0:
199,202,119250,1,0,0:0:0:0:
199,202,119400,1,8,0:0:0:0:
199,202,119550,1,0,0:0:0:0:
199,202,119700,1,8,0:0:0:0:
214,204,119775,1,8,0:0:0:0:
205,198,119850,1,8,0:0:0:0:
266,195,120000,1,0,0:0:0:0:
266,195,120150,1,0,0:0:0:0:
266,195,120225,1,0,0:0:0:0:
266,195,120300,1,8,0:0:0:0:
266,195,120450,1,0,0:0:0:0:
266,195,120600,1,8,0:0:0:0:
246,194,120675,1,8,0:0:0:0:
220,200,120750,1,0,0:0:0:0:
262,183,120900,1,8,0:0:0:0:
206,191,120975,1,0,0:0:0:0:
262,183,121050,1,0,0:0:0:0:
186,177,121125,1,0,0:0:0:0:
262,183,121200,1,8,0:0:0:0:
218,194,121275,1,8,0:0:0:0:
244,184,121350,1,0,0:0:0:0:
201,188,121500,1,8,0:0:0:0:
228,190,121575,5,0,0:0:0:0:
251,185,121650,1,0,0:0:0:0:
251,185,121800,1,8,0:0:0:0:
251,185,121950,1,0,0:0:0:0:
251,185,122100,1,0,0:0:0:0:
221,203,122175,1,0,0:0:0:0:
246,198,122250,1,8,0:0:0:0:
233,195,122400,1,0,0:0:0:0:
219,205,122550,1,8,0:0:0:0:
219,205,122625,1,0,0:0:0:0:
219,205,122700,1,8,0:0:0:0:
215,213,122850,1,0,0:0:0:0:
215,213,123000,1,8,0:0:0:0:
187,203,123075,1,0,0:0:0:0:
187,203,123150,1,0,0:0:0:0:
183,195,123300,1,8,0:0:0:0:
203,211,123375,1,8,0:0:0:0:
199,202,123450,1,0,0:0:0:0:
206,210,123525,1,0,0:0:0:0:
219,205,123600,1,8,0:0:0:0:
206,210,123675,1,8,0:0:0:0:
199,202,123750,1,0,0:0:0:0:
199,202,123900,1,8,0:0:0:0:
199,180,123975,1,8,0:0:0:0:
199,180,124050,1,0,0:0:0:0:
211,194,124200,1,8,0:0:0:0:
220,196,124350,1,8,0:0:0:0:
209,197,124500,1,8,0:0:0:0:
210,197,124650,1,8,0:0:0:0:
266,195,124800,1,0,0:0:0:0:
266,195,124950,1,0,0:0:0:0:
266,195,125025,1,0,0:0:0:0:
266,195,125100,1,8,0:0:0:0:
266,195,125250,1,0,0:0:0:0:
266,195,125400,1,8,0:0:0:0:
246,194,125475,1,0,0:0:0:0:
220,200,125550,1,0,0:0:0:0:
241,179,125625,1,0,0:0:0:0:
262,183,125700,1,8,0:0:0:0:
262,183,125850,1,0,0:0:0:0:
262,183,126000,1,8,0:0:0:0:
244,184,126150,1,0,0:0:0:0:
265,188,126225,1,0,0:0:0:0:
226,195,126300,1,8,0:0:0:0:
251,185,126450,1,0,0:0:0:0:
251,185,126600,1,8,0:0:0:0:
233,210,126675,1,8,0:0:0:0:
251,185,126750,1,0,0:0:0:0:
251,185,126900,1,8,0:0:0:0:
221,203,126975,1,0,0:0:0:0:
246,198,127050,1,8,0:0:0:0:
233,195,127200,1,0,0:0:0:0:
219,205,127350,1,0,0:0:0:0:
219,205,127425,1,0,0:0:0:0:
219,205,127500,1,8,0:0:0:0:
215,213,127650,1,0,0:0:0:0:
215,213,127800,1,8,0:0:0:0:
187,203,127875,1,8,0:0:0:0:
187,203,127950,1,0,0:0:0:0:
203,190,128025,1,0,0:0:0:0:
183,195,128100,1,8,0:0:0:0:
199,202,128250,1,0,0:0:0:0:
219,205,128400,1,8,0:0:0:0:
199,202,128550,1,0,0:0:0:0:
199,202,128625,1,0,0:0:0:0:
199,202,128700,1,8,0:0:0:0:
240,204,128775,1,8,0:0:0:0:
199,211,128850,1,0,0:0:0:0:
199,202,129000,1,8,0:0:0:0:
222,188,129075,1,0,0:0:0:0:
199,202,129150,1,8,0:0:0:0:
199,202,129300,1,0,0:0:0:0:
214,204,129375,1,0,0:0:0:0:
205,198,129450,1,8,0:0:0:0:
266,195,129600,1,0,0:0:0:0:
266,195,129750,1,0,0:0:0:0:
266,195,129825,1,0,0:0:0:0:
266,195,129900,1,8,0:0:0:0:
266,195,130050,1,0,0:0:0:0:
266,195,130200,1,8,0:0:0:0:
246,194,130275,1,8,0:0:0:0:
220,200,130350,1,0,0:0:0:0:
241,179,130425,1,0,0:0:0:0:
262,183,130500,1,8,0:0:0:0:
262,183,130650,1,0,0:0:0:0:
262,183,130800,1,8,0:0:0:0:
244,184,130950,1,0,0:0:0:0:
226,195,131025,1,0,0:0:0:0:
201,188,131100,1,8,0:0:0:0:
251,185,131250,1,0,0:0:0:0:
251,185,131400,1,8,0:0:0:0:
233,210,131475,1,8,0:0:0:0:
251,185,131550,1,0,0:0:0:0:
251,185,131700,1,8,0:0:0:0:
221,203,131775,1,0,0:0:0:0:
246,198,131850,1,8,0:0:0:0:
233,195,132000,1,0,0:0:0:0:
219,205,132150,1,0,0:0:0:0:
219,205,132225,1,0,0:0:0:0:
219,205,132300,1,8,0:0:0:0:
215,213,132450,1,0,0:0:0:0:
215,213,132600,1,8,0:0:0:0:
187,203,132675,1,8,0:0:0:0:
187,203,132750,1,0,0:0:0:0:
203,190,132825,1,0,0:0:0:0:
183,195,132900,1,8,0:0:0:0:
199,202,133050,1,0,0:0:0:0:
219,205,133200,1,8,0:0:0:0:
199,202,133350,1,0,0:0:0:0:
199,202,133425,1,0,0:0:0:0:
199,202,133500,1,8,0:0:0:0:
199,211,133575,1,8,0:0:0:0:
199,202,133650,1,0,0:0:0:0:
199,202,133800,1,8,0:0:0:0:
201,206,133900,1,0,0:0:0:0:
210,201,133950,1,0,0:0:0:0:
210,201,134000,1,0,0:0:0:0:
209,197,134050,1,0,0:0:0:0:
206,197,134100,1,8,0:0:0:0:
201,194,134175,1,8,0:0:0:0:
201,193,134250,1,8,0:0:0:0:
201,193,134325,1,8,0:0:0:0:
201,193,134400,1,0,0:0:0:0:
202,191,134550,1,0,0:0:0:0:
202,191,134625,1,0,0:0:0:0:
202,191,134700,1,8,0:0:0:0:
202,191,134850,1,0,0:0:0:0:
208,193,135000,1,8,0:0:0:0:
225,205,135075,1,0,0:0:0:0:
206,197,135150,1,0,0:0:0:0:
208,193,135300,1,8,0:0:0:0:
203,200,135450,1,0,0:0:0:0:
212,215,135525,1,0,0:0:0:0:
203,200,135600,1,8,0:0:0:0:
189,208,135675,1,8,0:0:0:0:
204,206,135750,1,0,0:0:0:0:
205,206,135900,1,8,0:0:0:0:
205,206,135975,1,8,0:0:0:0:
206,197,136050,1,0,0:0:0:0:
206,198,136125,1,0,0:0:0:0:
206,198,136200,1,8,0:0:0:0:
206,198,136350,1,0,0:0:0:0:
203,200,136500,1,8,0:0:0:0:
203,200,136575,1,0,0:0:0:0:
206,198,136650,1,8,0:0:0:0:
207,198,136725,1,8,0:0:0:0:
207,198,136800,1,0,0:0:0:0:
205,206,136950,1,0,0:0:0:0:
205,202,137025,1,0,0:0:0:0:
205,202,137100,1,8,0:0:0:0:
205,202,137250,1,0,0:0:0:0:
205,202,137400,1,8,0:0:0:0:
221,204,137475,1,0,0:0:0:0:
203,200,137550,1,8,0:0:0:0:
205,202,137700,1,8,0:0:0:0:
205,202,137775,1,0,0:0:0:0:
205,202,137850,1,0,0:0:0:0:
205,206,137925,1,0,0:0:0:0:
205,202,138000,1,8,0:0:0:0:
205,202,138150,1,0,0:0:0:0:
223,193,138225,1,0,0:0:0:0:
225,190,138300,1,8,0:0:0:0:
185,193,138375,1,8,0:0:0:0:
223,193,138450,1,0,0:0:0:0:
203,200,138525,1,0,0:0:0:0:
223,193,138600,1,8,0:0:0:0:
183,189,138750,1,0,0:0:0:0:
183,189,138800,1,0,0:0:0:0:
183,189,138850,1,0,0:0:0:0:
177,188,138900,1,8,0:0:0:0:
215,184,138975,1,8,0:0:0:0:
215,184,139050,1,8,0:0:0:0:
201,193,139200,1,0,0:0:0:0:
202,191,139350,1,0,0:0:0:0:
202,191,139425,1,0,0:0:0:0:
202,191,139500,1,8,0:0:0:0:
202,191,139650,1,0,0:0:0:0:
208,193,139800,1,8,0:0:0:0:
225,205,139875,1,8,0:0:0:0:
179,193,139950,1,0,0:0:0:0:
208,193,140100,1,8,0:0:0:0:
203,200,140250,1,0,0:0:0:0:
205,203,140325,1,0,0:0:0:0:
203,200,140400,1,8,0:0:0:0:
189,208,140475,1,8,0:0:0:0:
204,206,140550,1,0,0:0:0:0:
205,206,140700,1,8,0:0:0:0:
205,206,140775,1,8,0:0:0:0:
206,197,140850,1,0,0:0:0:0:
206,198,141000,1,8,0:0:0:0:
206,198,141150,1,0,0:0:0:0:
206,198,141225,1,0,0:0:0:0:
203,200,141300,1,8,0:0:0:0:
203,200,141375,1,0,0:0:0:0:
206,198,141450,1,8,0:0:0:0:
207,198,141525,1,8,0:0:0:0:
207,198,141600,1,0,0:0:0:0:
205,206,141750,1,0,0:0:0:0:
205,202,141825,1,0,0:0:0:0:
205,202,141900,1,8,0:0:0:0:
205,202,142050,1,0,0:0:0:0:
205,202,142200,1,8,0:0:0:0:
221,204,142275,1,0,0:0:0:0:
203,200,142350,1,8,0:0:0:0:
205,202,142500,1,8,0:0:0:0:
205,202,142575,1,8,0:0:0:0:
205,202,142650,1,0,0:0:0:0:
205,202,142800,1,8,0:0:0:0:
221,184,142875,1,0,0:0:0:0:
205,202,142950,1,0,0:0:0:0:
223,193,143025,1,0,0:0:0:0:
225,190,143100,1,8,0:0:0:0:
185,193,143175,1,8,0:0:0:0:
223,193,143250,1,0,0:0:0:0:
203,200,143325,1,0,0:0:0:0:
223,193,143400,1,8,0:0:0:0:
190,193,143475,1,0,0:0:0:0:
164,204,143550,1,0,0:0:0:0:
177,188,143625,1,0,0:0:0:0:
215,184,143700,1,8,0:0:0:0:
166,171,143775,1,8,0:0:0:0:
215,184,143850,1,0,0:0:0:0:
174,179,143925,1,8,0:0:0:0:
201,193,144000,1,0,0:0:0:0:
202,191,144150,1,0,0:0:0:0:
202,191,144225,1,0,0:0:0:0:
202,191,144300,1,8,0:0:0:0:
202,191,144450,1,0,0:0:0:0:
208,193,144600,1,8,0:0:0:0:
225,205,144675,1,8,0:0:0:0:
206,197,144750,1,0,0:0:0:0:
208,193,144900,1,8,0:0:0:0:
216,196,144975,1,0,0:0:0:0:
203,200,145050,1,0,0:0:0:0:
205,203,145125,1,0,0:0:0:0:
203,200,145200,1,8,0:0:0:0:
209,200,145275,1,8,0:0:0:0:
204,206,145350,1,0,0:0:0:0:
205,206,145500,1,8,0:0:0:0:
205,206,145575,1,0,0:0:0:0:
206,197,145650,1,0,0:0:0:0:
206,198,145725,1,0,0:0:0:0:
206,198,145800,1,8,0:0:0:0:
206,198,145950,1,0,0:0:0:0:
203,200,146100,1,8,0:0:0:0:
203,200,146175,1,0,0:0:0:0:
206,198,146250,1,8,0:0:0:0:
207,198,146325,1,8,0:0:0:0:
207,198,146400,1,0,0:0:0:0:
205,206,146550,1,0,0:0:0:0:
205,202,146625,1,0,0:0:0:0:
205,202,146700,1,8,0:0:0:0:
225,211,146775,1,8,0:0:0:0:
205,202,146850,1,0,0:0:0:0:
205,202,147000,1,8,0:0:0:0:
221,204,147075,1,0,0:0:0:0:
203,200,147150,1,8,0:0:0:0:
205,202,147300,1,8,0:0:0:0:
205,202,147375,1,0,0:0:0:0:
205,202,147450,1,0,0:0:0:0:
205,206,147525,1,0,0:0:0:0:
205,202,147600,1,8,0:0:0:0:
205,202,147750,1,0,0:0:0:0:
223,193,147825,1,0,0:0:0:0:
225,190,147900,1,8,0:0:0:0:
185,193,147975,1,8,0:0:0:0:
223,193,148050,1,0,0:0:0:0:
203,200,148125,1,0,0:0:0:0:
223,193,148200,1,8,0:0:0:0:
183,189,148350,1,0,0:0:0:0:
183,189,148400,1,0,0:0:0:0:
183,189,148450,1,0,0:0:0:0:
177,188,148500,1,8,0:0:0:0:
215,184,148575,1,8,0:0:0:0:
215,184,148650,1,8,0:0:0:0:
201,193,148800,1,0,0:0:0:0:
202,191,148950,1,0,0:0:0:0:
202,191,149025,1,0,0:0:0:0:
202,191,149100,1,8,0:0:0:0:
202,191,149250,1,0,0:0:0:0:
208,193,149400,1,8,0:0:0:0:
225,205,149475,1,8,0:0:0:0:
206,197,149550,1,0,0:0:0:0:
208,193,149700,1,8,0:0:0:0:
189,208,149775,1,0,0:0:0:0:
203,200,149850,1,0,0:0:0:0:
205,203,149925,1,0,0:0:0:0:
203,200,150000,1,8,0:0:0:0:
204,206,150150,1,0,0:0:0:0:
181,202,150225,1,0,0:0:0:0:
205,206,150300,1,8,0:0:0:0:
205,206,150375,1,8,0:0:0:0:
206,197,150450,1,0,0:0:0:0:
206,198,150600,1,8,0:0:0:0:
206,198,150750,1,0,0:0:0:0:
206,198,150825,1,0,0:0:0:0:
203,200,150900,1,8,0:0:0:0:
203,200,150975,1,0,0:0:0:0:
206,198,151050,1,8,0:0:0:0:
207,198,151125,1,8,0:0:0:0:
207,198,151200,1,0,0:0:0:0:
205,206,151350,1,0,0:0:0:0:
205,202,151425,1,0,0:0:0:0:
205,202,151500,1,8,0:0:0:0:
214,197,151575,1,8,0:0:0:0:
205,202,151650,1,0,0:0:0:0:
205,202,151800,1,8,0:0:0:0:
221,204,151875,1,0,0:0:0:0:
203,200,151950,1,8,0:0:0:0:
205,202,152100,1,8,0:0:0:0:
205,202,152175,1,0,0:0:0:0:
205,202,152250,1,0,0:0:0:0:
205,202,152400,1,8,0:0:0:0:
168,180,152475,1,8,0:0:0:0:
205,202,152550,1,0,0:0:0:0:
223,193,152625,1,0,0:0:0:0:
225,190,152700,1,8,0:0:0:0:
223,193,152800,1,0,0:0:0:0:
203,200,152850,1,0,0:0:0:0:
223,193,152900,1,0,0:0:0:0:
212,200,152950,1,0,0:0:0:0:
183,189,153000,1,8,0:0:0:0:
203,194,153075,1,8,0:0:0:0:
164,204,153150,1,8,0:0:0:0:
177,188,153225,1,8,0:0:0:0:
215,184,153300,1,0,0:0:0:0:
166,171,153375,1,0,0:0:0:0:
215,184,153450,1,8,0:0:0:0:
192,208,153525,1,8,0:0:0:0:
228,184,153600,1,0,0:0:0:0:
187,198,153750,1,0,0:0:0:0:
197,197,153825,1,0,0:0:0:0:
194,198,153900,1,8,0:0:0:0:
194,198,154050,1,0,0:0:0:0:
208,193,154200,1,8,0:0:0:0:
208,193,154275,1,8,0:0:0:0:
208,193,154350,1,0,0:0:0:0:
218,198,154500,1,8,0:0:0:0:
192,192,154575,1,0,0:0:0:0:
218,200,154650,1,0,0:0:0:0:
218,200,154725,1,0,0:0:0:0:
218,200,154800,1,8,0:0:0:0:
223,203,154875,1,8,0:0:0:0:
218,200,154950,1,0,0:0:0:0:
218,200,155100,1,8,0:0:0:0:
218,200,155250,1,8,0:0:0:0:
213,203,155325,1,8,0:0:0:0:
218,199,155400,1,0,0:0:0:0:
218,200,155700,1,8,0:0:0:0:
218,200,156000,1,0,0:0:0:0:
211,211,156150,1,0,0:0:0:0:
212,211,156225,1,0,0:0:0:0:
212,211,156300,1,8,0:0:0:0:
212,211,156450,1,0,0:0:0:0:
218,220,156600,1,8,0:0:0:0:
234,233,156675,1,8,0:0:0:0:
231,212,156750,1,0,0:0:0:0:
226,229,156825,1,0,0:0:0:0:
231,212,156900,1,8,0:0:0:0:
218,223,156975,1,8,0:0:0:0:
231,212,157050,1,0,0:0:0:0:
231,212,157200,1,8,0:0:0:0:
225,216,157275,1,8,0:0:0:0:
231,212,157350,1,0,0:0:0:0:
207,213,157425,1,0,0:0:0:0:
231,212,157500,1,8,0:0:0:0:
226,216,157575,1,0,0:0:0:0:
229,223,157650,1,0,0:0:0:0:
225,223,157725,1,0,0:0:0:0:
229,223,157800,1,8,0:0:0:0:
237,230,157875,1,8,0:0:0:0:
229,223,157950,1,0,0:0:0:0:
181,204,158025,1,0,0:0:0:0:
229,223,158100,1,8,0:0:0:0:
199,188,158175,1,0,0:0:0:0:
193,199,158250,1,8,0:0:0:0:
187,198,158400,5,0,0:0:0:0:
187,198,158550,1,0,0:0:0:0:
197,197,158625,1,0,0:0:0:0:
194,198,158700,1,8,0:0:0:0:
194,198,158850,1,0,0:0:0:0:
208,193,159000,1,8,0:0:0:0:
208,193,159075,1,0,0:0:0:0:
208,193,159150,1,8,0:0:0:0:
218,198,159300,1,8,0:0:0:0:
213,189,159375,1,0,0:0:0:0:
218,200,159450,1,0,0:0:0:0:
218,200,159525,1,0,0:0:0:0:
218,200,159600,1,8,0:0:0:0:
200,215,159675,1,8,0:0:0:0:
218,200,159750,1,0,0:0:0:0:
213,203,159825,1,0,0:0:0:0:
218,200,159900,1,8,0:0:0:0:
218,200,160050,1,0,0:0:0:0:
218,199,160200,1,8,0:0:0:0:
218,198,160275,1,8,0:0:0:0:
218,198,160350,1,0,0:0:0:0:
213,194,160425,1,0,0:0:0:0:
218,200,160500,1,8,0:0:0:0:
218,200,160575,1,0,0:0:0:0:
218,200,160650,1,8,0:0:0:0:
218,200,160725,1,8,0:0:0:0:
218,200,160800,1,0,0:0:0:0:
211,211,160950,1,0,0:0:0:0:
212,211,161025,1,0,0:0:0:0:
212,211,161100,1,8,0:0:0:0:
212,211,161250,1,0,0:0:0:0:
218,220,161400,1,8,0:0:0:0:
234,233,161475,1,0,0:0:0:0:
231,212,161550,1,8,0:0:0:0:
231,212,161700,1,8,0:0:0:0:
234,213,161775,1,0,0:0:0:0:
231,212,161850,1,8,0:0:0:0:
237,212,161925,1,8,0:0:0:0:
231,212,162000,1,0,0:0:0:0:
231,212,162300,1,8,0:0:0:0:
238,218,162600,1,0,0:0:0:0:
229,223,162900,1,8,0:0:0:0:
187,198,163200,5,0,0:0:0:0:
187,198,163350,1,0,0:0:0:0:
197,197,163425,1,0,0:0:0:0:
194,198,163500,1,8,0:0:0:0:
194,198,163650,1,0,0:0:0:0:
192,192,163725,1,0,0:0:0:0:
192,192,163800,1,8,0:0:0:0:
201,208,163875,1,8,0:0:0:0:
208,193,163950,1,0,0:0:0:0:
218,198,164100,1,8,0:0:0:0:
192,192,164175,1,0,0:0:0:0:
218,200,164250,1,0,0:0:0:0:
218,200,164325,1,0,0:0:0:0:
218,200,164400,1,8,0:0:0:0:
218,200,164550,1,0,0:0:0:0:
188,198,164625,1,0,0:0:0:0:
218,200,164700,1,8,0:0:0:0:
183,195,164775,1,8,0:0:0:0:
218,200,164850,1,0,0:0:0:0:
218,199,165000,1,8,0:0:0:0:
218,198,165150,1,0,0:0:0:0:
201,197,165225,5,0,0:0:0:0:
218,200,165300,1,8,0:0:0:0:
218,200,165375,1,8,0:0:0:0:
218,200,165450,1,0,0:0:0:0:
218,200,165525,1,0,0:0:0:0:
218,200,165600,1,8,0:0:0:0:
211,211,165750,1,0,0:0:0:0:
210,213,165825,1,0,0:0:0:0:
212,211,165900,1,8,0:0:0:0:
246,220,165975,1,8,0:0:0:0:
212,211,166050,1,0,0:0:0:0:
218,220,166200,1,8,0:0:0:0:
234,233,166275,1,8,0:0:0:0:
231,212,166350,1,0,0:0:0:0:
231,212,166500,1,8,0:0:0:0:
231,212,166575,1,0,0:0:0:0:
231,212,166650,1,8,0:0:0:0:
228,226,166725,1,8,0:0:0:0:
231,212,166800,1,0,0:0:0:0:
231,212,166950,1,8,0:0:0:0:
231,212,167025,1,0,0:0:0:0:
231,212,167100,1,8,0:0:0:0:
229,223,167250,1,0,0:0:0:0:
225,223,167325,1,0,0:0:0:0:
229,223,167400,1,8,0:0:0:0:
229,223,167475,1,8,0:0:0:0:
229,223,167550,1,0,0:0:0:0:
229,223,167625,1,0,0:0:0:0:
229,223,167700,1,8,0:0:0:0:
187,198,167775,1,0,0:0:0:0:
184,193,167850,1,8,0:0:0:0:
187,198,167925,1,8,0:0:0:0:
187,198,168000,5,0,0:0:0:0:
187,198,168150,1,0,0:0:0:0:
197,197,168225,1,0,0:0:0:0:
194,198,168300,1,8,0:0:0:0:
194,192,168375,1,8,0:0:0:0:
194,198,168450,1,0,0:0:0:0:
208,193,168600,1,8,0:0:0:0:
194,192,168675,1,0,0:0:0:0:
208,193,168750,1,8,0:0:0:0:
218,198,168900,1,8,0:0:0:0:
192,192,168975,1,0,0:0:0:0:
218,200,169050,1,0,0:0:0:0:
218,200,169125,1,0,0:0:0:0:
218,200,169200,1,8,0:0:0:0:
200,215,169275,1,8,0:0:0:0:
218,200,169350,1,0,0:0:0:0:
220,189,169425,5,0,0:0:0:0:
218,200,169500,1,8,0:0:0:0:
218,200,169650,1,0,0:0:0:0:
218,199,169800,1,8,0:0:0:0:
218,200,169875,1,8,0:0:0:0:
218,198,169950,1,0,0:0:0:0:
220,189,170025,1,0,0:0:0:0:
218,200,170100,1,8,0:0:0:0:
218,200,170175,1,0,0:0:0:0:
218,200,170250,1,8,0:0:0:0:
218,200,170325,1,8,0:0:0:0:
218,200,170400,1,0,0:0:0:0:
211,211,170550,1,0,0:0:0:0:
212,211,170625,1,0,0:0:0:0:
212,211,170700,1,8,0:0:0:0:
220,189,170775,1,8,0:0:0:0:
212,211,170850,1,0,0:0:0:0:
218,220,171000,1,8,0:0:0:0:
208,203,171075,1,0,0:0:0:0:
231,212,171150,1,8,0:0:0:0:
231,212,171300,1,8,0:0:0:0:
231,212,171375,1,0,0:0:0:0:
231,212,171450,1,0,0:0:0:0:
231,212,171525,1,0,0:0:0:0:
231,212,171600,1,8,0:0:0:0:
252,220,171675,1,8,0:0:0:0:
231,212,171750,1,0,0:0:0:0:
231,212,171825,1,0,0:0:0:0:
231,212,171900,1,8,0:0:0:0:
228,223,171975,1,8,0:0:0:0:
229,223,172050,1,0,0:0:0:0:
225,223,172125,1,0,0:0:0:0:
229,223,172200,1,8,0:0:0:0:
225,200,172350,1,0,0:0:0:0:
225,200,172400,1,0,0:0:0:0:
225,200,172450,1,0,0:0:0:0:
246,228,172500,1,8,0:0:0:0:
246,226,172575,1,8,0:0:0:0:
246,226,172650,1,8,0:0:0:0:
212,212,172800,1,0,0:0:0:0:
222,218,172950,1,0,0:0:0:0:
222,218,173025,1,0,0:0:0:0:
222,218,173250,1,0,0:0:0:0:
254,211,173550,1,0,0:0:0:0:
241,216,173850,1,0,0:0:0:0:
201,204,174150,1,0,0:0:0:0:
210,195,174300,1,0,0:0:0:0:
210,195,174450,1,0,0:0:0:0:
210,195,174600,1,0,0:0:0:0:
196,209,174900,1,0,0:0:0:0:
196,209,175200,1,0,0:0:0:0:
201,204,175350,1,0,0:0:0:0:
201,204,175425,1,0,0:0:0:0:
203,204,175650,1,0,0:0:0:0:
203,204,175950,1,0,0:0:0:0:
201,204,176250,1,0,0:0:0:0:
208,203,176550,1,0,0:0:0:0:
205,208,176700,1,0,0:0:0:0:
205,208,176850,1,0,0:0:0:0:
205,208,177000,1,0,0:0:0:0:
205,208,177300,1,0,0:0:0:0:
205,208,177600,1,0,0:0:0:0:
219,213,177750,1,0,0:0:0:0:
219,213,177825,1,0,0:0:0:0:
217,206,178050,1,0,0:0:0:0:
217,206,178350,1,0,0:0:0:0:
232,216,178650,1,0,0:0:0:0:
234,228,178950,1,0,0:0:0:0:
200,201,179100,1,0,0:0:0:0:
248,223,179250,1,0,0:0:0:0:
217,217,179400,1,0,0:0:0:0:
246,224,179700,1,0,0:0:0:0:
246,224,180000,1,0,0:0:0:0:
267,240,180600,1,8,0:0:0:0:
267,240,180900,1,8,0:0:0:0:
251,245,181350,1,0,0:0:0:0:
239,245,181800,1,0,0:0:0:0:
239,245,182100,1,8,0:0:0:0:
247,227,182400,1,0,0:0:0:0:
238,227,182550,1,0,0:0:0:0:
238,227,182625,1,0,0:0:0:0:
238,227,182700,1,8,0:0:0:0:
238,227,182850,1,0,0:0:0:0:
238,227,182925,1,0,0:0:0:0:
238,227,183000,1,8,0:0:0:0:
238,227,183075,1,8,0:0:0:0:
238,227,183150,1,0,0:0:0:0:
238,227,183300,1,8,0:0:0:0:
212,223,183450,1,0,0:0:0:0:
212,223,183525,1,8,0:0:0:0:
212,223,183600,1,0,0:0:0:0:
212,223,183675,1,8,0:0:0:0:
212,223,183750,1,0,0:0:0:0:
212,223,183900,1,8,0:0:0:0:
221,226,184050,1,0,0:0:0:0:
223,201,184125,1,0,0:0:0:0:
221,226,184200,1,8,0:0:0:0:
221,226,184275,1,8,0:0:0:0:
221,226,184350,1,0,0:0:0:0:
223,201,184500,1,8,0:0:0:0:
238,220,184650,1,8,0:0:0:0:
238,220,184725,1,8,0:0:0:0:
238,220,184800,1,0,0:0:0:0:
238,220,184950,1,8,0:0:0:0:
182,210,185025,1,0,0:0:0:0:
220,208,185100,1,8,0:0:0:0:
184,221,185250,1,0,0:0:0:0:
184,221,185400,1,8,0:0:0:0:
184,221,185475,1,8,0:0:0:0:
184,221,185550,1,0,0:0:0:0:
184,221,185625,1,0,0:0:0:0:
184,221,185700,1,8,0:0:0:0:
184,221,185850,1,8,0:0:0:0:
184,221,185925,1,8,0:0:0:0:
184,221,186000,1,0,0:0:0:0:
184,221,186075,1,8,0:0:0:0:
184,221,186150,1,0,0:0:0:0:
184,221,186300,1,8,0:0:0:0:
155,203,186450,1,0,0:0:0:0:
200,210,186525,1,0,0:0:0:0:
155,203,186600,1,8,0:0:0:0:
155,203,186675,1,8,0:0:0:0:
155,203,186750,1,0,0:0:0:0:
230,224,186825,1,0,0:0:0:0:
155,203,186900,1,8,0:0:0:0:
200,210,187050,1,8,0:0:0:0:
247,227,187200,1,0,0:0:0:0:
238,227,187350,1,0,0:0:0:0:
238,227,187425,1,0,0:0:0:0:
238,227,187500,1,8,0:0:0:0:
238,227,187650,1,0,0:0:0:0:
238,227,187725,1,0,0:0:0:0:
238,227,187800,1,8,0:0:0:0:
238,227,187875,1,8,0:0:0:0:
238,227,187950,1,0,0:0:0:0:
238,227,188100,1,8,0:0:0:0:
212,223,188250,1,0,0:0:0:0:
212,223,188325,1,8,0:0:0:0:
212,223,188400,1,0,0:0:0:0:
212,223,188475,1,8,0:0:0:0:
212,223,188550,1,0,0:0:0:0:
212,223,188700,1,8,0:0:0:0:
221,226,188850,1,0,0:0:0:0:
221,226,189000,1,8,0:0:0:0:
221,226,189075,1,8,0:0:0:0:
221,226,189150,1,0,0:0:0:0:
203,233,189225,1,0,0:0:0:0:
223,201,189300,1,8,0:0:0:0:
238,220,189450,1,8,0:0:0:0:
238,220,189525,1,8,0:0:0:0:
238,220,189600,1,0,0:0:0:0:
238,220,189750,1,8,0:0:0:0:
182,210,189825,1,0,0:0:0:0:
220,208,189900,1,8,0:0:0:0:
184,221,190050,1,0,0:0:0:0:
184,221,190200,1,8,0:0:0:0:
184,221,190275,1,8,0:0:0:0:
184,221,190350,1,0,0:0:0:0:
184,221,190425,1,0,0:0:0:0:
184,221,190500,1,8,0:0:0:0:
184,221,190650,1,8,0:0:0:0:
184,221,190725,1,8,0:0:0:0:
184,221,190800,1,0,0:0:0:0:
184,221,190875,1,8,0:0:0:0:
184,221,190950,1,0,0:0:0:0:
184,221,191100,1,8,0:0:0:0:
155,203,191250,1,0,0:0:0:0:
200,210,191325,1,0,0:0:0:0:
155,203,191400,1,8,0:0:0:0:
155,203,191475,1,8,0:0:0:0:
155,203,191550,1,0,0:0:0:0:
230,224,191625,1,0,0:0:0:0:
155,203,191700,1,8,0:0:0:0:
176,216,191775,1,0,0:0:0:0:
200,210,191850,1,8,0:0:0:0:
247,227,192000,1,0,0:0:0:0:
238,227,192150,1,0,0:0:0:0:
238,227,192225,1,0,0:0:0:0:
238,227,192300,1,8,0:0:0:0:
238,227,192450,1,0,0:0:0:0:
238,227,192525,1,0,0:0:0:0:
238,227,192600,1,8,0:0:0:0:
238,227,192675,1,8,0:0:0:0:
238,227,192750,1,0,0:0:0:0:
238,227,192900,1,8,0:0:0:0:
212,223,193050,1,0,0:0:0:0:
212,223,193125,1,8,0:0:0:0:
212,223,193200,1,0,0:0:0:0:
212,223,193275,1,8,0:0:0:0:
212,223,193350,1,0,0:0:0:0:
212,223,193500,1,8,0:0:0:0:
221,226,193650,1,0,0:0:0:0:
213,215,193725,1,0,0:0:0:0:
221,226,193800,1,8,0:0:0:0:
221,226,193875,1,8,0:0:0:0:
221,226,193950,1,0,0:0:0:0:
223,201,194100,1,8,0:0:0:0:
238,220,194250,1,8,0:0:0:0:
238,220,194325,1,8,0:0:0:0:
238,220,194400,1,0,0:0:0:0:
238,220,194550,1,8,0:0:0:0:
182,210,194625,1,0,0:0:0:0:
220,208,194700,1,8,0:0:0:0:
184,221,194850,1,0,0:0:0:0:
184,221,195000,1,8,0:0:0:0:
184,221,195075,1,8,0:0:0:0:
184,221,195150,1,0,0:0:0:0:
184,221,195225,1,0,0:0:0:0:
184,221,195300,1,8,0:0:0:0:
184,221,195450,1,8,0:0:0:0:
184,221,195525,1,8,0:0:0:0:
184,221,195600,1,0,0:0:0:0:
184,221,195675,1,8,0:0:0:0:
184,221,195750,1,0,0:0:0:0:
184,221,195900,1,8,0:0:0:0:
155,203,196050,1,0,0:0:0:0:
200,210,196125,1,0,0:0:0:0:
155,203,196200,1,8,0:0:0:0:
155,203,196275,1,8,0:0:0:0:
155,203,196350,1,0,0:0:0:0:
155,203,196425,1,0,0:0:0:0:
155,203,196500,1,8,0:0:0:0:
200,210,196650,1,8,0:0:0:0:
247,227,196800,1,0,0:0:0:0:
238,227,196950,1,0,0:0:0:0:
238,227,197025,1,0,0:0:0:0:
238,227,197100,1,8,0:0:0:0:
238,227,197250,1,0,0:0:0:0:
238,227,197400,1,8,0:0:0:0:
238,227,197475,1,8,0:0:0:0:
238,227,197550,1,0,0:0:0:0:
220,212,197625,1,0,0:0:0:0:
238,227,197700,1,8,0:0:0:0:
212,223,197850,1,0,0:0:0:0:
212,223,197925,1,8,0:0:0:0:
212,223,198000,1,0,0:0:0:0:
212,223,198075,1,8,0:0:0:0:
212,223,198150,1,0,0:0:0:0:
212,223,198300,1,8,0:0:0:0:
221,226,198450,1,0,0:0:0:0:
221,226,198600,1,8,0:0:0:0:
221,226,198675,1,8,0:0:0:0:
221,226,198750,1,0,0:0:0:0:
239,217,198825,1,0,0:0:0:0:
223,201,198900,1,8,0:0:0:0:
238,220,199050,1,8,0:0:0:0:
238,220,199125,1,8,0:0:0:0:
238,220,199200,1,0,0:0:0:0:
238,220,199350,1,8,0:0:0:0:
182,210,199400,1,0,0:0:0:0:
193,222,199450,1,0,0:0:0:0:
220,208,199500,1,8,0:0:0:0:
184,221,199650,1,0,0:0:0:0:
184,221,199800,1,8,0:0:0:0:
184,221,199875,1,8,0:0:0:0:
184,221,199950,1,0,0:0:0:0:
184,221,200025,1,0,0:0:0:0:
184,221,200100,1,8,0:0:0:0:
162,181,200150,1,8,0:0:0:0:
158,179,200250,1,0,0:0:0:0:
142,197,200350,1,8,0:0:0:0:
184,221,200400,1,8,0:0:0:0:
184,221,200550,1,8,0:0:0:0:
115,188,200625,1,0,0:0:0:0:
184,221,200700,1,8,0:0:0:0:
178,193,200750,1,8,0:0:0:0:
189,189,200850,1,0,0:0:0:0:
177,205,200925,1,0,0:0:0:0:
155,203,201000,1,8,0:0:0:0:
155,203,201150,1,8,0:0:0:0:
155,203,201225,1,8,0:0:0:0:
155,203,201300,1,0,0:0:0:0:
202,195,201375,1,0,0:0:0:0:
164,189,201450,1,8,0:0:0:0:
247,227,201600,1,0,0:0:0:0:
238,227,201750,1,8,0:0:0:0:
238,227,201825,1,0,0:0:0:0:
238,227,201900,1,8,0:0:0:0:
238,227,202050,1,0,0:0:0:0:
238,227,202125,1,0,0:0:0:0:
238,227,202200,1,8,0:0:0:0:
238,227,202275,1,8,0:0:0:0:
238,227,202350,1,0,0:0:0:0:
224,230,202425,1,0,0:0:0:0:
238,227,202500,1,8,0:0:0:0:
212,223,202650,1,0,0:0:0:0:
212,223,202725,1,8,0:0:0:0:
212,223,202800,1,0,0:0:0:0:
212,223,202875,1,8,0:0:0:0:
212,223,202950,1,0,0:0:0:0:
212,223,203100,1,8,0:0:0:0:
221,226,203250,1,0,0:0:0:0:
225,224,203325,1,0,0:0:0:0:
221,226,203400,1,8,0:0:0:0:
221,226,203475,1,8,0:0:0:0:
221,226,203550,1,0,0:0:0:0:
223,201,203625,1,0,0:0:0:0:
223,201,203700,1,8,0:0:0:0:
238,220,203850,1,8,0:0:0:0:
238,220,203925,1,8,0:0:0:0:
238,220,204000,1,0,0:0:0:0:
238,220,204150,1,8,0:0:0:0:
182,210,204225,1,0,0:0:0:0:
220,208,204300,1,8,0:0:0:0:
184,221,204450,1,0,0:0:0:0:
196,223,204525,1,0,0:0:0:0:
184,221,204600,1,8,0:0:0:0:
184,221,204675,1,8,0:0:0:0:
184,221,204750,1,0,0:0:0:0:
184,221,204900,1,8,0:0:0:0:
184,221,205050,1,8,0:0:0:0:
184,221,205125,1,8,0:0:0:0:
184,221,205200,1,0,0:0:0:0:
184,221,205275,1,8,0:0:0:0:
184,221,205350,1,0,0:0:0:0:
184,221,205425,1,0,0:0:0:0:
184,221,205500,1,8,0:0:0:0:
155,203,205650,1,0,0:0:0:0:
200,210,205725,1,0,0:0:0:0:
155,203,205800,1,8,0:0:0:0:
155,203,205875,1,8,0:0:0:0:
155,203,205950,1,0,0:0:0:0:
155,203,206025,1,0,0:0:0:0:
155,203,206100,1,8,0:0:0:0:
184,207,206175,1,0,0:0:0:0:
200,210,206250,1,8,0:0:0:0:
231,208,206325,1,8,0:0:0:0:
247,227,206400,1,0,0:0:0:0:
238,227,206550,1,8,0:0:0:0:
238,227,206625,1,0,0:0:0:0:
238,227,206700,1,8,0:0:0:0:
238,227,206850,1,0,0:0:0:0:
238,227,206925,1,0,0:0:0:0:
238,227,207000,1,8,0:0:0:0:
238,227,207075,1,8,0:0:0:0:
238,227,207150,1,0,0:0:0:0:
229,198,207225,1,0,0:0:0:0:
238,227,207300,1,8,0:0:0:0:
212,223,207450,1,0,0:0:0:0:
212,213,207525,1,8,0:0:0:0:
212,223,207600,1,0,0:0:0:0:
230,218,207675,1,8,0:0:0:0:
212,223,207750,1,0,0:0:0:0:
212,223,207900,1,8,0:0:0:0:
221,226,208050,1,0,0:0:0:0:
239,217,208125,1,0,0:0:0:0:
221,226,208200,1,8,0:0:0:0:
221,226,208275,1,8,0:0:0:0:
221,226,208350,1,0,0:0:0:0:
246,221,208425,1,0,0:0:0:0:
223,201,208500,1,8,0:0:0:0:
238,220,208650,1,8,0:0:0:0:
238,220,208725,1,8,0:0:0:0:
238,220,208800,1,0,0:0:0:0:
238,220,208950,1,8,0:0:0:0:
182,210,209025,1,0,0:0:0:0:
220,208,209100,1,8,0:0:0:0:
184,221,209250,1,0,0:0:0:0:
191,198,209325,1,0,0:0:0:0:
184,221,209400,1,8,0:0:0:0:
184,221,209475,1,8,0:0:0:0:
184,221,209550,1,0,0:0:0:0:
184,221,209700,1,8,0:0:0:0:
184,221,209850,1,8,0:0:0:0:
184,221,209925,1,8,0:0:0:0:
184,221,210000,1,0,0:0:0:0:
184,221,210075,1,8,0:0:0:0:
184,221,210150,1,0,0:0:0:0:
212,211,210225,1,0,0:0:0:0:
184,221,210300,1,8,0:0:0:0:
155,203,210450,1,0,0:0:0:0:
200,210,210525,1,0,0:0:0:0:
155,203,210600,1,8,0:0:0:0:
155,203,210675,1,8,0:0:0:0:
155,203,210750,1,0,0:0:0:0:
155,203,210825,1,0,0:0:0:0:
155,203,210900,1,8,0:0:0:0:
189,202,210975,1,8,0:0:0:0:
200,210,211050,1,8,0:0:0:0:
202,225,211125,1,8,0:0:0:0:
247,227,211200,1,0,0:0:0:0:
238,227,211350,1,8,0:0:0:0:
238,227,211425,1,0,0:0:0:0:
238,227,211500,1,8,0:0:0:0:
238,227,211650,1,0,0:0:0:0:
238,227,211725,1,0,0:0:0:0:
238,227,211800,1,8,0:0:0:0:
238,227,211875,1,8,0:0:0:0:
238,227,211950,1,0,0:0:0:0:
223,233,212025,1,0,0:0:0:0:
238,227,212100,1,8,0:0:0:0:
212,223,212250,1,8,0:0:0:0:
212,223,212325,1,8,0:0:0:0:
212,223,212400,1,0,0:0:0:0:
212,223,212475,1,8,0:0:0:0:
212,223,212550,1,0,0:0:0:0:
225,234,212625,1,0,0:0:0:0:
212,223,212700,1,8,0:0:0:0:
221,226,212850,1,0,0:0:0:0:
213,215,212925,1,0,0:0:0:0:
221,226,213000,1,8,0:0:0:0:
221,226,213075,1,8,0:0:0:0:
221,226,213150,1,0,0:0:0:0:
223,201,213225,1,0,0:0:0:0:
223,201,213300,1,8,0:0:0:0:
223,233,213375,1,0,0:0:0:0:
238,220,213450,1,8,0:0:0:0:
238,220,213525,1,8,0:0:0:0:
238,220,213600,1,0,0:0:0:0:
238,220,213750,1,8,0:0:0:0:
182,210,213825,1,0,0:0:0:0:
220,208,213900,1,8,0:0:0:0:
184,221,214050,1,0,0:0:0:0:
194,206,214125,1,0,0:0:0:0:
184,221,214200,1,8,0:0:0:0:
184,221,214275,1,8,0:0:0:0:
184,221,214350,1,0,0:0:0:0:
224,234,214425,1,0,0:0:0:0:
184,221,214500,1,8,0:0:0:0:
184,221,214650,1,8,0:0:0:0:
184,221,214725,1,8,0:0:0:0:
184,221,214800,1,0,0:0:0:0:
184,221,214875,1,0,0:0:0:0:
184,221,214950,1,8,0:0:0:0:
179,156,215025,1,8,0:0:0:0:
184,221,215100,1,8,0:0:0:0:
189,165,215175,1,8,0:0:0:0:
155,203,215250,1,0,0:0:0:0:
200,210,215325,1,0,0:0:0:0:
155,203,215400,1,8,0:0:0:0:
155,203,215475,1,8,0:0:0:0:
155,203,215550,1,8,0:0:0:0:
155,203,215625,1,8,0:0:0:0:
155,203,215700,1,0,0:0:0:0:
217,212,215775,1,0,0:0:0:0:
200,210,215850,1,8,0:0:0:0:
210,206,215925,1,8,0:0:0:0:
247,227,216000,1,0,0:0:0:0:
238,227,216150,1,8,0:0:0:0:
238,227,216225,1,0,0:0:0:0:
238,227,216300,1,8,0:0:0:0:
238,227,216450,1,0,0:0:0:0:
215,223,216525,1,0,0:0:0:0:
238,227,216600,1,8,0:0:0:0:
238,227,216675,1,8,0:0:0:0:
238,227,216750,1,0,0:0:0:0:
244,232,216825,1,0,0:0:0:0:
238,227,216900,1,8,0:0:0:0:
212,223,217050,1,8,0:0:0:0:
212,223,217125,1,8,0:0:0:0:
212,223,217200,1,0,0:0:0:0:
212,223,217275,1,8,0:0:0:0:
212,223,217350,1,0,0:0:0:0:
221,203,217425,1,0,0:0:0:0:
212,223,217500,1,8,0:0:0:0:
221,226,217650,1,0,0:0:0:0:
239,217,217725,1,0,0:0:0:0:
221,226,217800,1,8,0:0:0:0:
221,226,217875,1,8,0:0:0:0:
221,226,217950,1,8,0:0:0:0:
194,169,218025,1,8,0:0:0:0:
223,201,218100,1,0,0:0:0:0:
210,211,218175,1,0,0:0:0:0:
238,220,218250,1,8,0:0:0:0:
238,220,218325,1,8,0:0:0:0:
238,220,218400,1,0,0:0:0:0:
238,220,218550,1,8,0:0:0:0:
182,210,218625,1,0,0:0:0:0:
220,208,218700,1,8,0:0:0:0:
184,221,218850,1,0,0:0:0:0:
185,206,218925,1,0,0:0:0:0:
184,221,219000,1,8,0:0:0:0:
184,221,219075,1,8,0:0:0:0:
184,221,219150,1,0,0:0:0:0:
184,221,219225,1,0,0:0:0:0:
184,221,219300,1,8,0:0:0:0:
189,197,219375,1,0,0:0:0:0:
158,179,219450,1,8,0:0:0:0:
165,184,219525,1,8,0:0:0:0:
184,221,219600,1,0,0:0:0:0:
256,192,219750,12,0,220650,0:0:0:0:
215,115,220800,5,0,0:0:0:0:
213,197,220875,1,0,0:0:0:0:
213,197,220950,1,8,0:0:0:0:
213,197,221025,1,0,0:0:0:0:
213,197,221100,1,8,0:0:0:0:
213,197,221175,1,8,0:0:0:0:
208,216,221250,1,0,0:0:0:0:
208,216,221325,1,8,0:0:0:0:
208,216,221400,1,0,0:0:0:0:
208,216,221475,1,0,0:0:0:0:
208,216,221550,1,8,0:0:0:0:
208,216,221625,1,0,0:0:0:0:
208,216,221700,1,0,0:0:0:0:
208,216,221775,1,0,0:0:0:0:
208,216,221850,1,8,0:0:0:0:
215,115,222000,5,0,0:0:0:0:
213,197,222075,1,0,0:0:0:0:
213,197,222150,1,8,0:0:0:0:
213,197,222225,1,0,0:0:0:0:
213,197,222300,1,8,0:0:0:0:
213,197,222375,1,8,0:0:0:0:
208,216,222450,1,0,0:0:0:0:
208,216,222525,1,8,0:0:0:0:
208,216,222600,1,0,0:0:0:0:
208,216,222675,1,0,0:0:0:0:
208,216,222750,1,8,0:0:0:0:
208,216,222825,1,0,0:0:0:0:
208,216,222900,1,0,0:0:0:0:
208,216,222975,1,0,0:0:0:0:
208,216,223050,1,8,0:0:0:0:
215,115,223200,5,0,0:0:0:0:
213,197,223275,1,0,0:0:0:0:
213,197,223350,1,8,0:0:0:0:
213,197,223425,1,0,0:0:0:0:
213,197,223500,1,8,0:0:0:0:
213,197,223575,1,8,0:0:0:0:
208,216,223650,1,0,0:0:0:0:
208,216,223725,1,0,0:0:0:0:
208,216,223800,1,0,0:0:0:0:
208,216,223875,1,0,0:0:0:0:
208,216,223950,1,8,0:0:0:0:
208,216,224025,1,8,0:0:0:0:
208,216,224100,1,0,0:0:0:0:
208,216,224175,1,0,0:0:0:0:
208,216,224250,1,8,0:0:0:0:
215,115,224400,5,0,0:0:0:0:
213,197,224475,1,0,0:0:0:0:
213,197,224550,1,8,0:0:0:0:
213,197,224625,1,0,0:0:0:0:
213,197,224700,1,8,0:0:0:0:
213,197,224775,1,8,0:0:0:0:
208,216,224850,1,0,0:0:0:0:
208,216,224925,1,0,0:0:0:0:
208,216,225000,1,0,0:0:0:0:
208,216,225075,1,0,0:0:0:0:
208,216,225150,1,8,0:0:0:0:
208,216,225225,1,8,0:0:0:0:
208,216,225300,1,0,0:0:0:0:
208,216,225375,1,0,0:0:0:0:
208,216,225450,1,8,0:0:0:0:
215,115,225600,5,0,0:0:0:0:
213,197,225675,1,0,0:0:0:0:
213,197,225750,1,8,0:0:0:0:
213,197,225825,1,0,0:0:0:0:
213,197,225900,1,8,0:0:0:0:
213,197,225975,1,8,0:0:0:0:
208,216,226050,1,0,0:0:0:0:
208,216,226125,1,8,0:0:0:0:
208,216,226200,1,8,0:0:0:0:
208,216,226275,1,0,0:0:0:0:
208,216,226350,1,8,0:0:0:0:
208,216,226425,1,0,0:0:0:0:
208,216,226500,1,0,0:0:0:0:
208,216,226575,1,0,0:0:0:0:
208,216,226650,1,8,0:0:0:0:
215,115,226800,5,0,0:0:0:0:
213,197,226875,1,0,0:0:0:0:
213,197,226950,1,8,0:0:0:0:
213,197,227025,1,0,0:0:0:0:
213,197,227100,1,8,0:0:0:0:
213,197,227175,1,8,0:0:0:0:
208,216,227250,1,0,0:0:0:0:
208,216,227325,1,8,0:0:0:0:
208,216,227400,1,8,0:0:0:0:
208,216,227475,1,0,0:0:0:0:
208,216,227550,1,8,0:0:0:0:
208,216,227625,1,0,0:0:0:0:
208,216,227700,1,0,0:0:0:0:
208,216,227775,1,0,0:0:0:0:
208,216,227850,1,8,0:0:0:0:
215,115,228000,5,0,0:0:0:0:
213,197,228075,1,0,0:0:0:0:
213,197,228150,1,8,0:0:0:0:
213,197,228225,1,0,0:0:0:0:
213,197,228300,1,8,0:0:0:0:
213,197,228375,1,8,0:0:0:0:
208,216,228450,1,8,0:0:0:0:
208,216,228525,1,8,0:0:0:0:
208,216,228600,1,0,0:0:0:0:
208,216,228675,1,0,0:0:0:0:
208,216,228750,1,8,0:0:0:0:
208,216,228825,1,8,0:0:0:0:
208,216,228900,1,0,0:0:0:0:
208,216,228975,1,0,0:0:0:0:
208,216,229050,1,8,0:0:0:0:
215,115,229200,5,0,0:0:0:0:
213,197,229275,1,0,0:0:0:0:
213,197,229350,1,8,0:0:0:0:
213,197,229425,1,0,0:0:0:0:
213,197,229500,1,8,0:0:0:0:
213,197,229575,1,8,0:0:0:0:
208,216,229650,1,8,0:0:0:0:
208,216,229725,1,8,0:0:0:0:
208,216,229800,1,0,0:0:0:0:
208,216,229875,1,0,0:0:0:0:
208,216,229950,1,8,0:0:0:0:
208,216,230025,1,8,0:0:0:0:
208,216,230100,1,0,0:0:0:0:
208,216,230175,1,0,0:0:0:0:
208,216,230250,1,8,0:0:0:0:
215,115,230400,5,0,0:0:0:0:
213,197,230475,1,0,0:0:0:0:
213,197,230550,1,8,0:0:0:0:
213,197,230625,1,0,0:0:0:0:
213,197,230700,1,8,0:0:0:0:
213,197,230775,1,8,0:0:0:0:
208,216,230850,1,0,0:0:0:0:
208,216,230925,1,8,0:0:0:0:
208,216,231000,1,0,0:0:0:0:
208,216,231075,1,0,0:0:0:0:
208,216,231150,1,8,0:0:0:0:
208,216,231225,1,0,0:0:0:0:
208,216,231300,1,0,0:0:0:0:
208,216,231375,1,0,0:0:0:0:
208,216,231450,1,8,0:0:0:0:
215,115,231600,5,0,0:0:0:0:
213,197,231675,1,0,0:0:0:0:
213,197,231750,1,8,0:0:0:0:
213,197,231825,1,0,0:0:0:0:
213,197,231900,1,8,0:0:0:0:
213,197,231975,1,8,0:0:0:0:
208,216,232050,1,0,0:0:0:0:
208,216,232125,1,8,0:0:0:0:
208,216,232200,1,0,0:0:0:0:
208,216,232275,1,0,0:0:0:0:
208,216,232350,1,8,0:0:0:0:
208,216,232425,1,0,0:0:0:0:
208,216,232500,1,0,0:0:0:0:
208,216,232575,1,0,0:0:0:0:
208,216,232650,1,8,0:0:0:0:
215,115,232800,5,0,0:0:0:0:
213,197,232875,1,0,0:0:0:0:
213,197,232950,1,8,0:0:0:0:
213,197,233025,1,0,0:0:0:0:
213,197,233100,1,8,0:0:0:0:
213,197,233175,1,8,0:0:0:0:
208,216,233250,1,0,0:0:0:0:
208,216,233325,1,0,0:0:0:0:
208,216,233400,1,0,0:0:0:0:
208,216,233475,1,0,0:0:0:0:
208,216,233550,1,8,0:0:0:0:
208,216,233625,1,8,0:0:0:0:
208,216,233700,1,0,0:0:0:0:
208,216,233775,1,0,0:0:0:0:
208,216,233850,1,8,0:0:0:0:
215,115,234000,5,0,0:0:0:0:
213,197,234075,1,0,0:0:0:0:
213,197,234150,1,8,0:0:0:0:
213,197,234225,1,0,0:0:0:0:
213,197,234300,1,8,0:0:0:0:
213,197,234375,1,8,0:0:0:0:
208,216,234450,1,0,0:0:0:0:
208,216,234525,1,0,0:0:0:0:
208,216,234600,1,0,0:0:0:0:
208,216,234675,1,0,0:0:0:0:
208,216,234750,1,8,0:0:0:0:
208,216,234825,1,8,0:0:0:0:
208,216,234900,1,0,0:0:0:0:
208,216,234975,1,0,0:0:0:0:
208,216,235050,1,8,0:0:0:0:
215,115,235200,5,0,0:0:0:0:
213,197,235275,1,0,0:0:0:0:
213,197,235350,1,8,0:0:0:0:
213,197,235425,1,0,0:0:0:0:
213,197,235500,1,8,0:0:0:0:
213,197,235575,1,8,0:0:0:0:
208,216,235650,1,0,0:0:0:0:
208,216,235725,1,8,0:0:0:0:
208,216,235800,1,8,0:0:0:0:
208,216,235875,1,0,0:0:0:0:
208,216,235950,1,8,0:0:0:0:
208,216,236025,1,0,0:0:0:0:
208,216,236100,1,0,0:0:0:0:
208,216,236175,1,0,0:0:0:0:
208,216,236250,1,8,0:0:0:0:
215,115,236400,5,0,0:0:0:0:
213,197,236475,1,0,0:0:0:0:
213,197,236550,1,8,0:0:0:0:
213,197,236625,1,0,0:0:0:0:
213,197,236700,1,8,0:0:0:0:
213,197,236775,1,8,0:0:0:0:
208,216,236850,1,0,0:0:0:0:
208,216,236925,1,8,0:0:0:0:
208,216,237000,1,8,0:0:0:0:
208,216,237075,1,0,0:0:0:0:
208,216,237150,1,8,0:0:0:0:
208,216,237225,1,0,0:0:0:0:
208,216,237300,1,0,0:0:0:0:
208,216,237375,1,0,0:0:0:0:
208,216,237450,1,8,0:0:0:0:
215,115,237600,5,0,0:0:0:0:
213,197,237675,1,0,0:0:0:0:
213,197,237750,1,8,0:0:0:0:
213,197,237825,1,0,0:0:0:0:
213,197,237900,1,8,0:0:0:0:
213,197,237975,1,8,0:0:0:0:
208,216,238050,1,8,0:0:0:0:
208,216,238125,1,8,0:0:0:0:
208,216,238200,1,0,0:0:0:0:
208,216,238275,1,0,0:0:0:0:
208,216,238350,1,8,0:0:0:0:
208,216,238425,1,8,0:0:0:0:
208,216,238500,1,0,0:0:0:0:
208,216,238575,1,0,0:0:0:0:
208,216,238650,1,8,0:0:0:0:
215,115,238800,5,0,0:0:0:0:
213,197,238875,5,0,0:0:0:0:
213,197,238950,1,8,0:0:0:0:
213,197,239025,1,0,0:0:0:0:
213,197,239100,1,8,0:0:0:0:
213,197,239175,1,8,0:0:0:0:
208,216,239250,1,8,0:0:0:0:
208,216,239325,1,8,0:0:0:0:
208,216,239400,1,0,0:0:0:0:
208,216,239475,1,0,0:0:0:0:
208,216,239550,1,8,0:0:0:0:
208,216,239625,1,8,0:0:0:0:
208,216,239700,1,0,0:0:0:0:
208,216,239775,1,0,0:0:0:0:
208,216,239850,1,8,0:0:0:0:
256,192,240000,12,0,248400,0:0:0:0:
