osu file format v14

[General]
AudioFilename: Machine Girl - ATHOTH A GO!! GO!!!.mp3
AudioLeadIn: 0
PreviewTime: 29687
Countdown: 0
SampleSet: Soft
StackLeniency: 0.2
Mode: 0
LetterboxInBreaks: 0
WidescreenStoryboard: 0

[Editor]
DistanceSpacing: 1.5
BeatDivisor: 4
GridSize: 16
TimelineZoom: 1.8

[Metadata]
Title:ATHOTH A GO!! GO!!!
TitleUnicode:ATHOTH A GO!! GO!!!
Artist:Machine Girl
ArtistUnicode:Machine Girl
Creator:Jere
Version:SCATTERED IN ILLUSION
Source:
Tags:.​.​.​BECAUSE I’M YOUNG ARROGANT AND HATE EVERYTHING YOU STAND FOR electronic punk breakcore drum and bass electronic punk footwork hardcore juke jungle noise rave english P1Twist Flowziee
BeatmapID:2355149
BeatmapSetID:1127207

[Difficulty]
HPDrainRate:5.1
CircleSize:3.8
OverallDifficulty:8.4
ApproachRate:9.2
SliderMultiplier:2.22
SliderTickRate:0.5

[Events]
//Background and Video events
0,0,"whoever reads this is cute.jpg",0,0
//Break Periods
//Storyboard Layer 0 (Background)
//Storyboard Layer 1 (Fail)
//Storyboard Layer 2 (Pass)
//Storyboard Layer 3 (Foreground)
//Storyboard Layer 4 (Overlay)
//Storyboard Sound Samples

[TimingPoints]
23,333.333333333333,6,2,4,52,1,0
23,-200,6,2,4,52,0,0
856,-200,6,2,8,52,0,0
1356,-200,6,2,4,52,0,0
2856,-200,6,2,8,52,0,0
3356,-200,6,2,4,52,0,0
4856,-200,6,2,8,52,0,0
5356,-200,6,2,4,52,0,0
5689,333.333333333333,6,2,4,63,1,0
5689,-100,6,2,4,63,0,0
6855,-200,6,2,8,63,0,0
7355,-200,6,2,4,63,0,0
7688,-100,6,2,4,63,0,0
8855,-200,6,2,8,63,0,0
9355,-200,6,2,4,63,0,0
9688,-100,6,2,4,63,0,0
10855,-200,6,2,8,63,0,0
11355,-200,6,2,4,63,0,0
11688,-100,6,2,4,63,0,0
12855,-200,6,2,8,63,0,0
13355,-200,6,2,4,63,0,0
13688,-100,6,2,4,63,0,0
14855,-200,6,2,8,63,0,0
15355,-200,6,2,4,63,0,0
15688,-100,6,2,4,63,0,0
16855,-200,6,2,8,63,0,0
17355,-200,6,2,4,63,0,0
17688,-100,6,2,4,63,0,0
18855,-200,6,2,8,63,0,0
19355,-200,6,2,4,63,0,0
19688,-100,6,2,4,63,0,0
20855,-200,6,2,8,63,0,0
21355,-200,6,2,4,63,0,0
21688,-100,6,2,4,63,0,0
22855,-200,6,2,4,63,0,0
23522,-200,6,2,8,5,0,0
23688,333.333333333333,4,2,4,63,1,0
23688,-100,6,2,4,66,0,0
24855,-100,6,2,15,66,0,0
24938,-100,6,2,4,5,0,0
25022,-100,6,2,4,66,0,0
26188,-100,6,2,15,66,0,0
26272,-100,6,2,4,5,0,0
26356,-100,6,2,4,66,0,0
27521,-80,6,2,15,66,0,0
27604,-80,6,2,15,5,0,0
27688,-100,6,2,4,70,0,0
29687,333.333333333333,4,2,4,70,1,1
29687,-100,6,2,4,70,0,1
35022,-100,6,2,5,70,0,1
35354,-100,6,2,3,70,0,1
35605,-100,6,2,3,5,0,1
35687,-100,6,2,3,70,0,1
40354,-100,6,2,4,70,0,1
40604,-100,6,2,4,5,0,1
40687,-100,6,2,4,70,0,1
45687,-100,6,2,5,70,0,1
46021,-100,6,2,3,70,0,1
47937,-100,6,2,3,5,0,1
48020,-100,6,2,3,70,0,1
51021,333.333333333333,6,2,4,63,1,0
51021,-100,6,2,4,63,0,0
52187,-200,6,2,8,63,0,0
52687,-200,6,2,4,63,0,0
53021,-100,6,2,16,63,0,0
53354,-100,6,2,15,63,0,0
53521,-100,6,2,4,63,0,0
53687,-80,6,2,15,63,0,0
53771,-80,6,2,15,5,0,0
53854,-80,6,2,15,63,0,0
53938,-80,6,2,15,5,0,0
54021,-80,6,2,15,63,0,0
54105,-80,6,2,15,5,0,0
54187,-200,6,2,8,63,0,0
54687,-200,6,2,4,63,0,0
55021,-100,6,2,4,63,0,0
55854,-100,6,2,15,63,0,0
55937,-100,6,2,15,5,0,0
56021,-100,6,2,4,63,0,0
56187,-200,6,2,8,63,0,0
56687,-200,6,2,4,63,0,0
57021,-100,6,2,16,63,0,0
57354,-100,6,2,15,63,0,0
57521,-100,6,2,4,63,0,0
57687,-69.5541623127283,6,2,15,63,0,0
57771,-69.5541623127283,6,2,4,5,0,0
57854,-69.5541623127283,6,2,15,63,0,0
57937,-69.5541623127283,6,2,4,5,0,0
58020,-69.5541623127283,6,2,15,63,0,0
58104,-69.5541623127283,6,2,4,5,0,0
58187,-200,6,2,8,63,0,0
58687,-200,6,2,4,63,0,0
59021,-100,6,2,4,63,0,0
59854,-80,6,2,15,63,0,0
59937,-80,6,2,15,5,0,0
60021,-80,6,2,15,63,0,0
60104,-80,6,2,4,5,0,0
60187,-200,6,2,8,63,0,0
60687,-200,6,2,4,63,0,0
61021,-80,6,2,15,67,0,0
61104,-80,6,2,15,5,0,0
61187,-80,6,2,15,67,0,0
61270,-80,6,2,15,5,0,0
61354,-80,6,2,15,67,0,0
61687,-80,6,2,15,67,0,0
62021,-200,6,2,15,67,0,0
62354,-80,6,2,15,67,0,0
62687,-200,6,2,15,67,0,0
63021,-80,6,2,15,67,0,0
63354,-80,6,2,16,67,0,0
63854,-80,6,2,15,67,0,0
63937,-80,6,2,15,5,0,0
64021,-80,6,2,15,67,0,0
64104,-80,6,2,15,5,0,0
64187,-80,6,2,15,67,0,0
64270,-80,6,2,15,5,0,0
64354,-80,6,2,15,67,0,0
64854,-80.0000000000001,6,2,15,67,0,0
65354,-50.6270991044699,6,2,16,67,0,0
65771,-50.5050505050505,6,2,16,67,0,0
65854,-200,6,2,15,67,0,0
66437,-80,6,2,17,67,0,0
66937,-80,6,2,15,5,0,0
67020,333.333333333333,4,2,4,47,1,0
67020,-400,6,2,4,47,0,0
70353,333.333333333333,6,2,4,67,1,0
70353,-80,6,2,15,67,0,0
70436,-80,6,2,15,5,0,0
70520,-80,6,2,15,67,0,0
72353,-60.1987735815722,6,2,16,67,0,0
72603,-60.1987735815722,6,2,15,5,0,0
72686,-86.3382844780968,6,2,15,67,0,0
73269,-86.3382844780968,6,2,15,67,0,0
73853,-133.333333333333,6,2,15,67,0,0
74020,-133.333333333333,6,2,4,5,0,0
74103,-50,6,2,17,67,0,0
74478,-50,6,2,17,5,0,0
74582,-285.714285714286,6,2,30,67,0,0
74936,-277.777777777778,6,2,15,67,0,0
77019,333.333333333333,6,2,4,63,1,0
77019,-100,6,2,4,63,0,0
78185,-200,6,2,8,63,0,0
78685,-200,6,2,4,63,0,0
79019,-100,6,2,4,63,0,0
79185,-80,6,2,15,63,0,0
79269,-80,6,2,15,5,0,0
79352,-100,6,2,4,63,0,0
79852,-80,6,2,15,63,0,0
79935,-100,6,2,4,5,0,0
80019,-100,6,2,4,63,0,0
80185,-200,6,2,8,63,0,0
80685,-200,6,2,4,63,0,0
81019,-100,6,2,4,63,0,0
82185,-200,6,2,8,63,0,0
82685,-200,6,2,4,63,0,0
83019,-100,6,2,4,63,0,0
84185,-200,6,2,8,63,0,0
84685,-200,6,2,4,63,0,0
85018,-100,6,2,4,63,0,0
85685,-80,6,2,16,63,0,0
86018,-80,6,2,4,63,0,0
86184,-200,6,2,8,63,0,0
86685,-200,6,2,4,63,0,0
87018,-100,6,2,4,63,0,0
88184,-200,6,2,8,63,0,0
88685,375,4,2,4,63,1,0
88685,-200,6,2,4,63,0,0
89060,344.827586206897,4,2,4,50,1,0
89060,-133.333333333333,4,2,4,50,0,0
89663,-133.333333333333,4,2,4,5,0,0
89749,-153.846153846153,4,2,4,50,0,0
90353,-153.846153846153,4,2,4,5,0,0
90439,-181.818181818181,4,2,4,50,0,0
91042,-181.818181818181,4,2,4,5,0,0
91128,-222.222222222221,4,2,4,50,0,0
91732,-222.222222222221,4,2,4,5,0,0
91818,-133.333333333333,4,2,4,50,0,0
92422,-133.333333333333,4,2,4,5,0,0
92508,280.373831775701,4,2,4,60,1,0
92508,-133.333333333333,4,2,4,60,0,0

[Colours]
Combo1 : 255,0,0
Combo2 : 128,157,110
Combo3 : 109,145,162
Combo4 : 255,147,0

[HitObjects]
390,313,23,5,8,0:2:0:0:
377,57,689,1,8,0:2:0:0:
334,181,856,2,0,B|384:203|384:203|432:175,1,111,2|0,0:2|0:2,0:2:0:0:
390,313,1356,2,0,L|384:202,1,111,8|0,0:2|0:2,0:2:0:0:
121,313,2022,5,8,0:2:0:0:
134,57,2689,1,8,0:2:0:0:
177,181,2856,2,0,B|126:203|126:203|78:175,1,111,2|0,0:2|0:2,0:2:0:0:
121,313,3356,2,0,L|127:202,1,111,8|0,0:2|0:2,0:2:0:0:
256,16,4022,37,8,0:2:0:0:
256,352,4689,1,8,0:2:0:0:
211,209,4856,2,0,B|240:201|255:179|255:179|270:201|300:209,1,111,2|0,0:2|0:2,0:2:0:0:
256,352,5356,2,0,L|256:275,1,55.5,8|0,0:2|0:2,0:2:0:0:
464,229,5689,5,0,3:2:0:0:
415,322,5855,1,0,0:2:0:0:
407,140,6022,2,0,P|458:122|512:134,1,111,8|0,0:2|0:2,0:2:0:0:
415,322,6355,1,0,3:2:0:0:
359,233,6522,1,0,3:2:0:0:
407,140,6688,1,8,0:2:0:0:
455,46,6855,2,0,B|468:24|468:24|384:28,1,111,2|0,3:2|0:2,0:2:0:0:
384,28,7355,1,8,0:2:0:0:
48,229,7688,37,0,3:2:0:0:
97,322,7854,1,0,0:2:0:0:
105,140,8021,2,0,P|53:122|0:134,1,111,8|0,0:2|0:2,0:2:0:0:
97,322,8354,1,0,3:2:0:0:
153,233,8521,1,0,3:2:0:0:
105,140,8687,1,8,0:2:0:0:
57,46,8855,2,0,B|43:24|43:24|127:28,1,111,2|0,3:2|0:2,0:2:0:0:
128,28,9355,1,8,0:2:0:0:
384,112,9688,6,0,L|378:223,1,111,0|0,3:2|0:2,0:2:0:0:
133,222,10022,2,0,L|128:112,1,111,8|0,0:2|0:2,0:2:0:0:
378,222,10355,1,0,3:2:0:0:
133,222,10522,1,0,3:2:0:0:
256,152,10688,1,8,0:2:0:0:
256,259,10855,2,0,B|251:250|251:250|260:197|260:197|256:190|256:190|256:126,1,111,2|0,3:2|0:2,0:2:0:0:
256,64,11355,1,8,0:2:0:0:
144,352,11688,38,0,P|92:369|38:357,1,111,0|0,3:2|0:2,0:2:0:0:
368,352,12022,2,0,P|419:369|473:357,1,111,8|0,0:2|0:2,0:2:0:0:
256,288,12355,1,0,3:2:0:0:
367,223,12522,1,0,3:2:0:0:
255,160,12688,1,8,0:2:0:0:
145,223,12855,2,0,B|160:194|160:194|155:90,1,111,2|0,3:2|0:2,0:2:0:0:
64,171,13355,1,8,0:2:0:0:
346,260,13688,6,0,L|457:254,2,111,0|0|8,3:2|0:2|0:2,0:2:0:0:
395,171,14188,1,0,0:2:0:0:
351,347,14355,1,0,3:2:0:0:
491,230,14522,1,0,3:2:0:0:
308,243,14688,1,8,0:2:0:0:
456,254,14855,2,0,L|322:260,1,111,2|0,3:2|0:2,0:2:0:0:
450,343,15355,1,8,0:2:0:0:
164,132,15688,38,0,L|51:126,2,111,0|0|8,3:2|0:2|0:2,0:2:0:0:
105,215,16188,1,0,0:2:0:0:
168,44,16355,1,0,3:2:0:0:
16,146,16522,1,0,3:2:0:0:
200,152,16688,1,8,0:2:0:0:
52,126,16855,2,0,L|185:133,1,111,2|0,3:2|0:2,0:2:0:0:
68,38,17355,1,8,0:2:0:0:
471,55,17688,5,0,3:2:0:0:
471,70,17855,1,0,0:2:0:0:
329,164,18021,1,8,0:2:0:0:
329,149,18188,1,0,0:2:0:0:
455,181,18355,1,0,3:2:0:0:
346,39,18522,1,0,3:2:0:0:
440,181,18688,1,8,0:2:0:0:
361,39,18855,2,0,B|303:29|313:70|256:62,1,111,2|0,3:2|0:2,0:2:0:0:
256,61,19355,1,8,0:2:0:0:
41,249,19688,37,0,3:2:0:0:
41,264,19855,1,0,0:2:0:0:
183,358,20021,1,8,0:2:0:0:
183,343,20188,1,0,0:2:0:0:
57,375,20355,1,0,3:2:0:0:
166,233,20522,1,0,3:2:0:0:
72,375,20688,1,8,0:2:0:0:
151,233,20855,2,0,B|207:223|198:265|255:256,1,111,2|0,3:2|0:2,0:2:0:0:
255,256,21355,1,8,0:2:0:0:
160,64,21688,6,0,B|107:80|107:80|53:69,1,111,0|0,3:2|0:2,0:2:0:0:
352,64,22022,2,0,B|404:80|404:80|458:69,1,111,8|0,0:2|0:2,0:2:0:0:
160,175,22355,1,0,3:2:0:0:
352,175,22522,1,0,3:2:0:0:
256,9,22688,1,8,0:2:0:0:
256,120,22855,2,2,B|304:216|208:216|256:312|256:312|285:280,1,222,0|0,3:2|0:2,0:2:0:0:
356,271,23688,38,0,B|506:278|506:278|444:243,1,222,0|8,3:2|0:2,0:2:0:0:
367,183,24188,1,0,0:2:0:0:
326,378,24355,1,0,3:2:0:0:
256,192,24522,1,0,3:2:0:0:
326,378,24689,1,8,0:2:0:0:
367,183,24855,2,0,P|361:155|348:131,1,55.5,2|0,0:2|0:2,0:2:0:0:
156,271,25022,6,0,B|5:278|5:278|67:243,1,222,0|8,3:2|0:2,0:2:0:0:
145,183,25522,1,0,0:2:0:0:
186,378,25688,1,0,3:2:0:0:
256,192,25855,1,0,3:2:0:0:
186,378,26022,1,8,0:2:0:0:
145,183,26188,2,0,P|150:155|163:131,1,55.5,2|0,0:2|0:2,0:2:0:0:
356,271,26354,38,0,B|381:293|381:293|458:289,1,111,0|0,3:2|0:2,0:2:0:0:
156,271,26687,2,0,B|130:293|130:293|53:289,1,111,8|0,0:2|0:2,0:2:0:0:
336,120,27021,1,0,3:2:0:0:
256,240,27187,1,0,3:2:0:0:
176,120,27354,1,8,0:2:0:0:
256,240,27521,2,0,P|256:208|256:160,1,69.375,2|0,0:2|0:2,0:2:0:0:
348,29,27687,5,8,0:2:0:0:
368,284,27854,1,0,3:2:0:0:
163,29,28021,37,8,0:2:0:0:
143,284,28188,1,0,3:2:0:0:
410,151,28354,5,8,0:2:0:0:
102,151,28521,1,0,3:2:0:0:
384,32,28687,37,8,0:2:0:0:
384,288,28854,1,8,0:2:0:0:
128,288,29021,1,8,0:2:0:0:
128,32,29188,1,8,0:2:0:0:
286,149,29354,5,8,0:2:0:0:
274,185,29437,1,8,0:2:0:0:
237,184,29521,1,8,0:2:0:0:
226,150,29604,1,8,0:2:0:0:
255,128,29687,38,0,B|372:110|339:210|455:193,1,222,4|8,3:1|0:0,0:0:0:0:
364,41,30187,1,8,0:1:0:0:
172,80,30354,6,0,B|157:133|157:133|177:184,1,111,2|0,3:2|3:2,0:0:0:0:
90,31,30687,2,0,B|61:138|61:138|101:241,2,222,10|2|8,0:0|3:2|0:0,0:0:0:0:
267,127,31521,37,8,0:1:0:0:
217,310,31687,1,2,3:2:0:0:
149,133,31854,1,0,3:2:0:0:
309,235,32021,1,8,0:0:0:0:
119,247,32187,1,0,0:0:0:0:
267,127,32354,6,0,B|349:131|349:131|387:174|387:174|469:179,1,222,2|8,3:2|0:0,0:0:0:0:
435,77,32854,1,8,0:1:0:0:
301,225,33021,2,0,L|295:337,1,111,2|0,3:2|3:2,0:0:0:0:
435,77,33354,2,0,L|341:16,1,111,8|0,0:0|0:0,0:0:0:0:
111,140,33687,2,0,B|173:180|173:180|173:180|173:180|307:111,1,222,2|8,3:2|0:0,0:0:0:0:
178,66,34187,37,8,0:1:0:0:
90,242,34354,1,2,3:2:0:0:
178,66,34521,1,0,3:2:0:0:
256,246,34687,2,0,L|250:357,1,111,8|0,0:0|0:0,0:0:0:0:
182,170,35020,1,4,3:1:0:0:
182,170,35354,6,0,P|256:140|331:171,1,166.5,10|0,0:0|0:0,0:0:0:0:
428,230,35687,2,0,P|444:177|433:124,1,111,2|0,3:2|3:2,0:0:0:0:
78,123,36021,2,0,P|67:177|84:230,1,111,10|0,0:0|0:0,0:0:0:0:
354,75,36353,2,0,B|369:51|368:22|368:22|391:38|420:36,1,111,2|0,3:2|0:0,0:0:0:0:
158,75,36686,2,0,B|142:51|143:22|143:22|120:38|91:36,1,111,10|8,0:0|0:1,0:0:0:0:
433,123,37020,37,2,3:2:0:0:
256,21,37186,1,2,3:2:0:0:
374,220,37353,2,0,P|427:236|480:225,1,111,10|0,0:0|0:0,0:0:0:0:
79,123,37686,5,2,3:2:0:0:
256,21,37854,1,2,0:0:0:0:
138,220,38021,2,0,P|85:236|32:225,1,111,10|8,0:0|0:1,0:0:0:0:
374,220,38354,38,0,B|394:271|394:271|379:323,1,111,2|0,3:2|3:2,0:0:0:0:
132,325,38687,2,0,B|117:271|117:271|138:220,1,111,10|0,0:0|0:0,0:0:0:0:
332,41,39021,5,2,3:2:0:0:
256,280,39187,1,2,3:2:0:0:
177,41,39354,1,10,0:0:0:0:
380,188,39521,1,10,0:1:0:0:
132,188,39687,2,0,B|101:185|83:165|83:165|71:189|43:202,1,111,2|0,3:2|3:2,0:0:0:0:
380,188,40021,2,0,B|410:185|428:165|428:165|440:189|468:202,1,111,10|0,0:0|0:0,0:0:0:0:
256,384,40354,38,8,B|221:303|289:303|256:223,1,166.5,6|8,3:1|0:1,0:1:0:0:
179,262,40687,1,8,0:0:0:0:
332,342,40853,1,8,0:1:0:0:
307,155,41021,6,0,P|255:137|204:155,1,111,2|0,3:2|3:2,0:0:0:0:
360,85,41354,2,0,P|256:50|153:85,2,222,10|2|8,0:0|3:2|0:0,0:0:0:0:
256,256,42187,1,8,0:1:0:0:
153,84,42353,37,2,3:2:0:0:
256,140,42521,1,0,3:2:0:0:
151,313,42687,2,0,L|156:201,1,111,10|0,0:0|0:0,0:0:0:0:
56,357,43021,2,0,L|69:107,1,222,2|8,3:2|0:0,0:0:0:0:
72,24,43521,1,8,0:1:0:0:
156,202,43687,2,0,L|150:312,1,111,2|0,3:2|3:2,0:0:0:0:
67,135,44021,2,0,L|72:24,1,111,8|0,0:0|0:0,0:0:0:0:
255,31,44354,5,2,3:2:0:0:
156,202,44521,1,0,3:2:0:0:
255,31,44687,1,8,0:0:0:0:
354,202,44854,1,8,0:1:0:0:
156,88,45021,1,2,3:2:0:0:
354,88,45187,1,0,3:2:0:0:
255,260,45354,2,0,B|255:224|255:224|248:202|248:202|255:180|255:180|255:151,1,111,8|0,0:0|0:0,0:0:0:0:
353,201,45687,1,4,3:1:0:0:
353,201,46021,38,0,B|377:223|377:223|461:219,1,111,10|8,0:0|0:1,0:0:0:0:
159,201,46354,2,0,B|134:223|134:223|50:219,1,111,2|0,3:2|3:2,0:0:0:0:
203,0,46687,2,0,B|256:13|256:13|310:0,1,111,10|0,0:0|0:0,0:0:0:0:
96,96,47021,6,0,B|79:114|79:114|74:29,1,111,2|0,3:2|0:1,0:0:0:0:
416,96,47354,2,0,B|433:114|433:114|438:29,1,111,10|8,0:0|0:1,0:0:0:0:
323,260,47687,38,0,B|277:267|256:304|256:304|235:266|189:260,1,166.5,2|0,3:2|0:0,0:0:0:0:
176,352,48021,1,10,0:0:0:0:
336,352,48187,1,2,0:0:0:0:
256,192,48354,2,0,L|256:80,2,111,2|0|10,3:2|0:0|0:0,0:0:0:0:
256,304,48854,5,10,0:1:0:0:
159,136,49021,1,2,3:2:0:0:
352,136,49187,1,2,3:2:0:0:
256,304,49354,1,10,0:0:0:0:
86,193,49521,38,0,B|66:142|66:142|81:88,1,111,2|0,0:0|3:2,0:0:0:0:
431,88,49854,2,0,B|446:142|446:142|426:193,1,111,2|8,3:2|0:0,0:0:0:0:
256,304,50187,5,8,0:1:0:0:
207,143,50354,1,0,3:2:0:0:
339,243,50521,1,0,3:2:0:0:
173,242,50687,1,8,0:0:0:0:
309,146,50854,1,0,0:0:0:0:
255,305,51021,38,0,B|298:344|298:344|461:335,1,222,0|8,3:2|0:2,0:2:0:0:
333,242,51521,1,0,0:2:0:0:
337,151,51687,1,0,3:2:0:0:
419,109,51854,1,0,3:2:0:0:
414,200,52021,1,8,0:2:0:0:
256,192,52187,6,0,L|256:80,1,111,2|0,3:2|0:2,0:2:0:0:
419,109,52687,1,8,0:2:0:0:
256,304,53022,38,0,B|217:345|217:345|215:341|215:341|175:339|175:339|165:342|165:342|156:338|156:338|116:336|116:336|108:332|108:332|97:335|97:335|58:333,1,222,2|10,3:2|0:2,0:2:0:0:
179,242,53521,1,0,0:2:0:0:
173,151,53687,2,0,P|183:117|180:83,1,69.375,2|0,3:2|0:2,0:2:0:0:
93,109,53854,2,0,P|59:116|31:136,1,69.375,2|0,3:2|0:2,0:2:0:0:
98,199,54021,2,0,P|121:224|152:238,1,69.375,10|0,0:2|0:2,0:2:0:0:
256,192,54187,6,0,L|256:80,1,111,2|0,3:2|0:2,0:2:0:0:
93,109,54687,1,8,0:2:0:0:
381,17,55021,38,0,P|433:3|484:22,2,111,0|0|8,3:2|0:2|0:2,0:2:0:0:
338,97,55521,1,0,0:2:0:0:
386,174,55687,1,0,3:2:0:0:
343,254,55854,2,0,P|349:284|369:315,1,55.5,2|0,3:2|0:2,0:2:0:0:
434,252,56021,1,8,0:2:0:0:
256,192,56187,6,0,L|256:80,1,111,2|0,3:2|0:2,0:2:0:0:
388,227,56687,1,8,0:2:0:0:
131,17,57021,38,0,B|110:6|84:4|84:4|82:0|82:0|80:4|80:4|51:9|31:22,2,111,2|0|10,3:2|0:2|0:2,0:2:0:0:
174,97,57521,1,0,0:2:0:0:
126,174,57687,2,0,B|112:165|112:165|124:227,1,79.793930592481,2|0,3:2|0:2,0:2:0:0:
168,254,57854,2,0,B|183:246|183:246|123:226,1,79.793941135863,2|0,3:2|0:2,0:2:0:0:
77,251,58021,2,0,B|76:268|76:268|124:226,1,79.7939021847751,10|0,0:2|0:2,0:2:0:0:
256,192,58187,6,0,L|256:80,1,111,2|0,3:2|0:2,0:2:0:0:
123,226,58687,1,8,0:2:0:0:
385,26,59021,37,0,3:2:0:0:
256,80,59187,1,0,0:2:0:0:
367,164,59354,2,0,P|423:162|472:137,1,111,8|0,0:2|0:2,0:2:0:0:
126,137,59687,5,0,3:2:0:0:
256,192,59854,2,0,P|224:206|190:205,1,69.375,2|0,3:2|0:2,0:2:0:0:
146,290,60021,2,0,P|118:269|101:239,1,69.375,10|0,0:2|0:2,0:2:0:0:
256,192,60187,38,0,L|256:80,1,111,2|0,3:2|0:2,0:2:0:0:
146,290,60687,1,8,0:2:0:0:
451,311,61021,22,0,P|415:309|384:294,1,69.375,2|0,0:0|0:0,0:0:0:0:
238,359,61187,2,0,P|271:360|302:375,1,69.375
411,330,61354,2,0,B|345:361|342:307|277:339,1,138.75,2|0,0:0|0:0,0:0:0:0:
363,117,61687,6,0,B|364:155|364:155|368:161|368:161|364:210|364:210|368:216|368:216|370:253,1,138.75,2|2,0:0|0:0,0:0:0:0:
446,118,62021,2,0,P|438:83|419:57,1,55.5
370,253,62354,2,0,B|368:216|368:216|364:210|364:210|368:161|368:161|364:155|364:155|363:117,1,138.75,2|2,0:0|0:0,0:0:0:0:
285,248,62687,2,0,P|288:276|299:301,1,55.5
133,335,63021,38,0,P|142:308|155:333,3,69.375,2|2|2|2,0:0|0:0|0:0|0:0,0:0:0:0:
146,352,63354,6,0,B|199:246|82:252|135:147|135:147|132:196|174:224,1,277.5,2|0,0:0|0:0,0:0:0:0:
166,61,63854,38,0,B|163:55|163:55|90:58,1,69.375,2|0,0:0|0:0,0:0:0:0:
178,48,64021,6,0,B|175:42|175:42|102:45,1,69.375,2|0,0:0|0:0,0:0:0:0:
190,35,64187,38,0,B|187:29|187:29|114:32,1,69.375,2|0,0:0|0:0,0:0:0:0:
249,137,64354,5,2,0:0:0:0:
255,133,64437,2,0,B|268:165|268:165|258:198,4,69.375
125,32,64854,38,0,B|190:32|190:32|256:-1|256:-1|321:32|321:32|387:32,1,277.5,2|0,0:0|0:0,0:0:0:0:
256,0,65354,6,0,B|256:41|234:68|234:68|235:120|288:144|288:144|372:187|344:345|156:328|147:183|224:144,1,548.125404062252,2|0,0:0|0:0,0:0:0:0:
236,186,65854,38,0,P|256:237|276:186,1,138.75
142,192,66437,6,0,B|130:261|181:309|224:320|224:320|248:333|256:346|256:346|264:333|288:320|288:320|326:310|382:261|370:192,1,416.25,2|0,0:0|0:0,0:0:0:0:
256,208,67020,6,0,P|256:180|262:153,1,55.5,0|0,3:2|0:0,0:0:0:0:
421,171,67686,2,0,P|397:185|371:193,1,55.5,8|0,0:0|0:0,0:0:0:0:
241,43,68353,1,0,3:2:0:0:
351,79,68686,1,0,3:2:0:0:
153,114,69020,1,8,0:0:0:0:
172,12,69353,2,2,B|148:38|148:38|152:113,1,111,0|0,3:2|0:0,0:0:0:0:
195,219,70353,22,0,P|161:214|128:222,1,69.375,2|0,0:0|0:0,0:0:0:0:
166,301,70520,2,0,L|168:336,11,34.6875,0|0|0|0|0|0|0|0|0|0|0|0,0:0|0:0|0:0|0:0|0:0|0:0|0:0|0:0|0:0|0:0|0:0|0:0,0:0:0:0:
255,330,71020,2,0,L|253:295,7,34.6875
318,237,71353,6,0,P|292:214|259:207,1,69.375,2|0,0:0|0:0,0:0:0:0:
335,321,71520,2,0,P|367:309|390:285,1,69.375,2|0,0:0|0:0,0:0:0:0:
253,295,71687,2,0,P|246:328|256:361,1,69.375,2|0,0:0|0:0,0:0:0:0:
394,351,71853,2,0,P|368:328|335:321,1,69.375,2|0,0:0|0:0,0:0:0:0:
197,331,72020,2,0,P|229:320|253:295,1,69.375,2|0,0:0|0:0,0:0:0:0:
314,167,72186,2,0,L|318:246,1,69.375,2|0,0:0|0:0,0:0:0:0:
423,107,72353,38,0,B|388:146|388:146|357:133|331:130|331:130|311:113|311:113|293:132|293:132|265:137|238:154|238:154|199:119,1,276.583708818472,2|0,0:0|0:0,0:0:0:0:
199,119,72686,2,0,B|160:83|160:83|192:67|214:43|214:43|238:32|270:32|270:32|290:21|305:1|305:1|318:17|345:29|345:29|370:27|400:33|400:33|423:54|458:67|458:67|423:107,1,449.97420808684,2|0,0:0|0:0,0:0:0:0:
312,113,73520,5,0,0:0:0:0:
312,113,73853,38,0,L|316:196,1,83.2500031757356
316,196,74103,6,0,P|281:35|341:191,1,499.5,2|0,0:0|0:0,0:0:0:0:
316,196,74582,38,0,L|312:113,1,82.4174997484818,2|0,0:0|0:0,0:0:0:0:
14,280,77019,22,0,B|124:319|119:228|228:268,1,222,0|8,3:2|0:2,3:2:0:0:
287,362,77520,1,0,0:2:0:0:
180,366,77685,1,0,3:2:0:0:
227,267,77852,1,0,3:2:0:0:
180,366,78019,1,8,0:2:0:0:
207,166,78185,2,0,B|231:193|231:193|227:270,1,111,2|0,3:2|0:2,0:2:0:0:
141,238,78685,1,8,0:2:0:0:
141,238,79019,5,0,3:2:0:0:
207,166,79185,2,0,P|209:131|199:98,1,69.375,2|0,0:2|0:2,0:2:0:0:
9,119,79352,2,0,P|57:144|112:145,1,111,8|0,0:2|0:2,0:2:0:0:
176,0,79685,1,0,3:2:0:0:
104,77,79852,2,0,P|102:112|112:145,1,69.375,2|0,3:2|0:2,0:2:0:0:
141,238,80019,1,8,0:2:0:0:
207,166,80185,2,0,B|231:193|231:193|227:270,1,111,2|0,3:2|0:2,0:2:0:0:
112,145,80685,1,8,0:2:0:0:
507,104,81019,38,0,B|397:65|402:156|293:116,1,222,0|8,3:2|0:2,0:2:0:0:
234,22,81519,1,0,0:2:0:0:
341,18,81685,1,0,3:2:0:0:
293,116,81852,1,0,3:2:0:0:
341,18,82019,1,8,0:2:0:0:
313,217,82185,2,0,B|289:190|289:190|293:113,1,111,2|0,3:2|0:2,0:2:0:0:
380,146,82685,1,8,0:2:0:0:
380,146,83019,5,0,3:2:0:0:
313,217,83185,1,0,0:2:0:0:
512,265,83352,2,0,P|463:239|408:238,1,111,8|0,0:2|0:2,0:2:0:0:
345,384,83685,1,0,3:2:0:0:
435,349,83852,1,0,3:2:0:0:
380,146,84019,1,8,0:2:0:0:
313,217,84185,2,0,B|289:190|289:190|293:113,1,111,2|0,3:2|0:2,0:2:0:0:
409,239,84685,1,8,0:2:0:0:
166,299,85018,38,0,B|229:300|255:352|255:352|283:300|345:299,1,222,0|8,3:2|0:2,0:2:0:0:
365,183,85518,1,0,0:2:0:0:
256,224,85685,2,0,B|173:170|179:21|354:67|289:162|239:150,1,277.5,2|8,3:2|0:2,0:2:0:0:
203,13,86185,2,0,P|255:0|308:13,1,111,2|0,3:2|0:2,0:2:0:0:
256,119,86685,1,8,0:2:0:0:
185,340,87018,6,0,B|131:356|131:356|80:336,1,111,0|0,3:2|0:2,0:2:0:0:
327,341,87352,2,0,B|380:356|380:356|432:336,1,111,8|0,0:2|0:2,0:2:0:0:
256,119,87685,1,0,3:2:0:0:
140,235,87852,1,0,3:2:0:0:
372,235,88018,1,8,0:2:0:0:
256,119,88185,2,0,B|256:152|256:152|248:176|248:176|256:200|256:200|256:231,1,111,2|0,3:2|0:2,0:2:0:0:
256,227,88685,1,8,0:2:0:0:
43,96,89060,38,0,L|125:91,1,83.2500031757356,2|0,0:0|0:0,0:0:0:0:
17,18,89404,2,0,L|140:11,1,124.875004763603
212,176,89749,6,0,L|140:172,1,72.1499966972353,2|0,0:0|0:0,0:0:0:0:
234,97,90094,2,0,L|126:91,1,108.224995045853
68,257,90439,38,0,L|128:253,1,61.0500018630982,2|0,0:0|0:0,0:0:0:0:
48,177,90784,2,0,L|138:172,1,91.5750027946473
186,337,91128,6,0,L|137:334,1,49.949998475647,2|0,0:0|0:0,0:0:0:0:
203,257,91473,2,0,L|129:253,1,74.9249977134705
237,123,91818,38,0,L|319:118,1,83.2500031757356,2|0,0:0|0:0,0:0:0:0:
211,44,92163,2,0,L|334:37,1,124.875004763603
423,216,92508,6,0,L|340:211,1,83.2500031757356,2|0,0:0|0:0,0:0:0:0:
441,234,92788,38,0,L|358:229,1,83.2500031757356,2|0,0:0|0:0,0:0:0:0:
459,253,93068,6,0,L|376:248,2,83.2500031757356,2|0|0,0:0|0:0|0:0,0:0:0:0:
