osu file format v14

[General]
AudioFilename: audio.mp3
AudioLeadIn: 0
PreviewTime: -1
Countdown: 0
SampleSet: None
StackLeniency: 0.9
Mode: 0
LetterboxInBreaks: 0
SkinPreference:Default
WidescreenStoryboard: 1

[Editor]
DistanceSpacing: 1.1
BeatDivisor: 4
GridSize: 32
TimelineZoom: 5.299997

[Metadata]
Title:Machinae Supremacy - death from above
TitleUnicode:Machinae Supremacy - death from above
Artist:Machinae Supremacy
ArtistUnicode:Machinae Supremacy
Creator:edwardyoyo
Version:oka keriting
Source:jets'n'guns soundtrack
Tags:machinae supremacy death from above jets n guns soundtrack
BeatmapID:2300662
BeatmapSetID:1101262

[Difficulty]
HPDrainRate:6.2
CircleSize:4.3
OverallDifficulty:8.5
ApproachRate:9.2
SliderMultiplier:2.5
SliderTickRate:1

[Events]
//Background and Video events
0,0,"asd.jpg",0,0
//Break Periods
//Storyboard Layer 0 (Background)
//Storyboard Layer 1 (Fail)
//Storyboard Layer 2 (Pass)
//Storyboard Layer 3 (Foreground)
//Storyboard Layer 4 (Overlay)
//Storyboard Sound Samples

[TimingPoints]
2122,238.095238095238,4,2,0,100,1,0
8805,238.095238095238,4,2,0,100,1,0
67243,238.095238095238,4,2,0,100,1,0
73567,238.095238095238,4,2,0,100,1,0
74525,-100,4,1,0,100,0,1
89759,-100,4,2,0,100,0,0
120239,-100,4,1,0,100,0,1
135473,-100,4,2,0,100,0,0

[HitObjects]
288,64,2181,5,0,0:0:0:0:
288,64,2241,1,0,0:0:0:0:
288,64,2301,1,0,0:0:0:0:
288,64,2361,1,0,0:0:0:0:
96,96,2480,5,0,0:0:0:0:
160,288,2718,1,0,0:0:0:0:
256,192,2837,1,0,0:0:0:0:
192,64,3075,2,0,B|278:120|336:-10|444:91,1,250
450,154,3432,1,0,0:0:0:0:
448,224,3551,5,0,0:0:0:0:
369,177,3670,1,0,0:0:0:0:
278,157,3789,1,0,0:0:0:0:
193,154,3908,1,0,0:0:0:0:
100,215,4087,1,0,0:0:0:0:
100,215,4146,1,0,0:0:0:0:
100,215,4206,1,0,0:0:0:0:
96,320,4384,5,0,0:0:0:0:
384,288,4622,1,0,0:0:0:0:
288,192,4741,1,0,0:0:0:0:
96,224,4980,2,0,B|93:108|253:135|256:32,1,250
338,38,5337,1,0,0:0:0:0:
411,69,5456,1,0,0:0:0:0:
442,137,5575,1,0,0:0:0:0:
429,215,5694,1,0,0:0:0:0:
390,282,5813,5,0,0:0:0:0:
224,256,5932,1,0,0:0:0:0:
224,256,5991,1,0,0:0:0:0:
224,256,6051,1,0,0:0:0:0:
224,256,6111,1,0,0:0:0:0:
64,224,6289,5,0,0:0:0:0:
296,169,6527,1,0,0:0:0:0:
230,78,6646,1,0,0:0:0:0:
64,96,6884,2,0,B|205:101|127:253|288:256,1,250
313,279,7241,1,0,0:0:0:0:
382,226,7361,1,0,0:0:0:0:
393,149,7480,1,0,0:0:0:0:
369,75,7599,1,0,0:0:0:0:
301,34,7718,5,0,0:0:0:0:
160,96,7837,1,0,0:0:0:0:
160,96,7896,1,0,0:0:0:0:
160,96,7956,1,0,0:0:0:0:
160,96,8015,1,0,0:0:0:0:
416,256,8194,5,0,0:0:0:0:
142,320,8432,1,0,0:0:0:0:
208,247,8551,1,0,0:0:0:0:
118,72,8805,2,0,P|101:200|126:235,1,125
103,208,8983,1,0,0:0:0:0:
106,220,9043,2,0,P|155:271|242:295,1,125
288,224,9281,1,0,0:0:0:0:
288,224,9340,1,0,0:0:0:0:
288,224,9400,1,0,0:0:0:0:
379,56,9757,5,0,0:0:0:0:
278,80,9876,1,0,0:0:0:0:
328,234,10114,1,0,0:0:0:0:
68,228,10352,1,0,0:0:0:0:
142,326,10471,1,0,0:0:0:0:
336,348,10709,2,0,B|463:311|243:184|464:124,1,250
327,97,11066,5,0,0:0:0:0:
266,56,11185,1,0,0:0:0:0:
195,38,11305,1,0,0:0:0:0:
123,37,11424,1,0,0:0:0:0:
88,164,11602,1,0,0:0:0:0:
88,164,11662,1,0,0:0:0:0:
88,164,11721,1,0,0:0:0:0:
134,327,11900,5,0,0:0:0:0:
402,121,12257,1,0,0:0:0:0:
80,99,12614,2,0,B|181:138|51:306|214:318,1,250
245,318,12971,1,0,0:0:0:0:
318,335,13090,1,0,0:0:0:0:
379,299,13209,1,0,0:0:0:0:
413,237,13328,1,0,0:0:0:0:
393,97,13507,1,0,0:0:0:0:
393,97,13567,5,0,0:0:0:0:
393,97,13626,1,0,0:0:0:0:
129,56,13924,1,0,0:0:0:0:
102,176,14162,1,0,0:0:0:0:
90,279,14281,1,0,0:0:0:0:
185,338,14519,6,0,P|261:343|288:266,2,125
160,270,14876,1,0,0:0:0:0:
192,206,14995,1,0,0:0:0:0:
257,176,15114,1,0,0:0:0:0:
278,108,15233,1,0,0:0:0:0:
233,51,15352,1,0,0:0:0:0:
233,51,15412,1,0,0:0:0:0:
233,51,15471,1,0,0:0:0:0:
73,122,15709,5,0,0:0:0:0:
265,316,16066,1,0,0:0:0:0:
128,224,16424,1,0,0:3:0:0:
146,210,16483,1,0,0:3:0:0:
170,203,16543,1,0,0:3:0:0:
194,206,16602,1,0,0:3:0:0:
215,214,16662,1,0,0:3:0:0:
240,230,16721,1,0,0:3:0:0:
263,247,16781,5,0,0:3:0:0:
285,265,16840,1,0,0:3:0:0:
314,273,16900,2,0,P|372:238|374:174,1,125
69,49,17376,1,0,0:0:0:0:
334,68,17614,5,0,0:0:0:0:
241,193,17733,1,0,0:0:0:0:
383,159,17852,1,0,0:0:0:0:
393,247,17971,2,0,P|420:317|388:349,1,125
300,312,18209,1,0,0:0:0:0:
173,298,18328,5,0,0:0:0:0:
173,298,18447,1,0,0:0:0:0:
50,201,18566,5,0,0:0:0:0:
64,64,18685,1,0,0:0:0:0:
143,143,18804,2,0,P|222:95|262:120,1,125
296,194,19043,1,0,0:0:0:0:
268,304,19162,1,0,0:0:0:0:
416,288,19281,1,0,0:0:0:0:
416,288,19340,1,0,0:0:0:0:
416,288,19400,1,0,0:0:0:0:
416,160,19519,6,0,P|384:96|320:96,1,125
320,192,19757,2,0,P|256:192|224:128,1,125
224,64,19995,1,0,0:0:0:0:
64,64,20114,1,0,0:0:0:0:
119,195,20233,1,0,0:0:0:0:
225,288,20352,1,0,0:0:0:0:
225,288,20412,1,0,0:0:0:0:
225,288,20471,1,0,0:0:0:0:
320,322,20590,6,0,P|382:282|392:233,1,125
313,237,20828,2,0,P|277:173|319:114,1,125
374,128,21066,2,0,P|354:73|288:60,1,125
294,58,21245,1,0,0:0:0:0:
294,58,21304,1,0,0:0:0:0:
192,64,21424,1,0,0:0:0:0:
169,169,21543,1,0,0:0:0:0:
68,92,21662,5,0,0:0:0:0:
76,200,21781,2,0,P|105:303|166:309,1,125
183,343,22019,1,0,0:0:0:0:
256,261,22138,1,0,0:0:0:0:
339,338,22257,1,0,0:0:0:0:
365,254,22376,1,0,0:0:0:0:
462,184,22495,1,0,0:0:0:0:
440,67,22614,2,0,P|358:57|289:67,1,125
372,140,22852,2,0,P|291:151|239:147,1,125
248,148,23031,5,0,0:0:0:0:
248,148,23090,1,0,0:0:0:0:
64,64,23209,5,0,0:0:0:0:
63,159,23328,1,0,0:0:0:0:
157,108,23447,1,0,0:0:0:0:
192,192,23566,2,0,P|160:256|192:288,1,125
286,306,23804,2,0,P|363:262|363:205,1,125
293,195,24043,2,0,P|318:117|371:101,1,125
352,101,24221,1,0,0:0:0:0:
352,101,24281,1,0,0:0:0:0:
458,128,24400,5,0,0:0:0:0:
464,233,24519,1,0,0:0:0:0:
368,232,24638,1,0,0:0:0:0:
366,343,24757,1,0,0:0:0:0:
256,288,24876,2,0,P|160:288|160:256,2,125
207,220,25233,2,0,P|145:190|96:224,2,125
159,99,25590,1,0,0:0:0:0:
306,56,25709,5,0,0:0:0:0:
435,47,25828,1,0,0:0:0:0:
461,162,25947,1,0,0:0:0:0:
384,256,26066,2,0,P|384:192|320:160,1,125
303,235,26304,1,0,0:0:0:0:
243,283,26424,1,0,0:0:0:0:
161,266,26543,2,0,P|106:214|149:171,1,125
182,118,26781,1,0,0:0:0:0:
182,118,26840,5,0,0:0:0:0:
182,118,26900,1,0,0:0:0:0:
182,118,26959,1,0,0:0:0:0:
182,118,27019,1,0,0:0:0:0:
123,181,27138,1,0,0:0:0:0:
123,181,27257,2,0,P|78:244|107:314,2,125
196,238,27614,1,0,0:0:0:0:
292,244,27733,1,0,0:0:0:0:
229,332,27852,1,0,0:0:0:0:
322,333,27971,5,0,0:0:0:0:
343,327,28031,1,0,0:0:0:0:
373,315,28090,1,0,0:0:0:0:
419,236,28209,2,0,P|461:180|448:128,2,125
372,166,28566,2,0,P|320:96|256:64,1,125
177,101,28804,1,0,0:0:0:0:
177,101,28864,1,0,0:0:0:0:
177,101,28923,1,0,0:0:0:0:
177,101,28983,5,0,0:0:0:0:
177,101,29043,1,0,0:0:0:0:
128,160,29162,2,0,P|64:224|64:256,2,125
157,240,29519,2,0,P|158:314|128:352,2,125
61,291,29876,1,0,0:0:0:0:
250,342,29995,1,0,0:0:0:0:
165,219,30114,1,0,0:0:0:0:
107,110,30233,1,0,0:0:0:0:
107,110,30293,1,0,0:0:0:0:
107,110,30352,1,0,0:0:0:0:
273,50,30471,5,0,0:0:0:0:
384,71,30590,1,0,0:0:0:0:
416,192,30709,1,0,0:0:0:0:
416,192,30769,1,0,0:0:0:0:
416,192,30828,1,0,0:0:0:0:
416,192,30888,1,0,0:0:0:0:
416,192,30947,1,0,0:0:0:0:
288,288,31066,1,0,0:0:0:0:
273,170,31185,1,0,0:0:0:0:
201,118,31304,5,0,0:0:0:0:
126,73,31424,1,0,0:0:0:0:
69,153,31543,2,0,P|69:237|98:275,1,125
157,203,31781,2,0,P|211:246|224:305,1,125
128,320,32019,1,0,0:0:0:0:
128,320,32078,1,0,0:0:0:0:
128,320,32138,1,0,0:0:0:0:
326,341,32257,5,0,0:0:0:0:
149,106,32376,1,0,0:0:0:0:
284,212,32495,1,0,0:0:0:0:
314,105,32614,1,0,0:0:0:0:
314,105,32674,1,0,0:0:0:0:
314,105,32733,1,0,0:0:0:0:
314,105,32792,1,0,0:0:0:0:
391,49,32971,5,0,0:0:0:0:
96,320,33209,1,0,0:0:0:0:
220,217,33328,1,0,0:0:0:0:
364,304,33566,1,0,0:0:0:0:
309,139,33804,1,0,0:0:0:0:
214,317,33924,1,0,0:0:0:0:
120,171,34043,1,0,0:0:0:0:
82,80,34162,2,0,P|210:52|256:64,3,125
96,96,36424,5,0,0:0:0:0:
69,191,36543,1,0,0:0:0:0:
156,163,36662,2,0,L|262:89,1,125
261,205,36900,1,0,0:0:0:0:
201,283,37019,1,0,0:0:0:0:
322,297,37138,2,0,P|416:288|448:256,2,125
371,185,37495,1,0,0:0:0:0:
322,73,37614,1,0,0:0:0:0:
281,167,37733,6,0,P|183:86|143:89,1,125
133,176,37971,1,0,0:0:0:0:
106,276,38090,2,0,P|186:323|233:315,1,125
363,346,38328,1,0,0:0:0:0:
297,257,38447,1,0,0:0:0:0:
409,262,38566,1,0,0:0:0:0:
421,182,38685,2,0,P|395:108|352:81,1,125
320,161,38924,2,0,P|241:135|238:82,1,125
165,40,39162,5,0,0:0:0:0:
70,95,39281,1,0,0:0:0:0:
166,151,39400,1,0,0:0:0:0:
72,223,39519,1,0,0:0:0:0:
166,263,39638,2,0,P|221:314|275:320,1,125
250,194,39876,1,0,0:0:0:0:
268,206,39935,1,0,0:0:0:0:
288,224,39995,1,0,0:0:0:0:
342,326,40114,5,0,0:0:0:0:
436,258,40233,1,0,0:0:0:0:
419,145,40352,1,0,0:0:0:0:
332,212,40471,1,0,0:0:0:0:
330,80,40590,1,0,0:0:0:0:
247,146,40709,2,0,P|207:86|145:66,1,125
154,150,40947,2,0,P|93:205|90:252,1,125
88,243,41126,1,0,0:0:0:0:
88,243,41185,1,0,0:0:0:0:
180,323,41304,5,0,0:0:0:0:
225,242,41424,1,0,0:0:0:0:
291,325,41543,1,0,0:0:0:0:
328,241,41662,2,0,P|378:293|436:299,1,125
409,221,41900,1,0,0:0:0:0:
409,221,41959,1,0,0:0:0:0:
409,221,42019,1,0,0:0:0:0:
383,109,42138,6,0,P|334:62|273:54,1,125
299,130,42376,2,0,P|230:127|195:80,1,125
88,49,42614,1,0,0:0:0:0:
88,49,42674,1,0,0:0:0:0:
88,49,42733,1,0,0:0:0:0:
44,125,42852,1,0,0:0:0:0:
155,146,42971,1,0,0:0:0:0:
155,146,43090,2,0,P|93:262|105:303,1,125
187,234,43328,6,0,P|160:295|166:352,1,125
165,351,43566,1,0,0:0:0:0:
280,281,43685,1,0,0:0:0:0:
280,281,43745,1,0,0:0:0:0:
280,281,43804,1,0,0:0:0:0:
280,281,43864,1,0,0:0:0:0:
280,281,43924,1,0,0:0:0:0:
447,279,44162,5,0,0:0:0:0:
352,224,44281,1,0,0:0:0:0:
352,224,44340,1,0,0:0:0:0:
352,224,44400,1,0,0:0:0:0:
455,173,44519,6,0,P|424:111|367:91,1,125
297,95,44757,2,0,P|221:116|166:88,1,125
85,52,44995,1,0,0:0:0:0:
85,52,45054,1,0,0:0:0:0:
85,52,45114,1,0,0:0:0:0:
53,139,45233,2,0,P|69:213|111:245,1,125
139,161,45471,2,0,P|193:211|195:277,1,125
93,327,45709,1,0,0:0:0:0:
195,346,45828,5,0,0:0:0:0:
299,333,45947,1,0,0:0:0:0:
364,260,46066,1,0,0:0:0:0:
265,223,46185,1,0,0:0:0:0:
352,152,46304,1,0,0:0:0:0:
352,152,46364,1,0,0:0:0:0:
352,152,46424,1,0,0:0:0:0:
258,99,46543,1,0,0:0:0:0:
158,54,46662,5,0,0:0:0:0:
81,110,46781,2,0,L|64:256,2,125
160,192,47138,2,0,L|142:336,2,125
231,342,47495,1,0,0:0:0:0:
256,260,47614,1,0,0:0:0:0:
320,333,47733,1,0,0:0:0:0:
352,256,47852,2,0,P|416:256|480:224,2,125
391,166,48209,1,0,0:0:0:0:
369,48,48328,5,0,0:0:0:0:
431,97,48447,1,0,0:0:0:0:
406,167,48566,1,0,0:0:0:0:
365,226,48685,2,0,P|301:273|217:270,1,125
281,195,48924,2,0,P|203:190|158:208,1,125
138,293,49162,1,0,0:0:0:0:
66,242,49281,1,0,0:0:0:0:
69,160,49400,1,0,0:0:0:0:
125,104,49519,6,0,P|189:150|256:160,2,125
210,76,49876,2,0,P|294:80|352:128,2,125
346,193,50233,1,0,0:0:0:0:
415,251,50352,1,0,0:0:0:0:
330,278,50471,1,0,0:0:0:0:
330,278,50531,1,0,0:0:0:0:
330,278,50590,1,0,0:0:0:0:
254,229,50709,1,0,0:0:0:0:
172,320,50828,5,0,0:0:0:0:
185,110,50947,1,0,0:0:0:0:
64,203,51066,1,0,0:0:0:0:
75,48,51185,1,0,0:0:0:0:
164,202,51304,1,0,0:0:0:0:
310,110,51424,1,0,0:0:0:0:
310,110,51483,1,0,0:0:0:0:
310,110,51543,1,0,0:0:0:0:
413,326,51781,5,0,0:0:0:0:
413,326,51900,1,0,0:0:0:0:
220,250,52019,1,0,0:0:0:0:
360,179,52138,1,0,0:0:0:0:
360,179,52257,1,0,0:0:0:0:
303,88,52376,2,0,P|234:132|181:124,1,125
215,59,52614,2,0,P|148:59|92:94,1,125
98,87,52852,1,0,0:0:0:0:
76,268,52971,5,0,0:0:0:0:
173,93,53090,1,0,0:0:0:0:
205,300,53209,1,0,0:0:0:0:
64,117,53328,1,0,0:0:0:0:
251,189,53447,2,0,P|319:142|364:145,1,125
453,173,53685,2,0,P|463:104|410:59,1,125
429,65,53864,1,0,0:0:0:0:
429,65,53924,1,0,0:0:0:0:
288,64,54043,5,0,0:0:0:0:
86,80,54162,1,0,0:0:0:0:
288,64,54281,1,0,0:0:0:0:
135,172,54400,1,0,0:0:0:0:
239,157,54519,2,0,P|298:212|309:265,1,125
308,252,54697,1,0,0:0:0:0:
308,252,54757,1,0,0:0:0:0:
158,279,54876,6,0,P|236:335|286:340,1,125
428,321,55114,2,0,L|384:192,2,125
315,348,55471,1,0,0:0:0:0:
176,311,55590,1,0,0:0:0:0:
272,218,55709,1,0,0:0:0:0:
150,142,55828,1,0,0:0:0:0:
249,100,55947,2,0,L|384:64,2,125
369,67,56304,1,0,0:0:0:0:
369,67,56424,1,0,0:0:0:0:
449,173,56543,5,0,0:0:0:0:
384,293,56662,1,0,0:0:0:0:
469,350,56781,1,0,0:0:0:0:
267,224,56900,1,0,0:0:0:0:
260,319,57019,2,0,L|134:339,1,125
173,252,57257,2,0,L|41:274,1,125
105,158,57495,1,0,0:0:0:0:
119,136,57554,1,0,0:0:0:0:
133,118,57614,1,0,0:0:0:0:
316,103,57733,5,0,0:0:0:0:
178,234,57852,1,0,0:0:0:0:
392,247,57971,1,0,0:0:0:0:
178,234,58090,1,0,0:0:0:0:
231,319,58209,2,0,P|333:294|344:249,1,125
273,236,58447,2,0,P|331:188|386:184,1,125
378,182,58626,1,0,0:0:0:0:
378,182,58685,1,0,0:0:0:0:
442,306,58804,5,0,0:0:0:0:
464,228,58924,1,0,0:0:0:0:
460,149,59043,1,0,0:0:0:0:
432,72,59162,1,0,0:0:0:0:
363,39,59281,1,0,0:0:0:0:
283,77,59400,1,0,0:0:0:0:
283,77,59459,1,0,0:0:0:0:
283,77,59519,1,0,0:0:0:0:
283,77,59578,1,0,0:0:0:0:
283,77,59638,1,0,0:0:0:0:
280,179,59757,5,0,0:0:0:0:
173,55,59876,1,0,0:0:0:0:
140,165,59995,2,0,L|144:304,1,125
392,289,60233,2,0,L|385:158,1,125
385,164,60471,1,0,0:0:0:0:
160,288,60590,1,0,0:0:0:0:
34,165,60709,1,0,0:0:0:0:
132,77,60828,1,0,0:0:0:0:
256,96,60947,6,0,P|320:64|384:64,2,125
348,150,61304,1,0,0:0:0:0:
348,150,61364,1,0,0:0:0:0:
348,150,61424,1,0,0:0:0:0:
434,214,61543,1,0,0:0:0:0:
434,214,61602,1,0,0:0:0:0:
434,214,61662,1,0,0:0:0:0:
341,279,61781,1,0,0:0:0:0:
253,337,61900,6,0,P|243:268|195:239,1,125
101,224,62138,2,0,P|90:155|106:96,1,125
192,148,62376,1,0,0:0:0:0:
394,63,62495,1,0,0:0:0:0:
287,126,62614,1,0,0:0:0:0:
457,202,62733,1,0,0:0:0:0:
337,256,62852,1,0,0:0:0:0:
459,340,62971,1,0,0:0:0:0:
379,324,63090,6,0,P|347:263|299:226,1,125
279,217,63269,1,0,0:0:0:0:
248,205,63328,2,0,P|187:171|96:160,1,125
72,286,63566,1,0,0:0:0:0:
217,332,63685,1,0,0:0:0:0:
345,282,63804,1,0,0:0:0:0:
414,183,63924,1,0,0:0:0:0:
414,183,63983,1,0,0:0:0:0:
414,183,64043,1,0,0:0:0:0:
354,103,64162,6,0,P|322:42|244:36,1,125
275,100,64400,2,0,P|198:82|172:29,1,125
175,46,64578,1,0,0:0:0:0:
175,46,64638,1,0,0:0:0:0:
71,113,64757,1,0,0:0:0:0:
176,198,64876,1,0,0:0:0:0:
176,198,64935,1,0,0:0:0:0:
176,198,64995,1,0,0:0:0:0:
285,213,65114,6,0,L|235:302,1,62.5
254,267,65233,2,0,L|304:318,1,62.5
298,312,65352,1,0,0:0:0:0:
456,316,65471,2,0,P|442:225|418:186,1,125
311,234,65709,2,0,P|282:165|294:111,1,125
160,115,65947,2,0,P|167:192|131:235,1,125
76,162,66185,2,0,P|54:235|69:300,1,125
179,310,66424,2,0,L|320:352,2,125
320,192,66900,5,0,0:0:0:0:
334,178,66959,1,0,0:0:0:0:
350,162,67019,1,0,0:0:0:0:
366,146,67078,1,0,0:0:0:0:
382,131,67138,1,0,0:0:0:0:
290,32,67243,1,0,0:0:0:0:
448,224,67481,1,0,0:0:0:0:
352,260,67600,2,0,P|292:300|232:255,1,125
184,238,67838,5,0,0:0:0:0:
99,214,67957,1,0,0:0:0:0:
65,140,68076,1,0,0:0:0:0:
92,66,68195,1,0,0:0:0:0:
168,45,68314,1,0,0:0:0:0:
176,50,68373,1,0,0:0:0:0:
186,60,68433,1,0,0:0:0:0:
195,69,68493,1,0,0:0:0:0:
256,160,68671,5,0,0:0:0:0:
351,222,68790,2,0,B|421:198|445:237|468:278|433:324|394:351|356:332|352:293|304:258,1,250
342,295,69147,1,0,0:0:0:0:
147,225,69385,1,0,0:0:0:0:
121,90,69504,1,0,0:0:0:0:
352,96,69743,6,0,B|416:128|416:160|416:192,1,125
128,96,70100,2,0,P|64:128|64:192,1,125
256,320,70457,2,0,L|256:192,1,125
256,195,70695,1,0,0:0:0:0:
256,320,70814,1,0,0:0:0:0:
416,288,71052,5,0,0:0:0:0:
384,118,71290,1,0,0:0:0:0:
384,118,71409,1,0,0:0:0:0:
192,64,71588,1,0,0:0:0:0:
192,64,71647,1,0,0:0:0:0:
192,64,71707,1,0,0:0:0:0:
192,64,71766,1,0,0:0:0:0:
127,160,72123,2,0,P|209:191|239:237,1,125
138,248,72421,2,0,P|187:306|244:318,1,125
232,318,72600,1,0,0:0:0:0:
469,346,72957,5,0,0:0:0:0:
338,197,73195,1,0,0:0:0:0:
419,127,73314,1,0,0:0:0:0:
202,206,73567,2,0,L|106:106,1,125
208,322,73805,2,0,L|112:223,1,125
348,328,74043,2,0,L|442:237,1,125
321,219,74281,2,0,L|417:130,1,125
116,180,74519,5,0,0:0:0:0:
116,180,74578,1,0,0:0:0:0:
116,180,74638,2,0,L|64:304,1,100
416,100,74877,1,0,0:0:0:0:
416,100,74936,1,0,0:0:0:0:
416,100,74996,2,0,L|468:224,1,100
352,312,75234,1,0,0:0:0:0:
272,56,75353,1,0,0:0:0:0:
176,220,75472,5,0,0:0:0:0:
176,220,75531,1,0,0:0:0:0:
176,220,75591,2,0,P|144:296|112:316,1,100
432,204,75829,1,0,0:0:0:0:
88,96,75948,5,0,0:0:0:0:
256,312,76067,1,0,0:0:0:0:
48,192,76186,1,0,0:0:0:0:
352,144,76305,1,0,0:0:0:0:
128,252,76424,5,0,0:0:0:0:
128,252,76484,1,0,0:0:0:0:
128,252,76543,2,0,P|124:316|156:352,1,100
436,108,76781,1,0,0:0:0:0:
436,108,76841,1,0,0:0:0:0:
436,108,76900,2,0,P|440:172|408:208,1,100
136,132,77138,1,0,0:0:0:0:
376,288,77257,1,0,0:0:0:0:
308,128,77377,5,0,0:0:0:0:
152,216,77496,1,0,0:0:0:0:
400,200,77615,1,0,0:0:0:0:
224,312,77734,1,0,0:0:0:0:
312,120,77853,1,0,0:0:0:0:
220,324,77972,1,0,0:0:0:0:
228,64,78091,1,0,0:0:0:0:
320,360,78210,1,0,0:0:0:0:
132,132,78329,5,0,0:0:0:0:
132,132,78388,1,0,0:0:0:0:
132,132,78448,2,0,L|24:48,1,100
448,152,78686,5,0,0:0:0:0:
448,152,78746,1,0,0:0:0:0:
448,152,78805,2,0,L|340:68,1,100
248,348,79043,1,0,0:0:0:0:
136,260,79162,1,0,0:0:0:0:
412,284,79281,5,0,0:0:0:0:
224,268,79400,1,0,0:0:0:0:
372,192,79519,1,0,0:0:0:0:
56,232,79638,1,0,0:0:0:0:
320,280,79757,1,0,0:0:0:0:
140,128,79877,1,0,0:0:0:0:
136,344,79996,1,0,0:0:0:0:
256,80,80115,1,0,0:0:0:0:
240,328,80234,5,0,0:0:0:0:
240,328,80293,1,0,0:0:0:0:
240,328,80353,2,0,P|296:364|384:352,1,125
464,132,80591,1,0,0:0:0:0:
464,132,80650,1,0,0:0:0:0:
464,132,80710,2,0,L|352:224,1,125
144,248,80948,1,0,0:0:0:0:
440,280,81067,1,0,0:0:0:0:
56,128,81186,6,0,L|192:160,1,125
384,340,81424,2,0,L|256:320,1,125
336,44,81662,2,0,L|288:192,1,125
124,372,81900,2,0,L|160:224,1,125
452,116,82138,6,0,L|384:192,1,62.5
376,336,82257,2,0,L|448:256,1,62.5
232,168,82377,1,0,0:0:0:0:
459,109,82496,2,0,L|384:192,1,62.5
377,345,82615,2,0,L|448:288,1,62.5
222,165,82734,1,0,0:0:0:0:
476,220,82853,1,0,0:0:0:0:
236,316,82972,1,0,0:0:0:0:
56,148,83091,5,0,0:0:0:0:
264,80,83210,1,0,0:0:0:0:
80,264,83329,1,0,0:0:0:0:
152,56,83448,1,0,0:0:0:0:
188,320,83567,2,0,P|148:364|64:384,1,125
232,172,83805,2,0,L|320:288,1,125
468,244,84043,5,0,0:0:0:0:
436,268,84103,1,0,0:0:0:0:
404,292,84162,1,0,0:0:0:0:
372,316,84222,1,0,0:0:0:0:
340,340,84281,1,0,0:0:0:0:
408,132,84400,1,0,0:0:0:0:
368,140,84460,1,0,0:0:0:0:
328,148,84519,1,0,0:0:0:0:
288,156,84579,1,0,0:0:0:0:
248,164,84638,5,0,0:0:0:0:
484,44,84757,1,0,0:0:0:0:
280,264,84876,1,0,0:0:0:0:
168,40,84996,2,0,P|152:112|96:160,1,125
424,328,85234,2,0,L|343:215,1,125
344,40,85472,2,0,P|360:112|410:163,1,125
88,328,85710,2,0,L|161:224,1,125
100,52,85948,6,0,L|168:120,1,62.5
320,128,86067,2,0,L|252:57,1,62.5
152,272,86186,1,0,0:0:0:0:
93,45,86305,2,0,L|164:117,1,62.5
329,127,86424,2,0,L|255:53,1,62.5
149,282,86543,1,0,0:0:0:0:
212,136,86662,1,0,0:0:0:0:
284,332,86781,1,0,0:0:0:0:
56,296,86900,6,0,P|52:268|114:192,1,125
420,296,87138,1,0,0:0:0:0:
256,236,87257,1,0,0:0:0:0:
416,196,87377,1,0,0:0:0:0:
188,312,87496,1,0,0:0:0:0:
316,136,87615,1,0,0:0:0:0:
312,328,87734,1,0,0:0:0:0:
84,136,87853,6,0,P|68:76|114:9,1,125
432,41,88091,2,0,P|444:89|411:158,1,125
79,342,88329,2,0,P|67:294|104:219,1,125
427,247,88567,2,0,P|444:294|410:362,1,125
136,160,88805,5,0,0:0:0:0:
324,304,88924,1,0,0:0:0:0:
176,72,89043,5,0,0:0:0:0:
328,316,89162,1,0,0:0:0:0:
260,20,89281,5,0,0:0:0:0:
96,224,89400,1,0,0:0:0:0:
320,288,89519,1,0,0:0:0:0:
288,96,89638,1,0,0:0:0:0:
96,192,89757,1,0,0:0:0:0:
183,235,89876,6,0,P|263:206|309:222,1,125
361,246,90114,1,0,0:0:0:0:
433,276,90233,1,0,0:0:0:0:
474,213,90352,1,0,0:0:0:0:
468,137,90471,1,0,0:0:0:0:
425,75,90590,1,0,0:0:0:0:
357,45,90709,1,0,0:0:0:0:
285,33,90828,1,0,0:0:0:0:
213,37,90947,5,0,0:0:0:0:
146,65,91067,1,0,0:0:0:0:
120,133,91186,1,0,0:0:0:0:
152,199,91305,1,0,0:0:0:0:
199,255,91424,1,0,0:0:0:0:
268,252,91543,1,0,0:0:0:0:
332,218,91662,1,0,0:0:0:0:
343,149,91781,1,0,0:0:0:0:
303,93,91900,5,0,0:0:0:0:
234,97,92019,1,0,0:0:0:0:
183,148,92138,1,0,0:0:0:0:
192,215,92257,1,0,0:0:0:0:
153,274,92376,1,0,0:0:0:0:
87,258,92495,1,0,0:0:0:0:
55,194,92614,1,0,0:0:0:0:
54,126,92733,1,0,0:0:0:0:
99,71,92852,6,0,P|162:44|223:44,1,125
274,75,93090,2,0,P|333:127|387:144,1,125
430,177,93328,2,0,P|474:250|474:300,1,125
446,344,93567,2,0,P|386:309|332:298,1,125
270,301,93805,2,0,P|204:328|143:328,1,125
97,300,94043,2,0,L|64:224,4,62.5
74,175,94400,2,0,L|96:96,4,62.5
142,75,94757,2,0,L|224:64,4,62.5
265,88,95114,5,0,0:0:0:0:
222,146,95233,1,0,0:0:0:0:
276,190,95352,1,0,0:0:0:0:
222,235,95471,1,0,0:0:0:0:
272,284,95590,1,0,0:0:0:0:
332,324,95709,1,0,0:0:0:0:
399,307,95828,1,0,0:0:0:0:
454,267,95947,2,0,P|481:193|463:144,1,125
434,99,96186,5,0,0:0:0:0:
388,50,96305,1,0,0:0:0:0:
316,45,96424,1,0,0:0:0:0:
260,86,96543,1,0,0:0:0:0:
215,142,96662,1,0,0:0:0:0:
158,105,96781,1,0,0:0:0:0:
97,73,96900,1,0,0:0:0:0:
28,76,97019,1,0,0:0:0:0:
96,224,97138,5,0,0:0:0:0:
96,224,97257,1,0,0:0:0:0:
96,224,97376,1,0,0:0:0:0:
258,314,97495,1,0,0:0:0:0:
258,314,97614,1,0,0:0:0:0:
258,314,97733,1,0,0:0:0:0:
217,159,97852,1,0,0:0:0:0:
217,159,97971,1,0,0:0:0:0:
217,159,98090,1,0,0:0:0:0:
352,64,98209,5,0,0:0:0:0:
352,64,98328,1,0,0:0:0:0:
352,64,98447,1,0,0:0:0:0:
480,224,98566,1,0,0:0:0:0:
480,224,98686,1,0,0:0:0:0:
480,224,98805,1,0,0:0:0:0:
292,335,98924,1,0,0:0:0:0:
292,335,99043,1,0,0:0:0:0:
292,335,99162,1,0,0:0:0:0:
96,288,99281,6,0,P|96:224|128:160,2,125
186,237,99638,2,0,P|226:159|224:96,2,125
350,253,99995,2,0,P|308:193|320:128,2,125
401,180,100352,2,0,P|440:120|416:64,2,125
323,76,100709,2,0,L|192:64,2,125
246,164,101066,2,0,L|85:135,2,125
236,269,101424,2,0,L|372:237,2,125
329,337,101781,2,0,L|472:300,2,125
453,143,102138,5,0,0:0:0:0:
408,87,102257,1,0,0:0:0:0:
344,53,102376,1,0,0:0:0:0:
356,145,102495,1,0,0:0:0:0:
294,116,102614,1,0,0:0:0:0:
260,57,102733,1,0,0:0:0:0:
235,173,102852,5,0,0:0:0:0:
289,221,102971,1,0,0:0:0:0:
329,276,103090,1,0,0:0:0:0:
230,275,103209,1,0,0:0:0:0:
277,330,103328,1,0,0:0:0:0:
342,355,103447,1,0,0:0:0:0:
414,326,103566,1,0,0:0:0:0:
450,265,103686,1,0,0:0:0:0:
427,74,103805,6,0,P|449:150|423:194,1,125
348,280,104103,5,0,0:0:0:0:
328,72,104162,1,0,0:0:0:0:
328,72,104222,1,0,0:0:0:0:
328,72,104281,1,0,0:0:0:0:
240,192,104400,1,0,0:0:0:0:
408,164,104519,1,0,0:0:0:0:
220,96,104638,1,0,0:0:0:0:
408,172,104757,1,0,0:0:0:0:
236,200,104876,1,0,0:0:0:0:
492,268,104996,6,0,B|428:368|384:256|319:343,1,187.5
160,160,105353,1,0,0:0:0:0:
20,268,105472,6,0,B|84:368|128:256|191:339,1,187.5
352,160,105829,1,0,0:0:0:0:
256,332,105948,6,0,B|240:256|240:256|280:256|280:256|256:177|256:177,1,187.5
256,48,106305,1,0,0:0:0:0:
160,152,106424,1,0,0:0:0:0:
368,56,106543,1,0,0:0:0:0:
144,56,106662,1,0,0:0:0:0:
352,152,106781,1,0,0:0:0:0:
48,104,106900,6,0,P|48:180|148:271,1,187.5
304,68,107257,1,0,0:0:0:0:
464,104,107376,6,0,P|464:180|368:291,1,208.333333333333
208,68,107734,1,0,0:0:0:0:
164,304,107852,2,0,B|256:344|256:344|341:309|341:309,1,187.5
280,128,108210,1,0,0:0:0:0:
228,232,108329,1,0,0:0:0:0:
184,80,108448,1,0,0:0:0:0:
328,240,108567,1,0,0:0:0:0:
300,36,108686,1,0,0:0:0:0:
152,184,108805,6,0,B|124:240|124:240|72:252|72:252|76:308|32:364,1,187.5
256,120,109162,1,0,0:0:0:0:
360,184,109281,6,0,B|388:240|388:240|440:252|440:252|436:308|475:358,1,187.5
256,112,109638,1,0,0:0:0:0:
194,264,109757,2,0,B|248:325|248:325|320:256|320:256|371:315,1,250
160,184,110115,1,0,0:0:0:0:
352,184,110234,1,0,0:0:0:0:
112,108,110353,1,0,0:0:0:0:
400,108,110472,1,0,0:0:0:0:
256,48,110591,1,0,0:0:0:0:
212,256,110710,5,0,0:0:0:0:
256,40,110829,1,0,0:0:0:0:
296,256,110948,1,0,0:0:0:0:
256,32,111067,1,0,0:0:0:0:
136,184,111186,2,0,B|140:252|64:300|64:300|137:333,1,187.5
36,192,111543,1,0,0:0:0:0:
376,184,111662,6,0,B|372:252|448:300|448:300|377:332,1,187.5
476,192,112019,1,0,0:0:0:0:
152,92,112138,1,0,0:0:0:0:
360,92,112257,1,0,0:0:0:0:
256,116,112376,1,0,0:0:0:0:
256,156,112436,1,0,0:0:0:0:
256,196,112496,1,0,0:0:0:0:
256,236,112555,1,0,0:0:0:0:
256,276,112615,1,0,0:0:0:0:
112,280,112853,5,0,0:0:0:0:
112,280,112972,1,0,0:0:0:0:
112,280,113091,1,0,0:0:0:0:
336,60,113329,1,0,0:0:0:0:
336,60,113448,1,0,0:0:0:0:
336,60,113567,1,0,0:0:0:0:
140,164,113805,1,0,0:0:0:0:
140,164,113924,1,0,0:0:0:0:
140,164,114043,1,0,0:0:0:0:
456,220,114281,1,0,0:0:0:0:
456,220,114400,1,0,0:0:0:0:
456,220,114519,5,0,0:0:0:0:
56,140,114757,1,0,0:0:0:0:
56,140,114876,5,0,0:0:0:0:
56,140,114996,1,0,0:0:0:0:
348,308,115234,1,0,0:0:0:0:
348,308,115353,1,0,0:0:0:0:
348,308,115472,1,0,0:0:0:0:
356,56,115710,1,0,0:0:0:0:
356,56,115829,1,0,0:0:0:0:
356,56,115948,1,0,0:0:0:0:
152,292,116186,1,0,0:0:0:0:
152,292,116246,1,0,0:0:0:0:
152,292,116305,1,0,0:0:0:0:
152,292,116365,1,0,0:0:0:0:
152,292,116424,6,0,P|212:340|250:336,2,62.5
356,296,116900,2,0,P|404:236|399:195,2,62.5
355,83,117376,2,0,P|300:44|256:48,2,62.5
156,88,117853,2,0,P|108:148|109:184,2,62.5
368,120,118329,5,0,0:0:0:0:
256,200,118448,1,0,0:0:0:0:
368,232,118567,5,0,0:0:0:0:
276,100,118686,1,0,0:0:0:0:
240,300,118805,1,0,0:0:0:0:
240,300,119043,1,0,0:0:0:0:
460,280,119162,1,0,0:0:0:0:
120,276,119281,5,0,0:0:0:0:
352,328,119400,1,0,0:0:0:0:
56,192,119519,5,0,0:0:0:0:
316,224,119638,1,0,0:0:0:0:
88,76,119757,5,0,0:0:0:0:
400,208,119876,1,0,0:0:0:0:
192,16,119996,6,0,L|240:60,1,62.5
224,208,120115,2,0,L|160:128,1,62.5
96,72,120234,5,0,0:0:0:0:
136,312,120353,1,0,0:0:0:0:
248,80,120472,1,0,0:0:0:0:
72,208,120591,1,0,0:0:0:0:
368,216,120709,2,0,L|436:200,1,50
356,96,120948,1,0,0:0:0:0:
196,224,121067,1,0,0:0:0:0:
420,288,121186,6,0,P|476:260|512:192,1,125
256,68,121424,1,0,0:0:0:0:
276,236,121543,1,0,0:0:0:0:
136,80,121662,1,0,0:0:0:0:
288,232,121781,1,0,0:0:0:0:
152,252,121900,1,0,0:0:0:0:
260,64,122019,1,0,0:0:0:0:
148,260,122138,6,0,P|168:320|224:352,1,125
52,192,122376,1,0,0:0:0:0:
400,120,122495,1,0,0:0:0:0:
228,172,122615,1,0,0:0:0:0:
340,44,122734,1,0,0:0:0:0:
340,240,122853,1,0,0:0:0:0:
352,48,122972,1,0,0:0:0:0:
132,96,123091,5,0,0:0:0:0:
152,256,123210,1,0,0:0:0:0:
32,168,123329,1,0,0:0:0:0:
108,348,123448,1,0,0:0:0:0:
380,96,123567,5,0,0:0:0:0:
360,256,123686,1,0,0:0:0:0:
480,168,123805,1,0,0:0:0:0:
404,348,123924,1,0,0:0:0:0:
184,160,124043,5,0,0:0:0:0:
296,104,124162,1,0,0:0:0:0:
248,292,124281,1,0,0:0:0:0:
200,64,124400,1,0,0:0:0:0:
344,208,124519,2,0,L|416:160,1,62.5
240,304,124638,2,0,L|352:352,1,62.5
96,200,124757,1,0,0:0:0:0:
396,108,124876,1,0,0:0:0:0:
124,304,124996,5,0,0:0:0:0:
296,96,125115,1,0,0:0:0:0:
328,320,125234,1,0,0:0:0:0:
136,92,125354,1,0,0:0:0:0:
132,304,125473,1,0,0:0:0:0:
304,96,125591,1,0,0:0:0:0:
332,328,125710,1,0,0:0:0:0:
140,84,125829,1,0,0:0:0:0:
368,192,125948,5,0,0:0:0:0:
228,328,126067,1,0,0:0:0:0:
76,160,126186,1,0,0:0:0:0:
392,48,126305,1,0,0:0:0:0:
140,268,126424,1,0,0:0:0:0:
448,140,126543,1,0,0:0:0:0:
208,68,126662,1,0,0:0:0:0:
312,288,126781,1,0,0:0:0:0:
288,72,126900,6,0,L|288:160,1,62.5
228,268,127019,2,0,L|256:192,1,62.5
300,56,127138,2,0,L|288:160,1,62.5
212,288,127257,2,0,L|224:192,1,62.5
312,40,127376,2,0,L|332:124,1,50
192,300,127495,2,0,L|172:216,1,50
80,96,127614,1,0,0:0:0:0:
80,96,127674,1,0,0:0:0:0:
80,96,127733,1,0,0:0:0:0:
80,96,127793,1,0,0:0:0:0:
80,96,127853,6,0,B|68:144|68:144|88:172|64:224,1,125
432,288,128091,2,0,B|444:240|444:240|424:212|448:160,1,125
160,368,128329,2,0,B|208:380|208:380|236:360|320:384,1,125
352,16,128567,2,0,B|304:4|304:4|276:24|224:0,1,125
128,268,128805,5,0,0:0:0:0:
384,116,128924,1,0,0:0:0:0:
180,64,129043,1,0,0:0:0:0:
332,320,129162,1,0,0:0:0:0:
280,96,129281,1,0,0:0:0:0:
160,168,129400,1,0,0:0:0:0:
232,288,129519,1,0,0:0:0:0:
352,216,129638,1,0,0:0:0:0:
96,64,129757,5,0,0:0:0:0:
72,216,129876,1,0,0:0:0:0:
188,64,129995,1,0,0:0:0:0:
160,260,130114,1,0,0:0:0:0:
280,64,130233,1,0,0:0:0:0:
252,300,130353,1,0,0:0:0:0:
372,60,130472,1,0,0:0:0:0:
348,340,130591,1,0,0:0:0:0:
88,56,130710,6,0,P|48:84|96:96,1,62.5
424,328,130948,2,0,P|464:300|448:288,1,62.5
424,56,131186,2,0,P|464:84|439:109,1,62.5
96,320,131424,2,0,P|57:289|112:269,1,125
328,188,131662,5,0,0:0:0:0:
140,76,131781,1,0,0:0:0:0:
340,184,131900,1,0,0:0:0:0:
60,224,132019,1,0,0:0:0:0:
308,64,132138,2,0,L|256:128,1,62.5
240,300,132257,2,0,L|288:224,1,62.5
164,176,132376,1,0,0:0:0:0:
404,104,132495,1,0,0:0:0:0:
408,256,132614,6,0,P|400:312|440:368,1,125
324,120,132853,1,0,0:0:0:0:
256,344,132972,2,0,L|255:218,1,125
256,48,133210,1,0,0:0:0:0:
104,256,133328,2,0,P|112:312|74:368,1,125
188,120,133568,5,0,0:0:0:0:
396,56,133686,1,0,0:0:0:0:
224,228,133805,5,0,0:0:0:0:
272,20,133924,1,0,0:0:0:0:
348,264,134043,5,0,0:0:0:0:
192,112,134162,1,0,0:0:0:0:
424,172,134281,5,0,0:0:0:0:
228,236,134400,1,0,0:0:0:0:
412,52,134519,5,0,0:0:0:0:
168,304,134638,1,0,0:0:0:0:
312,36,134757,5,0,0:0:0:0:
396,260,134876,1,0,0:0:0:0:
216,40,134995,5,0,0:0:0:0:
168,312,135114,1,0,0:0:0:0:
116,36,135233,5,0,0:0:0:0:
392,268,135353,1,0,0:0:0:0:
64,184,135472,5,0,0:0:0:0:
64,184,135531,1,0,0:0:0:0:
64,184,135591,2,0,P|104:136|163:133,1,125
448,200,135829,5,0,0:0:0:0:
448,200,135888,1,0,0:0:0:0:
448,200,135948,2,0,P|408:248|320:256,1,125
192,56,136186,1,0,0:0:0:0:
360,160,136305,1,0,0:0:0:0:
192,168,136424,5,0,0:0:0:0:
400,80,136543,1,0,0:0:0:0:
192,252,136662,1,0,0:0:0:0:
444,156,136781,1,0,0:0:0:0:
232,328,136900,1,0,0:0:0:0:
448,240,137019,1,0,0:0:0:0:
268,212,137138,1,0,0:0:0:0:
484,328,137257,1,0,0:0:0:0:
92,144,137376,5,0,0:0:0:0:
92,144,137436,1,0,0:0:0:0:
92,144,137495,2,0,L|205:79,1,125
452,108,137733,1,0,0:0:0:0:
452,108,137793,1,0,0:0:0:0:
452,108,137852,2,0,L|343:176,1,125
152,304,138091,1,0,0:0:0:0:
204,148,138210,1,0,0:0:0:0:
284,336,138329,5,0,0:0:0:0:
64,176,138448,1,0,0:0:0:0:
292,224,138567,1,0,0:0:0:0:
52,280,138686,1,0,0:0:0:0:
300,228,138805,1,0,0:0:0:0:
60,280,138924,1,0,0:0:0:0:
256,112,139043,1,0,0:0:0:0:
288,344,139162,1,0,0:0:0:0:
152,132,139281,5,0,0:0:0:0:
152,132,139341,1,0,0:0:0:0:
152,132,139400,2,0,P|136:72|148:10,1,125
360,252,139638,1,0,0:0:0:0:
360,252,139698,1,0,0:0:0:0:
360,252,139757,2,0,P|376:312|364:375,1,125
156,272,139995,1,0,0:0:0:0:
392,128,140114,1,0,0:0:0:0:
276,336,140233,5,0,0:0:0:0:
240,84,140353,1,0,0:0:0:0:
344,256,140472,1,0,0:0:0:0:
156,164,140591,1,0,0:0:0:0:
464,48,140710,1,0,0:0:0:0:
408,324,140829,1,0,0:0:0:0:
356,92,140948,1,0,0:0:0:0:
504,272,141067,1,0,0:0:0:0:
192,316,141186,5,0,0:0:0:0:
192,316,141245,1,0,0:0:0:0:
192,316,141305,2,0,P|116:320|73:343,1,125
320,68,141543,1,0,0:0:0:0:
320,68,141602,1,0,0:0:0:0:
320,68,141662,2,0,P|396:64|444:40,1,125
308,288,141900,1,0,0:0:0:0:
200,92,142019,1,0,0:0:0:0:
216,296,142138,5,0,0:0:0:0:
216,88,142257,1,0,0:0:0:0:
248,308,142376,1,0,0:0:0:0:
184,60,142495,1,0,0:0:0:0:
216,332,142614,1,0,0:0:0:0:
228,44,142733,1,0,0:0:0:0:
252,348,142853,1,0,0:0:0:0:
184,20,142972,1,0,0:0:0:0:
408,276,143091,6,0,L|316:231,1,62.5
252,124,143210,2,0,L|337:162,1,62.5
476,344,143329,1,0,0:0:0:0:
104,276,143448,6,0,L|188:238,1,62.5
260,124,143567,2,0,L|174:162,1,62.5
36,344,143686,1,0,0:0:0:0:
308,272,143805,1,0,0:0:0:0:
64,176,143924,1,0,0:0:0:0:
408,72,144043,5,0,0:0:0:0:
196,232,144162,1,0,0:0:0:0:
468,184,144281,1,0,0:0:0:0:
256,40,144400,1,0,0:0:0:0:
428,304,144519,1,0,0:0:0:0:
324,112,144638,1,0,0:0:0:0:
108,252,144757,1,0,0:0:0:0:
340,256,144876,1,0,0:0:0:0:
88,80,144995,6,0,L|128:153,1,62.5
264,248,145114,2,0,L|226:176,1,62.5
24,184,145233,1,0,0:0:0:0:
424,80,145353,6,0,L|385:151,1,62.5
248,248,145472,2,0,L|286:176,1,62.5
488,184,145591,1,0,0:0:0:0:
176,56,145710,1,0,0:0:0:0:
440,272,145829,1,0,0:0:0:0:
264,64,145948,5,0,0:0:0:0:
96,240,146067,1,0,0:0:0:0:
264,340,146186,1,0,0:0:0:0:
352,176,146305,1,0,0:0:0:0:
124,136,146424,1,0,0:0:0:0:
356,336,146543,1,0,0:0:0:0:
452,152,146662,1,0,0:0:0:0:
220,224,146781,1,0,0:0:0:0:
476,292,146900,6,0,L|443:218,1,62.5
408,52,147019,2,0,L|365:104,1,62.5
316,256,147138,1,0,0:0:0:0:
284,280,147198,1,0,0:0:0:0:
248,296,147257,2,0,L|164:313,1,62.5
40,192,147376,2,0,L|125:177,1,62.5
308,52,147495,2,0,L|223:69,1,62.5
100,288,147614,1,0,0:0:0:0:
328,136,147733,1,0,0:0:0:0:
64,104,147853,5,0,0:0:0:0:
412,232,147972,1,0,0:0:0:0:
332,44,148091,1,0,0:0:0:0:
312,328,148210,1,0,0:0:0:0:
500,180,148329,1,0,0:0:0:0:
176,328,148448,1,0,0:0:0:0:
444,336,148567,1,0,0:0:0:0:
232,152,148686,1,0,0:0:0:0:
44,308,148805,6,0,L|114:266,1,62.5
228,56,148924,2,0,L|160:96,1,62.5
344,232,149043,1,0,0:0:0:0:
376,208,149103,1,0,0:0:0:0:
388,172,149162,2,0,L|399:74,1,62.5
124,212,149281,2,0,L|112:304,1,62.5
132,300,149400,1,0,0:0:0:0:
164,324,149460,1,0,0:0:0:0:
200,336,149519,1,0,0:0:0:0:
196,160,149638,1,0,0:0:0:0:
440,332,149757,6,0,L|418:244,1,62.5
200,44,149876,2,0,L|124:88,1,62.5
306,335,149995,2,0,L|326:249,1,62.5
432,52,150114,2,0,L|375:12,1,62.5
32,256,150233,2,0,L|83:297,1,62.5
464,144,150353,2,0,L|373:178,1,62.5
68,56,150472,2,0,L|78:130,1,62.5
196,348,150591,2,0,L|199:280,1,62.5
372,88,150710,6,0,B|328:0|252:112|408:200|408:200|420:240|424:280|424:260|419:275,1,312.5
328,248,151662,2,0,P|276:212|246:155,1,125
80,128,152138,2,0,P|132:164|166:216,1,125
88,240,152614,2,0,B|100:300|192:316|192:316|176:276|253:247|253:247,1,187.5
176,92,153329,1,0,0:0:0:0:
88,252,153567,2,0,P|164:316|223:238,1,187.5
112,96,154281,1,0,0:0:0:0:
228,68,154519,6,0,B|316:16|364:136|260:136|260:136|324:196|412:152|460:209,1,375
408,84,155710,1,0,0:0:0:0:
344,256,155948,1,0,0:0:0:0:
168,260,156186,1,0,0:0:0:0:
284,328,156424,6,0,P|248:216|255:122,1,187.5
80,72,157138,1,0,0:0:0:0:
80,72,157376,6,0,P|116:184|108:275,1,187.5
168,328,158091,1,0,0:0:0:0:
400,80,158329,5,0,0:0:0:0:
400,80,158448,1,0,0:0:0:0:
400,80,158567,1,0,0:0:0:0:
152,208,159162,1,0,0:0:0:0:
388,232,159400,1,0,0:0:0:0:
280,156,159519,1,0,0:0:0:0:
400,152,159638,1,0,0:0:0:0:
280,244,159757,1,0,0:0:0:0:
396,244,159876,1,0,0:0:0:0:
272,160,159995,1,0,0:0:0:0:
408,152,160114,1,0,0:0:0:0:
272,248,160233,6,0,B|228:280|228:280|200:256|200:256|180:296|180:296|144:268|144:268|116:312|116:312|68:308|12:225,1,312.5
