osu file format v14

[General]
AudioFilename: audio.mp3
AudioLeadIn: 0
PreviewTime: 36662
Countdown: 0
SampleSet: Soft
StackLeniency: 0.9
Mode: 0
LetterboxInBreaks: 0
SkinPreference:Default
WidescreenStoryboard: 0

[Editor]
DistanceSpacing: 0.8
BeatDivisor: 2
GridSize: 32
TimelineZoom: 3.999998

[Metadata]
Title:Machinae Supremacy - death from above
TitleUnicode:Machinae Supremacy - death from above
Artist:Machinae Supremacy
ArtistUnicode:Machinae Supremacy
Creator:edwardyoyo
Version:Bangke Tolol
Source:jets'n'guns soundtrack
Tags:machinae supremacy death from above jets n guns soundtrack
BeatmapID:2300661
BeatmapSetID:1101262

[Difficulty]
HPDrainRate:4.3
CircleSize:3.5
OverallDifficulty:4.8
ApproachRate:7.9
SliderMultiplier:1
SliderTickRate:2

[Events]
//Background and Video events
0,0,"asd.jpg",0,0
//Break Periods
//Storyboard Layer 0 (Background)
//Storyboard Layer 1 (Fail)
//Storyboard Layer 2 (Pass)
//Storyboard Layer 3 (Foreground)
//Storyboard Layer 4 (Overlay)
//Storyboard Sound Samples

[TimingPoints]
2481,238.095238095238,4,2,0,100,1,0
8805,238.095238095238,4,2,0,100,1,0
67243,238.095238095238,4,2,0,100,1,0
73567,238.095238095238,4,2,0,100,1,0
74525,-100,4,1,0,100,0,1
89759,-100,4,2,0,100,0,0
120239,-100,4,1,0,100,0,1
135473,-100,4,2,0,100,0,0

[HitObjects]
160,96,2480,5,0,0:0:0:0:
320,160,2719,1,0,0:0:0:0:
320,160,2838,1,4,0:0:0:0:
352,96,4385,5,0,0:0:0:0:
256,224,4623,1,0,0:0:0:0:
256,224,4742,1,4,0:0:0:0:
160,224,6230,5,0,0:0:0:0:
224,96,6469,1,0,0:0:0:0:
224,96,6588,1,4,0:0:0:0:
224,64,8195,5,0,0:0:0:0:
352,128,8433,1,0,0:0:0:0:
352,128,8552,1,4,0:0:0:0:
352,256,8805,2,2,P|288:288|256:288,1,100
160,288,9281,2,2,P|96:256|64:192,1,125
128,96,9757,5,0,0:0:0:0:
128,96,9876,1,4,0:0:0:0:
384,128,10114,5,0,0:0:0:0:
352,256,10352,1,0,0:0:0:0:
352,256,10471,1,4,0:0:0:0:
380,291,11543,5,0,0:0:0:0:
380,291,11662,1,0,0:0:0:0:
177,304,11900,1,0,0:0:0:0:
110,138,12257,1,4,0:0:0:0:
160,64,13566,5,0,0:0:0:0:
160,64,13685,1,0,0:0:0:0:
335,108,13924,1,0,0:0:0:0:
224,256,14162,1,0,0:0:0:0:
224,256,14281,1,4,0:0:0:0:
416,320,15355,5,0,0:0:0:0:
416,320,15474,1,0,0:0:0:0:
256,288,15712,1,0,0:0:0:0:
96,192,16066,1,4,0:0:0:0:
160,64,16424,2,2,P|259:57|352:128,2,200
79,116,17614,1,0,0:0:0:0:
128,193,17852,6,0,L|224:225,2,100
320,224,18566,2,0,L|416:160,2,100
224,160,19283,2,0,P|185:98|191:56,2,100
299,194,19995,1,4,0:0:0:0:
384,320,20233,5,0,0:0:0:0:
221,318,20471,1,0,0:0:0:0:
133,230,20709,1,0,0:0:0:0:
114,116,20947,2,0,P|172:77|217:76,1,100
287,132,21424,2,0,P|350:157|376:178,1,100
272,235,21900,1,4,0:0:0:0:
158,59,22138,5,0,0:0:0:0:
86,152,22376,1,0,0:0:0:0:
195,209,22614,2,0,P|249:258|291:264,1,100
279,172,23090,2,0,P|348:187|363:215,1,100,0|4,0:0|0:0,0:0:0:0:
400,290,23566,5,0,0:0:0:0:
309,314,23804,2,0,P|245:322|214:300,1,100
264,229,24281,2,0,P|220:200|166:193,1,100
160,96,24757,2,0,B|197:47|197:47|256:32,2,100
288,128,25471,1,0,0:0:0:0:
385,227,25709,2,0,P|333:276|298:279,1,100,0|4,0:0|0:0,0:0:0:0:
160,320,26185,6,0,L|93:237,1,100
96,96,26662,2,0,P|150:60|192:55,1,100
269,166,27138,1,0,0:0:0:0:
416,192,27376,1,0,0:0:0:0:
416,192,27495,1,0,0:0:0:0:
416,192,27614,1,0,0:0:0:0:
320,320,27855,1,0,0:0:0:0:
192,265,28090,2,0,L|148:237,4,50,0|0|0|0|4,0:0|0:0|0:0|0:0|0:0,0:0:0:0:
58,147,28804,5,0,0:0:0:0:
145,90,29043,1,0,0:0:0:0:
179,185,29281,1,0,0:0:0:0:
192,286,29519,2,0,P|249:306|307:300,2,100,0|0|4,0:0|0:0|0:0,0:0:0:0:
277,205,30233,5,0,0:0:0:0:
369,145,30471,1,0,0:0:0:0:
224,64,30709,1,0,0:0:0:0:
224,64,30828,1,0,0:0:0:0:
224,64,30947,1,0,0:0:0:0:
97,133,31185,2,0,B|83:193|83:193|107:227,1,100
193,180,31662,2,0,P|221:232|209:268,1,100,0|4,0:0|0:0,0:0:0:0:
337,325,32138,5,0,0:0:0:0:
429,258,32376,1,0,0:0:0:0:
423,149,32614,1,0,0:0:0:0:
345,70,32971,1,0,0:0:0:0:
192,93,33209,1,0,0:0:0:0:
192,93,33328,1,4,0:0:0:0:
256,192,33566,12,2,36185,0:0:0:0:
128,96,36424,5,0,0:0:0:0:
100,209,36662,2,0,P|148:257|191:264,1,100
211,184,37138,2,0,P|272:190|310:228,1,100
299,304,37614,1,0,0:0:0:0:
431,231,37852,1,4,0:0:0:0:
374,127,38090,5,0,0:0:0:0:
224,96,38328,2,0,L|128:128,1,100
128,256,38804,1,4,0:0:0:0:
332,216,39043,5,0,0:0:0:0:
300,321,39281,1,0,0:0:0:0:
204,254,39519,2,0,P|145:221|126:190,1,100
224,96,39995,1,0,0:0:0:0:
224,96,40114,1,0,0:0:0:0:
224,96,40233,1,4,0:0:0:0:
361,159,40471,6,0,P|363:229|311:244,1,100
255,200,40947,2,0,P|238:254|268:291,1,100
431,329,41424,1,0,0:0:0:0:
419,197,41662,1,0,0:0:0:0:
294,289,41900,1,0,0:0:0:0:
265,180,42138,2,0,P|198:151|192:160,2,100
242,279,42852,1,0,0:0:0:0:
113,190,43090,1,4,0:0:0:0:
189,72,43328,5,0,0:0:0:0:
327,129,43566,1,0,0:0:0:0:
283,238,43804,2,0,P|202:273|191:257,1,100
204,185,44281,2,2,P|154:160|143:121,1,100
286,55,44757,1,0,0:0:0:0:
384,156,44995,1,4,0:0:0:0:
352,288,45233,5,0,0:0:0:0:
352,288,45352,1,0,0:0:0:0:
352,288,45471,1,0,0:0:0:0:
291,201,45709,2,0,L|224:160,2,50
274,92,46185,2,0,P|320:64|384:64,1,100
400,181,46662,1,0,0:0:0:0:
299,262,46900,1,4,0:0:0:0:
170,257,47138,6,0,P|113:218|118:176,1,100
208,169,47614,2,0,P|196:113|152:92,1,100
67,55,48090,1,0,0:0:0:0:
100,189,48328,1,0,0:0:0:0:
225,276,48566,1,0,0:0:0:0:
323,215,48804,2,2,P|390:207|426:233,1,100
413,312,49281,2,2,P|341:328|309:313,1,100
247,220,49757,1,4,0:0:0:0:
341,123,49995,5,0,0:0:0:0:
409,218,50233,1,0,0:0:0:0:
337,306,50471,2,0,P|269:319|247:304,2,100
192,224,51185,2,0,P|160:192|107:142,1,100
180,83,51662,2,0,P|229:120|284:163,1,100
352,160,52138,2,0,P|355:228|331:257,1,100
224,256,52614,6,2,P|190:298|126:288,1,100
128,224,53090,2,2,P|77:217|37:243,1,100
96,96,53566,2,0,P|145:82|205:119,2,100
288,160,54281,1,0,0:0:0:0:
416,96,54519,1,0,0:0:0:0:
384,256,54757,1,4,0:0:0:0:
272,233,54995,6,0,P|253:289|216:302,1,100
177,236,55471,2,0,P|127:262|151:322,1,100
280,296,55947,1,0,0:0:0:0:
384,192,56185,1,0,0:0:0:0:
384,192,56304,1,0,0:0:0:0:
384,192,56424,1,4,0:0:0:0:
320,96,56662,5,0,0:0:0:0:
192,128,56900,2,0,P|158:174|181:235,2,100
160,224,57614,2,0,P|200:281|268:274,2,100
132,304,58328,1,0,0:0:0:0:
252,332,58566,1,0,0:0:0:0:
364,285,58804,1,4,0:0:0:0:
352,128,59043,5,0,0:0:0:0:
352,128,59162,1,0,0:0:0:0:
352,128,59281,1,0,0:0:0:0:
256,64,59519,1,0,0:0:0:0:
137,149,59757,2,0,P|82:197|74:238,1,100
128,320,60233,2,0,B|178:281|178:281|192:224,1,100
256,192,60709,1,0,0:0:0:0:
192,96,60947,2,0,P|256:96|320:64,1,100,0|4,0:0|0:0,0:0:0:0:
395,57,61424,5,0,0:0:0:0:
467,139,61662,1,0,0:0:0:0:
385,215,61900,1,0,0:0:0:0:
256,128,62138,2,0,P|192:96|160:96,2,100
226,250,62852,1,0,0:0:0:0:
101,326,63090,1,0,0:0:0:0:
116,164,63328,1,4,0:0:0:0:
224,64,63566,6,0,P|286:90|320:128,2,100
96,64,64281,1,0,0:0:0:0:
70,192,64519,1,0,0:0:0:0:
70,192,64638,1,0,0:0:0:0:
70,192,64757,1,0,0:0:0:0:
177,285,64995,1,4,0:0:0:0:
291,217,65233,6,0,B|348:238|348:238|391:196,1,100
352,128,65709,2,0,B|408:120|408:120|476:172,1,100
416,288,66185,2,0,L|318:321,2,100,0|0|6,0:0|0:0|0:0,0:0:0:0:
96,192,67243,1,0,0:0:0:0:
224,96,67481,1,0,0:0:0:0:
224,96,67600,1,4,0:0:0:0:
260,308,67838,6,0,P|203:285|176:255,1,100
175,237,68195,1,0,0:0:0:0:
349,119,68433,1,0,0:0:0:0:
209,46,68671,1,0,0:0:0:0:
209,46,68790,1,4,0:0:0:0:
128,288,69147,5,0,0:0:0:0:
320,288,69385,1,0,0:0:0:0:
320,288,69504,1,4,0:0:0:0:
403,70,69743,2,0,P|317:79|320:96,2,100
403,70,70338,1,0,0:0:0:0:
377,277,70576,1,0,0:0:0:0:
377,277,70695,1,4,0:0:0:0:
166,231,71052,5,0,0:0:0:0:
314,218,71290,1,0,0:0:0:0:
314,218,71409,2,0,P|369:182|372:138,1,100
374,152,71766,1,0,0:0:0:0:
265,73,72004,2,0,P|191:62|131:66,1,100
64,128,72481,1,0,0:0:0:0:
64,128,72600,1,4,0:0:0:0:
264,315,72957,5,0,0:0:0:0:
448,224,73195,1,0,0:0:0:0:
448,224,73314,1,0,0:0:0:0:
373,111,73567,6,2,P|299:184|187:189,1,200
207,194,74281,1,4,0:0:0:0:
228,68,74519,1,0,0:0:0:0:
384,64,74757,1,0,0:0:0:0:
448,192,74995,1,0,0:0:0:0:
318,178,75233,6,0,P|299:224|230:226,1,100
224,160,75709,2,0,P|174:131|114:142,1,100
175,229,76186,1,0,0:0:0:0:
45,154,76424,1,0,0:0:0:0:
59,295,76662,1,0,0:0:0:0:
224,256,76900,1,0,0:0:0:0:
224,256,77019,1,0,0:0:0:0:
224,256,77138,1,4,0:0:0:0:
350,316,77376,6,2,P|439:265|448:256,2,100
426,200,78090,2,2,P|390:129|342:109,1,100
315,177,78567,2,2,P|252:211|210:183,1,100
230,108,79043,2,2,P|152:96|101:114,1,100
178,213,79519,2,2,P|213:276|183:315,1,100
79,285,79995,1,0,0:0:0:0:
79,285,80114,1,0,0:0:0:0:
79,285,80233,1,4,0:0:0:0:
154,90,80471,5,0,0:0:0:0:
150,199,80709,1,0,0:0:0:0:
234,153,80947,2,2,P|304:179|302:219,1,100
253,262,81424,2,2,P|296:305|288:320,2,50
353,347,81900,2,2,P|411:320|424:266,1,100,2|6,0:0|0:0,0:0:0:0:
384,192,82376,1,0,0:0:0:0:
354,59,82614,5,0,0:0:0:0:
274,145,82852,1,0,0:0:0:0:
209,52,83090,2,2,P|136:86|110:129,1,100
189,226,83567,1,0,0:0:0:0:
78,325,83805,1,0,0:0:0:0:
71,182,84043,2,2,L|128:128,2,50,2|2|6,0:0|0:0|0:0,0:0:0:0:
186,77,84519,5,0,0:0:0:0:
264,207,84757,1,0,0:0:0:0:
374,185,84995,2,2,L|448:192,2,50
430,304,85471,2,0,P|381:338|327:335,1,100,0|4,0:0|0:0,0:0:0:0:
319,257,85947,2,2,P|251:249|201:263,1,100,0|0,0:0|0:0,0:0:0:0:
84,297,86424,1,0,0:0:0:0:
64,171,86662,1,4,0:0:0:0:
165,77,86900,5,0,0:0:0:0:
196,175,87138,2,2,P|256:155|316:171,1,100
268,275,87614,2,2,L|320:288,2,50
440,304,88090,2,2,P|460:238|437:208,1,100
390,93,88567,2,2,L|289:80,1,100
199,173,89043,1,0,0:0:0:0:
94,124,89281,1,0,0:0:0:0:
94,124,89400,1,0,0:0:0:0:
94,124,89519,5,4,0:0:0:0:
192,320,89757,2,2,L|337:265,1,150
384,192,90233,2,0,L|352:128,2,50
274,101,90590,6,0,P|221:78|166:90,1,100
180,83,90947,1,0,0:0:0:0:
91,151,91186,1,0,0:0:0:0:
128,256,91424,2,0,P|181:300|234:298,1,100
264,229,91900,2,0,P|325:220|377:242,1,100
411,322,92376,5,4,0:0:0:0:
453,216,92614,1,4,0:0:0:0:
389,106,92852,1,4,0:0:0:0:
349,206,93090,2,0,P|293:245|246:221,1,100
266,238,93447,1,0,0:0:0:0:
266,238,93567,1,4,0:0:0:0:
187,60,93805,1,0,0:0:0:0:
187,60,93924,6,0,P|123:56|67:79,1,100
71,95,94281,2,0,P|54:142|41:196,1,100
64,288,94757,2,0,L|104:322,2,50
192,352,95114,1,0,0:0:0:0:
192,352,95233,1,4,0:0:0:0:
299,166,95471,5,4,0:0:0:0:
414,164,95709,2,2,P|434:229|411:277,1,100
324,331,96186,1,4,0:0:0:0:
384,224,96424,1,4,0:0:0:0:
222,252,96662,1,0,0:0:0:0:
140,177,96900,1,0,0:0:0:0:
128,96,97138,1,0,0:0:0:0:
128,96,97376,2,0,L|202:86,2,50
256,96,97733,2,0,L|305:144,2,50
352,192,98090,2,0,L|299:250,2,50
220,259,98566,1,0,0:0:0:0:
220,259,98686,1,0,0:0:0:0:
220,259,98805,5,4,0:0:0:0:
74,198,99043,2,2,P|121:150|173:147,1,100
270,177,99519,2,2,P|317:205|382:202,1,100
361,207,99876,1,0,0:0:0:0:
361,207,99995,1,4,0:0:0:0:
347,71,100233,1,4,0:0:0:0:
347,71,100352,6,2,P|293:53|230:55,1,100
223,70,100709,2,0,L|160:96,2,50
144,114,101066,2,0,L|96:160,2,50
106,192,101424,2,2,L|160:256,2,50
202,294,101900,1,4,0:0:0:0:
244,150,102138,5,0,0:0:0:0:
381,96,102376,1,0,0:0:0:0:
448,209,102614,1,4,0:0:0:0:
408,325,102852,2,2,P|316:327|293:296,1,100
318,229,103328,2,2,P|236:206|181:219,1,100
86,137,103805,1,0,0:0:0:0:
184,70,104043,1,0,0:0:0:0:
289,144,104281,1,4,0:0:0:0:
179,223,104519,5,0,0:0:0:0:
116,300,104757,2,0,P|174:330|244:330,1,100
344,305,105233,2,0,P|363:254|416:224,2,100
256,160,105947,2,0,P|211:117|186:53,2,100
196,239,106662,2,0,P|136:252|96:288,2,100
288,288,107376,6,0,P|352:320|384:320,2,100
390,218,108090,2,0,P|345:160|288:160,2,100
224,96,108805,2,0,P|170:108|160:160,2,100
224,192,109519,2,0,P|188:237|115:253,2,100
352,224,110233,2,0,P|400:168|381:122,2,100
320,96,110947,2,0,P|262:76|207:105,2,100
172,141,111662,1,0,0:0:0:0:
98,268,111900,5,0,0:0:0:0:
237,334,112138,1,0,0:0:0:0:
320,256,112376,2,0,L|416:160,1,100,4|4,0:0|0:0,0:0:0:0:
320,128,112852,2,0,L|224:64,1,100
96,128,113328,2,0,P|128:192|192:224,1,100
224,128,113805,2,0,P|288:160|320:192,1,100
192,320,114281,6,0,P|288:320|320:288,1,100
288,224,114757,2,0,P|348:242|388:269,1,100
448,224,115233,2,0,P|416:160|352:128,1,100
320,256,115709,2,0,P|256:224|288:192,1,100
352,128,116186,1,4,0:0:0:0:
381,41,116424,1,0,0:0:0:0:
381,41,116543,1,0,0:0:0:0:
381,41,116662,1,0,0:0:0:0:
256,115,116900,6,0,P|207:155|166:143,1,100
163,53,117376,2,0,P|97:61|64:96,2,100
110,197,118090,1,0,0:0:0:0:
193,286,118328,1,0,0:0:0:0:
244,199,118566,2,0,L|352:192,2,100
364,311,119281,2,0,P|437:286|448:256,2,100
429,183,119995,1,4,0:0:0:0:
316,133,120233,6,2,B|205:106|205:106|192:96,2,100
128,160,120947,2,2,L|96:256,2,100
224,288,121662,2,2,L|352:288,2,100
416,256,122376,2,2,L|352:160,2,100
313,330,123090,1,0,0:0:0:0:
160,299,123328,1,0,0:0:0:0:
95,175,123566,1,4,0:0:0:0:
188,101,123805,6,2,P|239:146|301:147,1,100
316,75,124281,2,2,P|395:98|416:122,1,100
384,256,124757,1,0,0:0:0:0:
266,329,124995,1,0,0:0:0:0:
239,217,125233,2,2,B|199:157|199:157|153:156,1,100
69,72,125709,2,2,P|155:55|206:64,1,100,2|6,0:0|0:0,0:0:0:0:
292,161,126186,5,0,0:0:0:0:
292,161,126305,1,0,0:0:0:0:
292,161,126424,1,4,0:0:0:0:
438,235,126662,1,0,0:0:0:0:
339,322,126900,1,0,0:0:0:0:
186,278,127138,1,4,0:0:0:0:
79,206,127376,2,2,P|64:126|110:106,1,100,0|4,0:0|0:0,0:0:0:0:
152,73,127852,5,0,0:0:0:0:
152,73,127971,1,0,0:0:0:0:
152,73,128090,1,4,0:0:0:0:
258,188,128328,1,0,0:0:0:0:
331,305,128566,1,0,0:0:0:0:
422,212,128805,1,0,0:0:0:0:
376,103,129043,2,2,P|312:60|252:59,1,100,2|6,0:0|0:0,0:0:0:0:
160,160,129519,5,0,0:0:0:0:
160,160,129638,1,0,0:0:0:0:
160,160,129757,1,4,0:0:0:0:
136,44,129995,1,4,0:0:0:0:
281,82,130233,2,2,P|362:101|386:133,1,100
386,229,130709,2,2,P|334:266|289:265,1,100,2|6,0:0|0:0,0:0:0:0:
101,179,131186,5,0,0:0:0:0:
101,179,131305,1,0,0:0:0:0:
101,179,131424,1,0,0:0:0:0:
207,83,131662,2,2,P|252:144|298:147,1,100
348,88,132138,2,2,P|414:115|438:154,1,100
409,262,132614,1,4,0:0:0:0:
272,314,132852,5,0,0:0:0:0:
119,272,133090,1,0,0:0:0:0:
234,187,133328,1,0,0:0:0:0:
127,109,133566,1,0,0:0:0:0:
230,74,133805,2,2,P|286:119|335:127,1,100
312,125,134281,2,2,P|352:160|384:224,1,100,0|0,0:0|0:0,0:0:0:0:
376,200,134757,1,4,0:0:0:0:
322,307,134995,5,0,0:0:0:0:
322,307,135114,1,0,0:0:0:0:
322,307,135233,1,4,0:0:0:0:
96,224,135471,2,2,L|192:128,1,100
325,124,135947,2,0,L|416:192,2,100
414,61,136662,1,4,0:0:0:0:
162,89,136900,5,0,0:0:0:0:
303,154,137138,1,0,0:0:0:0:
145,234,137376,1,0,0:0:0:0:
271,300,137614,2,2,P|352:256|384:256,2,100
416,192,138328,1,0,0:0:0:0:
416,192,138447,1,0,0:0:0:0:
416,192,138566,1,4,0:0:0:0:
320,128,138805,6,2,L|256:96,2,50
96,128,139281,2,2,L|160:224,1,100
256,224,139757,2,2,L|192:320,1,100
96,256,140233,2,2,L|192:160,1,100
256,96,140709,2,2,L|352:160,1,100
416,256,141186,1,0,0:0:0:0:
416,256,141305,1,0,0:0:0:0:
416,256,141424,1,4,0:0:0:0:
288,320,141662,5,0,0:0:0:0:
96,256,141900,1,0,0:0:0:0:
224,192,142138,1,0,0:0:0:0:
96,96,142376,2,2,L|160:64,4,50
224,64,143090,1,0,0:0:0:0:
352,96,143328,1,0,0:0:0:0:
416,256,143566,1,4,0:0:0:0:
416,256,143805,6,0,P|352:288|320:288,1,100
192,256,144281,1,0,0:0:0:0:
256,128,144519,1,0,0:0:0:0:
96,96,144757,1,0,0:0:0:0:
96,192,144995,2,0,B|128:256|128:256|160:288,1,100
256,224,145471,2,0,P|320:224|352:256,1,100
448,320,145947,1,4,0:0:0:0:
448,192,146186,6,2,P|384:128|352:128,2,100,2|2|6,0:0|0:0|0:0,0:0:0:0:
288,64,146900,1,0,0:0:0:0:
128,64,147138,1,0,0:0:0:0:
224,192,147376,1,0,0:0:0:0:
416,160,147614,1,0,0:0:0:0:
416,160,147852,2,0,L|448:256,1,100
320,320,148328,1,4,0:0:0:0:
96,256,148566,5,0,0:0:0:0:
96,256,148686,1,0,0:0:0:0:
96,256,148805,1,0,0:0:0:0:
160,128,149043,1,0,0:0:0:0:
256,96,149281,2,2,P|320:128|352:128,2,100
256,96,149995,1,0,0:0:0:0:
96,64,150233,1,0,0:0:0:0:
96,64,150471,2,0,P|96:160|128:192,1,100,0|4,0:0|0:0,0:0:0:0:
95,159,150828,5,0,0:0:0:0:
95,159,150947,1,4,0:0:0:0:
384,288,152614,5,4,0:0:0:0:
128,288,153566,5,4,0:0:0:0:
320,128,154519,5,4,0:0:0:0:
96,96,156424,5,4,0:0:0:0:
352,256,157376,5,4,0:0:0:0:
256,192,158328,12,4,160709,0:0:0:0:
