osu file format v14

[General]
AudioFilename: audio.mp3
AudioLeadIn: 0
PreviewTime: 54100
Countdown: 1
SampleSet: Soft
StackLeniency: 0.7
Mode: 0
LetterboxInBreaks: 0
WidescreenStoryboard: 0

[Editor]
Bookmarks: 54100
DistanceSpacing: 0.6
BeatDivisor: 4
GridSize: 32
TimelineZoom: 1.5

[Metadata]
Title:Fushigi Omocha Gangaradindon
TitleUnicode:不思議玩具ガンガラディンドン
Artist:Machigeri-ta
ArtistUnicode:マチゲリータ
Creator:Musty
Version:Midnight
Source:
Tags:
BeatmapID:2003323
BeatmapSetID:956933

[Difficulty]
HPDrainRate:6
CircleSize:6
OverallDifficulty:8
ApproachRate:9.3
SliderMultiplier:2.1
SliderTickRate:1

[Events]
//Background and Video events
0,0,"weird.jpg",0,0
//Break Periods
//Storyboard Layer 0 (Background)
//Storyboard Layer 1 (Fail)
//Storyboard Layer 2 (Pass)
//Storyboard Layer 3 (Foreground)
//Storyboard Sound Samples

[TimingPoints]
2900,400,4,2,0,100,1,0
2900,-200,4,2,0,100,0,0
15700,-100,4,2,0,100,0,0
28100,-66.6666666666667,4,2,0,100,0,0
28500,-100,4,2,0,100,0,0
44500,-66.6666666666667,4,2,0,100,0,0
45900,-100,4,2,0,100,0,0
54100,-80,4,2,0,100,0,1
65300,-66.6666666666667,4,2,0,100,0,0
72900,-100,4,2,0,100,0,0
85700,-66.6666666666667,4,2,0,100,0,0
86100,-100,4,2,0,100,0,0
87700,-100,4,2,0,100,0,1
87900,-66.6666666666667,4,2,0,100,0,1
88100,-100,4,2,0,100,0,1
88300,-66.6666666666667,4,2,0,100,0,1
88500,-100,4,2,0,100,0,1
88700,-66.6666666666667,4,2,0,100,0,1
88900,-100,4,2,0,100,0,1
89100,-66.6666666666667,4,2,0,100,0,1
89700,-133.333333333333,4,2,0,100,0,1
89900,-66.6666666666667,4,2,0,100,0,1
90100,-133.333333333333,4,2,0,100,0,1
90300,-66.6666666666667,4,2,0,100,0,1
90500,-133.333333333333,4,2,0,100,0,1
90700,-66.6666666666667,4,2,0,100,0,1
90900,-133.333333333333,4,2,0,100,0,1
91300,-50,4,2,0,100,0,1
91500,-133.333333333333,4,2,0,100,0,1
91700,-50,4,2,0,100,0,1
91900,-133.333333333333,4,2,0,100,0,1
92100,-50,4,2,0,100,0,1
92300,-133.333333333333,4,2,0,100,0,1
92500,-50,4,2,0,100,0,1
98900,-50,4,2,0,100,0,0

[HitObjects]
105,278,2900,6,0,B|58:196|139:211|99:125,1,157.5,4|0,0:0|0:0,0:0:0:0:
45,169,3700,1,8,0:0:0:0:
45,169,4300,1,0,0:0:0:0:
151,232,4500,2,0,L|274:228,1,105
287,170,5100,1,0,0:0:0:0:
314,260,5300,2,0,L|309:320,1,52.5,8|0,0:0|0:0,0:0:0:0:
309,312,6100,6,0,P|356:281|453:292,1,157.5
386,357,6900,1,8,0:0:0:0:
386,357,7300,6,0,P|379:308|384:292,1,52.5
418,257,7700,1,0,0:0:0:0:
368,200,7900,1,0,0:0:0:0:
387,131,8100,2,0,L|393:67,1,52.5
449,8,8500,2,0,L|453:60,1,52.5,8|0,0:0|0:0,0:0:0:0:
487,124,8900,1,0,0:0:0:0:
444,181,9100,1,0,0:0:0:0:
282,143,9300,6,0,L|397:129,1,105,4|0,0:0|0:0,0:0:0:0:
298,83,9900,1,0,0:0:0:0:
241,186,10100,2,0,P|279:203|300:197,1,52.5,8|0,0:0|0:0,0:0:0:0:
225,131,10500,1,0,0:0:0:0:
225,131,10700,1,0,0:0:0:0:
171,203,10900,2,0,P|94:214|61:197,1,105
41,151,11500,1,0,0:0:0:0:
69,298,11700,1,8,0:0:0:0:
69,298,12500,6,0,P|121:296|157:342,1,105,4|0,0:0|0:0,0:0:0:0:
96,356,13100,1,0,0:0:0:0:
11,322,13300,2,0,P|9:274|22:249,1,52.5,8|0,0:0|0:0,0:0:0:0:
112,170,13700,2,0,L|116:222,1,52.5,0|8,0:0|0:0,0:0:0:0:
20,164,14100,5,0,0:0:0:0:
133,97,14300,5,0,0:0:0:0:
164,99,14400,1,0,0:0:0:0:
195,101,14500,1,0,0:0:0:0:
226,103,14600,1,0,0:0:0:0:
257,105,14700,1,0,0:0:0:0:
288,107,14800,1,0,0:0:0:0:
319,109,14900,2,0,L|433:97,1,105,2|2,0:0|0:0,0:0:0:0:
423,98,15700,6,0,B|429:83|429:83|427:35,1,52.5,2|0,0:0|0:0,0:0:0:0:
345,51,15900,2,0,B|339:36|339:36|341:-12,1,52.5,2|0,0:0|0:0,0:0:0:0:
260,47,16100,2,0,B|262:84|262:84|256:99,1,52.5,2|0,0:0|0:0,0:0:0:0:
173,0,16300,2,0,B|172:37|172:37|178:52,1,52.5,2|0,0:0|0:0,0:0:0:0:
113,105,16500,2,0,B|96:110|96:110|36:95,1,52.5,2|0,0:0|0:0,0:0:0:0:
109,192,16700,1,2,0:0:0:0:
122,185,16800,1,2,0:0:0:0:
137,178,16900,2,0,B|154:173|154:173|214:188,1,52.5,2|0,0:0|0:0,0:0:0:0:
145,294,17100,2,0,L|163:231,1,52.5,2|0,0:0|0:0,0:0:0:0:
35,188,17300,6,0,L|55:248,1,52.5,2|0,0:0|0:0,0:0:0:0:
25,376,17500,1,2,0:0:0:0:
39,368,17600,1,2,0:0:0:0:
54,360,17700,2,0,L|70:310,1,52.5,2|0,0:0|0:0,0:0:0:0:
159,243,17900,1,2,0:0:0:0:
173,251,18000,1,2,0:0:0:0:
188,259,18100,2,0,L|204:308,1,52.5,2|0,0:0|0:0,0:0:0:0:
273,356,18300,2,0,L|223:372,1,52.5,2|0,0:0|0:0,0:0:0:0:
333,304,18500,2,0,B|347:348|347:348|413:366,1,105,2|0,0:0|0:0,0:0:0:0:
398,295,18800,5,0,0:0:0:0:
398,295,18900,2,0,B|404:284|404:284|410:221,1,52.5,2|0,0:0|0:0,0:0:0:0:
328,189,19100,2,0,B|331:228|331:228|337:239,1,52.5,2|0,0:0|0:0,0:0:0:0:
413,163,19300,2,0,B|419:152|419:152|425:89,1,52.5,2|0,0:0|0:0,0:0:0:0:
343,57,19500,2,0,B|346:96|346:96|352:107,1,52.5,2|0,0:0|0:0,0:0:0:0:
437,16,19700,1,2,0:0:0:0:
510,98,19900,1,2,0:0:0:0:
510,98,20000,1,2,0:0:0:0:
510,98,20100,1,2,0:0:0:0:
283,133,20300,1,2,0:0:0:0:
281,19,20500,5,2,0:0:0:0:
310,31,20600,1,2,0:0:0:0:
285,50,20700,1,2,0:0:0:0:
281,19,20800,1,2,0:0:0:0:
310,31,20900,2,0,L|379:37,1,52.5,2|0,0:0|0:0,0:0:0:0:
283,133,21100,2,0,L|230:128,1,52.5,2|0,0:0|0:0,0:0:0:0:
116,130,21300,5,2,0:0:0:0:
128,101,21400,1,2,0:0:0:0:
147,126,21500,1,2,0:0:0:0:
116,130,21600,1,2,0:0:0:0:
128,101,21700,5,2,0:0:0:0:
157,89,21800,1,2,0:0:0:0:
132,70,21900,1,2,0:0:0:0:
128,101,22000,1,2,0:0:0:0:
116,130,22100,6,0,L|64:120,1,52.5,2|0,0:0|0:0,0:0:0:0:
51,194,22300,2,0,L|103:204,1,52.5,2|0,0:0|0:0,0:0:0:0:
172,176,22500,2,0,L|224:166,1,52.5,2|0,0:0|0:0,0:0:0:0:
237,240,22700,2,0,L|185:250,1,52.5,2|0,0:0|0:0,0:0:0:0:
110,281,22900,1,2,0:0:0:0:
256,355,23100,1,2,0:0:0:0:
256,355,23200,1,2,0:0:0:0:
256,355,23300,1,2,0:0:0:0:
402,281,23500,1,2,0:0:0:0:
396,130,23700,6,0,L|448:120,1,52.5,2|0,0:0|0:0,0:0:0:0:
461,194,23900,2,0,L|409:204,1,52.5,2|0,0:0|0:0,0:0:0:0:
340,176,24100,2,0,L|288:166,1,52.5,2|0,0:0|0:0,0:0:0:0:
275,240,24300,2,0,L|327:250,1,52.5,2|0,0:0|0:0,0:0:0:0:
402,281,24500,2,0,L|411:353,1,52.5,2|0,0:0|0:0,0:0:0:0:
494,310,24700,2,0,L|487:257,1,52.5,2|0,0:0|0:0,0:0:0:0:
331,319,24900,1,2,0:0:0:0:
256,226,25100,5,0,0:0:0:0:
261,195,25200,1,0,0:0:0:0:
267,164,25300,2,0,L|279:101,1,52.5,2|0,0:0|0:0,0:0:0:0:
197,151,25500,2,0,L|209:88,1,52.5,2|0,0:0|0:0,0:0:0:0:
142,203,25700,2,0,L|154:266,1,52.5,2|0,0:0|0:0,0:0:0:0:
72,216,25900,2,0,L|84:279,1,52.5,2|0,0:0|0:0,0:0:0:0:
29,152,26100,1,2,0:0:0:0:
224,284,26300,1,2,0:0:0:0:
224,284,26400,1,2,0:0:0:0:
224,284,26500,1,2,0:0:0:0:
133,357,26700,1,2,0:0:0:0:
303,334,26900,6,0,L|369:339,1,52.5,2|0,0:0|0:0,0:0:0:0:
512,146,27200,2,0,L|459:142,1,52.5,2|0,0:0|0:0,0:0:0:0:
171,280,27500,6,0,L|237:285,1,52.5,2|0,0:0|0:0,0:0:0:0:
277,233,27700,1,0,3:0:0:0:
250,216,27800,1,0,3:0:0:0:
223,199,27900,2,0,L|170:195,1,52.5,2|0,0:0|0:0,0:0:0:0:
121,159,28100,6,0,P|106:111|123:63,1,78.7500030040742,2|0,0:0|0:0,0:0:0:0:
111,84,28300,2,0,P|80:108|64:143,1,78.7500030040742,2|0,0:0|0:0,0:0:0:0:
79,202,28500,6,0,P|85:290|26:343,1,157.5,2|0,0:0|0:0,0:0:0:0:
40,336,28900,1,8,0:0:0:0:
15,256,29100,1,0,0:0:0:0:
160,345,29300,2,0,L|270:343,1,105,2|0,0:0|0:0,0:0:0:0:
183,200,29700,2,0,L|78:201,1,105,8|0,0:0|0:0,0:0:0:0:
130,177,30000,1,0,0:0:0:0:
109,115,30100,6,0,L|119:33,1,52.5,2|0,0:0|0:0,0:0:0:0:
145,10,30300,2,0,L|138:62,1,52.5,2|0,0:0|0:0,0:0:0:0:
181,81,30500,2,0,L|99:71,1,52.5,10|0,0:0|0:0,0:0:0:0:
76,45,30700,2,0,L|128:51,1,52.5,2|0,0:0|0:0,0:0:0:0:
245,61,30900,6,0,P|302:46|361:58,1,105,2|8,0:0|0:0,0:0:0:0:
381,98,31200,1,8,0:0:0:0:
434,120,31300,2,0,B|442:115|442:115|446:63,1,52.5,10|0,0:0|0:0,0:0:0:0:
319,103,31500,2,0,B|322:145|322:145|330:150,1,52.5,10|0,0:0|0:0,0:0:0:0:
399,191,31700,6,0,L|389:354,1,157.5,4|0,0:0|0:0,0:0:0:0:
373,365,32100,2,0,P|315:352|272:376,1,105,8|0,0:0|0:0,0:0:0:0:
303,319,32400,1,0,0:0:0:0:
248,348,32500,2,0,P|200:368|151:354,1,105,2|0,0:0|0:0,0:0:0:0:
177,194,32900,2,0,L|195:302,1,105,8|0,0:0|0:0,0:0:0:0:
159,251,33200,1,0,0:0:0:0:
231,222,33300,6,0,L|299:227,1,52.5,2|0,0:0|0:0,0:0:0:0:
226,167,33500,2,0,L|221:235,1,52.5,2|0,0:0|0:0,0:0:0:0:
281,162,33700,2,0,L|213:157,1,52.5,2|0,0:0|0:0,0:0:0:0:
286,217,33900,2,0,L|291:149,1,52.5,2|0,0:0|0:0,0:0:0:0:
177,194,34100,1,2,0:0:0:0:
254,113,34300,1,2,0:0:0:0:
295,153,34400,1,0,0:0:0:0:
335,190,34500,1,2,0:0:0:0:
258,271,34700,1,2,0:0:0:0:
182,98,34900,6,0,P|257:43|324:84,1,157.5,4|0,0:0|0:0,0:0:0:0:
317,71,35300,2,0,P|358:106|436:80,1,105,8|0,0:0|0:0,0:0:0:0:
352,136,35600,1,0,0:0:0:0:
374,51,35700,2,0,P|436:49|471:102,1,105,2|0,0:0|0:0,0:0:0:0:
394,207,36100,2,0,L|406:99,1,105,8|0,0:0|0:0,0:0:0:0:
431,158,36400,1,0,0:0:0:0:
448,251,36500,6,0,L|504:255,1,52.5,2|0,0:0|0:0,0:0:0:0:
495,323,36700,2,0,L|442:319,1,52.5,2|0,0:0|0:0,0:0:0:0:
377,290,36900,2,0,L|321:294,1,52.5,2|0,0:0|0:0,0:0:0:0:
330,362,37100,2,0,L|382:358,1,52.5,2|0,0:0|0:0,0:0:0:0:
346,231,37300,6,0,P|285:214|257:229,1,52.5,2|0,0:0|0:0,0:0:0:0:
305,115,37500,1,2,0:0:0:0:
305,115,37600,1,2,0:0:0:0:
305,115,37700,2,0,P|243:130|226:157,1,52.5,2|0,0:0|0:0,0:0:0:0:
211,35,37900,2,0,P|165:79|164:111,1,52.5,2|0,0:0|0:0,0:0:0:0:
231,257,38100,6,0,P|276:175|250:118,1,157.5,6|0,0:0|0:0,0:0:0:0:
253,121,38500,1,8,0:0:0:0:
180,282,38700,1,0,0:0:0:0:
231,257,38800,1,0,0:0:0:0:
171,284,38900,2,0,L|64:273,1,105,2|0,0:0|0:0,0:0:0:0:
125,111,39300,2,0,P|151:176|115:216,1,105,8|0,0:0|0:0,0:0:0:0:
94,161,39600,1,0,0:0:0:0:
53,119,39700,5,0,3:0:0:0:
149,56,39900,1,0,3:0:0:0:
264,46,40100,1,0,3:0:0:0:
367,96,40300,1,0,3:0:0:0:
433,190,40500,6,0,B|446:178|449:159|449:159|466:230|516:259,1,157.5,2|0,0:0|0:0,0:0:0:0:
443,304,40900,2,0,B|430:292|427:273|427:273|410:344|360:373,1,157.5,2|0,0:0|0:0,0:0:0:0:
310,339,41300,6,0,P|243:331|211:366,1,105,2|0,0:0|0:0,0:0:0:0:
228,295,41600,1,0,3:0:0:0:
261,341,41700,1,0,3:0:0:0:
101,320,41900,1,0,0:0:0:0:
169,139,42100,2,0,L|155:258,1,105,2|0,0:0|0:0,0:0:0:0:
138,188,42400,1,0,3:0:0:0:
194,200,42500,1,0,3:0:0:0:
62,253,42700,1,0,0:0:0:0:
128,87,42900,6,0,P|197:81|231:118,1,105,2|0,0:0|0:0,0:0:0:0:
211,44,43200,1,0,3:0:0:0:
257,78,43300,2,0,L|376:62,1,105,0|0,3:0|0:0,0:0:0:0:
307,42,43600,1,0,0:0:0:0:
316,98,43700,2,0,P|350:118|385:116,1,52.5,0|0,3:0|0:0,0:0:0:0:
363,181,43900,2,0,P|388:175|409:159,1,52.5,0|0,3:0|0:0,0:0:0:0:
427,65,44100,2,0,P|447:99|445:134,1,52.5,0|0,3:0|0:0,0:0:0:0:
510,112,44300,2,0,P|504:137|488:158,1,52.5,0|0,3:0|0:0,0:0:0:0:
442,287,44500,6,0,L|450:196,1,78.7500030040742,2|0,0:0|0:0,0:0:0:0:
461,227,44700,2,0,L|467:305,1,78.7500030040742,2|0,0:0|0:0,0:0:0:0:
208,324,45100,1,0,0:0:0:0:
256,157,45300,6,0,L|264:66,1,78.7500030040742,2|0,0:0|0:0,0:0:0:0:
275,97,45500,2,0,L|281:175,1,78.7500030040742,2|0,0:0|0:0,0:0:0:0:
113,214,45900,5,0,3:0:0:0:
113,214,46000,1,0,3:0:0:0:
113,214,46100,2,4,P|76:173|91:95,1,105,4|0,3:2|0:0,3:2:0:0:
56,267,46400,1,0,0:0:0:0:
56,267,46500,2,4,P|19:308|34:386,1,105,0|0,3:2|0:0,3:2:0:0:
246,319,46900,2,0,L|79:325,1,157.5,2|0,0:0|0:0,0:0:0:0:
148,376,47300,2,0,L|163:253,1,105,0|0,3:0|3:0,0:0:0:0:
200,230,47600,1,0,3:0:0:0:
182,203,47700,6,0,L|198:54,1,105,0|0,3:0|3:0,0:0:0:0:
167,46,48000,1,0,3:0:0:0:
242,25,48100,2,0,L|329:25,1,52.5,0|0,3:0|0:0,0:0:0:0:
123,103,48300,1,0,3:0:0:0:
123,103,48400,1,0,3:0:0:0:
123,103,48500,2,0,L|70:103,1,52.5,0|0,3:0|0:0,0:0:0:0:
261,87,48700,1,0,3:0:0:0:
270,102,48800,1,0,3:0:0:0:
280,114,48900,2,0,L|345:156,1,52.5,0|0,3:0|0:0,0:0:0:0:
200,230,49100,2,0,L|208:163,1,52.5,0|0,3:0|0:0,0:0:0:0:
313,238,49300,6,0,P|291:291|380:353,1,157.5,2|0,3:2|0:0,0:0:0:0:
376,302,49700,1,0,3:0:0:0:
489,321,49900,1,0,3:0:0:0:
466,267,50000,1,0,3:0:0:0:
444,214,50100,1,0,3:0:0:0:
376,302,50300,5,0,3:0:0:0:
432,313,50400,1,0,3:0:0:0:
489,321,50500,1,0,3:0:0:0:
444,214,50700,5,0,3:0:0:0:
408,259,50800,1,0,3:0:0:0:
376,302,50900,1,2,3:0:0:0:
404,122,51100,1,2,3:0:0:0:
68,214,51500,5,0,3:0:0:0:
136,302,51700,1,2,3:0:0:0:
108,122,51900,1,2,3:0:0:0:
108,122,52300,5,0,3:0:0:0:
119,105,52400,1,0,3:0:0:0:
81,60,52500,2,0,L|85:4,1,52.5,0|0,3:0|0:0,0:0:0:0:
70,176,52700,2,0,L|14:172,1,52.5,0|0,3:0|0:0,0:0:0:0:
186,187,52900,2,0,L|182:243,1,52.5,0|0,3:0|0:0,0:0:0:0:
197,71,53100,2,0,L|253:75,1,52.5,0|0,3:0|0:0,0:0:0:0:
108,122,53300,5,0,3:0:0:0:
134,102,54100,6,0,L|130:180,1,65.625,6|0,0:0|0:0,0:0:0:0:
167,318,54300,2,0,L|170:252,1,65.625,10|0,0:0|0:0,0:0:0:0:
234,367,54500,1,2,3:2:0:0:
303,320,54600,2,0,P|335:324|363:341,1,65.625,2|8,0:0|0:0,0:0:0:0:
161,324,54800,2,0,P|61:334|24:282,1,131.25,2|0,0:0|0:0,0:0:0:0:
286,187,55100,6,0,P|297:267|287:283,1,65.625,10|0,0:0|0:0,0:0:0:0:
254,73,55300,2,0,P|238:101|237:134,1,65.625,2|0,0:0|0:0,0:0:0:0:
364,119,55500,1,8,0:0:0:0:
341,41,55600,1,0,0:0:0:0:
258,64,55700,2,0,P|202:20|190:-9,1,65.625,2|0,0:0|0:0,0:0:0:0:
233,147,55900,2,0,P|210:170|180:185,1,65.625,10|0,0:0|0:0,0:0:0:0:
58,141,56100,2,0,P|114:97|126:68,1,65.625,2|0,0:0|0:0,0:0:0:0:
83,224,56300,2,0,P|105:247|135:262,1,65.625,10|0,0:0|0:0,0:0:0:0:
323,330,56500,2,0,P|260:299|161:343,1,131.25,2|8,0:0|0:0,0:0:0:0:
121,355,56800,1,0,0:0:0:0:
43,282,56900,2,0,L|58:132,1,131.25,2|8,0:0|0:0,0:0:0:0:
380,61,57300,6,0,P|412:126|404:160,1,65.625,6|0,0:0|0:0,0:0:0:0:
281,109,57500,2,0,L|389:122,1,65.625,8|0,0:0|0:0,0:0:0:0:
512,164,57700,2,0,L|404:177,1,65.625,2|0,0:0|0:0,0:0:0:0:
348,244,57900,2,0,L|372:180,1,65.625,8|0,0:0|0:0,0:0:0:0:
310,52,58100,6,0,P|283:131|297:158,1,65.625,2|0,0:0|0:0,0:0:0:0:
348,244,58300,2,0,P|339:212|318:187,1,65.625,8|0,0:0|0:0,0:0:0:0:
197,148,58500,2,0,P|176:123|168:92,1,65.625,2|0,0:0|0:0,0:0:0:0:
235,227,58701,2,0,P|227:259|206:284,1,65.625,8|0,0:0|0:0,0:0:0:0:
101,305,58900,5,2,0:0:0:0:
75,197,59000,1,0,0:0:0:0:
163,236,59100,2,0,P|193:259|209:302,1,65.625,8|0,0:0|0:0,0:0:0:0:
16,239,59300,2,0,P|17:157|40:136,1,65.625,2|0,0:0|0:0,0:0:0:0:
255,240,59500,2,0,P|267:304|254:334,1,65.625,8|0,0:0|0:0,0:0:0:0:
75,197,59700,2,0,B|92:170|92:170|72:51,1,131.25,2|8,0:0|0:0,0:0:0:0:
9,43,60000,1,0,0:0:0:0:
80,54,60100,5,2,3:0:0:0:
151,43,60200,1,2,3:0:0:0:
71,26,60300,1,2,3:0:0:0:
143,101,60400,1,2,3:0:0:0:
206,12,60500,6,0,P|258:36|277:81,1,65.625,6|0,0:0|0:0,0:0:0:0:
278,171,60700,2,0,L|292:86,1,65.625,8|0,0:0|0:0,0:0:0:0:
483,94,60900,1,2,0:0:0:0:
409,49,61000,2,0,P|376:47|346:59,1,65.625,2|8,0:0|0:0,0:0:0:0:
353,212,61200,2,0,P|295:109|264:96,1,131.25,2|0,0:0|0:0,0:0:0:0:
295,268,61500,5,10,0:0:0:0:
389,288,61600,1,2,0:0:0:0:
367,148,61700,2,0,P|355:186|352:211,1,65.625,2|0,0:0|0:0,0:0:0:0:
452,339,61900,2,0,P|464:301|466:275,1,65.625,10|0,0:0|0:0,0:0:0:0:
276,284,62100,6,0,L|187:290,1,65.625,2|0,0:0|0:0,0:0:0:0:
123,158,62300,2,0,L|134:267,1,65.625,10|0,0:0|0:0,0:0:0:0:
207,66,62500,2,0,L|296:60,1,65.625,2|0,0:0|0:0,0:0:0:0:
360,192,62700,2,0,L|349:83,1,65.625,10|0,0:0|0:0,0:0:0:0:
123,158,62900,2,0,P|207:156|236:246,1,131.25,2|0,0:0|0:0,0:0:0:0:
94,164,63200,1,2,0:0:0:0:
92,91,63300,5,2,3:0:0:0:
138,180,63400,1,2,3:0:0:0:
65,169,63500,1,2,3:0:0:0:
128,99,63600,1,2,3:0:0:0:
89,228,63700,6,0,P|87:273|102:320,1,65.625,6|0,0:0|0:0,0:0:0:0:
234,187,63900,2,0,P|236:232|221:279,1,65.625,8|0,0:0|0:0,0:0:0:0:
353,126,64100,2,0,P|351:171|366:218,1,65.625,2|0,0:0|0:0,0:0:0:0:
498,85,64300,2,0,P|500:130|485:177,1,65.625,8|0,0:0|0:0,0:0:0:0:
437,262,64500,6,0,P|442:294|440:327,1,65.625,2|0,0:0|0:0,0:0:0:0:
297,221,64700,2,0,P|292:253|295:286,1,65.625,8|0,0:0|0:0,0:0:0:0:
206,349,64900,5,2,3:0:0:0:
259,301,65000,1,2,3:0:0:0:
231,343,65100,1,2,3:0:0:0:
223,294,65200,1,2,3:0:0:0:
178,323,65300,5,4,0:0:0:0:
256,31,65700,1,4,0:0:0:0:
334,323,66100,1,4,0:0:0:0:
256,288,66500,5,2,0:0:0:0:
192,192,66900,6,0,B|353:128|320:288|512:192,1,315.000012016297,6|4,0:0|0:0,0:0:0:0:
380,55,67600,2,0,P|380:151|444:151,1,157.500006008148,4|0,0:0|0:0,0:0:0:0:
417,104,67900,2,0,B|257:40|289:168|97:104,1,315.000012016297,4|0,0:0|0:0,0:0:0:0:
48,224,68500,6,0,P|144:224|80:352,1,236.250009012223,4|0,0:0|0:0,0:0:0:0:
99,278,68900,2,0,P|187:273|191:388,1,157.500006008148,4|0,0:0|0:0,0:0:0:0:
140,338,69200,2,0,P|171:265|278:274,1,157.500006008148,4|0,0:0|0:0,0:0:0:0:
216,323,69500,2,0,P|165:246|318:238,1,315.000012016297,4|0,0:0|0:0,0:0:0:0:
455,126,70100,6,0,B|472:170|468:209|468:209|395:184|374:152|389:78,1,236.250009012223,4|0,0:0|0:0,0:0:0:0:
430,51,70500,2,0,P|448:115|384:80,1,157.500006008148,4|0,0:0|0:0,0:0:0:0:
340,51,70800,2,0,P|322:115|386:80,1,157.500006008148,4|0,0:0|0:0,0:0:0:0:
257,32,71100,1,4,0:0:0:0:
148,100,71300,2,0,L|56:96,1,78.7500030040742,4|0,0:0|0:0,0:0:0:0:
214,170,71500,2,0,L|122:166,1,78.7500030040742,4|0,0:0|0:0,0:0:0:0:
280,240,71700,1,2,0:0:0:0:
280,240,72100,1,2,0:0:0:0:
280,240,72500,1,2,0:0:0:0:
109,174,72900,5,2,0:0:0:0:
109,174,72966,1,2,0:0:0:0:
109,174,73033,1,2,0:0:0:0:
109,174,73100,1,2,0:0:0:0:
109,174,73166,1,2,0:0:0:0:
109,174,73233,1,2,0:0:0:0:
109,174,73300,1,2,0:0:0:0:
160,277,73500,5,2,0:0:0:0:
174,247,73600,1,2,0:0:0:0:
218,227,73700,1,2,0:0:0:0:
253,186,73800,1,2,0:0:0:0:
243,129,73900,1,2,0:0:0:0:
197,93,74000,1,2,0:0:0:0:
149,59,74100,5,2,3:2:0:0:
223,77,74200,1,2,3:2:0:0:
181,36,74300,1,2,3:2:0:0:
210,85,74400,1,2,3:2:0:0:
214,27,74500,1,2,3:2:0:0:
248,92,74600,1,2,3:2:0:0:
194,71,74700,1,2,3:2:0:0:
248,50,74800,1,2,3:2:0:0:
303,32,74900,5,2,0:0:0:0:
333,25,75000,1,0,0:0:0:0:
390,27,75100,1,0,0:0:0:0:
433,65,75200,1,0,0:0:0:0:
443,101,75300,1,2,0:0:0:0:
439,134,75400,1,0,0:0:0:0:
403,179,75500,1,0,0:0:0:0:
369,226,75600,1,0,0:0:0:0:
372,283,75700,5,2,3:2:0:0:
404,330,75800,1,2,3:2:0:0:
400,272,75900,1,2,3:2:0:0:
420,326,76000,1,2,3:2:0:0:
362,321,76100,1,2,3:2:0:0:
400,272,76200,1,2,3:2:0:0:
414,332,76300,1,2,3:2:0:0:
362,305,76400,1,2,3:2:0:0:
319,345,76500,5,2,3:2:0:0:
273,331,76600,1,0,0:0:0:0:
215,328,76700,1,0,0:0:0:0:
167,360,76800,1,0,0:0:0:0:
109,353,76900,1,2,0:0:0:0:
68,311,77000,1,0,0:0:0:0:
101,264,77100,1,0,0:0:0:0:
67,217,77200,1,2,0:0:0:0:
121,196,77300,1,2,0:0:0:0:
63,187,77400,1,0,0:0:0:0:
88,135,77500,1,2,0:0:0:0:
63,110,77600,1,2,0:0:0:0:
92,60,77700,1,2,0:0:0:0:
82,20,77800,1,2,0:0:0:0:
109,12,77900,1,2,0:0:0:0:
134,37,78000,1,2,0:0:0:0:
184,8,78100,5,2,3:2:0:0:
269,6,78200,1,2,3:2:0:0:
203,48,78300,1,2,3:2:0:0:
242,6,78400,1,2,3:2:0:0:
247,63,78500,1,2,3:2:0:0:
211,17,78600,1,2,3:2:0:0:
266,34,78700,1,2,3:2:0:0:
321,17,78800,1,2,3:2:0:0:
299,70,78900,1,2,3:2:0:0:
355,60,79000,5,2,0:0:0:0:
391,127,79100,1,2,0:0:0:0:
360,189,79200,1,2,0:0:0:0:
394,236,79300,2,0,B|373:255|373:255|503:244,1,157.5,2|0,0:0|0:0,0:0:0:0:
510,262,79700,5,2,0:0:0:0:
327,308,79900,1,2,0:0:0:0:
323,279,80000,1,2,0:0:0:0:
287,289,80100,1,2,0:0:0:0:
265,309,80200,1,0,0:0:0:0:
215,338,80300,1,2,0:0:0:0:
170,301,80400,1,0,0:0:0:0:
207,256,80500,1,2,0:0:0:0:
149,248,80600,1,0,0:0:0:0:
136,191,80700,1,2,0:0:0:0:
136,184,80800,1,2,0:0:0:0:
96,153,80900,1,0,0:0:0:0:
144,121,81000,1,0,0:0:0:0:
140,63,81100,1,2,0:0:0:0:
192,38,81200,1,0,0:0:0:0:
246,19,81300,1,2,0:0:0:0:
298,156,81500,5,0,0:0:0:0:
271,107,81600,1,0,0:0:0:0:
279,83,81700,1,0,0:0:0:0:
315,38,81800,1,0,0:0:0:0:
340,83,81900,1,0,0:0:0:0:
344,30,82000,1,0,0:0:0:0:
399,63,82100,5,2,0:0:0:0:
406,60,82167,1,2,0:0:0:0:
426,59,82233,1,2,0:0:0:0:
448,64,82300,1,2,0:0:0:0:
467,82,82367,1,2,0:0:0:0:
474,102,82433,1,2,0:0:0:0:
475,119,82500,2,0,P|458:172|477:220,1,105,2|2,0:0|0:0,0:0:0:0:
486,278,82800,1,0,0:0:0:0:
452,340,82900,5,2,0:0:0:0:
308,275,83200,1,2,0:0:0:0:
152,301,83500,1,2,0:0:0:0:
245,349,83700,1,0,0:0:0:0:
229,172,83900,1,2,0:0:0:0:
161,212,84000,1,0,0:0:0:0:
119,192,84100,2,0,B|104:181|104:181|112:88,1,105,2|0,0:0|0:0,0:0:0:0:
208,55,84500,5,2,0:0:0:0:
299,90,84800,5,2,0:0:0:0:
390,125,85100,5,2,0:0:0:0:
435,98,85200,5,0,3:0:0:0:
437,90,85300,1,0,3:0:0:0:
423,73,85400,1,0,3:0:0:0:
456,46,85500,2,0,L|483:-16,1,52.5
494,176,85700,6,0,L|403:190,1,78.7500030040742,2|0,0:0|0:0,0:0:0:0:
379,206,85900,2,0,L|470:220,1,78.7500030040742,2|0,0:0|0:0,0:0:0:0:
467,276,86100,1,2,0:0:0:0:
486,268,86200,1,2,0:0:0:0:
494,288,86300,1,2,0:0:0:0:
474,295,86400,1,2,0:0:0:0:
414,300,86500,5,2,0:0:0:0:
395,292,86600,1,2,0:0:0:0:
387,312,86700,1,2,0:0:0:0:
407,319,86800,1,2,0:0:0:0:
458,341,86900,5,2,0:0:0:0:
477,333,87000,1,2,0:0:0:0:
485,353,87100,1,2,0:0:0:0:
465,360,87200,1,2,0:0:0:0:
405,365,87300,5,2,0:0:0:0:
386,357,87400,1,2,0:0:0:0:
378,377,87500,1,2,0:0:0:0:
398,384,87600,1,2,0:0:0:0:
327,352,87700,6,0,L|251:358,1,52.5,2|0,0:0|0:0,0:0:0:0:
150,307,87900,2,0,L|253:320,1,78.7500030040742,4|0,0:0|0:0,0:0:0:0:
97,302,88100,6,0,L|173:308,1,52.5,2|0,0:0|0:0,0:0:0:0:
274,257,88300,2,0,L|171:270,1,78.7500030040742,4|0,0:0|0:0,0:0:0:0:
274,257,88500,6,0,L|350:263,1,52.5,2|0,0:0|0:0,0:0:0:0:
451,212,88700,2,0,L|348:225,1,78.7500030040742,4|0,0:0|0:0,0:0:0:0:
504,207,88900,6,0,L|428:213,1,52.5,2|0,0:0|0:0,0:0:0:0:
327,162,89100,2,0,L|430:175,1,78.7500030040742,4|0,0:0|0:0,0:0:0:0:
257,152,89300,5,2,0:0:0:0:
257,152,89500,6,0,P|241:131|241:72,1,78.7500030040742,4|0,0:0|0:0,0:0:0:0:
344,0,89700,2,0,P|348:45|332:68,1,39.3750015020371,2|0,0:0|0:0,0:0:0:0:
276,157,89900,6,0,P|273:131|303:80,1,78.7500030040742,4|0,0:0|0:0,0:0:0:0:
428,69,90100,2,0,P|409:110|383:122,1,39.3750015020371,2|0,0:0|0:0,0:0:0:0:
291,172,90300,6,0,P|301:148|352:119,1,78.7500030040742,4|0,0:0|0:0,0:0:0:0:
466,172,90500,2,0,P|429:198|401:195,1,39.3750015020371,2|0,0:0|0:0,0:0:0:0:
296,193,90700,6,0,P|317:177|376:177,1,78.7500030040742,4|0,0:0|0:0,0:0:0:0:
448,280,90900,2,0,P|403:284|380:268,1,39.3750015020371,2|0,0:0|0:0,0:0:0:0:
368,320,91100,6,0,P|329:303|305:307,1,39.3750015020371,4|0,0:0|0:0,0:0:0:0:
215,366,91300,2,0,L|345:359,1,105,2|0,0:0|0:0,0:0:0:0:
318,242,91500,6,0,P|279:225|255:229,1,39.3750015020371,4|0,0:0|0:0,0:0:0:0:
165,288,91700,2,0,L|295:281,1,105,2|0,0:0|0:0,0:0:0:0:
268,164,91900,6,0,P|229:147|205:151,1,39.3750015020371,4|0,0:0|0:0,0:0:0:0:
115,210,92100,2,0,L|245:203,1,105,2|0,0:0|0:0,0:0:0:0:
218,86,92300,6,0,P|179:69|155:73,1,39.3750015020371,4|0,0:0|0:0,0:0:0:0:
65,132,92500,2,0,L|490:103,2,420,2|2|2,0:0|0:0|0:0,0:0:0:0:
371,46,93500,1,0,3:0:0:0:
368,92,93600,1,0,3:0:0:0:
413,138,93700,1,0,3:0:0:0:
413,138,93900,5,0,3:0:0:0:
458,184,94000,1,0,3:0:0:0:
455,230,94100,1,0,3:2:0:0:
275,204,94300,6,0,P|307:187|382:227,1,105,6|0,0:0|0:0,0:0:0:0:
245,289,94500,2,0,P|187:228|205:146,1,105,2|0,0:0|0:0,0:0:0:0:
251,380,94700,6,0,P|300:361|330:319,1,105,4|0,0:0|0:0,0:0:0:0:
247,194,94900,2,0,P|226:241|245:289,1,105,2|0,0:0|0:0,0:0:0:0:
339,291,95100,6,0,P|307:308|232:268,1,105,6|0,0:0|0:0,0:0:0:0:
369,206,95300,2,0,P|427:267|409:349,1,105,2|0,0:0|0:0,0:0:0:0:
362,115,95500,6,0,P|313:133|283:176,1,105,4|0,0:0|0:0,0:0:0:0:
366,301,95700,2,0,P|387:254|368:206,1,105,2|0,0:0|0:0,0:0:0:0:
362,115,95900,6,0,L|376:-25,1,105,4|0,0:0|0:0,0:0:0:0:
273,71,96100,2,0,L|283:175,1,105,2|0,0:0|0:0,0:0:0:0:
273,279,96300,6,0,L|287:139,1,105,4|0,0:0|0:0,0:0:0:0:
184,235,96500,2,0,L|194:339,1,105,2|0,0:0|0:0,0:0:0:0:
362,235,96700,6,0,L|376:375,1,105,4|0,0:0|0:0,0:0:0:0:
273,279,96900,2,0,L|283:174,1,105,2|0,0:0|0:0,0:0:0:0:
273,71,97100,6,0,L|287:211,1,105,4|0,0:0|0:0,0:0:0:0:
184,115,97300,2,0,L|194:10,1,105,2|0,0:0|0:0,0:0:0:0:
283,175,97500,6,0,P|328:71|321:46,1,105,4|0,0:0|0:0,0:0:0:0:
184,115,97700,2,0,P|139:219|146:244,1,105,2|0,0:0|0:0,0:0:0:0:
34,116,97900,5,6,0:0:0:0:
52,68,98000,1,0,0:0:0:0:
98,45,98100,1,2,3:2:0:0:
161,51,98200,1,2,3:2:0:0:
108,22,98300,1,2,3:2:0:0:
156,62,98400,1,2,3:2:0:0:
93,63,98500,1,2,3:2:0:0:
143,25,98600,1,2,3:2:0:0:
133,87,98700,1,2,3:2:0:0:
95,36,98800,1,2,3:2:0:0:
215,32,98900,6,0,L|329:22,1,105,4|0,0:0|0:0,0:0:0:0:
297,352,99300,6,0,L|183:362,1,105,4|0,0:0|0:0,0:0:0:0:
96,233,99700,6,0,L|86:119,1,105,4|0,0:0|0:0,0:0:0:0:
416,151,100100,6,0,L|426:265,1,105,4|0,0:0|0:0,0:0:0:0:
192,361,100500,5,2,0:0:0:0:
425,256,100700,1,2,0:0:0:0:
320,23,100900,1,2,0:0:0:0:
87,128,101100,1,2,0:0:0:0:
375,305,101300,6,0,P|356:240|379:200,1,105,4|0,0:0|0:0,0:0:0:0:
137,79,101500,2,0,P|156:144|133:184,1,105,4|0,0:0|0:0,0:0:0:0:
256,193,101700,1,4,0:0:0:0:
