osu file format v14

[General]
AudioFilename: fantastic dreamer.mp3
AudioLeadIn: 0
PreviewTime: 115023
Countdown: 0
SampleSet: Soft
StackLeniency: 0.5
Mode: 0
LetterboxInBreaks: 1
WidescreenStoryboard: 0

[Editor]
DistanceSpacing: 1.1
BeatDivisor: 4
GridSize: 4
TimelineZoom: 1

[Metadata]
Title:kono subarashii sekai ni shukufuku wo!/fantastic dreamer
TitleUnicode:kono subarashii sekai ni shukufuku wo!/fantastic dreamer
Artist:Machico
ArtistUnicode:Machico
Creator:Bekham Na70
Version:ChunChunMaru
Source:Kono Subarashii Sekai ni Shukufuku o,Megumin,Aqua,Kazuma,Kono Suba
Tags:Kono Subarashii Sekai ni Shukufuku o! KONOSUBA -God's blessing on this wonderful world! anime op opening kawaiwkyik MkGuh Kisses Yogurtt
BeatmapID:1890563
BeatmapSetID:905883

[Difficulty]
HPDrainRate:3.5
CircleSize:3
OverallDifficulty:4
ApproachRate:5
SliderMultiplier:1.1
SliderTickRate:1

[Events]
//Background and Video events
0,0,"Konosuba_the_game.jpg",0,0
//Break Periods
//Storyboard Layer 0 (Background)
//Storyboard Layer 1 (Fail)
//Storyboard Layer 2 (Pass)
//Storyboard Layer 3 (Foreground)
//Storyboard Sound Samples

[TimingPoints]
782,324.324324324324,4,2,1,70,1,0
46187,324.324324324324,3,2,1,70,1,0
50078,324.324324324324,4,2,1,70,1,0
55105,-100,4,2,1,70,0,1
81213,-100,4,2,1,70,0,0
107159,324.324324324324,3,2,1,70,1,0
111050,324.324324324324,4,2,1,70,1,0
116077,-100,4,2,1,70,0,1
139590,-100,4,2,1,70,0,0
168293,-100,4,2,1,40,0,0
168779,-100,4,2,1,50,0,0
169104,-100,4,2,1,60,0,0
169428,-100,4,2,1,70,0,0
197847,-100,4,2,1,5,0,0
198131,-100,4,2,1,50,0,0
199266,-100,4,2,99,50,0,0
199347,-100,4,2,1,50,0,0
200401,-100,4,2,1,70,0,0
201698,-100,4,2,1,70,0,1
238185,-100,4,2,1,70,0,0

[Colours]
Combo1 : 0,128,255
Combo2 : 255,255,0
Combo3 : 128,64,64

[HitObjects]
36,56,782,6,0,P|84:72|148:72,1,110,2|2,0:0|0:0,0:0:0:0:
228,160,1430,2,0,L|236:236,2,55,8|0|8,0:0|0:0|0:0,0:0:0:0:
256,104,1917,6,0,P|336:80|420:108,1,165,4|2,0:0|0:0,0:0:0:0:
480,200,2727,2,0,P|476:260|472:328,1,110,0|2,0:0|0:0,0:0:0:0:
424,344,3214,2,0,B|332:356|332:356|240:332,1,165,4|2,0:0|0:0,0:0:0:0:
204,232,4025,2,0,B|144:216|144:216|72:224,1,110,0|2,0:0|0:0,0:0:0:0:
40,244,4511,6,0,L|28:68,1,165,4|2,0:0|0:0,0:0:0:0:
56,24,5160,1,0,0:0:0:0:
172,60,5484,1,0,0:0:0:0:
292,40,5809,2,0,P|352:40|420:36,1,110,2|2,0:0|0:0,0:0:0:0:
460,52,6295,1,8,0:0:0:0:
460,52,6457,2,0,P|464:140|460:240,1,165,4|4,0:0|0:0,0:0:0:0:
408,324,7268,5,4,0:0:0:0:
292,292,7592,2,0,L|232:284,1,55,8|8,0:0|0:0,0:0:0:0:
176,296,7917,2,0,L|112:304,1,55,8|8,0:0|0:0,0:0:0:0:
64,284,8241,1,8,0:0:0:0:
124,180,8565,2,0,P|132:132|120:68,1,110,4|8,0:0|0:0,0:0:0:0:
85,22,9052,2,0,P|143:32|209:18,1,110,4|4,0:0|0:0,0:0:0:0:
307,62,9700,6,0,L|428:55,1,110,4|0,0:0|0:0,0:0:0:0:
469,85,10187,2,0,P|471:123|467:161,1,55,8|0,0:0|0:0,0:0:0:0:
436,190,10511,2,0,P|433:244|437:313,1,110,0|8,0:0|0:0,0:0:0:0:
328,356,11160,2,0,B|217:324|222:380|110:344,1,220,4|2,0:0|0:0,0:0:0:0:
57,235,12133,2,0,L|51:161,1,55,8|8,0:0|0:0,0:0:0:0:
44,120,12457,6,0,P|97:130|155:120,1,110,4|8,0:0|0:0,0:0:0:0:
258,63,13106,2,0,P|312:54|365:64,1,110,2|8,0:0|0:0,0:0:0:0:
412,100,13592,2,0,L|420:224,1,110,4|0,0:0|0:0,0:0:0:0:
408,268,14079,1,8,0:0:0:0:
308,336,14403,2,0,B|248:344|248:344|192:336,1,110,2|8,0:0|0:0,0:0:0:0:
88,288,15052,6,0,P|80:228|76:160,1,110,2|8,0:0|0:0,0:0:0:0:
112,64,15700,2,0,L|180:56,1,55,2|0,0:0|0:0,0:0:0:0:
228,48,16025,1,8,0:0:0:0:
228,48,16187,2,0,P|272:68|392:64,1,165,0|8,0:0|0:0,0:0:0:0:
476,148,16998,2,0,P|480:204|464:264,1,110,2|8,0:0|0:0,0:0:0:0:
376,332,17646,6,0,L|252:320,1,110,4|8,0:0|0:0,0:0:0:0:
148,288,18295,2,0,L|84:304,2,55,2|0|8,0:0|0:0|0:0,0:0:0:0:
196,248,18781,1,2,0:0:0:0:
212,68,19268,2,0,P|256:44|328:36,1,110,8|2,0:0|0:0,0:0:0:0:
440,56,19917,1,8,0:0:0:0:
440,56,20079,6,0,P|432:108|444:172,1,110,4|0,0:0|0:0,0:0:0:0:
476,212,20565,1,8,0:0:0:0:
476,332,20890,1,8,0:0:0:0:
360,364,21214,1,8,0:0:0:0:
264,288,21538,1,8,0:0:0:0:
316,176,21863,1,8,0:0:0:0:
256,72,22187,2,0,P|224:72|192:64,1,55,8|2,0:0|0:0,0:0:0:0:
88,112,22673,6,0,L|92:228,1,110,4|0,0:0|0:0,0:0:0:0:
92,284,23160,2,0,P|152:312|212:308,1,110,8|8,0:0|0:0,0:0:0:0:
312,336,23809,1,8,0:0:0:0:
420,280,24133,2,0,B|440:224|440:224|444:160,1,110,8|8,0:0|0:0,0:0:0:0:
388,64,24781,2,0,L|333:66,1,55,8|0,0:0|0:0,0:0:0:0:
220,108,25268,6,0,P|160:68|64:64,1,165,2|8,0:0|0:0,0:0:0:0:
28,176,26079,2,0,B|40:244|40:244|24:300,1,110,0|8,0:0|0:0,0:0:0:0:
4,340,26565,2,0,L|188:328,1,165,0|8,0:0|0:0,0:0:0:0:
280,280,27376,2,0,L|412:296,1,110,0|8,0:0|0:0,0:0:0:0:
444,268,27863,6,0,P|464:208|456:148,1,110,0|0,0:0|0:0,0:0:0:0:
432,108,28349,1,8,0:0:0:0:
328,48,28673,2,0,L|260:52,1,55,0|0,0:0|0:0,0:0:0:0:
212,40,28998,1,8,0:0:0:0:
212,40,29160,2,0,B|216:96|216:96|220:148|192:208,1,165,0|8,0:0|0:0,0:0:0:0:
132,304,29971,2,0,L|256:296,1,110,0|8,0:0|0:0,0:0:0:0:
296,320,30457,6,0,L|416:328,1,110,0|0,0:0|0:0,0:0:0:0:
464,304,30944,1,8,0:0:0:0:
436,188,31268,2,0,P|433:158|437:122,1,55,0|0,0:0|0:0,0:0:0:0:
463,79,31592,1,8,0:0:0:0:
463,79,31754,2,0,L|336:68,1,110,0|0,0:0|0:0,0:0:0:0:
296,92,32241,1,8,0:0:0:0:
176,68,32565,2,0,L|172:12,2,55,0|0|8,0:0|0:0|0:0,0:0:0:0:
84,148,33214,6,0,B|104:212|76:276,1,110,4|8,0:0|0:0,0:0:0:0:
60,312,33700,1,2,0:0:0:0:
172,360,34025,1,2,0:0:0:0:
284,316,34349,2,0,P|336:304|402:319,1,110,4|0,0:0|0:0,0:0:0:0:
448,332,34836,1,8,0:0:0:0:
448,332,34998,2,0,P|431:257|445:212,1,110,4|8,0:0|0:0,0:0:0:0:
472,176,35484,1,8,0:0:0:0:
396,80,35809,6,0,B|340:88|340:88|280:76,1,110,4|8,0:0|0:0,0:0:0:0:
232,52,36295,1,0,0:0:0:0:
232,52,36457,2,0,P|176:40|120:52,1,110,0|8,0:0|0:0,0:0:0:0:
84,92,36944,2,0,B|84:152|80:212,1,110,0|0,0:0|0:0,0:0:0:0:
96,260,37430,1,8,0:0:0:0:
204,316,37754,2,0,L|320:308,1,110,0|8,0:0|0:0,0:0:0:0:
372,324,38241,6,0,P|428:300|456:256,1,110,0|0,0:0|0:0,0:0:0:0:
460,200,38727,2,0,B|448:136|448:136|452:76,1,110,8|0,0:0|0:0,0:0:0:0:
340,44,39376,2,0,L|276:40,1,55,8|0,0:0|0:0,0:0:0:0:
228,24,39700,2,0,P|144:32|108:60,1,110,0|8,0:0|0:0,0:0:0:0:
88,92,40187,2,0,B|104:152|80:152|96:212,1,110,0|0,0:0|0:0,0:0:0:0:
124,252,40673,1,8,0:0:0:0:
244,260,40998,6,0,P|312:248|368:260,1,110,4|8,0:0|0:0,0:0:0:0:
408,276,41484,2,0,P|392:224|396:160,1,110,0|0,0:0|0:0,0:0:0:0:
404,108,41971,1,8,0:0:0:0:
404,108,42133,2,0,L|288:96,1,110,4|0,0:0|0:0,0:0:0:0:
252,52,42619,2,0,L|140:60,1,110,8|0,0:0|0:0,0:0:0:0:
24,80,43268,1,8,0:0:0:0:
24,200,43592,6,0,P|56:248|104:268,1,110,0|8,0:0|0:0,0:0:0:0:
164,260,44079,2,0,L|288:252,1,110,0|0,0:0|0:0,0:0:0:0:
332,268,44565,1,8,0:0:0:0:
332,268,44727,2,0,P|328:180|332:80,1,165,4|8,0:0|0:0,0:0:0:0:
232,28,45538,2,0,L|168:48,1,55,0|8,0:0|0:0,0:0:0:0:
120,48,45863,2,0,P|124:80|116:116,1,55,8|8,0:0|0:0,0:0:0:0:
80,148,46187,6,0,P|96:228|128:260,1,110,4|2,0:0|0:0,0:0:0:0:
220,304,46835,1,8,0:0:0:0:
332,264,47159,2,0,L|456:272,1,110,0|8,0:0|0:0,0:0:0:0:
508,172,47808,1,8,0:0:0:0:
428,80,48132,6,0,B|388:64|388:64|360:64|360:64|308:48,1,110,0|0,0:0|0:0,0:0:0:0:
204,28,48781,1,8,0:0:0:0:
104,96,49105,2,0,P|116:148|112:220,1,110,0|10,0:0|0:0,0:0:0:0:
60,312,49754,1,8,0:0:0:0:
172,356,50078,6,0,B|232:364|232:364|348:324,1,165,4|0,0:0|0:0,0:0:0:0:
368,284,50726,2,0,P|376:232|360:168,1,110,2|8,0:0|0:0,0:0:0:0:
292,80,51375,2,0,P|232:80|164:68,1,110,2|8,0:0|0:0,0:0:0:0:
124,52,51861,1,0,0:0:0:0:
124,52,52023,2,0,P|152:104|160:176,1,110,2|8,0:0|0:0,0:0:0:0:
140,272,52672,6,0,P|204:308|252:312,1,110,6|8,0:0|0:0,0:0:0:0:
348,260,53321,2,0,L|340:192,2,55,8|0|8,0:0|0:0|0:0,0:0:0:0:
388,304,53807,1,4,0:0:0:0:
468,212,54132,2,0,L|460:144,1,55,0|2,0:0|0:0,0:0:0:0:
404,52,54618,2,0,P|448:36|472:36,2,55,10|8|8,0:0|0:0|0:0,0:0:0:0:
348,80,55105,6,0,P|272:96|180:76,1,165,4|10,0:0|0:0,0:0:0:0:
80,132,55915,2,0,P|68:184|84:252,1,110,2|8,0:0|0:0,0:0:0:0:
120,280,56402,2,0,B|228:268|228:268|300:292,1,165,6|10,0:0|0:0,0:0:0:0:
392,332,57213,2,0,L|400:204,1,110,2|8,0:0|0:0,0:0:0:0:
424,168,57699,6,0,P|404:92|316:52,1,165,6|10,0:0|0:0,0:0:0:0:
276,76,58348,2,0,L|152:68,1,110,0|0,0:0|0:0,0:0:0:0:
64,132,58996,2,0,B|80:192|80:192|72:248,1,110,2|0,0:0|0:0,0:0:0:0:
48,296,59483,1,8,0:0:0:0:
152,356,59807,1,2,0:0:0:0:
256,296,60132,1,8,0:0:0:0:
360,356,60456,6,0,B|424:328|424:328|460:288,1,110,4|8,0:0|0:0,0:0:0:0:
464,240,60942,1,0,0:0:0:0:
464,240,61105,2,0,L|460:116,1,110,2|8,0:0|0:0,0:0:0:0:
372,48,61753,2,0,P|316:36|256:52,1,110,2|8,0:0|0:0,0:0:0:0:
212,76,62240,1,0,0:0:0:0:
212,76,62402,2,0,P|158:87|105:75,1,110,2|8,0:0|0:0,0:0:0:0:
20,160,63050,6,0,P|36:248|104:292,1,165,4|0,0:0|0:0,0:0:0:0:
212,316,63861,1,0,0:0:0:0:
324,272,64186,1,4,0:0:0:0:
316,152,64510,2,0,L|308:80,2,55,8|8|4,0:0|0:0|0:0,0:0:0:0:
432,192,65159,2,0,L|444:272,1,55,8|8,0:0|0:0,0:0:0:0:
428,304,65483,6,0,B|372:296|328:308|328:308|260:296,1,165,4|8,0:0|0:0,0:0:0:0:
148,264,66294,2,0,L|92:280,2,55,2|0|8,0:0|0:0|0:0,0:0:0:0:
192,224,66780,2,0,P|212:148|172:60,1,165,0|8,0:0|0:0,0:0:0:0:
292,24,67591,2,0,L|404:20,1,110,2|8,0:0|0:0,0:0:0:0:
460,40,68077,6,0,B|496:124|440:112|468:204,1,165,0|8,0:0|0:0,0:0:0:0:
472,260,68726,2,0,P|428:244|360:256,1,110,0|0,0:0|0:0,0:0:0:0:
280,336,69375,2,0,B|172:348|172:348|112:320,1,165,2|8,0:0|0:0,0:0:0:0:
92,272,70023,2,0,P|104:232|84:144,1,110,0|0,0:0|0:0,0:0:0:0:
60,116,70510,1,8,0:0:0:0:
156,40,70834,6,0,L|280:32,1,110,4|8,0:0|0:0,0:0:0:0:
332,136,71483,2,0,L|208:128,1,110,2|8,0:0|0:0,0:0:0:0:
168,156,71969,2,0,P|156:224|176:276,1,110,2|0,0:0|0:0,0:0:0:0:
212,304,72456,1,8,0:0:0:0:
328,344,72780,1,2,0:0:0:0:
444,308,73105,2,0,L|456:248,1,55,8|0,0:0|0:0,0:0:0:0:
440,196,73429,6,0,L|432:80,1,110,4|8,0:0|0:0,0:0:0:0:
440,28,73915,1,8,0:0:0:0:
440,28,74077,2,0,B|376:44|376:44|320:32,1,110,10|8,0:0|0:0,0:0:0:0:
272,48,74564,2,0,B|208:32|208:32|152:44,1,110,2|0,0:0|0:0,0:0:0:0:
112,72,75050,1,8,0:0:0:0:
60,180,75375,1,8,0:0:0:0:
120,284,75699,2,0,L|188:276,1,55,8|0,0:0|0:0,0:0:0:0:
236,284,76023,6,0,P|296:292|364:288,1,110,4|8,0:0|0:0,0:0:0:0:
416,192,76672,2,0,P|356:184|288:188,1,110,8|8,0:0|0:0,0:0:0:0:
212,112,77321,2,0,P|168:136|104:152,1,110,4|8,0:0|0:0,0:0:0:0:
52,172,77807,2,0,P|100:216|132:264,2,110,0|8|8,0:0|0:0|0:0,0:0:0:0:
24,120,78618,5,4,0:0:0:0:
116,40,78942,2,0,L|196:32,1,55,8|8,0:0|0:0,0:0:0:0:
232,48,79267,2,0,L|352:52,1,110,8|4,0:0|0:0,0:0:0:0:
460,36,79915,2,0,P|460:92|484:164,1,110,0|0,0:0|0:0,0:0:0:0:
480,264,80564,2,0,P|440:272|420:272,1,55,8|0,0:0|0:0,0:0:0:0:
368,256,80888,2,0,P|328:248|304:248,1,55,8|8,0:0|0:0,0:0:0:0:
252,252,81213,6,0,B|188:236|188:236|124:240,1,110,4|8,0:0|0:0,0:0:0:0:
84,244,81699,2,0,P|48:184|52:128,1,110,6|2,0:0|0:0,0:0:0:0:
128,56,82348,2,0,L|244:48,1,110,4|0,0:0|0:0,0:0:0:0:
296,64,82834,1,8,0:0:0:0:
296,64,82996,2,0,P|360:80|416:72,1,110,4|0,0:0|0:0,0:0:0:0:
492,156,83645,6,0,P|492:240|428:304,1,165,4|4,0:0|0:0,0:0:0:0:
224,192,84780,1,4,0:0:0:0:
116,248,85105,2,0,L|-20:240,2,110,8|0|8,0:0|0:0|0:0,0:0:0:0:
168,280,85915,2,0,P|220:300|288:288,1,110,4|0,0:0|0:0,0:0:0:0:
328,268,86402,5,4,0:0:0:0:
440,224,86726,2,0,L|448:148,1,55,8|0,0:0|0:0,0:0:0:0:
428,112,87050,2,0,P|388:76|316:72,1,110,8|8,0:0|0:3,0:0:0:0:
276,84,87537,2,0,B|232:92|232:92|164:80,1,110,8|4,0:0|0:0,0:0:0:0:
56,124,88186,1,2,0:0:0:0:
56,124,88348,2,0,B|56:168|56:168|64:188|64:188|64:240,1,110,2|8,0:0|0:0,0:0:0:0:
36,288,88834,6,0,P|104:268|160:280,1,110,4|0,0:0|0:0,0:0:0:0:
192,304,89321,2,0,L|312:296,1,110,8|0,0:0|0:0,0:0:0:0:
420,312,89969,1,8,0:0:0:0:
420,312,90132,2,0,P|432:260|416:196,1,110,4|4,0:0|0:0,0:0:0:0:
