osu file format v14

[General]
AudioFilename: Machico - fantastic dreamer (TV-size).mp3
AudioLeadIn: 0
PreviewTime: 53958
Countdown: 0
SampleSet: None
StackLeniency: 0.7
Mode: 3
LetterboxInBreaks: 0
SpecialStyle: 0
WidescreenStoryboard: 0

[Editor]
DistanceSpacing: 0.9
BeatDivisor: 4
GridSize: 32
TimelineZoom: 2.1

[Metadata]
Title:fantastic dreamer(TV-size)
TitleUnicode:fantastic dreamer(TV-size)
Artist:Machico
ArtistUnicode:Machico
Creator:Adot
Version:Normal
Source:この素晴らしい世界に祝福を!
Tags:raediaufar megative konosuba Kono Subarashii Sekai ni Shukufuku wo! Original Soundtrack オリジナル・サウンドトラック winter anime 2015 Machiko Saitō opening God's Blessing on This Wonderful World!
BeatmapID:946822
BeatmapSetID:440001

[Difficulty]
HPDrainRate:7.5
CircleSize:4
OverallDifficulty:7.5
ApproachRate:5
SliderMultiplier:1.4
SliderTickRate:1

[Events]
//Background and Video events
0,0,"konosubabg1.jpg",0,0
//Break Periods
//Storyboard Layer 0 (Background)
//Storyboard Layer 1 (Fail)
//Storyboard Layer 2 (Pass)
//Storyboard Layer 3 (Foreground)
//Storyboard Sound Samples

[TimingPoints]
812,324.324324324324,4,3,1,40,1,0
46216,324.324324324324,6,3,1,40,1,0
50107,324.324324324324,4,3,1,40,1,0
55134,-100,4,3,1,40,0,1
70863,-100,4,3,1,40,0,0

[HitObjects]
448,192,812,5,4,0:0:0:0:
448,192,1136,1,4,0:0:0:0:
64,192,1460,1,0,0:0:0:0:
192,192,1460,1,8,0:0:0:0:
320,192,1622,1,8,0:0:0:0:
64,192,1784,1,8,0:0:0:0:
448,192,1947,1,4,0:0:0:0:
320,192,1947,1,8,0:0:0:0:
192,192,2433,1,0,0:0:0:0:
320,192,3082,1,0,0:0:0:0:
192,192,3244,1,4,0:0:0:0:
64,192,3244,1,0,0:0:0:0:
448,192,3730,128,0,4055:0:0:0:0:
192,192,4055,128,0,4379:0:0:0:0:
64,192,4379,1,0,0:0:0:0:
448,192,4541,128,4,5839:0:0:0:0:
320,192,4541,1,0,0:0:0:0:
192,192,5028,1,0,0:0:0:0:
320,192,5676,1,0,0:0:0:0:
64,192,5839,1,8,0:0:0:0:
192,192,6163,1,8,0:0:0:0:
64,192,6487,1,2,0:0:0:0:
448,192,6487,1,8,0:0:0:0:
320,192,6811,1,8,0:0:0:0:
64,192,6974,1,4,0:0:0:0:
448,192,7298,1,4,0:0:0:0:
320,192,7298,1,8,0:0:0:0:
64,192,7622,1,8,0:0:0:0:
448,192,7784,1,8,0:0:0:0:
192,192,7947,1,8,0:0:0:0:
320,192,8109,1,8,0:0:0:0:
64,192,8271,1,8,0:0:0:0:
448,192,8433,1,8,0:0:0:0:
64,192,8595,128,4,8920:0:0:0:0:
320,192,8595,1,8,0:0:0:0:
448,192,8920,1,2,0:0:0:0:
192,192,9082,1,8,0:0:0:0:
320,192,9082,128,4,9406:0:0:0:0:
64,192,9406,1,8,0:0:0:0:
192,192,9568,1,2,0:0:0:0:
320,192,9730,1,4,0:0:0:0:
448,192,9730,128,8,11190:0:0:0:0:
64,192,10055,1,8,0:0:0:0:
192,192,10217,1,2,0:0:0:0:
320,192,10379,1,8,0:0:0:0:
64,192,10541,1,8,0:0:0:0:
320,192,10703,1,8,0:0:0:0:
64,192,10866,1,2,0:0:0:0:
320,192,11028,1,8,0:0:0:0:
64,192,11190,128,0,11676:0:0:0:0:
192,192,11190,1,8,0:0:0:0:
448,192,11839,128,0,12163:0:0:0:0:
320,192,12163,128,0,12487:0:0:0:0:
192,192,12487,1,8,0:0:0:0:
64,192,12811,128,2,13136:0:0:0:0:
448,192,12811,1,0,0:0:0:0:
320,192,13136,128,8,13460:0:0:0:0:
448,192,13460,1,2,0:0:0:0:
64,192,13460,1,0,0:0:0:0:
192,192,13622,128,0,14109:0:0:0:0:
320,192,13784,1,8,0:0:0:0:
448,192,14109,1,2,0:0:0:0:
64,192,14109,1,0,0:0:0:0:
320,192,14352,1,8,0:0:0:0:
64,192,14433,128,8,14757:0:0:0:0:
192,192,14757,128,2,15082:0:0:0:0:
320,192,14757,1,0,0:0:0:0:
448,192,15082,128,8,15730:0:0:0:0:
64,192,15406,1,0,0:0:0:0:
320,192,15406,1,2,0:0:0:0:
192,192,15568,1,0,0:0:0:0:
320,192,15730,1,8,0:0:0:0:
64,192,15893,1,8,0:0:0:0:
448,192,16055,1,0,0:0:0:0:
320,192,16055,1,2,0:0:0:0:
64,192,16217,128,0,17028:0:0:0:0:
192,192,16379,1,8,0:0:0:0:
320,192,16541,1,0,0:0:0:0:
192,192,16703,1,0,0:0:0:0:
448,192,16703,1,2,0:0:0:0:
320,192,16947,1,8,0:0:0:0:
192,192,17028,128,8,17352:0:0:0:0:
320,192,17352,128,2,17676:0:0:0:0:
448,192,17352,1,8,0:0:0:0:
448,192,17676,128,8,18487:0:0:0:0:
64,192,17676,1,0,0:0:0:0:
192,192,18001,1,2,0:0:0:0:
320,192,18001,1,0,0:0:0:0:
64,192,18163,1,0,0:0:0:0:
320,192,18325,1,8,0:0:0:0:
192,192,18487,1,0,0:0:0:0:
320,192,18649,1,2,0:0:0:0:
64,192,18649,1,0,0:0:0:0:
448,192,18811,1,0,0:0:0:0:
64,192,18974,1,8,0:0:0:0:
320,192,19136,1,0,0:0:0:0:
192,192,19298,1,0,0:0:0:0:
64,192,19298,128,2,20109:0:0:0:0:
448,192,19460,1,0,0:0:0:0:
192,192,19622,1,8,0:0:0:0:
320,192,19784,1,8,0:0:0:0:
192,192,19947,1,8,0:0:0:0:
320,192,20109,1,4,0:0:0:0:
448,192,20109,128,8,20433:0:0:0:0:
192,192,20433,1,8,0:0:0:0:
320,192,20595,1,2,0:0:0:0:
64,192,20595,1,8,0:0:0:0:
64,192,20920,1,8,0:0:0:0:
192,192,20920,1,2,0:0:0:0:
320,192,21244,1,2,0:0:0:0:
448,192,21244,1,8,0:0:0:0:
64,192,21568,1,8,0:0:0:0:
448,192,21568,1,2,0:0:0:0:
64,192,21893,1,8,0:0:0:0:
192,192,21893,1,2,0:0:0:0:
320,192,22217,1,2,0:0:0:0:
448,192,22217,1,8,0:0:0:0:
192,192,22379,1,8,0:0:0:0:
64,192,22379,1,2,0:0:0:0:
64,192,22703,1,8,0:0:0:0:
320,192,22703,1,4,0:0:0:0:
448,192,23028,1,8,0:0:0:0:
64,192,23190,1,2,0:0:0:0:
192,192,23190,1,0,0:0:0:0:
320,192,23514,1,8,0:0:0:0:
448,192,23514,1,2,0:0:0:0:
192,192,23839,1,8,0:0:0:0:
448,192,23839,1,2,0:0:0:0:
64,192,24163,1,8,0:0:0:0:
320,192,24163,1,2,0:0:0:0:
192,192,24325,1,8,0:0:0:0:
320,192,24487,1,2,0:0:0:0:
64,192,24649,1,8,0:0:0:0:
192,192,24811,1,2,0:0:0:0:
320,192,24974,128,0,25298:0:0:0:0:
448,192,24974,1,2,0:0:0:0:
192,192,25298,128,4,25622:0:0:0:0:
64,192,25298,1,8,0:0:0:0:
320,192,25622,1,8,0:0:0:0:
64,192,25784,1,8,0:0:0:0:
448,192,25784,1,2,0:0:0:0:
192,192,26109,1,8,0:0:0:0:
64,192,26271,1,8,0:0:0:0:
320,192,26433,1,8,0:0:0:0:
448,192,26433,1,2,0:0:0:0:
192,192,26595,1,8,0:0:0:0:
448,192,26920,1,8,0:0:0:0:
192,192,27082,1,2,0:0:0:0:
64,192,27082,1,8,0:0:0:0:
448,192,27406,1,8,0:0:0:0:
64,192,27568,1,8,0:0:0:0:
320,192,27730,1,2,0:0:0:0:
448,192,27730,1,8,0:0:0:0:
192,192,27893,1,8,0:0:0:0:
192,192,28217,1,8,0:0:0:0:
64,192,28379,1,8,0:0:0:0:
448,192,28379,1,2,0:0:0:0:
192,192,28703,1,8,0:0:0:0:
64,192,28866,1,8,0:0:0:0:
320,192,29028,1,2,0:0:0:0:
448,192,29028,1,8,0:0:0:0:
192,192,29190,1,8,0:0:0:0:
448,192,29514,1,8,0:0:0:0:
192,192,29676,1,8,0:0:0:0:
320,192,29676,1,2,0:0:0:0:
64,192,30001,1,8,0:0:0:0:
320,192,30163,1,8,0:0:0:0:
64,192,30325,1,8,0:0:0:0:
192,192,30325,1,2,0:0:0:0:
320,192,30487,1,4,0:0:0:0:
320,192,30811,1,8,0:0:0:0:
64,192,30974,1,8,0:0:0:0:
448,192,30974,1,2,0:0:0:0:
192,192,31298,1,8,0:0:0:0:
64,192,31460,1,8,0:0:0:0:
320,192,31622,1,2,0:0:0:0:
448,192,31622,1,8,0:0:0:0:
192,192,31784,1,8,0:0:0:0:
448,192,32109,1,8,0:0:0:0:
192,192,32271,1,2,0:0:0:0:
64,192,32271,1,8,0:0:0:0:
448,192,32595,1,8,0:0:0:0:
320,192,32757,1,8,0:0:0:0:
64,192,32920,128,8,33244:0:0:0:0:
192,192,32920,1,2,0:0:0:0:
320,192,33244,1,8,0:0:0:0:
448,192,33244,128,4,33568:0:0:0:0:
192,192,33568,1,2,0:0:0:0:
64,192,33730,1,4,0:0:0:0:
448,192,33730,1,8,0:0:0:0:
64,192,34055,1,8,0:0:0:0:
448,192,34055,1,0,0:0:0:0:
320,192,34217,1,2,0:0:0:0:
192,192,34379,1,8,0:0:0:0:
64,192,34379,128,4,34703:0:0:0:0:
448,192,34703,1,8,0:0:0:0:
64,192,34866,1,2,0:0:0:0:
320,192,35028,1,4,0:0:0:0:
192,192,35028,1,8,0:0:0:0:
320,192,35352,1,2,0:0:0:0:
192,192,35514,1,2,0:0:0:0:
320,192,35676,1,2,0:0:0:0:
448,192,35839,1,4,0:0:0:0:
64,192,35839,1,8,0:0:0:0:
192,192,36163,1,2,0:0:0:0:
320,192,36163,1,8,0:0:0:0:
448,192,36487,1,8,0:0:0:0:
64,192,36811,1,8,0:0:0:0:
192,192,36811,1,2,0:0:0:0:
448,192,37136,1,8,0:0:0:0:
320,192,37460,1,2,0:0:0:0:
192,192,37460,1,8,0:0:0:0:
64,192,37784,1,8,0:0:0:0:
448,192,38109,1,8,0:0:0:0:
320,192,38109,1,2,0:0:0:0:
64,192,38433,1,8,0:0:0:0:
320,192,38757,1,2,0:0:0:0:
192,192,38757,1,8,0:0:0:0:
448,192,39082,1,8,0:0:0:0:
192,192,39406,1,2,0:0:0:0:
64,192,39406,1,8,0:0:0:0:
448,192,39730,1,8,0:0:0:0:
192,192,40055,1,2,0:0:0:0:
320,192,40055,1,8,0:0:0:0:
448,192,40379,1,8,0:0:0:0:
320,192,40541,1,8,0:0:0:0:
192,192,40703,1,2,0:0:0:0:
64,192,40703,128,8,41028:0:0:0:0:
448,192,41028,1,4,0:0:0:0:
320,192,41028,1,8,0:0:0:0:
192,192,41352,1,8,0:0:0:0:
320,192,41352,1,2,0:0:0:0:
64,192,41676,1,8,0:0:0:0:
448,192,41839,1,8,0:0:0:0:
192,192,42001,1,2,0:0:0:0:
320,192,42163,1,4,0:0:0:0:
448,192,42163,1,8,0:0:0:0:
64,192,42487,1,8,0:0:0:0:
320,192,42649,1,2,0:0:0:0:
192,192,42811,1,4,0:0:0:0:
64,192,42811,1,8,0:0:0:0:
448,192,43136,1,8,0:0:0:0:
64,192,43298,1,2,0:0:0:0:
192,192,43622,1,8,0:0:0:0:
320,192,43947,1,8,0:0:0:0:
448,192,43947,1,2,0:0:0:0:
192,192,44109,1,0,0:0:0:0:
64,192,44271,1,8,0:0:0:0:
448,192,44433,1,8,0:0:0:0:
320,192,44595,1,2,0:0:0:0:
192,192,44757,1,8,0:0:0:0:
64,192,44757,128,4,45244:0:0:0:0:
320,192,45082,1,8,0:0:0:0:
448,192,45244,1,2,0:0:0:0:
320,192,45406,1,8,0:0:0:0:
192,192,45406,128,4,45730:0:0:0:0:
448,192,45730,1,2,0:0:0:0:
192,192,45893,1,2,0:0:0:0:
320,192,46055,1,2,0:0:0:0:
192,192,46216,1,2,0:0:0:0:
64,192,46216,1,8,0:0:0:0:
320,192,46432,1,0,0:0:0:0:
448,192,46432,1,2,0:0:0:0:
192,192,46756,1,8,0:0:0:0:
448,192,46864,1,2,0:0:0:0:
64,192,46864,1,8,0:0:0:0:
320,192,47188,1,8,0:0:0:0:
64,192,47513,1,8,0:0:0:0:
320,192,47837,1,2,0:0:0:0:
448,192,47837,1,8,0:0:0:0:
320,192,48161,1,8,0:0:0:0:
192,192,48378,1,2,0:0:0:0:
64,192,48378,1,8,0:0:0:0:
320,192,48702,1,8,0:0:0:0:
448,192,48810,1,2,0:0:0:0:
64,192,48810,1,8,0:0:0:0:
320,192,49134,1,8,0:0:0:0:
192,192,49459,1,2,0:0:0:0:
448,192,49783,128,2,50107:0:0:0:0:
320,192,50107,1,8,0:0:0:0:
64,192,50431,1,0,0:0:0:0:
192,192,50431,1,2,0:0:0:0:
448,192,50755,1,8,0:0:0:0:
192,192,51079,1,8,0:0:0:0:
320,192,51079,1,2,0:0:0:0:
64,192,51404,1,8,0:0:0:0:
320,192,51728,1,2,0:0:0:0:
448,192,51728,1,8,0:0:0:0:
192,192,52052,1,0,0:0:0:0:
64,192,52377,1,2,0:0:0:0:
448,192,52377,1,8,0:0:0:0:
320,192,52701,1,8,0:0:0:0:
448,192,52701,1,4,0:0:0:0:
64,192,53025,1,8,0:0:0:0:
192,192,53025,1,2,0:0:0:0:
448,192,53350,1,2,0:0:0:0:
320,192,53512,1,8,0:0:0:0:
192,192,53674,1,2,0:0:0:0:
64,192,53836,128,0,54323:0:0:0:0:
448,192,53836,1,8,0:0:0:0:
320,192,54323,1,0,0:0:0:0:
192,192,54647,1,0,0:0:0:0:
320,192,54647,1,2,0:0:0:0:
64,192,54809,1,8,0:0:0:0:
448,192,54971,1,2,0:0:0:0:
192,192,55134,128,4,55620:0:0:0:0:
64,192,55134,1,8,0:0:0:0:
320,192,55620,1,2,0:0:0:0:
448,192,55620,1,8,0:0:0:0:
64,192,55944,1,8,0:0:0:0:
320,192,56269,1,8,0:0:0:0:
192,192,56269,1,2,0:0:0:0:
448,192,56593,1,8,0:0:0:0:
192,192,56917,1,2,0:0:0:0:
64,192,56917,1,8,0:0:0:0:
448,192,57242,1,8,0:0:0:0:
192,192,57566,1,8,0:0:0:0:
320,192,57566,1,2,0:0:0:0:
448,192,57890,1,8,0:0:0:0:
192,192,58215,1,2,0:0:0:0:
64,192,58215,1,8,0:0:0:0:
448,192,58539,1,8,0:0:0:0:
192,192,58863,1,8,0:0:0:0:
320,192,58863,1,2,0:0:0:0:
64,192,59188,1,8,0:0:0:0:
320,192,59512,1,2,0:0:0:0:
448,192,59512,1,8,0:0:0:0:
64,192,59836,1,8,0:0:0:0:
192,192,60161,1,2,0:0:0:0:
320,192,60161,1,8,0:0:0:0:
64,192,60485,1,4,0:0:0:0:
448,192,60485,1,8,0:0:0:0:
448,192,60809,1,8,0:0:0:0:
320,192,60809,1,2,0:0:0:0:
192,192,61134,1,8,0:0:0:0:
64,192,61458,1,8,0:0:0:0:
320,192,61458,1,2,0:0:0:0:
192,192,61782,1,8,0:0:0:0:
320,192,62106,1,2,0:0:0:0:
448,192,62106,1,8,0:0:0:0:
64,192,62431,1,8,0:0:0:0:
192,192,62755,1,2,0:0:0:0:
320,192,62755,1,8,0:0:0:0:
64,192,63079,1,8,0:0:0:0:
448,192,63079,1,4,0:0:0:0:
320,192,63404,1,2,0:0:0:0:
448,192,63728,1,8,0:0:0:0:
320,192,63890,1,0,0:0:0:0:
192,192,64052,1,8,0:0:0:0:
64,192,64215,128,4,64539:0:0:0:0:
320,192,64215,1,8,0:0:0:0:
448,192,64539,1,2,0:0:0:0:
320,192,64701,1,8,0:0:0:0:
192,192,64863,1,8,0:0:0:0:
448,192,64863,128,4,65188:0:0:0:0:
64,192,65188,1,2,0:0:0:0:
192,192,65350,1,2,0:0:0:0:
320,192,65512,128,4,65998:0:0:0:0:
448,192,65512,1,8,0:0:0:0:
192,192,65998,1,2,0:0:0:0:
64,192,65998,1,8,0:0:0:0:
448,192,66323,1,8,0:0:0:0:
192,192,66647,1,8,0:0:0:0:
320,192,66647,1,2,0:0:0:0:
64,192,66971,1,8,0:0:0:0:
448,192,67296,1,8,0:0:0:0:
192,192,67296,1,2,0:0:0:0:
320,192,67620,1,8,0:0:0:0:
192,192,67944,1,2,0:0:0:0:
64,192,67944,1,8,0:0:0:0:
320,192,68269,1,8,0:0:0:0:
64,192,68593,1,8,0:0:0:0:
448,192,68593,1,2,0:0:0:0:
320,192,68917,1,8,0:0:0:0:
64,192,69242,1,8,0:0:0:0:
192,192,69242,1,2,0:0:0:0:
320,192,69566,1,8,0:0:0:0:
192,192,69890,1,2,0:0:0:0:
448,192,69890,1,8,0:0:0:0:
64,192,70215,1,8,0:0:0:0:
448,192,70539,128,8,70863:0:0:0:0:
320,192,70539,1,2,0:0:0:0:
192,192,70863,1,4,0:0:0:0:
64,192,70863,1,0,0:0:0:0:
192,192,71188,1,2,0:0:0:0:
448,192,71188,1,8,0:0:0:0:
192,192,71350,1,2,0:0:0:0:
448,192,71350,1,8,0:0:0:0:
320,192,71836,1,2,0:0:0:0:
64,192,71836,1,8,0:0:0:0:
448,192,72161,1,0,0:0:0:0:
64,192,72485,1,8,0:0:0:0:
192,192,72485,1,2,0:0:0:0:
64,192,72647,1,8,0:0:0:0:
192,192,72647,1,2,0:0:0:0:
320,192,73134,1,2,0:0:0:0:
448,192,73134,1,8,0:0:0:0:
192,192,73458,1,8,0:0:0:0:
64,192,73782,1,2,0:0:0:0:
448,192,73782,1,8,0:0:0:0:
64,192,73944,1,2,0:0:0:0:
448,192,73944,1,8,0:0:0:0:
320,192,74431,1,8,0:0:0:0:
192,192,74431,1,2,0:0:0:0:
64,192,74755,1,0,0:0:0:0:
448,192,75079,1,8,0:0:0:0:
320,192,75079,1,2,0:0:0:0:
448,192,75242,1,8,0:0:0:0:
320,192,75242,1,2,0:0:0:0:
64,192,75404,1,8,0:0:0:0:
448,192,75728,1,8,0:0:0:0:
320,192,75890,1,8,0:0:0:0:
64,192,76052,128,4,76377:0:0:0:0:
192,192,76052,1,8,0:0:0:0:
448,192,76377,1,2,0:0:0:0:
192,192,76539,1,8,0:0:0:0:
320,192,76701,1,2,0:0:0:0:
64,192,76863,1,8,0:0:0:0:
448,192,77025,1,2,0:0:0:0:
192,192,77188,1,8,0:0:0:0:
320,192,77350,1,4,0:0:0:0:
448,192,77350,1,8,0:0:0:0:
192,192,77674,1,2,0:0:0:0:
64,192,77836,1,2,0:0:0:0:
448,192,77998,1,8,0:0:0:0:
320,192,78161,1,2,0:0:0:0:
64,192,78323,1,8,0:0:0:0:
192,192,78485,1,2,0:0:0:0:
320,192,78647,1,4,0:0:0:0:
448,192,78647,1,2,0:0:0:0:
64,192,78971,1,8,0:0:0:0:
448,192,79134,1,2,0:0:0:0:
192,192,79296,1,2,0:0:0:0:
320,192,79620,1,4,0:0:0:0:
448,192,79620,1,8,0:0:0:0:
64,192,79944,1,8,0:0:0:0:
448,192,80106,1,2,0:0:0:0:
192,192,80269,1,8,0:0:0:0:
64,192,80593,128,2,80917:0:0:0:0:
320,192,80917,128,2,81242:0:0:0:0:
64,192,81242,1,4,0:0:0:0:
448,192,81242,1,2,0:0:0:0:
64,192,81404,1,2,0:0:0:0:
448,192,81404,1,8,0:0:0:0:
192,192,81728,1,2,0:0:0:0:
320,192,81728,1,8,0:0:0:0:
192,192,81890,1,8,0:0:0:0:
320,192,81890,1,2,0:0:0:0:
320,192,82215,1,8,0:0:0:0:
64,192,82215,1,2,0:0:0:0:
320,192,82377,1,8,0:0:0:0:
64,192,82377,1,2,0:0:0:0:
192,192,82701,1,0,0:0:0:0:
64,192,82863,1,8,0:0:0:0:
448,192,83025,1,8,0:0:0:0:
320,192,83188,1,8,0:0:0:0:
64,192,83350,1,2,0:0:0:0:
192,192,83350,128,0,83836:0:0:0:0:
448,192,83836,1,2,0:0:0:0:
320,192,83836,1,8,0:0:0:0:
320,192,83998,1,8,0:0:0:0:
448,192,83998,1,2,0:0:0:0:
320,192,84323,1,8,0:0:0:0:
192,192,84323,1,2,0:0:0:0:
320,192,84485,1,8,0:0:0:0:
192,192,84485,1,2,0:0:0:0:
64,192,84809,1,8,0:0:0:0:
448,192,84809,1,2,0:0:0:0:
64,192,84971,1,8,0:0:0:0:
448,192,84971,1,2,0:0:0:0:
64,192,85458,128,2,86269:0:0:0:0:
192,192,85458,128,4,86269:0:0:0:0:
448,192,85944,1,8,0:0:0:0:
448,192,86106,1,8,0:0:0:0:
448,192,86431,128,2,89025:0:0:0:0:
320,192,86431,128,4,89025:0:0:0:0:
