osu file format v14

[General]
AudioFilename: audio.mp3
AudioLeadIn: 0
PreviewTime: 53694
Countdown: 0
SampleSet: Soft
StackLeniency: 0.7
Mode: 0
LetterboxInBreaks: 0
WidescreenStoryboard: 0

[Editor]
DistanceSpacing: 1.7
BeatDivisor: 4
GridSize: 4
TimelineZoom: 1.4

[Metadata]
Title:fantastic dreamer (TV Size)
TitleUnicode:fantastic dreamer (TV Size)
Artist:Machico
ArtistUnicode:Machico
Creator:[ L u k a s ]
Version:Insane
Source:この素晴らしい世界に祝福を!
Tags:Kono Subarashii Sekai ni Syukufuku wo! Shukufuku o! KONOSUBA God's blessing on this wonderful world! anime opening tv size まちこ HB24 HappyRocket88 Akanya
BeatmapID:1189939
BeatmapSetID:562846

[Difficulty]
HPDrainRate:6
CircleSize:4
OverallDifficulty:8
ApproachRate:9
SliderMultiplier:1.4
SliderTickRate:1

[Events]
//Background and Video events
Video,0,"Opening1-KonoSuba.avi"
0,0,"782991.jpg",0,0
//Break Periods
//Storyboard Layer 0 (Background)
//Storyboard Layer 1 (Fail)
//Storyboard Layer 2 (Pass)
//Storyboard Layer 3 (Foreground)
//Storyboard Sound Samples

[TimingPoints]
505,324.324324324324,4,2,2,75,1,0
1640,-100,4,2,1,75,0,0
10883,-133.333333333333,4,2,1,75,0,0
11532,-100,4,2,1,75,0,0
25153,-133.333333333333,4,2,1,50,0,0
45910,324.324324324324,3,2,1,75,1,0
45910,-133.333333333333,3,2,1,75,0,0
49801,324.324324324324,4,2,1,75,1,0
49801,-100,4,2,1,75,0,0
54018,-100,4,2,3,75,0,0
54342,-100,4,2,1,75,0,0
54828,-83.3333333333333,4,2,3,75,0,1
80936,-100,4,2,1,75,0,0
86125,-200,4,2,1,75,0,0

[Colours]
Combo1 : 255,0,0
Combo2 : 254,248,37
Combo3 : 255,164,72
Combo4 : 255,128,0

[HitObjects]
128,76,505,5,0,0:0:0:0:
212,160,667,2,0,P|220:224|208:248,2,70
128,76,1153,1,0,0:0:0:0:
112,288,1315,1,2,0:0:0:0:
136,88,1477,1,8,0:0:0:0:
288,252,1640,6,0,P|346:261|430:249,1,140,6|0,0:0|0:0,0:0:0:0:
508,164,2126,1,2,0:0:0:0:
508,164,2775,1,2,0:0:0:0:
416,88,2937,6,0,P|347:77|277:86,1,140,6|0,0:0|0:0,0:0:0:0:
164,116,3423,2,0,P|156:152|164:192,1,70,2|0,0:0|0:0,0:0:0:0:
244,272,3748,2,0,P|252:236|244:196,1,70,2|0,0:0|0:0,0:0:0:0:
164,116,4072,1,2,0:0:0:0:
260,48,4234,6,0,P|316:72|408:48,1,140,6|0,0:0|0:0,0:0:0:0:
500,12,4721,1,2,0:0:0:0:
456,124,4883,2,0,B|444:176|444:176|468:276,1,140,2|2,0:0|0:0,0:0:0:0:
508,372,5369,1,0,0:0:0:0:
400,324,5532,6,0,B|348:312|348:312|248:336,1,140,6|2,0:0|0:0,0:0:0:0:
144,348,6018,1,8,0:0:0:0:
80,248,6180,2,0,P|92:196|76:108,1,140,6|8,0:0|0:0,0:0:0:0:
60,76,6586,1,8,0:0:0:0:
60,76,6667,1,8,0:0:0:0:
236,188,6991,5,6,0:0:0:0:
236,188,7315,5,8,0:0:0:0:
264,0,7477,1,2,0:0:0:0:
332,172,7640,5,8,0:0:0:0:
144,200,7802,1,2,0:0:0:0:
360,80,7964,5,8,0:0:0:0:
332,268,8126,1,2,0:0:0:0:
360,80,8288,6,0,L|344:162,1,70,6|0,3:0|3:0,3:0:0:0:
333,267,8613,1,8,3:0:0:0:
236,198,8775,2,0,P|187:192|144:167,1,70,4|2,3:0|3:0,3:0:0:0:
102,85,9099,2,0,P|150:90|193:115,1,70,0|8,3:0|3:0,3:0:0:0:
303,249,9423,6,0,L|316:93,1,140
236,19,9910,2,0,L|241:88,1,70
224,206,10234,2,0,L|218:275,2,70
241,88,10721,1,0,0:0:0:0:
413,82,10883,6,0,P|369:62|233:94,1,183.750007009506,2|0,0:0|0:0,0:0:0:0:
212,95,11532,1,8,0:3:0:0:
206,129,11613,1,8,0:3:0:0:
200,164,11694,1,8,0:3:0:0:
195,198,11775,1,8,0:3:0:0:
189,233,11856,1,8,0:3:0:0:
308,243,12018,1,8,0:3:0:0:
342,246,12099,1,8,0:3:0:0:
375,235,12180,5,6,0:0:0:0:
374,235,12504,2,0,P|384:167|343:112,2,140,8|0|8,0:0|0:0|0:0,0:0:0:0:
312,336,13315,1,0,0:0:0:0:
228,252,13477,2,0,P|172:264|128:252,1,70,0|0,0:0|0:0,0:0:0:0:
48,224,13802,1,8,0:0:0:0:
116,128,13964,1,8,0:0:0:0:
116,128,14045,1,8,0:0:0:0:
116,128,14126,2,0,P|200:100|260:124,1,140,0|8,0:0|0:0,0:0:0:0:
336,196,14613,1,0,0:0:0:0:
420,112,14775,6,0,L|428:36,2,70,6|0|8,0:0|0:0|0:0,0:0:0:0:
402,229,15261,1,0,0:0:0:0:
512,196,15423,1,0,0:0:0:0:
390,347,15586,2,0,P|334:355|302:347,1,70,0|8,0:0|0:0,0:0:0:0:
292,237,15910,6,0,P|213:232|137:250,1,140,0|0,0:0|0:0,0:0:0:0:
80,337,16396,1,8,0:0:0:0:
56,219,16559,1,0,0:0:0:0:
56,219,16640,1,0,0:0:0:0:
56,219,16721,2,0,P|46:177|52:140,1,70,0|0,0:0|0:0,0:0:0:0:
87,38,17045,2,0,P|138:43|214:30,1,105,8|0,0:0|0:0,0:0:0:0:
248,19,17369,6,0,L|264:174,1,140,6|8,0:0|0:0,0:0:0:0:
279,276,17856,1,0,0:0:0:0:
361,190,18018,2,0,P|419:181|450:189,2,70,0|0|8,0:0|0:0|0:0,0:0:0:0:
279,276,18504,6,0,P|184:290|133:277,1,140,0|0,0:0|0:0,0:0:0:0:
86,175,18991,2,0,P|106:126|25:162,1,210,8|0,0:0|0:0,0:0:0:0:
71,268,19640,1,8,0:0:0:0:
167,198,19802,6,0,P|185:153|154:51,1,140,6|2,0:0|0:0,0:0:0:0:
48,64,20288,1,8,0:0:0:0:
278,1,20613,1,8,0:0:0:0:
339,229,20937,1,8,0:0:0:0:
112,294,21261,6,0,P|181:293|239:257,1,140,8|8,0:0|0:0,0:0:0:0:
339,229,21748,1,2,0:0:0:0:
456,256,21910,2,0,L|461:353,2,70,8|2|8,0:0|0:0|0:0,0:0:0:0:
467,133,22396,6,0,L|317:97,1,140,6|2,0:0|0:0,0:0:0:0:
222,69,22883,1,8,0:0:0:0:
283,284,23207,1,8,0:0:0:0:
67,221,23532,1,8,0:0:0:0:
222,69,23856,6,0,P|259:64|308:66,1,70,8|2,0:0|0:0,0:0:0:0:
332,76,24099,1,2,0:0:0:0:
332,76,24180,1,8,0:0:0:0:
266,166,24342,1,2,0:0:0:0:
231,172,24423,1,2,0:0:0:0:
197,167,24504,2,0,P|159:171|139:164,1,35,8|8,0:3|0:3,0:0:0:0:
65,115,24667,2,0,P|103:111|123:118,1,35,8|8,0:0|0:0,0:0:0:0:
61,216,24829,1,8,0:0:0:0:
72,248,24910,1,8,0:0:0:0:
73,283,24991,1,6,0:0:0:0:
73,283,25315,5,2,0:0:0:0:
143,327,25477,2,0,P|197:314|252:330,1,105.000004005432,8|2,0:0|0:0,0:0:0:0:
308,380,25964,1,2,0:0:0:0:
332,299,26126,1,8,0:0:0:0:
332,299,26288,6,0,P|316:240|326:187,1,105.000004005432,2|0,0:0|0:0,0:0:0:0:
343,115,26775,2,0,P|301:124|275:120,1,52.5000020027161,8|0,0:0|0:0,0:0:0:0:
210,103,27099,2,0,L|205:167,1,52.5000020027161,2|2,0:0|0:0,0:0:0:0:
201,239,27423,1,8,0:0:0:0:
201,239,27586,6,0,P|246:226|316:240,1,105.000004005432,2|2,0:0|0:0,0:0:0:0:
380,265,28072,2,0,L|390:148,1,105.000004005432,8|2,0:0|0:0,0:0:0:0:
403,77,28559,1,2,0:0:0:0:
403,77,28721,1,8,0:0:0:0:
329,117,28883,6,0,P|280:132|213:121,1,105.000004005432,2|2,0:0|0:0,0:0:0:0:
147,101,29369,1,8,0:0:0:0:
147,101,29532,1,0,0:0:0:0:
188,180,29694,2,0,P|193:201|188:235,1,52.5000020027161,2|8,0:0|0:0,0:0:0:0:
124,292,30018,1,0,0:0:0:0:
160,376,30180,6,0,L|273:371,1,105.000004005432,2|0,0:0|0:0,0:0:0:0:
353,355,30667,2,0,P|360:313|354:283,1,52.5000020027161,8|0,0:0|0:0,0:0:0:0:
336,216,30991,1,0,0:0:0:0:
252,180,31153,1,0,0:0:0:0:
265,283,31315,1,0,0:0:0:0:
265,283,31477,6,0,P|212:278|161:287,1,105.000004005432,2|2,0:0|0:0,0:0:0:0:
84,323,31964,2,0,L|77:198,1,105.000004005432,8|2,0:0|0:0,0:0:0:0:
75,134,32450,1,2,0:0:0:0:
156,176,32613,1,8,0:0:0:0:
181,182,32694,1,0,0:0:0:0:
207,184,32775,1,8,0:0:0:0:
233,183,32856,1,8,0:0:0:0:
259,178,32937,6,0,P|269:133|254:61,1,105.000004005432,6|8,0:0|0:0,0:0:0:0:
204,8,33423,1,2,0:0:0:0:
368,80,33748,1,0,0:0:0:0:
432,8,33910,1,8,0:0:0:0:
432,8,34072,6,0,B|459:52|459:52|460:118,1,105.000004005432,6|2,0:0|0:0,0:0:0:0:
443,191,34559,1,2,0:0:0:0:
360,164,34721,2,0,P|334:158|308:159,1,52.5000020027161,8|0,0:0|0:0,0:0:0:0:
272,240,35045,1,2,0:0:0:0:
224,112,35207,1,8,0:0:0:0:
148,212,35369,1,8,0:0:0:0:
136,196,35450,1,8,0:0:0:0:
128,176,35532,6,0,P|115:143|140:72,1,105.000004005432,6|8,0:0|0:0,0:0:0:0:
200,16,36018,1,0,0:0:0:0:
200,16,36180,1,0,0:0:0:0:
372,60,36342,1,8,0:0:0:0:
208,24,36504,1,0,0:0:0:0:
268,192,36667,1,2,0:0:0:0:
372,60,36829,6,0,P|412:42|490:66,1,105.000004005432,0|8,0:0|0:0,0:0:0:0:
504,132,37315,1,0,0:0:0:0:
504,132,37477,2,0,B|512:176|512:176|504:256,1,105.000004005432
420,208,37964,6,0,B|412:164|412:164|420:84,1,105.000004005432
436,16,38450,2,0,L|384:8,1,52.5000020027161,8|0,0:0|0:0,0:0:0:0:
300,36,38775,2,0,L|248:44,1,52.5000020027161,8|0,0:0|0:0,0:0:0:0:
160,60,39099,1,0,0:0:0:0:
72,48,39261,1,0,0:0:0:0:
128,152,39423,6,0,P|161:156|202:153,1,52.5000020027161,2|0,0:0|0:0,0:0:0:0:
264,124,39748,1,8,0:0:0:0:
344,248,40315,1,0,0:0:0:0:
344,248,40396,1,0,0:0:0:0:
284,316,40559,1,2,0:0:0:0:
284,316,40640,1,2,0:0:0:0:
284,316,40721,6,0,P|241:326|218:322,1,52.5000020027161,2|0,0:0|0:0,0:0:0:0:
146,275,41045,1,8,0:0:0:0:
146,275,41207,1,0,0:0:0:0:
172,195,41369,2,0,P|183:161|173:123,2,52.5000020027161,2|0|8,0:0|0:0|0:0,0:0:0:0:
146,275,41856,6,0,P|206:268|259:281,1,105.000004005432,6|2,0:0|0:0,0:0:0:0:
323,316,42342,1,8,0:0:0:0:
330,232,42504,2,0,B|340:189|340:189|312:111,1,105.000004005432,0|0,0:0|0:0,0:0:0:0:
293,51,42991,1,8,0:0:0:0:
293,51,43153,1,0,0:0:0:0:
211,72,43315,6,0,P|163:90|98:77,2,105.000004005432,2|8|2,0:0|0:0|0:0,0:0:0:0:
293,51,44126,1,2,0:1:0:0:
293,51,44288,1,8,0:0:0:0:
257,144,44450,6,0,P|269:188|254:267,1,105.000004005432,2|2,0:0|0:0,0:0:0:0:
237,327,44937,1,8,0:0:0:0:
319,312,45099,2,0,P|373:301|433:312,1,105.000004005432,0|2,0:0|0:0,0:0:0:0:
505,345,45586,1,8,0:0:0:0:
485,263,45748,1,8,0:0:0:0:
485,263,45829,1,8,0:0:0:0:
485,263,45910,6,0,P|492:208|484:176,1,70.0000026702882,6|0,0:0|0:0,0:0:0:0:
481,147,46234,1,8,0:0:0:0:
387,63,46450,1,0,0:0:0:0:
348,79,46558,2,0,L|257:86,1,70.0000026702882,8|0,0:0|0:0,0:0:0:0:
231,103,46882,6,0,L|144:96,1,70.0000026702882,8|0,0:0|0:0,0:0:0:0:
100,92,47207,1,8,0:0:0:0:
79,260,47531,1,8,0:0:0:0:
252,217,47855,6,0,P|296:220|324:216,1,70.0000026702882,8|0,0:0|0:0,0:0:0:0:
371,199,48180,2,0,P|415:196|448:200,1,70.0000026702882,8|0,0:0|0:0,0:0:0:0:
489,225,48504,1,8,0:0:0:0:
350,337,48828,1,8,0:0:0:0:
273,175,49153,2,0,P|265:137|276:88,1,70.0000026702882,8|0,0:0|0:0,0:0:0:0:
280,54,49477,1,8,0:0:0:0:
256,62,49558,1,8,0:0:0:0:
231,66,49639,1,8,0:0:0:0:
204,65,49720,1,8,0:0:0:0:
179,61,49801,6,0,B|157:116|157:116|165:205,1,140,6|8,0:0|0:0,0:0:0:0:
196,310,50287,1,0,0:0:0:0:
263,212,50449,2,0,P|310:204|339:210,1,70,2|2,0:0|0:0,0:0:0:0:
402,302,50773,2,0,P|355:310|326:304,1,70,8|0,0:0|0:0,0:0:0:0:
264,212,51098,6,0,B|280:176|280:176|280:68,1,140,2|8,0:0|0:0,0:0:0:0:
176,16,51584,1,0,0:0:0:0:
140,128,51746,2,0,P|92:136|52:128,2,70,2|2|8,0:0|0:0|0:0,0:0:0:0:
256,100,52233,1,0,0:0:0:0:
256,100,52395,5,6,0:0:0:0:
228,288,52557,1,0,0:0:0:0:
404,360,52719,5,8,0:0:0:0:
376,172,52881,1,2,0:0:0:0:
228,288,53044,5,8,0:0:0:0:
416,272,53206,1,2,0:0:0:0:
416,272,53287,1,2,0:0:0:0:
416,272,53368,1,8,0:0:0:0:
300,124,53530,5,8,0:0:0:0:
300,124,54341,5,8,0:0:0:0:
212,168,54503,2,0,L|204:204,2,35,0|8|8,0:0|0:0|0:0,0:0:0:0:
172,28,54828,2,0,P|244:16|348:36,1,167.999994873047,6|0,0:0|0:0,0:0:0:0:
460,100,55314,2,0,L|472:200,1,83.9999974365235,8|0,0:0|0:0,0:0:0:0:
360,276,55638,2,0,L|370:192,2,83.9999974365235,2|0|10,0:0|0:0|0:1,0:0:0:0:
252,368,56125,6,0,B|144:364|144:364|80:300,1,167.999994873047,2|0,0:1|0:0,0:0:0:0:
76,192,56611,2,0,P|64:140|80:80,1,83.9999974365235,8|0,0:0|0:0,0:0:0:0:
172,12,56936,2,0,P|184:64|168:124,2,83.9999974365235,2|0|10,0:0|0:0|0:1,0:0:0:0:
284,100,57422,6,0,B|252:140|252:140|248:288,1,167.999994873047,2|0,0:1|0:0,0:0:0:0:
368,340,57909,2,0,L|372:252,1,83.9999974365235,10|2,0:1|0:1,0:0:0:0:
424,124,58233,2,0,L|420:36,2,83.9999974365235,2|2|8,0:0|0:1|0:0,0:0:0:0:
371,256,58719,6,0,P|284:276|187:252,1,167.999994873047,2|0,0:1|0:0,0:0:0:0:
100,168,59206,2,0,P|92:120|112:80,1,83.9999974365235,10|0,0:1|0:0,0:0:0:0:
168,216,59530,2,0,P|137:243|96:251,1,83.9999974365235,6|2,0:1|0:0,0:0:0:0:
172,132,59855,2,0,P|211:144|238:176,1,83.9999974365235,10|8,0:1|0:0,0:0:0:0:
256,216,60098,1,8,0:0:0:0:
256,216,60179,6,0,P|312:228|436:216,2,167.999994873047,6|10|6,0:0|0:1|0:1,0:0:0:0:
140,132,60990,1,0,0:0:0:0:
114,271,61152,2,0,L|110:355,1,83.9999974365235,10|0,0:1|0:0,0:0:0:0:
256,216,61476,6,0,L|264:48,2,167.999994873047,6|10|6,0:0|0:1|0:1,0:0:0:0:
252,360,62287,1,0,0:0:0:0:
352,256,62449,2,0,L|356:164,1,83.9999974365235,10|0,0:1|0:0,0:0:0:0:
352,28,62773,6,0,P|288:8|180:40,1,167.999994873047,6|8,0:0|0:0,0:0:0:0:
68,104,63260,1,8,0:0:0:0:
68,104,63341,1,8,0:0:0:0:
68,104,63422,2,0,L|56:208,1,83.9999974365235,2|2,0:0|0:0,0:0:0:0:
44,328,63746,1,8,0:0:0:0:
164,248,63909,6,0,P|224:276|328:228,1,167.999994873047,6|2,0:0|0:0,0:0:0:0:
392,116,64395,1,8,0:0:0:0:
268,44,64557,2,0,B|228:88|228:88|244:212,1,167.999994873047,6|2,0:0|0:0,0:0:0:0:
272,336,65044,1,8,0:0:0:0:
164,248,65206,6,0,B|120:240|120:240|52:252|52:252|0:236,1,167.999994873047,6|0,0:0|0:0,0:0:0:0:
44,100,65692,2,0,L|136:84,1,83.9999974365235,10|0,0:1|0:0,0:0:0:0:
268,56,66017,2,0,L|350:70,2,83.9999974365235,6|0|10,0:1|0:0|0:1,0:0:0:0:
126,85,66503,6,0,P|96:168|124:252,1,167.999994873047,2|0,0:1|0:0,0:0:0:0:
236,360,66990,2,0,P|250:318|237:276,1,83.9999974365235,8|0,0:0|0:0,0:0:0:0:
188,124,67314,2,0,P|172:164|184:216,2,83.9999974365235,2|0|10,0:0|0:0|0:1,0:0:0:0:
260,0,67800,6,0,B|304:56|304:56|312:180,1,167.999994873047,2|0,0:1|0:0,0:0:0:0:
316,296,68287,2,0,P|256:304|216:292,1,83.9999974365235,10|2,0:1|0:1,0:0:0:0:
124,208,68611,2,0,P|184:200|224:212,2,83.9999974365235,2|2|8,0:0|0:1|0:0,0:0:0:0:
24,312,69098,6,0,B|8:252|8:252|12:136,1,167.999994873047,2|0,0:1|0:0,0:0:0:0:
60,12,69584,2,0,L|164:28,1,83.9999974365235,10|2,0:1|0:1,0:0:0:0:
260,104,69909,2,0,L|156:120,1,83.9999974365235,2|8,0:0|0:0,0:0:0:0:
144,124,70152,1,8,0:0:0:0:
144,124,70233,1,8,0:0:0:0:
224,240,70395,1,0,0:0:0:0:
224,240,70476,1,0,0:0:0:0:
224,240,70557,6,0,P|304:256|392:236,1,167.999994873047,6|10,0:0|0:1,0:0:0:0:
500,148,71044,1,0,0:0:0:0:
480,288,71206,2,0,L|472:376,2,83.9999974365235,6|0|10,0:1|0:0|0:1,0:0:0:0:
500,148,71692,6,0,P|420:132|328:156,1,167.999994873047,2|2,0:1|0:1,0:0:0:0:
208,200,72179,1,10,0:1:0:0:
208,200,72341,1,0,0:0:0:0:
96,112,72503,2,0,L|80:216,1,83.9999974365235,6|0,0:1|0:0,0:0:0:0:
56,336,72828,2,0,P|116:320|188:344,1,125.999996154785,8|0,0:0|0:0,0:0:0:0:
244,360,73152,6,0,P|320:392|412:356,1,167.999994873047,6|10,0:1|0:1,0:0:0:0:
488,252,73639,1,2,0:1:0:0:
380,160,73801,2,0,L|372:248,2,83.9999974365235,6|0|10,0:1|0:0|0:1,0:0:0:0:
320,32,74287,6,0,P|240:16|148:40,1,167.999994873047,2|2,0:1|0:1,0:0:0:0:
20,80,74774,1,10,0:1:0:0:
20,80,74936,1,0,0:0:0:0:
132,168,75098,2,0,L|116:272,1,83.9999974365235,6|8,0:1|0:0,0:0:0:0:
112,288,75341,1,8,0:0:0:0:
112,288,75422,1,2,0:0:0:0:
240,224,75584,1,8,0:0:0:0:
236,182,75665,1,8,0:0:0:0:
232,140,75746,6,0,P|280:128|380:136,1,125.999996154785,6|0,0:0|0:0,0:0:0:0:
420,164,76071,2,0,L|432:260,1,83.9999974365235,8|2,0:0|0:0,0:0:0:0:
312,312,76395,2,0,L|322:228,1,83.9999974365235,8|2,0:0|0:0,0:0:0:0:
336,88,76719,1,8,0:0:0:0:
336,88,76882,1,2,0:0:0:0:
200,48,77044,6,0,P|184:112|208:212,1,167.999994873047,6|8,0:0|0:0,0:0:0:0:
314,349,77530,1,2,0:0:0:0:
206,209,77692,1,8,0:0:0:0:
374,263,77855,1,2,0:0:0:0:
206,317,78017,1,8,0:0:0:0:
312,173,78179,1,2,0:0:0:0:
312,173,78341,6,0,P|296:254|321:333,1,167.999994873047,6|8,0:0|0:0,0:0:0:0:
456,376,78828,1,0,0:0:0:0:
440,176,78990,1,2,0:0:0:0:
440,176,79314,6,0,P|468:116|416:20,1,167.999994873047,14|0,0:0|0:0,0:0:0:0:
284,8,79800,1,0,0:0:0:0:
236,144,79963,1,8,0:0:0:0:
128,240,80206,1,0,0:0:0:0:
168,256,80287,1,2,0:0:0:0:
208,267,80368,1,0,0:0:0:0:
250,270,80449,1,8,0:0:0:0:
291,265,80530,1,8,0:0:0:0:
328,256,80611,1,0,0:0:0:0:
436,164,80773,1,0,0:0:0:0:
456,188,80855,1,0,0:0:0:0:
472,216,80936,6,0,P|484:264|456:356,2,140,6|8|2,0:1|0:0|0:1,0:0:0:0:
428,104,81746,1,0,0:0:0:0:
356,200,81909,2,0,P|300:208|256:200,1,70,10|0,0:0|0:0,0:0:0:0:
172,180,82233,5,2,0:1:0:0:
204,296,82395,1,0,0:0:0:0:
286,206,82557,2,0,P|298:154|294:114,1,70,8|8,0:0|0:3,0:0:0:0:
289,97,82800,1,8,0:3:0:0:
289,97,82882,1,2,0:1:0:0:
132,32,83044,2,0,B|108:76|108:76|111:178,1,140,0|0,0:0|0:0,0:0:0:0:
108,284,83530,6,0,P|175:297|265:284,1,140,2|8,0:1|0:0,0:0:0:0:
361,259,84017,1,0,0:0:0:0:
360,259,84179,2,0,L|372:173,1,70,2|0,0:1|0:0,0:0:0:0:
385,71,84503,2,0,P|343:82|292:73,1,70,8|0,0:0|0:0,0:0:0:0:
210,24,84828,6,0,P|194:77|211:143,1,105,2|0,0:1|0:0,0:0:0:0:
221,181,85152,2,0,P|274:164|373:180,1,140,6|0,0:0|0:0,0:0:0:0:
421,272,85638,1,4,0:3:0:0:
484,171,85800,1,8,0:0:0:0:
484,171,86125,5,0,0:0:0:0:
256,192,86206,12,0,88638,0:0:0:0:
