osu file format v14

[General]
AudioFilename: audio.mp3
AudioLeadIn: 0
PreviewTime: 200460
Countdown: 1
SampleSet: Normal
StackLeniency: 0.7
Mode: 3
LetterboxInBreaks: 0
SpecialStyle: 0
WidescreenStoryboard: 0

[Editor]
DistanceSpacing: 1
BeatDivisor: 6
GridSize: 16
TimelineZoom: 3.799999

[Metadata]
Title:fantastic dreamer
TitleUnicode:fantastic dreamer
Artist:Machico
ArtistUnicode:Machico
Creator:Niima
Version:Isekai
Source:この素晴らしい世界に祝福を!
Tags:Kono Subarashii Sekai ni Syukufuku wo! Shukufuku o! KONOSUBA
BeatmapID:1054357
BeatmapSetID:495258

[Difficulty]
HPDrainRate:7.5
CircleSize:4
OverallDifficulty:0
ApproachRate:5
SliderMultiplier:1.4
SliderTickRate:1

[Events]
//Background and Video events
0,0,"2016032421181562893.jpg",0,0
//Break Periods
//Storyboard Layer 0 (Background)
//Storyboard Layer 1 (Fail)
//Storyboard Layer 2 (Pass)
//Storyboard Layer 3 (Foreground)
//Storyboard Sound Samples

[TimingPoints]
758,324.324324324324,4,1,0,0,1,0
7001,-133.333333333333,4,1,0,0,0,0
7163,-100,4,1,0,0,0,0
46163,-133.333333333333,4,1,0,0,0,0
49730,-90.9090909090909,4,1,0,0,0,0
50055,-100,4,1,0,0,0,0
54352,-90.9090909090909,4,1,0,0,0,0
54433,-89.2857142857143,4,1,0,0,0,0
54514,-89.2857142857143,4,1,0,0,0,0
54676,-83.3333333333333,4,1,0,0,0,0
54757,-83.3333333333333,4,1,0,0,0,0
54839,-83.3333333333333,4,1,0,0,0,0
55082,-100,4,1,0,0,0,0
88001,-500,4,1,0,0,0,0
88163,-100,4,1,0,0,0,0
90920,-1000,4,1,0,0,0,0
91082,-100,4,1,0,0,0,0
115001,-200,4,1,0,0,0,0
115163,-20,4,1,0,0,0,0
115325,-10000,4,1,0,0,0,0
115406,-1000,4,1,0,0,0,0
115568,-100,4,1,0,0,0,0
142244,-1000,4,1,0,0,0,0
146541,-10,4,1,0,0,0,0
146622,-10000,4,1,0,0,0,0
146703,-1000,4,1,0,0,0,0
146866,-100,4,1,0,0,0,0
196974,-133.333333333333,4,1,0,0,0,0
197947,-500,4,1,0,0,0,0
198433,-10,4,1,0,0,0,0
199001,-10000,4,1,0,0,0,0
199082,-1000,4,1,0,0,0,0
199244,-100,4,1,0,0,0,0
200703,-95.2380952380952,4,1,0,0,0,0
200866,-90.9090909090909,4,1,0,0,0,0
201028,-86.9565217391304,4,1,0,0,0,0
201190,-83.3333333333333,4,1,0,0,0,0
201676,-100,4,1,0,0,0,0
235649,-20,4,1,0,0,0,0
238170,-133.333333333333,4,1,0,0,0,0

[HitObjects]
192,192,758,5,0,0:0:0:0:
64,192,758,1,0,0:0:0:0:
448,192,920,128,0,1082:0:0:0:0:
192,192,1082,1,0,0:0:0:0:
64,192,1082,1,0,0:0:0:0:
320,192,1244,128,0,1406:0:0:0:0:
64,192,1406,1,0,0:0:0:0:
192,192,1406,1,0,0:0:0:0:
192,192,1568,1,0,0:0:0:0:
320,192,1568,1,0,0:0:0:0:
320,192,1730,1,0,0:0:0:0:
448,192,1730,1,0,0:0:0:0:
64,192,1893,1,0,0:0:0:0:
192,192,1893,1,0,0:0:0:0:
320,192,1893,1,0,0:0:0:0:
448,192,1893,1,0,0:0:0:0:
64,192,2217,128,0,2298:0:0:0:0:
448,192,2379,128,0,2460:0:0:0:0:
192,192,2379,1,0,0:0:0:0:
320,192,2541,128,0,2622:0:0:0:0:
64,192,3028,128,0,3109:0:0:0:0:
320,192,3028,1,0,0:0:0:0:
192,192,3190,128,0,3271:0:0:0:0:
448,192,3190,128,0,3514:0:0:0:0:
320,192,3514,128,0,3676:0:0:0:0:
64,192,3676,1,0,0:0:0:0:
192,192,3676,128,0,4001:0:0:0:0:
448,192,3839,128,0,3920:0:0:0:0:
64,192,4001,128,0,4325:0:0:0:0:
192,192,4325,1,0,0:0:0:0:
448,192,4325,1,0,0:0:0:0:
192,192,4487,128,0,5136:0:0:0:0:
64,192,4487,1,0,0:0:0:0:
320,192,4487,1,0,0:0:0:0:
448,192,4974,128,0,5136:0:0:0:0:
320,192,4974,1,0,0:0:0:0:
64,192,5136,128,0,5379:0:0:0:0:
192,192,5460,128,0,5703:0:0:0:0:
320,192,5622,1,0,0:0:0:0:
448,192,5622,1,0,0:0:0:0:
64,192,5785,1,0,0:0:0:0:
192,192,5785,1,0,0:0:0:0:
320,192,5785,128,0,6028:0:0:0:0:
192,192,6109,1,0,0:0:0:0:
320,192,6109,1,0,0:0:0:0:
448,192,6109,1,0,0:0:0:0:
64,192,6271,1,0,0:0:0:0:
320,192,6271,1,0,0:0:0:0:
192,192,6433,1,0,0:0:0:0:
320,192,6433,1,0,0:0:0:0:
448,192,6433,1,0,0:0:0:0:
64,192,6758,1,0,0:0:0:0:
192,192,6839,1,0,0:0:0:0:
320,192,6920,1,0,0:0:0:0:
448,192,6920,1,0,0:0:0:0:
64,192,6920,128,0,7244:0:0:0:0:
192,192,7244,1,0,0:0:0:0:
320,192,7244,1,0,0:0:0:0:
448,192,7244,128,0,7487:0:0:0:0:
64,192,7568,128,0,7730:0:0:0:0:
192,192,7568,1,0,0:0:0:0:
448,192,7568,1,0,0:0:0:0:
320,192,7649,1,0,0:0:0:0:
448,192,7730,128,0,7893:0:0:0:0:
192,192,7730,1,0,0:0:0:0:
320,192,7812,1,0,0:0:0:0:
192,192,7893,128,0,8055:0:0:0:0:
64,192,7893,1,0,0:0:0:0:
320,192,7974,1,0,0:0:0:0:
448,192,8055,128,0,8217:0:0:0:0:
64,192,8055,1,0,0:0:0:0:
320,192,8136,1,0,0:0:0:0:
192,192,8217,1,0,0:0:0:0:
64,192,8217,128,0,8379:0:0:0:0:
320,192,8298,1,0,0:0:0:0:
448,192,8379,1,0,0:0:0:0:
320,192,8460,1,0,0:0:0:0:
192,192,8541,1,0,0:0:0:0:
64,192,8541,1,0,0:0:0:0:
448,192,8541,128,0,8866:0:0:0:0:
192,192,8703,128,0,8866:0:0:0:0:
320,192,8703,1,0,0:0:0:0:
64,192,8866,128,0,9190:0:0:0:0:
192,192,9028,1,0,0:0:0:0:
320,192,9028,128,0,9190:0:0:0:0:
448,192,9028,128,0,9190:0:0:0:0:
64,192,9352,128,0,9514:0:0:0:0:
192,192,9352,128,0,9514:0:0:0:0:
448,192,9352,128,0,9514:0:0:0:0:
320,192,9514,1,0,0:0:0:0:
448,192,9676,128,0,9758:0:0:0:0:
192,192,9676,128,0,10163:0:0:0:0:
320,192,9758,128,0,9839:0:0:0:0:
64,192,9839,128,0,9920:0:0:0:0:
320,192,9920,128,0,10001:0:0:0:0:
448,192,10001,128,0,10082:0:0:0:0:
64,192,10082,128,0,10163:0:0:0:0:
320,192,10163,128,0,10244:0:0:0:0:
448,192,10163,1,0,0:0:0:0:
64,192,10244,128,0,10325:0:0:0:0:
320,192,10325,128,0,10406:0:0:0:0:
448,192,10325,1,0,0:0:0:0:
192,192,10406,128,0,10487:0:0:0:0:
448,192,10487,128,0,11136:0:0:0:0:
320,192,10487,128,0,10568:0:0:0:0:
64,192,10487,1,0,0:0:0:0:
192,192,10568,128,0,10649:0:0:0:0:
64,192,10649,128,0,10730:0:0:0:0:
192,192,10730,128,0,10812:0:0:0:0:
320,192,10812,128,0,10893:0:0:0:0:
64,192,10893,128,0,10974:0:0:0:0:
192,192,10974,128,0,11055:0:0:0:0:
320,192,11055,128,0,11136:0:0:0:0:
64,192,11136,128,0,11785:0:0:0:0:
192,192,11136,128,0,11785:0:0:0:0:
448,192,11785,1,0,0:0:0:0:
320,192,11825,1,0,0:0:0:0:
192,192,11866,1,0,0:0:0:0:
64,192,11906,1,0,0:0:0:0:
448,192,11947,1,0,0:0:0:0:
320,192,11987,1,0,0:0:0:0:
192,192,12028,1,0,0:0:0:0:
64,192,12068,1,0,0:0:0:0:
448,192,12109,1,0,0:0:0:0:
320,192,12149,1,0,0:0:0:0:
192,192,12190,1,0,0:0:0:0:
64,192,12230,1,0,0:0:0:0:
448,192,12271,1,0,0:0:0:0:
320,192,12352,1,0,0:0:0:0:
64,192,12433,128,0,12758:0:0:0:0:
448,192,12433,1,0,0:0:0:0:
192,192,12433,1,0,0:0:0:0:
320,192,12757,128,0,13082:0:0:0:0:
448,192,12757,1,0,0:0:0:0:
192,192,12839,1,0,0:0:0:0:
64,192,12920,1,0,0:0:0:0:
448,192,13001,1,0,0:0:0:0:
192,192,13082,128,0,13406:0:0:0:0:
64,192,13082,1,0,0:0:0:0:
320,192,13163,1,0,0:0:0:0:
448,192,13244,1,0,0:0:0:0:
320,192,13325,1,0,0:0:0:0:
448,192,13406,128,0,13568:0:0:0:0:
64,192,13406,1,0,0:0:0:0:
320,192,13487,1,0,0:0:0:0:
64,192,13568,1,0,0:0:0:0:
192,192,13568,128,0,14055:0:0:0:0:
320,192,13649,1,0,0:0:0:0:
448,192,13730,1,0,0:0:0:0:
64,192,13730,1,0,0:0:0:0:
320,192,13812,1,0,0:0:0:0:
64,192,13893,1,0,0:0:0:0:
320,192,13974,1,0,0:0:0:0:
448,192,14055,1,0,0:0:0:0:
64,192,14055,128,0,14136:0:0:0:0:
192,192,14136,128,0,14217:0:0:0:0:
320,192,14217,128,0,14298:0:0:0:0:
448,192,14298,128,0,14379:0:0:0:0:
192,192,14379,1,0,0:0:0:0:
64,192,14379,128,0,14541:0:0:0:0:
320,192,14460,128,0,14622:0:0:0:0:
192,192,14541,1,0,0:0:0:0:
448,192,14622,1,0,0:0:0:0:
448,192,14703,128,0,14866:0:0:0:0:
64,192,14703,1,0,0:0:0:0:
192,192,14785,128,0,14947:0:0:0:0:
64,192,14866,1,0,0:0:0:0:
448,192,14947,1,0,0:0:0:0:
64,192,15028,128,0,15109:0:0:0:0:
320,192,15028,1,0,0:0:0:0:
192,192,15109,128,0,15190:0:0:0:0:
320,192,15190,128,0,15271:0:0:0:0:
448,192,15190,1,0,0:0:0:0:
64,192,15271,1,0,0:0:0:0:
192,192,15352,128,0,15433:0:0:0:0:
448,192,15352,1,0,0:0:0:0:
320,192,15433,128,0,15514:0:0:0:0:
448,192,15514,128,0,15595:0:0:0:0:
64,192,15514,1,0,0:0:0:0:
192,192,15595,1,0,0:0:0:0:
448,192,15676,128,0,15757:0:0:0:0:
64,192,15676,1,0,0:0:0:0:
320,192,15757,128,0,15839:0:0:0:0:
192,192,15839,128,0,15920:0:0:0:0:
64,192,15839,1,0,0:0:0:0:
448,192,15839,1,0,0:0:0:0:
64,192,16001,128,0,16082:0:0:0:0:
192,192,16001,1,0,0:0:0:0:
320,192,16001,1,0,0:0:0:0:
448,192,16163,128,0,16812:0:0:0:0:
192,192,16163,128,0,16406:0:0:0:0:
64,192,16163,1,0,0:0:0:0:
64,192,16325,128,0,16406:0:0:0:0:
320,192,16325,1,0,0:0:0:0:
320,192,16487,128,0,16568:0:0:0:0:
64,192,16487,1,0,0:0:0:0:
64,192,16649,128,0,16730:0:0:0:0:
192,192,16649,1,0,0:0:0:0:
320,192,16649,1,0,0:0:0:0:
64,192,16812,1,0,0:0:0:0:
192,192,16812,1,0,0:0:0:0:
320,192,16893,1,0,0:0:0:0:
448,192,16893,1,0,0:0:0:0:
64,192,16974,1,0,0:0:0:0:
192,192,16974,1,0,0:0:0:0:
448,192,16974,128,0,17298:0:0:0:0:
320,192,17136,1,0,0:0:0:0:
64,192,17136,1,0,0:0:0:0:
192,192,17136,128,0,17217:0:0:0:0:
192,192,17298,128,0,17541:0:0:0:0:
64,192,17298,1,0,0:0:0:0:
320,192,17298,1,0,0:0:0:0:
448,192,17460,128,0,17541:0:0:0:0:
448,192,17622,128,0,17703:0:0:0:0:
192,192,17622,1,0,0:0:0:0:
320,192,17703,128,0,17785:0:0:0:0:
192,192,17785,128,0,17866:0:0:0:0:
64,192,17785,1,0,0:0:0:0:
448,192,17866,1,0,0:0:0:0:
320,192,17947,128,0,18028:0:0:0:0:
64,192,17947,1,0,0:0:0:0:
192,192,18028,128,0,18109:0:0:0:0:
64,192,18109,128,0,18190:0:0:0:0:
448,192,18109,1,0,0:0:0:0:
320,192,18190,1,0,0:0:0:0:
64,192,18271,128,0,18352:0:0:0:0:
448,192,18271,1,0,0:0:0:0:
192,192,18352,128,0,18433:0:0:0:0:
448,192,18433,1,0,0:0:0:0:
64,192,18433,1,0,0:0:0:0:
320,192,18433,128,0,18514:0:0:0:0:
448,192,18595,128,0,18676:0:0:0:0:
320,192,18595,1,0,0:0:0:0:
192,192,18595,1,0,0:0:0:0:
64,192,18757,128,0,19406:0:0:0:0:
320,192,18757,128,0,19001:0:0:0:0:
448,192,18757,1,0,0:0:0:0:
448,192,18920,128,0,19001:0:0:0:0:
192,192,18920,1,0,0:0:0:0:
192,192,19082,128,0,19163:0:0:0:0:
448,192,19082,1,0,0:0:0:0:
448,192,19244,128,0,19325:0:0:0:0:
320,192,19244,1,0,0:0:0:0:
192,192,19244,1,0,0:0:0:0:
320,192,19406,128,0,19568:0:0:0:0:
448,192,19406,128,0,19568:0:0:0:0:
64,192,19568,1,0,0:0:0:0:
192,192,19568,1,0,0:0:0:0:
192,192,19730,1,0,0:0:0:0:
320,192,19730,1,0,0:0:0:0:
320,192,19893,1,0,0:0:0:0:
448,192,19893,1,0,0:0:0:0:
192,192,20055,128,0,20379:0:0:0:0:
64,192,20055,128,0,20379:0:0:0:0:
448,192,20379,128,0,20541:0:0:0:0:
192,192,20541,128,0,20703:0:0:0:0:
320,192,20541,1,0,0:0:0:0:
448,192,20703,128,0,20866:0:0:0:0:
192,192,20866,128,0,21028:0:0:0:0:
320,192,20866,1,0,0:0:0:0:
320,192,21028,128,0,21190:0:0:0:0:
64,192,21190,128,0,21352:0:0:0:0:
192,192,21190,1,0,0:0:0:0:
320,192,21352,128,0,21514:0:0:0:0:
192,192,21514,1,0,0:0:0:0:
64,192,21514,128,0,21676:0:0:0:0:
320,192,21676,128,0,21839:0:0:0:0:
448,192,21676,128,0,21839:0:0:0:0:
64,192,21839,1,0,0:0:0:0:
192,192,22001,128,0,22163:0:0:0:0:
320,192,22001,128,0,22163:0:0:0:0:
448,192,22163,1,0,0:0:0:0:
64,192,22163,128,0,22325:0:0:0:0:
320,192,22325,1,0,0:0:0:0:
192,192,22406,1,0,0:0:0:0:
320,192,22487,1,0,0:0:0:0:
448,192,22487,1,0,0:0:0:0:
64,192,22487,1,0,0:0:0:0:
320,192,22649,128,0,22974:0:0:0:0:
448,192,22649,128,0,22974:0:0:0:0:
64,192,22974,128,0,23136:0:0:0:0:
320,192,23136,128,0,23298:0:0:0:0:
192,192,23136,1,0,0:0:0:0:
64,192,23298,128,0,23460:0:0:0:0:
320,192,23460,128,0,23622:0:0:0:0:
192,192,23460,1,0,0:0:0:0:
192,192,23622,128,0,23785:0:0:0:0:
448,192,23785,128,0,23947:0:0:0:0:
320,192,23785,1,0,0:0:0:0:
192,192,23947,128,0,24109:0:0:0:0:
320,192,24109,1,0,0:0:0:0:
448,192,24109,128,0,24271:0:0:0:0:
64,192,24271,128,0,24433:0:0:0:0:
320,192,24271,1,0,0:0:0:0:
192,192,24352,1,0,0:0:0:0:
320,192,24433,1,0,0:0:0:0:
448,192,24433,1,0,0:0:0:0:
320,192,24595,128,0,24676:0:0:0:0:
448,192,24595,1,0,0:0:0:0:
64,192,24676,128,0,24757:0:0:0:0:
192,192,24676,1,0,0:0:0:0:
320,192,24757,128,0,24839:0:0:0:0:
448,192,24757,1,0,0:0:0:0:
64,192,24839,128,0,24920:0:0:0:0:
192,192,24920,128,0,25001:0:0:0:0:
448,192,24920,1,0,0:0:0:0:
320,192,25001,128,0,25082:0:0:0:0:
192,192,25082,128,0,25163:0:0:0:0:
64,192,25082,1,0,0:0:0:0:
448,192,25163,128,0,25244:0:0:0:0:
192,192,25244,128,0,25649:0:0:0:0:
320,192,25568,128,0,25649:0:0:0:0:
64,192,25568,1,0,0:0:0:0:
320,192,25730,1,0,0:0:0:0:
448,192,25730,1,0,0:0:0:0:
64,192,25730,128,0,25974:0:0:0:0:
192,192,26055,128,0,26136:0:0:0:0:
64,192,26055,1,0,0:0:0:0:
448,192,26055,1,0,0:0:0:0:
320,192,26217,128,0,26298:0:0:0:0:
192,192,26217,1,0,0:0:0:0:
448,192,26379,128,0,26460:0:0:0:0:
64,192,26379,1,0,0:0:0:0:
192,192,26379,1,0,0:0:0:0:
64,192,26541,128,0,26866:0:0:0:0:
320,192,26541,1,0,0:0:0:0:
192,192,26703,1,0,0:0:0:0:
448,192,26703,1,0,0:0:0:0:
320,192,26866,128,0,26947:0:0:0:0:
448,192,26866,1,0,0:0:0:0:
192,192,27028,128,0,27109:0:0:0:0:
64,192,27028,1,0,0:0:0:0:
320,192,27028,1,0,0:0:0:0:
448,192,27028,1,0,0:0:0:0:
320,192,27190,128,0,27271:0:0:0:0:
448,192,27352,128,0,27433:0:0:0:0:
192,192,27352,1,0,0:0:0:0:
64,192,27352,1,0,0:0:0:0:
320,192,27514,128,0,27595:0:0:0:0:
192,192,27514,1,0,0:0:0:0:
192,192,27676,128,0,27757:0:0:0:0:
320,192,27676,1,0,0:0:0:0:
448,192,27676,1,0,0:0:0:0:
64,192,27676,1,0,0:0:0:0:
448,192,27839,128,0,28163:0:0:0:0:
64,192,27839,1,0,0:0:0:0:
320,192,27839,1,0,0:0:0:0:
192,192,28001,1,0,0:0:0:0:
64,192,28163,128,0,28244:0:0:0:0:
320,192,28163,1,0,0:0:0:0:
192,192,28325,128,0,28406:0:0:0:0:
320,192,28325,1,0,0:0:0:0:
448,192,28325,1,0,0:0:0:0:
320,192,28487,128,0,28568:0:0:0:0:
448,192,28649,128,0,28730:0:0:0:0:
64,192,28649,1,0,0:0:0:0:
320,192,28649,1,0,0:0:0:0:
192,192,28812,128,0,28893:0:0:0:0:
320,192,28812,1,0,0:0:0:0:
320,192,28974,128,0,29055:0:0:0:0:
448,192,28974,1,0,0:0:0:0:
64,192,28974,1,0,0:0:0:0:
192,192,28974,1,0,0:0:0:0:
192,192,29136,128,0,29460:0:0:0:0:
448,192,29136,1,0,0:0:0:0:
448,192,29298,1,0,0:0:0:0:
64,192,29460,128,0,29541:0:0:0:0:
448,192,29460,1,0,0:0:0:0:
448,192,29622,128,0,29703:0:0:0:0:
192,192,29622,1,0,0:0:0:0:
320,192,29622,1,0,0:0:0:0:
64,192,29785,128,0,29866:0:0:0:0:
320,192,29947,128,0,30028:0:0:0:0:
64,192,29947,1,0,0:0:0:0:
192,192,30109,128,0,30190:0:0:0:0:
448,192,30109,1,0,0:0:0:0:
64,192,30271,128,0,30352:0:0:0:0:
320,192,30271,1,0,0:0:0:0:
448,192,30271,1,0,0:0:0:0:
320,192,30433,128,0,30757:0:0:0:0:
192,192,30433,1,0,0:0:0:0:
64,192,30757,128,0,30920:0:0:0:0:
448,192,30757,1,0,0:0:0:0:
320,192,30920,128,0,31082:0:0:0:0:
192,192,30920,1,0,0:0:0:0:
448,192,31082,128,0,31244:0:0:0:0:
192,192,31244,128,0,31406:0:0:0:0:
64,192,31244,1,0,0:0:0:0:
320,192,31406,128,0,31568:0:0:0:0:
448,192,31406,1,0,0:0:0:0:
448,192,31568,128,0,31730:0:0:0:0:
64,192,31568,1,0,0:0:0:0:
192,192,31568,1,0,0:0:0:0:
192,192,31730,128,0,32055:0:0:0:0:
320,192,31730,1,0,0:0:0:0:
448,192,31893,1,0,0:0:0:0:
448,192,32055,128,0,32217:0:0:0:0:
320,192,32055,1,0,0:0:0:0:
192,192,32217,128,0,32379:0:0:0:0:
64,192,32217,1,0,0:0:0:0:
320,192,32217,1,0,0:0:0:0:
64,192,32379,128,0,32541:0:0:0:0:
320,192,32379,1,0,0:0:0:0:
448,192,32460,1,0,0:0:0:0:
320,192,32541,128,0,32703:0:0:0:0:
192,192,32541,1,0,0:0:0:0:
192,192,32703,128,0,32866:0:0:0:0:
448,192,32703,128,0,32785:0:0:0:0:
64,192,32703,1,0,0:0:0:0:
64,192,32866,128,0,33028:0:0:0:0:
320,192,32866,1,0,0:0:0:0:
448,192,32866,1,0,0:0:0:0:
192,192,33028,1,0,0:0:0:0:
320,192,33109,1,0,0:0:0:0:
320,192,33190,1,0,0:0:0:0:
448,192,33190,1,0,0:0:0:0:
64,192,33190,128,0,33514:0:0:0:0:
448,192,33514,128,0,33757:0:0:0:0:
64,192,33676,128,0,33757:0:0:0:0:
192,192,33676,128,0,33757:0:0:0:0:
320,192,33676,128,0,33757:0:0:0:0:
64,192,34001,128,0,34163:0:0:0:0:
192,192,34001,128,0,34163:0:0:0:0:
320,192,34001,128,0,34082:0:0:0:0:
448,192,34001,128,0,34082:0:0:0:0:
448,192,34163,1,0,0:0:0:0:
320,192,34163,1,0,0:0:0:0:
320,192,34325,128,0,34649:0:0:0:0:
448,192,34325,128,0,34649:0:0:0:0:
64,192,34649,128,0,34812:0:0:0:0:
192,192,34649,1,0,0:0:0:0:
320,192,34812,1,0,0:0:0:0:
448,192,34812,128,0,34974:0:0:0:0:
192,192,34974,128,0,35298:0:0:0:0:
448,192,35298,1,0,0:0:0:0:
320,192,35298,1,0,0:0:0:0:
64,192,35298,128,0,35379:0:0:0:0:
64,192,35460,1,0,0:0:0:0:
448,192,35460,128,0,35541:0:0:0:0:
320,192,35460,1,0,0:0:0:0:
64,192,35622,1,0,0:0:0:0:
192,192,35703,1,0,0:0:0:0:
320,192,35785,1,0,0:0:0:0:
448,192,35785,1,0,0:0:0:0:
64,192,35785,128,0,35866:0:0:0:0:
320,192,35947,128,0,36028:0:0:0:0:
64,192,36109,128,0,36190:0:0:0:0:
192,192,36109,1,0,0:0:0:0:
320,192,36109,1,0,0:0:0:0:
448,192,36109,1,0,0:0:0:0:
192,192,36271,128,0,36352:0:0:0:0:
64,192,36433,128,0,36595:0:0:0:0:
320,192,36433,1,0,0:0:0:0:
448,192,36433,1,0,0:0:0:0:
192,192,36595,128,0,36757:0:0:0:0:
320,192,36757,128,0,36920:0:0:0:0:
64,192,36757,1,0,0:0:0:0:
448,192,36757,1,0,0:0:0:0:
448,192,36920,128,0,37082:0:0:0:0:
320,192,37082,128,0,37163:0:0:0:0:
64,192,37082,1,0,0:0:0:0:
192,192,37082,1,0,0:0:0:0:
192,192,37244,128,0,37325:0:0:0:0:
320,192,37406,128,0,37487:0:0:0:0:
64,192,37406,1,0,0:0:0:0:
192,192,37406,1,0,0:0:0:0:
448,192,37406,1,0,0:0:0:0:
64,192,37568,128,0,37649:0:0:0:0:
448,192,37730,128,0,37893:0:0:0:0:
320,192,37730,1,0,0:0:0:0:
64,192,37730,1,0,0:0:0:0:
320,192,37893,128,0,38055:0:0:0:0:
192,192,38055,128,0,38217:0:0:0:0:
64,192,38055,1,0,0:0:0:0:
448,192,38055,1,0,0:0:0:0:
64,192,38217,128,0,38379:0:0:0:0:
192,192,38379,128,0,38460:0:0:0:0:
320,192,38379,1,0,0:0:0:0:
448,192,38379,1,0,0:0:0:0:
64,192,38541,128,0,38622:0:0:0:0:
192,192,38703,128,0,38785:0:0:0:0:
320,192,38703,1,0,0:0:0:0:
448,192,38703,1,0,0:0:0:0:
64,192,38703,1,0,0:0:0:0:
320,192,38866,128,0,38947:0:0:0:0:
64,192,39028,128,0,39190:0:0:0:0:
192,192,39028,1,0,0:0:0:0:
448,192,39028,1,0,0:0:0:0:
320,192,39190,128,0,39352:0:0:0:0:
64,192,39352,128,0,39514:0:0:0:0:
192,192,39352,1,0,0:0:0:0:
448,192,39352,1,0,0:0:0:0:
448,192,39514,128,0,39676:0:0:0:0:
192,192,39676,128,0,40001:0:0:0:0:
64,192,39676,1,0,0:0:0:0:
320,192,39676,1,0,0:0:0:0:
448,192,39839,128,0,40001:0:0:0:0:
64,192,40001,1,0,0:0:0:0:
320,192,40001,1,0,0:0:0:0:
64,192,40163,128,0,40487:0:0:0:0:
448,192,40325,1,0,0:0:0:0:
320,192,40325,128,0,40487:0:0:0:0:
448,192,40487,128,0,40649:0:0:0:0:
192,192,40487,1,0,0:0:0:0:
320,192,40568,1,0,0:0:0:0:
64,192,40649,128,0,40812:0:0:0:0:
192,192,40649,1,0,0:0:0:0:
320,192,40812,1,0,0:0:0:0:
448,192,40812,1,0,0:0:0:0:
192,192,40893,1,0,0:0:0:0:
64,192,40974,128,0,41055:0:0:0:0:
320,192,40974,1,0,0:0:0:0:
448,192,40974,1,0,0:0:0:0:
192,192,41136,128,0,41217:0:0:0:0:
320,192,41298,128,0,41379:0:0:0:0:
64,192,41298,1,0,0:0:0:0:
448,192,41298,1,0,0:0:0:0:
192,192,41298,1,0,0:0:0:0:
448,192,41460,128,0,41541:0:0:0:0:
192,192,41460,1,0,0:0:0:0:
192,192,41622,128,0,41703:0:0:0:0:
64,192,41622,1,0,0:0:0:0:
320,192,41622,1,0,0:0:0:0:
448,192,41622,1,0,0:0:0:0:
320,192,41785,128,0,41866:0:0:0:0:
64,192,41785,1,0,0:0:0:0:
448,192,41947,128,0,42028:0:0:0:0:
192,192,41947,1,0,0:0:0:0:
320,192,41947,1,0,0:0:0:0:
64,192,41947,1,0,0:0:0:0:
192,192,42109,128,0,42433:0:0:0:0:
448,192,42109,1,0,0:0:0:0:
448,192,42433,128,0,42676:0:0:0:0:
320,192,42433,1,0,0:0:0:0:
192,192,42595,128,0,42757:0:0:0:0:
64,192,42595,1,0,0:0:0:0:
64,192,42757,128,0,43001:0:0:0:0:
320,192,42757,1,0,0:0:0:0:
448,192,42757,1,0,0:0:0:0:
320,192,42920,128,0,43082:0:0:0:0:
64,192,43082,1,0,0:0:0:0:
192,192,43082,1,0,0:0:0:0:
192,192,43244,1,0,0:0:0:0:
320,192,43244,1,0,0:0:0:0:
448,192,43244,1,0,0:0:0:0:
64,192,43406,128,0,43568:0:0:0:0:
320,192,43406,1,0,0:0:0:0:
448,192,43568,128,0,43730:0:0:0:0:
192,192,43568,1,0,0:0:0:0:
320,192,43730,128,0,43893:0:0:0:0:
192,192,43893,128,0,44055:0:0:0:0:
64,192,43893,1,0,0:0:0:0:
448,192,43893,1,0,0:0:0:0:
64,192,44055,128,0,44217:0:0:0:0:
448,192,44055,1,0,0:0:0:0:
320,192,44217,128,0,44379:0:0:0:0:
192,192,44217,1,0,0:0:0:0:
448,192,44217,1,0,0:0:0:0:
448,192,44379,128,0,44460:0:0:0:0:
64,192,44379,1,0,0:0:0:0:
192,192,44541,128,0,44622:0:0:0:0:
320,192,44541,1,0,0:0:0:0:
448,192,44541,1,0,0:0:0:0:
320,192,44703,1,0,0:0:0:0:
448,192,44703,128,0,45028:0:0:0:0:
64,192,44703,1,0,0:0:0:0:
320,192,45028,1,0,0:0:0:0:
64,192,45028,128,0,45109:0:0:0:0:
320,192,45190,1,0,0:0:0:0:
192,192,45190,128,0,45352:0:0:0:0:
64,192,45190,1,0,0:0:0:0:
320,192,45352,1,0,0:0:0:0:
64,192,45352,128,0,45676:0:0:0:0:
448,192,45352,128,0,45514:0:0:0:0:
320,192,45514,128,0,45676:0:0:0:0:
192,192,45676,1,0,0:0:0:0:
448,192,45676,1,0,0:0:0:0:
192,192,45839,1,0,0:0:0:0:
448,192,45839,1,0,0:0:0:0:
64,192,45839,1,0,0:0:0:0:
64,192,46001,1,0,0:0:0:0:
192,192,46001,1,0,0:0:0:0:
320,192,46001,1,0,0:0:0:0:
64,192,46163,128,0,46244:0:0:0:0:
320,192,46163,1,0,0:0:0:0:
192,192,46379,1,0,0:0:0:0:
64,192,46379,1,0,0:0:0:0:
320,192,46487,128,0,46541:0:0:0:0:
448,192,46487,1,0,0:0:0:0:
448,192,46703,1,0,0:0:0:0:
320,192,46703,1,0,0:0:0:0:
64,192,46812,128,0,46866:0:0:0:0:
192,192,46812,1,0,0:0:0:0:
448,192,47028,128,0,47136:0:0:0:0:
64,192,47136,1,0,0:0:0:0:
192,192,47136,128,0,47217:0:0:0:0:
192,192,47460,1,0,0:0:0:0:
320,192,47460,1,0,0:0:0:0:
192,192,47785,1,0,0:0:0:0:
320,192,47785,1,0,0:0:0:0:
448,192,48109,128,0,48190:0:0:0:0:
192,192,48109,1,0,0:0:0:0:
320,192,48325,1,0,0:0:0:0:
448,192,48325,1,0,0:0:0:0:
192,192,48433,128,0,48514:0:0:0:0:
64,192,48433,1,0,0:0:0:0:
64,192,48649,1,0,0:0:0:0:
192,192,48649,1,0,0:0:0:0:
448,192,48757,128,0,48839:0:0:0:0:
320,192,48757,1,0,0:0:0:0:
64,192,48974,128,0,49082:0:0:0:0:
448,192,49082,1,0,0:0:0:0:
320,192,49082,128,0,49163:0:0:0:0:
64,192,49406,128,0,49730:0:0:0:0:
320,192,49406,1,0,0:0:0:0:
448,192,49730,1,0,0:0:0:0:
320,192,49812,1,0,0:0:0:0:
192,192,49893,1,0,0:0:0:0:
64,192,49974,1,0,0:0:0:0:
320,192,50055,1,0,0:0:0:0:
448,192,50055,128,0,50541:0:0:0:0:
64,192,50379,128,0,50541:0:0:0:0:
192,192,50379,1,0,0:0:0:0:
320,192,50541,128,0,50703:0:0:0:0:
64,192,50703,128,0,50866:0:0:0:0:
192,192,50703,1,0,0:0:0:0:
448,192,50866,128,0,51028:0:0:0:0:
192,192,51028,1,0,0:0:0:0:
64,192,51028,128,0,51190:0:0:0:0:
320,192,51190,128,0,51352:0:0:0:0:
192,192,51352,1,0,0:0:0:0:
64,192,51352,128,0,51839:0:0:0:0:
320,192,51514,1,0,0:0:0:0:
448,192,51676,128,0,51839:0:0:0:0:
320,192,51676,1,0,0:0:0:0:
192,192,51839,128,0,52001:0:0:0:0:
320,192,52001,1,0,0:0:0:0:
448,192,52001,128,0,52163:0:0:0:0:
64,192,52163,128,0,52325:0:0:0:0:
320,192,52325,1,0,0:0:0:0:
448,192,52325,128,0,52487:0:0:0:0:
192,192,52325,128,0,52406:0:0:0:0:
64,192,52406,128,0,52487:0:0:0:0:
320,192,52487,128,0,52568:0:0:0:0:
192,192,52568,128,0,52649:0:0:0:0:
64,192,52649,128,0,53136:0:0:0:0:
448,192,52649,1,0,0:0:0:0:
192,192,52812,128,0,52893:0:0:0:0:
448,192,52812,1,0,0:0:0:0:
320,192,52974,1,0,0:0:0:0:
448,192,52974,1,0,0:0:0:0:
448,192,53136,128,0,53217:0:0:0:0:
192,192,53136,1,0,0:0:0:0:
64,192,53298,1,0,0:0:0:0:
192,192,53298,1,0,0:0:0:0:
448,192,53298,1,0,0:0:0:0:
192,192,53460,1,0,0:0:0:0:
320,192,53460,128,0,53541:0:0:0:0:
64,192,53541,128,0,53622:0:0:0:0:
448,192,53541,1,0,0:0:0:0:
192,192,53622,1,0,0:0:0:0:
320,192,53622,128,0,53703:0:0:0:0:
64,192,53785,128,0,54028:0:0:0:0:
192,192,53785,128,0,54028:0:0:0:0:
320,192,53785,128,0,54028:0:0:0:0:
448,192,53785,128,0,54028:0:0:0:0:
64,192,54271,5,0,0:0:0:0:
448,192,54271,1,0,0:0:0:0:
320,192,54352,128,0,54514:0:0:0:0:
448,192,54433,1,0,0:0:0:0:
192,192,54433,128,0,54595:0:0:0:0:
64,192,54514,128,0,54676:0:0:0:0:
448,192,54595,1,0,0:0:0:0:
320,192,54676,128,0,54839:0:0:0:0:
448,192,54757,1,0,0:0:0:0:
192,192,54757,128,0,54920:0:0:0:0:
64,192,54839,128,0,55001:0:0:0:0:
448,192,54920,1,0,0:0:0:0:
320,192,55001,1,0,0:0:0:0:
192,192,55082,1,0,0:0:0:0:
448,192,55082,128,0,55649:0:0:0:0:
64,192,55082,1,0,0:0:0:0:
192,192,55406,128,0,55649:0:0:0:0:
64,192,55406,1,0,0:0:0:0:
320,192,55568,1,0,0:0:0:0:
64,192,55568,128,0,55649:0:0:0:0:
64,192,55730,128,0,55974:0:0:0:0:
320,192,55730,128,0,55812:0:0:0:0:
448,192,55730,1,0,0:0:0:0:
192,192,55893,1,0,0:0:0:0:
448,192,55893,128,0,55974:0:0:0:0:
192,192,56055,128,0,56136:0:0:0:0:
320,192,56055,1,0,0:0:0:0:
64,192,56217,128,0,56298:0:0:0:0:
192,192,56217,1,0,0:0:0:0:
448,192,56217,128,0,56541:0:0:0:0:
192,192,56379,128,0,56703:0:0:0:0:
64,192,56541,5,0,0:0:0:0:
320,192,56541,1,0,0:0:0:0:
448,192,56703,128,0,57028:0:0:0:0:
320,192,56703,128,0,56785:0:0:0:0:
64,192,56866,128,0,56947:0:0:0:0:
192,192,56866,1,0,0:0:0:0:
320,192,57028,128,0,57190:0:0:0:0:
64,192,57028,128,0,57514:0:0:0:0:
448,192,57190,1,0,0:0:0:0:
192,192,57190,128,0,57271:0:0:0:0:
320,192,57352,128,0,57514:0:0:0:0:
192,192,57352,1,0,0:0:0:0:
448,192,57514,1,0,0:0:0:0:
192,192,57514,128,0,57676:0:0:0:0:
448,192,57676,5,0,0:0:0:0:
64,192,57676,1,0,0:0:0:0:
192,192,57757,1,0,0:0:0:0:
320,192,57839,1,0,0:0:0:0:
448,192,57839,1,0,0:0:0:0:
64,192,57920,1,0,0:0:0:0:
192,192,58001,1,0,0:0:0:0:
320,192,58001,1,0,0:0:0:0:
448,192,58082,1,0,0:0:0:0:
64,192,58163,1,0,0:0:0:0:
192,192,58163,1,0,0:0:0:0:
320,192,58244,1,0,0:0:0:0:
448,192,58325,1,0,0:0:0:0:
64,192,58325,1,0,0:0:0:0:
320,192,58406,1,0,0:0:0:0:
64,192,58487,1,0,0:0:0:0:
192,192,58487,1,0,0:0:0:0:
448,192,58568,1,0,0:0:0:0:
192,192,58649,1,0,0:0:0:0:
320,192,58649,1,0,0:0:0:0:
64,192,58730,1,0,0:0:0:0:
320,192,58812,1,0,0:0:0:0:
448,192,58812,1,0,0:0:0:0:
192,192,58893,1,0,0:0:0:0:
64,192,58974,128,0,59055:0:0:0:0:
192,192,59055,128,0,59136:0:0:0:0:
320,192,59136,128,0,59217:0:0:0:0:
64,192,59136,1,0,0:0:0:0:
448,192,59136,1,0,0:0:0:0:
448,192,59217,128,0,59298:0:0:0:0:
64,192,59298,128,0,59379:0:0:0:0:
192,192,59379,128,0,59460:0:0:0:0:
320,192,59460,128,0,59541:0:0:0:0:
448,192,59460,1,0,0:0:0:0:
64,192,59460,1,0,0:0:0:0:
448,192,59541,128,0,59622:0:0:0:0:
192,192,59622,128,0,59703:0:0:0:0:
64,192,59703,128,0,59785:0:0:0:0:
192,192,59785,1,0,0:0:0:0:
320,192,59785,1,0,0:0:0:0:
448,192,59785,128,0,59866:0:0:0:0:
320,192,59866,128,0,59947:0:0:0:0:
192,192,59947,128,0,60028:0:0:0:0:
64,192,60028,128,0,60109:0:0:0:0:
192,192,60109,1,0,0:0:0:0:
320,192,60109,1,0,0:0:0:0:
448,192,60109,128,0,60190:0:0:0:0:
320,192,60190,128,0,60271:0:0:0:0:
192,192,60271,128,0,60352:0:0:0:0:
64,192,60352,1,0,0:0:0:0:
448,192,60352,1,0,0:0:0:0:
192,192,60433,1,0,0:0:0:0:
64,192,60433,1,0,0:0:0:0:
448,192,60433,128,0,60514:0:0:0:0:
320,192,60514,128,0,60595:0:0:0:0:
192,192,60595,128,0,60676:0:0:0:0:
64,192,60676,128,0,60757:0:0:0:0:
448,192,60676,1,0,0:0:0:0:
320,192,60757,1,0,0:0:0:0:
192,192,60839,1,0,0:0:0:0:
448,192,60839,128,0,61001:0:0:0:0:
64,192,60920,1,0,0:0:0:0:
320,192,60920,128,0,61001:0:0:0:0:
192,192,61001,1,0,0:0:0:0:
320,192,61082,1,0,0:0:0:0:
64,192,61082,128,0,61163:0:0:0:0:
448,192,61163,1,0,0:0:0:0:
192,192,61163,128,0,61244:0:0:0:0:
320,192,61244,128,0,61325:0:0:0:0:
448,192,61325,128,0,61406:0:0:0:0:
64,192,61325,1,0,0:0:0:0:
192,192,61406,1,0,0:0:0:0:
64,192,61487,128,0,61649:0:0:0:0:
320,192,61487,1,0,0:0:0:0:
448,192,61568,1,0,0:0:0:0:
192,192,61568,128,0,61649:0:0:0:0:
320,192,61649,1,0,0:0:0:0:
192,192,61730,1,0,0:0:0:0:
448,192,61730,128,0,61812:0:0:0:0:
320,192,61812,128,0,61893:0:0:0:0:
64,192,61812,1,0,0:0:0:0:
192,192,61893,128,0,61974:0:0:0:0:
64,192,61974,128,0,62055:0:0:0:0:
448,192,61974,1,0,0:0:0:0:
320,192,62055,1,0,0:0:0:0:
192,192,62136,1,0,0:0:0:0:
448,192,62136,128,0,62298:0:0:0:0:
64,192,62217,1,0,0:0:0:0:
320,192,62217,128,0,62298:0:0:0:0:
192,192,62298,1,0,0:0:0:0:
64,192,62379,128,0,62460:0:0:0:0:
320,192,62379,1,0,0:0:0:0:
448,192,62460,1,0,0:0:0:0:
192,192,62460,128,0,62541:0:0:0:0:
320,192,62541,128,0,62622:0:0:0:0:
448,192,62622,128,0,62703:0:0:0:0:
64,192,62622,1,0,0:0:0:0:
192,192,62703,1,0,0:0:0:0:
320,192,62785,1,0,0:0:0:0:
64,192,62785,128,0,62947:0:0:0:0:
448,192,62866,1,0,0:0:0:0:
192,192,62866,128,0,62947:0:0:0:0:
320,192,62947,1,0,0:0:0:0:
448,192,63028,128,0,63109:0:0:0:0:
192,192,63028,1,0,0:0:0:0:
64,192,63028,1,0,0:0:0:0:
320,192,63109,128,0,63190:0:0:0:0:
192,192,63190,128,0,63271:0:0:0:0:
64,192,63271,128,0,63352:0:0:0:0:
448,192,63352,1,0,0:0:0:0:
320,192,63352,1,0,0:0:0:0:
448,192,63514,1,0,0:0:0:0:
64,192,63514,1,0,0:0:0:0:
192,192,63595,1,0,0:0:0:0:
320,192,63595,1,0,0:0:0:0:
64,192,63676,1,0,0:0:0:0:
320,192,63676,1,0,0:0:0:0:
448,192,63676,1,0,0:0:0:0:
320,192,63839,1,0,0:0:0:0:
64,192,63839,128,0,64001:0:0:0:0:
448,192,63839,128,0,63920:0:0:0:0:
320,192,64001,1,0,0:0:0:0:
448,192,64001,1,0,0:0:0:0:
192,192,64001,1,0,0:0:0:0:
64,192,64163,1,0,0:0:0:0:
448,192,64163,1,0,0:0:0:0:
320,192,64163,128,0,64487:0:0:0:0:
64,192,64487,128,0,64730:0:0:0:0:
192,192,64487,1,0,0:0:0:0:
448,192,64487,1,0,0:0:0:0:
320,192,64649,1,0,0:0:0:0:
448,192,64649,128,0,65055:0:0:0:0:
192,192,64812,1,0,0:0:0:0:
64,192,64812,128,0,65055:0:0:0:0:
64,192,65136,1,0,0:0:0:0:
192,192,65136,1,0,0:0:0:0:
320,192,65136,1,0,0:0:0:0:
448,192,65136,128,0,65217:0:0:0:0:
192,192,65298,1,0,0:0:0:0:
320,192,65298,1,0,0:0:0:0:
448,192,65298,128,0,65379:0:0:0:0:
192,192,65460,1,0,0:0:0:0:
448,192,65460,128,0,66028:0:0:0:0:
64,192,65460,1,0,0:0:0:0:
192,192,65785,128,0,66028:0:0:0:0:
64,192,65785,1,0,0:0:0:0:
320,192,65947,1,0,0:0:0:0:
64,192,65947,128,0,66028:0:0:0:0:
448,192,66109,1,0,0:0:0:0:
320,192,66109,128,0,66190:0:0:0:0:
64,192,66109,128,0,66352:0:0:0:0:
192,192,66271,1,0,0:0:0:0:
448,192,66271,128,0,66352:0:0:0:0:
192,192,66433,128,0,66514:0:0:0:0:
320,192,66433,1,0,0:0:0:0:
64,192,66595,128,0,66676:0:0:0:0:
192,192,66595,1,0,0:0:0:0:
448,192,66595,128,0,66920:0:0:0:0:
192,192,66757,128,0,67082:0:0:0:0:
64,192,66920,5,0,0:0:0:0:
320,192,66920,1,0,0:0:0:0:
448,192,67082,128,0,67406:0:0:0:0:
320,192,67082,128,0,67163:0:0:0:0:
64,192,67244,128,0,67325:0:0:0:0:
192,192,67244,1,0,0:0:0:0:
320,192,67244,1,0,0:0:0:0:
320,192,67406,128,0,67568:0:0:0:0:
64,192,67406,128,0,67893:0:0:0:0:
192,192,67568,128,0,67649:0:0:0:0:
448,192,67568,1,0,0:0:0:0:
320,192,67730,128,0,67893:0:0:0:0:
192,192,67730,1,0,0:0:0:0:
448,192,67893,1,0,0:0:0:0:
192,192,67893,128,0,68055:0:0:0:0:
448,192,68055,5,0,0:0:0:0:
64,192,68055,1,0,0:0:0:0:
192,192,68136,1,0,0:0:0:0:
320,192,68217,1,0,0:0:0:0:
448,192,68217,1,0,0:0:0:0:
64,192,68298,1,0,0:0:0:0:
192,192,68379,1,0,0:0:0:0:
320,192,68379,1,0,0:0:0:0:
448,192,68460,1,0,0:0:0:0:
64,192,68541,1,0,0:0:0:0:
192,192,68541,1,0,0:0:0:0:
320,192,68622,1,0,0:0:0:0:
448,192,68703,1,0,0:0:0:0:
64,192,68703,1,0,0:0:0:0:
320,192,68785,1,0,0:0:0:0:
64,192,68866,1,0,0:0:0:0:
192,192,68866,1,0,0:0:0:0:
448,192,68947,1,0,0:0:0:0:
192,192,69028,1,0,0:0:0:0:
320,192,69028,1,0,0:0:0:0:
64,192,69109,1,0,0:0:0:0:
320,192,69190,1,0,0:0:0:0:
448,192,69190,1,0,0:0:0:0:
192,192,69271,1,0,0:0:0:0:
64,192,69352,128,0,69595:0:0:0:0:
320,192,69352,1,0,0:0:0:0:
448,192,69352,1,0,0:0:0:0:
192,192,69433,128,0,69676:0:0:0:0:
448,192,69514,1,0,0:0:0:0:
320,192,69514,128,0,69757:0:0:0:0:
448,192,69595,128,0,69839:0:0:0:0:
64,192,69676,128,0,70001:0:0:0:0:
192,192,69757,128,0,69920:0:0:0:0:
320,192,69839,128,0,70163:0:0:0:0:
448,192,69920,128,0,70082:0:0:0:0:
192,192,70001,128,0,70244:0:0:0:0:
64,192,70082,128,0,70325:0:0:0:0:
448,192,70163,128,0,70406:0:0:0:0:
320,192,70244,128,0,70487:0:0:0:0:
192,192,70325,128,0,70568:0:0:0:0:
64,192,70406,128,0,70730:0:0:0:0:
448,192,70487,128,0,70649:0:0:0:0:
320,192,70568,128,0,70730:0:0:0:0:
192,192,70649,128,0,70730:0:0:0:0:
448,192,70730,1,0,0:0:0:0:
64,192,70812,1,0,0:0:0:0:
192,192,70812,1,0,0:0:0:0:
448,192,70812,128,0,70893:0:0:0:0:
320,192,70893,128,0,70974:0:0:0:0:
192,192,70974,128,0,71055:0:0:0:0:
64,192,71055,128,0,71136:0:0:0:0:
448,192,71136,1,0,0:0:0:0:
320,192,71136,1,0,0:0:0:0:
192,192,71136,128,0,71217:0:0:0:0:
448,192,71217,128,0,71298:0:0:0:0:
320,192,71298,128,0,71379:0:0:0:0:
64,192,71298,128,0,71379:0:0:0:0:
192,192,71379,128,0,71460:0:0:0:0:
448,192,71460,1,0,0:0:0:0:
64,192,71460,1,0,0:0:0:0:
320,192,71460,128,0,71541:0:0:0:0:
64,192,71541,128,0,71622:0:0:0:0:
320,192,71622,128,0,71703:0:0:0:0:
448,192,71703,128,0,71785:0:0:0:0:
192,192,71785,1,0,0:0:0:0:
64,192,71785,1,0,0:0:0:0:
320,192,71785,128,0,71866:0:0:0:0:
64,192,71866,128,0,71947:0:0:0:0:
192,192,71947,128,0,72028:0:0:0:0:
320,192,72028,128,0,72109:0:0:0:0:
64,192,72109,1,0,0:0:0:0:
192,192,72109,1,0,0:0:0:0:
448,192,72109,128,0,72190:0:0:0:0:
320,192,72190,128,0,72271:0:0:0:0:
192,192,72271,128,0,72352:0:0:0:0:
64,192,72352,128,0,72433:0:0:0:0:
448,192,72433,128,0,72514:0:0:0:0:
192,192,72433,1,0,0:0:0:0:
320,192,72433,1,0,0:0:0:0:
320,192,72514,128,0,72595:0:0:0:0:
192,192,72595,128,0,72676:0:0:0:0:
448,192,72676,128,0,72757:0:0:0:0:
320,192,72757,1,0,0:0:0:0:
192,192,72757,1,0,0:0:0:0:
64,192,72757,128,0,72839:0:0:0:0:
320,192,72839,128,0,72920:0:0:0:0:
192,192,72920,128,0,73001:0:0:0:0:
64,192,73001,128,0,73082:0:0:0:0:
448,192,73082,128,0,73163:0:0:0:0:
192,192,73082,1,0,0:0:0:0:
320,192,73082,1,0,0:0:0:0:
192,192,73163,128,0,73244:0:0:0:0:
320,192,73244,128,0,73325:0:0:0:0:
192,192,73325,128,0,73406:0:0:0:0:
448,192,73406,1,0,0:0:0:0:
320,192,73406,1,0,0:0:0:0:
64,192,73406,128,0,73487:0:0:0:0:
192,192,73487,128,0,73568:0:0:0:0:
320,192,73568,128,0,73649:0:0:0:0:
448,192,73649,128,0,73730:0:0:0:0:
320,192,73730,128,0,73812:0:0:0:0:
64,192,73730,1,0,0:0:0:0:
192,192,73730,1,0,0:0:0:0:
64,192,73812,128,0,73893:0:0:0:0:
192,192,73893,128,0,73974:0:0:0:0:
448,192,73893,128,0,73974:0:0:0:0:
320,192,73974,128,0,74055:0:0:0:0:
448,192,74055,1,0,0:0:0:0:
64,192,74055,128,0,74136:0:0:0:0:
192,192,74055,1,0,0:0:0:0:
448,192,74136,128,0,74217:0:0:0:0:
192,192,74217,128,0,74298:0:0:0:0:
64,192,74298,128,0,74379:0:0:0:0:
320,192,74379,1,0,0:0:0:0:
448,192,74379,1,0,0:0:0:0:
192,192,74379,128,0,74460:0:0:0:0:
448,192,74460,128,0,74541:0:0:0:0:
320,192,74541,128,0,74622:0:0:0:0:
192,192,74622,128,0,74703:0:0:0:0:
64,192,74703,128,0,74785:0:0:0:0:
448,192,74703,128,0,74785:0:0:0:0:
320,192,74703,1,0,0:0:0:0:
192,192,74785,128,0,74866:0:0:0:0:
320,192,74866,128,0,74947:0:0:0:0:
448,192,74947,128,0,75028:0:0:0:0:
64,192,75028,128,0,75109:0:0:0:0:
192,192,75028,1,0,0:0:0:0:
320,192,75028,1,0,0:0:0:0:
192,192,75109,128,0,75190:0:0:0:0:
320,192,75190,128,0,75271:0:0:0:0:
64,192,75271,128,0,75352:0:0:0:0:
448,192,75352,128,0,75433:0:0:0:0:
320,192,75352,1,0,0:0:0:0:
192,192,75352,1,0,0:0:0:0:
64,192,75433,128,0,75514:0:0:0:0:
320,192,75514,128,0,75595:0:0:0:0:
448,192,75595,128,0,75676:0:0:0:0:
64,192,75595,1,0,0:0:0:0:
192,192,75676,128,0,75839:0:0:0:0:
320,192,75676,1,0,0:0:0:0:
320,192,75839,1,0,0:0:0:0:
448,192,75839,1,0,0:0:0:0:
64,192,75839,1,0,0:0:0:0:
192,192,75920,1,0,0:0:0:0:
320,192,76001,1,0,0:0:0:0:
448,192,76001,1,0,0:0:0:0:
64,192,76001,128,0,76325:0:0:0:0:
192,192,76163,128,0,76325:0:0:0:0:
320,192,76325,128,0,76406:0:0:0:0:
448,192,76325,128,0,76406:0:0:0:0:
448,192,76487,128,0,76812:0:0:0:0:
192,192,76487,1,0,0:0:0:0:
192,192,76649,128,0,76730:0:0:0:0:
64,192,76649,1,0,0:0:0:0:
320,192,76649,1,0,0:0:0:0:
192,192,76812,128,0,77055:0:0:0:0:
320,192,76812,1,0,0:0:0:0:
448,192,76974,128,0,77055:0:0:0:0:
64,192,76974,1,0,0:0:0:0:
320,192,76974,1,0,0:0:0:0:
64,192,77136,1,0,0:0:0:0:
320,192,77136,1,0,0:0:0:0:
192,192,77136,128,0,77298:0:0:0:0:
448,192,77298,128,0,77622:0:0:0:0:
320,192,77298,1,0,0:0:0:0:
64,192,77298,128,0,77379:0:0:0:0:
192,192,77622,128,0,77703:0:0:0:0:
64,192,77622,128,0,78028:0:0:0:0:
320,192,77622,1,0,0:0:0:0:
192,192,77785,128,0,77866:0:0:0:0:
448,192,77785,128,0,77866:0:0:0:0:
448,192,77947,128,0,78352:0:0:0:0:
192,192,77947,1,0,0:0:0:0:
320,192,77947,128,0,78028:0:0:0:0:
192,192,78109,128,0,78190:0:0:0:0:
64,192,78109,128,0,78514:0:0:0:0:
320,192,78109,1,0,0:0:0:0:
320,192,78271,128,0,78514:0:0:0:0:
192,192,78271,1,0,0:0:0:0:
192,192,78433,128,0,78514:0:0:0:0:
448,192,78433,128,0,78514:0:0:0:0:
64,192,78595,1,0,0:0:0:0:
192,192,78595,128,0,79244:0:0:0:0:
320,192,78595,1,0,0:0:0:0:
320,192,78920,1,0,0:0:0:0:
448,192,78920,1,0,0:0:0:0:
64,192,79082,1,0,0:0:0:0:
320,192,79082,1,0,0:0:0:0:
448,192,79244,128,0,79812:0:0:0:0:
64,192,79568,128,0,79812:0:0:0:0:
192,192,79568,128,0,79812:0:0:0:0:
320,192,79568,128,0,79812:0:0:0:0:
320,192,79893,1,0,0:0:0:0:
64,192,79893,1,0,0:0:0:0:
192,192,80055,1,0,0:0:0:0:
320,192,80055,1,0,0:0:0:0:
192,192,80217,1,0,0:0:0:0:
448,192,80217,1,0,0:0:0:0:
64,192,80379,1,0,0:0:0:0:
192,192,80379,1,0,0:0:0:0:
320,192,80460,1,0,0:0:0:0:
448,192,80460,1,0,0:0:0:0:
64,192,80541,1,0,0:0:0:0:
192,192,80582,1,0,0:0:0:0:
320,192,80622,1,0,0:0:0:0:
448,192,80663,1,0,0:0:0:0:
64,192,80703,1,0,0:0:0:0:
192,192,80744,1,0,0:0:0:0:
320,192,80785,1,0,0:0:0:0:
448,192,80825,1,0,0:0:0:0:
64,192,80866,1,0,0:0:0:0:
192,192,80906,1,0,0:0:0:0:
320,192,80947,1,0,0:0:0:0:
448,192,80987,1,0,0:0:0:0:
64,192,81028,1,0,0:0:0:0:
192,192,81109,1,0,0:0:0:0:
320,192,81190,1,0,0:0:0:0:
448,192,81190,1,0,0:0:0:0:
64,192,81190,128,0,81514:0:0:0:0:
320,192,81352,1,0,0:0:0:0:
448,192,81352,128,0,81514:0:0:0:0:
320,192,81514,128,0,81676:0:0:0:0:
64,192,81676,128,0,81839:0:0:0:0:
448,192,81676,1,0,0:0:0:0:
192,192,82001,1,0,0:0:0:0:
448,192,82001,128,0,82163:0:0:0:0:
64,192,82163,1,0,0:0:0:0:
192,192,82163,1,0,0:0:0:0:
64,192,82325,128,0,82649:0:0:0:0:
320,192,82325,1,0,0:0:0:0:
448,192,82649,128,0,82974:0:0:0:0:
320,192,82649,1,0,0:0:0:0:
64,192,82812,1,0,0:0:0:0:
192,192,82812,1,0,0:0:0:0:
192,192,82974,128,0,83298:0:0:0:0:
64,192,82974,1,0,0:0:0:0:
448,192,83298,128,0,83379:0:0:0:0:
64,192,83298,128,0,83379:0:0:0:0:
448,192,83460,1,0,0:0:0:0:
320,192,83541,1,0,0:0:0:0:
192,192,83622,1,0,0:0:0:0:
64,192,83622,128,0,84514:0:0:0:0:
448,192,83947,128,0,84352:0:0:0:0:
320,192,84109,128,0,84352:0:0:0:0:
192,192,84109,1,0,0:0:0:0:
192,192,84271,128,0,84676:0:0:0:0:
448,192,84433,128,0,84676:0:0:0:0:
320,192,84433,128,0,84676:0:0:0:0:
64,192,84595,128,0,84757:0:0:0:0:
192,192,84757,128,0,85163:0:0:0:0:
448,192,84757,128,0,85163:0:0:0:0:
320,192,84757,1,0,0:0:0:0:
64,192,85082,1,0,0:0:0:0:
320,192,85082,1,0,0:0:0:0:
192,192,85244,1,0,0:0:0:0:
448,192,85244,1,0,0:0:0:0:
64,192,85406,1,0,0:0:0:0:
320,192,85406,1,0,0:0:0:0:
192,192,85568,1,0,0:0:0:0:
320,192,85568,1,0,0:0:0:0:
320,192,85730,1,0,0:0:0:0:
448,192,85730,1,0,0:0:0:0:
448,192,85893,1,0,0:0:0:0:
320,192,85893,128,0,86055:0:0:0:0:
192,192,85893,128,0,86055:0:0:0:0:
64,192,85893,128,0,86298:0:0:0:0:
320,192,86379,128,0,86541:0:0:0:0:
192,192,86379,128,0,86541:0:0:0:0:
448,192,86379,128,0,86703:0:0:0:0:
64,192,86379,1,0,0:0:0:0:
64,192,86703,1,0,0:0:0:0:
192,192,86703,1,0,0:0:0:0:
192,192,86866,1,0,0:0:0:0:
448,192,86866,1,0,0:0:0:0:
320,192,86947,1,0,0:0:0:0:
192,192,87028,1,0,0:0:0:0:
448,192,87028,1,0,0:0:0:0:
64,192,87190,1,0,0:0:0:0:
192,192,87352,1,0,0:0:0:0:
192,192,87514,1,0,0:0:0:0:
448,192,87514,1,0,0:0:0:0:
64,192,87514,128,0,87676:0:0:0:0:
320,192,87514,128,0,87676:0:0:0:0:
448,192,87839,128,0,88001:0:0:0:0:
192,192,87839,128,0,88001:0:0:0:0:
320,192,87839,1,0,0:0:0:0:
64,192,88163,128,0,88244:0:0:0:0:
192,192,88244,128,0,88325:0:0:0:0:
64,192,88325,128,0,88406:0:0:0:0:
192,192,88406,128,0,88487:0:0:0:0:
320,192,88487,128,0,88568:0:0:0:0:
64,192,88487,1,0,0:0:0:0:
192,192,88568,1,0,0:0:0:0:
448,192,88568,128,0,88649:0:0:0:0:
320,192,88649,1,0,0:0:0:0:
64,192,88649,128,0,88812:0:0:0:0:
448,192,88812,128,0,89136:0:0:0:0:
320,192,88812,1,0,0:0:0:0:
64,192,89136,128,0,89217:0:0:0:0:
320,192,89136,1,0,0:0:0:0:
192,192,89298,128,0,89379:0:0:0:0:
320,192,89298,1,0,0:0:0:0:
448,192,89298,1,0,0:0:0:0:
320,192,89460,128,0,89541:0:0:0:0:
448,192,89622,128,0,89703:0:0:0:0:
64,192,89622,1,0,0:0:0:0:
320,192,89622,1,0,0:0:0:0:
320,192,89785,1,0,0:0:0:0:
64,192,89785,128,0,89866:0:0:0:0:
320,192,89947,128,0,90028:0:0:0:0:
448,192,89947,1,0,0:0:0:0:
64,192,89947,1,0,0:0:0:0:
192,192,89947,1,0,0:0:0:0:
448,192,90109,1,0,0:0:0:0:
192,192,90109,128,0,90271:0:0:0:0:
64,192,90109,1,0,0:0:0:0:
448,192,90433,1,0,0:0:0:0:
64,192,90433,128,0,90595:0:0:0:0:
320,192,90595,1,0,0:0:0:0:
192,192,90595,1,0,0:0:0:0:
448,192,90595,1,0,0:0:0:0:
192,192,90757,128,0,91082:0:0:0:0:
64,192,90757,128,0,91082:0:0:0:0:
448,192,91082,1,0,0:0:0:0:
320,192,91082,1,0,0:0:0:0:
320,192,91244,1,0,0:0:0:0:
448,192,91244,1,0,0:0:0:0:
64,192,91244,128,0,91325:0:0:0:0:
320,192,91406,128,0,91730:0:0:0:0:
192,192,91406,1,0,0:0:0:0:
64,192,91730,128,0,91893:0:0:0:0:
448,192,91730,1,0,0:0:0:0:
320,192,91893,128,0,92055:0:0:0:0:
192,192,91893,1,0,0:0:0:0:
448,192,92055,128,0,92217:0:0:0:0:
192,192,92217,128,0,92379:0:0:0:0:
64,192,92217,1,0,0:0:0:0:
320,192,92379,128,0,92541:0:0:0:0:
448,192,92379,1,0,0:0:0:0:
448,192,92541,128,0,92703:0:0:0:0:
64,192,92541,1,0,0:0:0:0:
192,192,92541,1,0,0:0:0:0:
64,192,92703,128,0,93028:0:0:0:0:
320,192,92703,1,0,0:0:0:0:
448,192,92866,1,0,0:0:0:0:
192,192,92866,1,0,0:0:0:0:
448,192,93028,128,0,93190:0:0:0:0:
320,192,93028,1,0,0:0:0:0:
320,192,93190,1,0,0:0:0:0:
192,192,93190,128,0,93352:0:0:0:0:
64,192,93190,1,0,0:0:0:0:
64,192,93352,128,0,93514:0:0:0:0:
320,192,93352,1,0,0:0:0:0:
448,192,93433,1,0,0:0:0:0:
320,192,93514,128,0,93676:0:0:0:0:
192,192,93514,1,0,0:0:0:0:
192,192,93676,128,0,93839:0:0:0:0:
64,192,93676,1,0,0:0:0:0:
448,192,93676,1,0,0:0:0:0:
320,192,93757,1,0,0:0:0:0:
64,192,93839,128,0,94001:0:0:0:0:
448,192,93839,1,0,0:0:0:0:
192,192,94001,1,0,0:0:0:0:
320,192,94001,1,0,0:0:0:0:
448,192,94082,1,0,0:0:0:0:
64,192,94082,1,0,0:0:0:0:
320,192,94163,1,0,0:0:0:0:
192,192,94163,1,0,0:0:0:0:
64,192,94163,128,0,94487:0:0:0:0:
192,192,94325,128,0,94406:0:0:0:0:
320,192,94325,128,0,94406:0:0:0:0:
448,192,94487,128,0,94730:0:0:0:0:
320,192,94487,1,0,0:0:0:0:
192,192,94649,128,0,94730:0:0:0:0:
64,192,94649,128,0,94730:0:0:0:0:
192,192,94812,1,0,0:0:0:0:
320,192,94812,1,0,0:0:0:0:
448,192,94812,1,0,0:0:0:0:
320,192,94974,128,0,95055:0:0:0:0:
448,192,94974,128,0,95055:0:0:0:0:
64,192,94974,128,0,95298:0:0:0:0:
448,192,95136,1,0,0:0:0:0:
320,192,95136,1,0,0:0:0:0:
192,192,95136,1,0,0:0:0:0:
320,192,95298,128,0,95622:0:0:0:0:
448,192,95298,128,0,95622:0:0:0:0:
64,192,95622,128,0,95785:0:0:0:0:
192,192,95622,1,0,0:0:0:0:
320,192,95785,1,0,0:0:0:0:
448,192,95785,128,0,95947:0:0:0:0:
192,192,95947,128,0,96271:0:0:0:0:
64,192,96271,128,0,96352:0:0:0:0:
448,192,96271,1,0,0:0:0:0:
320,192,96271,1,0,0:0:0:0:
64,192,96433,1,0,0:0:0:0:
448,192,96433,128,0,96514:0:0:0:0:
320,192,96433,1,0,0:0:0:0:
64,192,96595,1,0,0:0:0:0:
192,192,96676,1,0,0:0:0:0:
64,192,96757,128,0,96839:0:0:0:0:
320,192,96757,1,0,0:0:0:0:
448,192,96757,1,0,0:0:0:0:
320,192,96920,128,0,97001:0:0:0:0:
64,192,97082,128,0,97163:0:0:0:0:
192,192,97082,1,0,0:0:0:0:
320,192,97082,1,0,0:0:0:0:
448,192,97082,1,0,0:0:0:0:
192,192,97244,128,0,97325:0:0:0:0:
64,192,97406,128,0,97568:0:0:0:0:
320,192,97406,1,0,0:0:0:0:
448,192,97406,1,0,0:0:0:0:
192,192,97568,128,0,97730:0:0:0:0:
64,192,97730,1,0,0:0:0:0:
448,192,97730,1,0,0:0:0:0:
320,192,97730,128,0,97893:0:0:0:0:
448,192,97893,128,0,98055:0:0:0:0:
192,192,97893,1,0,0:0:0:0:
320,192,98055,128,0,98136:0:0:0:0:
64,192,98055,1,0,0:0:0:0:
192,192,98055,1,0,0:0:0:0:
192,192,98217,128,0,98298:0:0:0:0:
320,192,98379,128,0,98460:0:0:0:0:
64,192,98379,1,0,0:0:0:0:
192,192,98379,1,0,0:0:0:0:
448,192,98379,1,0,0:0:0:0:
64,192,98541,128,0,98622:0:0:0:0:
448,192,98703,128,0,98866:0:0:0:0:
320,192,98703,1,0,0:0:0:0:
64,192,98703,1,0,0:0:0:0:
320,192,98866,128,0,99028:0:0:0:0:
192,192,99028,128,0,99190:0:0:0:0:
64,192,99028,1,0,0:0:0:0:
448,192,99028,1,0,0:0:0:0:
64,192,99190,128,0,99352:0:0:0:0:
448,192,99190,128,0,99514:0:0:0:0:
320,192,99190,1,0,0:0:0:0:
64,192,99514,128,0,99595:0:0:0:0:
192,192,99514,1,0,0:0:0:0:
192,192,99676,128,0,99757:0:0:0:0:
320,192,99676,1,0,0:0:0:0:
448,192,99676,1,0,0:0:0:0:
64,192,99676,1,0,0:0:0:0:
320,192,99839,128,0,99920:0:0:0:0:
64,192,100001,128,0,100163:0:0:0:0:
192,192,100001,1,0,0:0:0:0:
448,192,100001,1,0,0:0:0:0:
320,192,100163,128,0,100325:0:0:0:0:
448,192,100325,1,0,0:0:0:0:
64,192,100325,128,0,100487:0:0:0:0:
192,192,100325,1,0,0:0:0:0:
448,192,100487,128,0,100649:0:0:0:0:
192,192,100649,128,0,100974:0:0:0:0:
64,192,100649,1,0,0:0:0:0:
320,192,100649,1,0,0:0:0:0:
448,192,100812,128,0,100974:0:0:0:0:
64,192,100974,1,0,0:0:0:0:
320,192,100974,128,0,101136:0:0:0:0:
64,192,101136,128,0,101460:0:0:0:0:
448,192,101136,1,0,0:0:0:0:
448,192,101298,1,0,0:0:0:0:
320,192,101298,128,0,101460:0:0:0:0:
448,192,101460,128,0,101622:0:0:0:0:
192,192,101460,1,0,0:0:0:0:
64,192,101622,128,0,101785:0:0:0:0:
192,192,101622,1,0,0:0:0:0:
320,192,101785,1,0,0:0:0:0:
448,192,101785,1,0,0:0:0:0:
192,192,101866,1,0,0:0:0:0:
64,192,101947,128,0,102028:0:0:0:0:
320,192,101947,1,0,0:0:0:0:
448,192,101947,1,0,0:0:0:0:
192,192,102109,128,0,102190:0:0:0:0:
320,192,102271,128,0,102352:0:0:0:0:
64,192,102271,1,0,0:0:0:0:
448,192,102271,1,0,0:0:0:0:
192,192,102271,1,0,0:0:0:0:
448,192,102433,128,0,102514:0:0:0:0:
192,192,102433,1,0,0:0:0:0:
192,192,102595,128,0,102676:0:0:0:0:
64,192,102595,1,0,0:0:0:0:
320,192,102595,1,0,0:0:0:0:
448,192,102595,1,0,0:0:0:0:
320,192,102757,128,0,102839:0:0:0:0:
64,192,102757,1,0,0:0:0:0:
448,192,102920,128,0,103001:0:0:0:0:
192,192,102920,1,0,0:0:0:0:
320,192,102920,1,0,0:0:0:0:
64,192,102920,1,0,0:0:0:0:
192,192,103082,128,0,103406:0:0:0:0:
448,192,103082,1,0,0:0:0:0:
320,192,103406,1,0,0:0:0:0:
64,192,103406,128,0,103487:0:0:0:0:
448,192,103406,128,0,103568:0:0:0:0:
192,192,103568,128,0,103730:0:0:0:0:
64,192,103568,1,0,0:0:0:0:
64,192,103730,128,0,103974:0:0:0:0:
320,192,103730,1,0,0:0:0:0:
448,192,103730,128,0,103812:0:0:0:0:
320,192,103893,128,0,103974:0:0:0:0:
64,192,104055,1,0,0:0:0:0:
192,192,104055,1,0,0:0:0:0:
192,192,104217,1,0,0:0:0:0:
320,192,104217,1,0,0:0:0:0:
448,192,104217,1,0,0:0:0:0:
64,192,104379,128,0,104541:0:0:0:0:
448,192,104379,1,0,0:0:0:0:
320,192,104460,1,0,0:0:0:0:
448,192,104541,128,0,104703:0:0:0:0:
192,192,104541,1,0,0:0:0:0:
320,192,104703,128,0,104866:0:0:0:0:
192,192,104866,128,0,105028:0:0:0:0:
64,192,104866,1,0,0:0:0:0:
448,192,104866,1,0,0:0:0:0:
64,192,105028,128,0,105190:0:0:0:0:
448,192,105028,1,0,0:0:0:0:
320,192,105190,128,0,105352:0:0:0:0:
192,192,105190,1,0,0:0:0:0:
448,192,105190,1,0,0:0:0:0:
448,192,105352,128,0,105433:0:0:0:0:
64,192,105352,1,0,0:0:0:0:
192,192,105514,128,0,105595:0:0:0:0:
320,192,105514,1,0,0:0:0:0:
448,192,105514,1,0,0:0:0:0:
320,192,105676,1,0,0:0:0:0:
448,192,105676,128,0,106001:0:0:0:0:
64,192,105676,1,0,0:0:0:0:
64,192,105839,1,0,0:0:0:0:
192,192,105839,1,0,0:0:0:0:
320,192,106001,1,0,0:0:0:0:
64,192,106001,128,0,106082:0:0:0:0:
320,192,106163,1,0,0:0:0:0:
192,192,106163,128,0,106325:0:0:0:0:
64,192,106163,1,0,0:0:0:0:
64,192,106325,128,0,106649:0:0:0:0:
448,192,106325,1,0,0:0:0:0:
320,192,106406,1,0,0:0:0:0:
192,192,106487,1,0,0:0:0:0:
192,192,106649,1,0,0:0:0:0:
448,192,106649,1,0,0:0:0:0:
192,192,106812,1,0,0:0:0:0:
448,192,106812,1,0,0:0:0:0:
64,192,106812,1,0,0:0:0:0:
320,192,106974,1,0,0:0:0:0:
64,192,106974,1,0,0:0:0:0:
192,192,106974,1,0,0:0:0:0:
64,192,107136,128,0,107217:0:0:0:0:
320,192,107136,1,0,0:0:0:0:
64,192,107352,128,0,107406:0:0:0:0:
192,192,107352,128,0,107406:0:0:0:0:
448,192,107460,128,0,107514:0:0:0:0:
320,192,107460,1,0,0:0:0:0:
64,192,107785,128,0,107839:0:0:0:0:
192,192,107785,1,0,0:0:0:0:
320,192,107785,128,0,107839:0:0:0:0:
64,192,108109,1,0,0:0:0:0:
192,192,108109,128,0,108271:0:0:0:0:
448,192,108109,1,0,0:0:0:0:
192,192,108433,1,0,0:0:0:0:
192,192,108541,1,0,0:0:0:0:
192,192,108649,1,0,0:0:0:0:
192,192,108757,1,0,0:0:0:0:
448,192,109082,128,0,109163:0:0:0:0:
192,192,109082,1,0,0:0:0:0:
448,192,109298,128,0,109352:0:0:0:0:
320,192,109298,128,0,109352:0:0:0:0:
192,192,109406,128,0,109487:0:0:0:0:
64,192,109406,1,0,0:0:0:0:
448,192,109730,128,0,109812:0:0:0:0:
320,192,109730,1,0,0:0:0:0:
448,192,110055,5,0,0:0:0:0:
320,192,110055,128,0,110217:0:0:0:0:
64,192,110379,128,0,110703:0:0:0:0:
320,192,110379,1,0,0:0:0:0:
320,192,110487,1,0,0:0:0:0:
320,192,110595,1,0,0:0:0:0:
320,192,110703,1,0,0:0:0:0:
192,192,111028,5,0,0:0:0:0:
64,192,111028,128,0,111514:0:0:0:0:
448,192,111352,128,0,111514:0:0:0:0:
320,192,111352,1,0,0:0:0:0:
192,192,111514,128,0,111676:0:0:0:0:
448,192,111676,128,0,111839:0:0:0:0:
320,192,111676,1,0,0:0:0:0:
64,192,111839,128,0,112001:0:0:0:0:
320,192,112001,1,0,0:0:0:0:
448,192,112001,128,0,112163:0:0:0:0:
192,192,112163,128,0,112325:0:0:0:0:
320,192,112325,1,0,0:0:0:0:
448,192,112325,128,0,112812:0:0:0:0:
64,192,112325,1,0,0:0:0:0:
64,192,112649,128,0,112812:0:0:0:0:
320,192,112649,1,0,0:0:0:0:
320,192,112812,128,0,112974:0:0:0:0:
192,192,112974,1,0,0:0:0:0:
64,192,112974,128,0,113136:0:0:0:0:
448,192,112974,1,0,0:0:0:0:
448,192,113136,128,0,113298:0:0:0:0:
192,192,113298,1,0,0:0:0:0:
64,192,113298,128,0,113460:0:0:0:0:
320,192,113298,128,0,113379:0:0:0:0:
448,192,113379,128,0,113460:0:0:0:0:
192,192,113460,128,0,113541:0:0:0:0:
320,192,113541,128,0,113622:0:0:0:0:
448,192,113622,128,0,114109:0:0:0:0:
64,192,113622,1,0,0:0:0:0:
320,192,113785,128,0,113866:0:0:0:0:
64,192,113785,1,0,0:0:0:0:
192,192,113947,1,0,0:0:0:0:
64,192,113947,1,0,0:0:0:0:
64,192,114109,128,0,114190:0:0:0:0:
320,192,114109,1,0,0:0:0:0:
192,192,114190,1,0,0:0:0:0:
448,192,114271,1,0,0:0:0:0:
320,192,114271,1,0,0:0:0:0:
64,192,114271,1,0,0:0:0:0:
320,192,114433,5,0,0:0:0:0:
192,192,114433,128,0,114514:0:0:0:0:
64,192,114433,1,0,0:0:0:0:
320,192,114595,1,0,0:0:0:0:
192,192,114595,128,0,114676:0:0:0:0:
448,192,114595,1,0,0:0:0:0:
64,192,114757,128,0,115001:0:0:0:0:
192,192,114757,128,0,115001:0:0:0:0:
320,192,114757,128,0,115001:0:0:0:0:
448,192,114757,128,0,115001:0:0:0:0:
64,192,115568,128,0,115730:0:0:0:0:
192,192,115730,1,0,0:0:0:0:
320,192,115730,1,0,0:0:0:0:
448,192,115730,1,0,0:0:0:0:
64,192,115893,1,0,0:0:0:0:
192,192,115893,1,0,0:0:0:0:
320,192,115893,1,0,0:0:0:0:
448,192,115893,1,0,0:0:0:0:
64,192,116055,128,0,116622:0:0:0:0:
448,192,116055,128,0,116379:0:0:0:0:
320,192,116055,1,0,0:0:0:0:
192,192,116055,128,0,116217:0:0:0:0:
320,192,116379,128,0,116622:0:0:0:0:
192,192,116541,1,0,0:0:0:0:
448,192,116541,128,0,116622:0:0:0:0:
64,192,116703,1,0,0:0:0:0:
448,192,116703,128,0,117028:0:0:0:0:
192,192,116703,128,0,116866:0:0:0:0:
320,192,116866,1,0,0:0:0:0:
64,192,116866,128,0,117109:0:0:0:0:
320,192,117028,128,0,117109:0:0:0:0:
192,192,117028,1,0,0:0:0:0:
64,192,117190,1,0,0:0:0:0:
320,192,117190,1,0,0:0:0:0:
448,192,117190,128,0,117271:0:0:0:0:
192,192,117190,128,0,117352:0:0:0:0:
448,192,117352,128,0,117676:0:0:0:0:
64,192,117352,128,0,117433:0:0:0:0:
64,192,117514,1,0,0:0:0:0:
320,192,117514,1,0,0:0:0:0:
192,192,117514,128,0,117595:0:0:0:0:
64,192,117676,128,0,118001:0:0:0:0:
192,192,117676,1,0,0:0:0:0:
448,192,117839,128,0,117920:0:0:0:0:
320,192,117839,1,0,0:0:0:0:
192,192,118001,128,0,118163:0:0:0:0:
320,192,118001,1,0,0:0:0:0:
448,192,118001,128,0,118325:0:0:0:0:
64,192,118163,128,0,118325:0:0:0:0:
320,192,118163,128,0,118244:0:0:0:0:
320,192,118325,1,0,0:0:0:0:
192,192,118325,128,0,118487:0:0:0:0:
320,192,118487,128,0,118649:0:0:0:0:
448,192,118487,1,0,0:0:0:0:
64,192,118487,1,0,0:0:0:0:
64,192,118649,5,0,0:0:0:0:
448,192,118649,128,0,118812:0:0:0:0:
320,192,118730,128,0,118812:0:0:0:0:
192,192,118812,1,0,0:0:0:0:
64,192,118812,128,0,118893:0:0:0:0:
448,192,118893,128,0,118974:0:0:0:0:
320,192,118974,128,0,119055:0:0:0:0:
192,192,118974,128,0,119055:0:0:0:0:
64,192,119055,128,0,119136:0:0:0:0:
448,192,119136,1,0,0:0:0:0:
320,192,119136,128,0,119298:0:0:0:0:
192,192,119217,128,0,119298:0:0:0:0:
64,192,119298,128,0,119460:0:0:0:0:
448,192,119298,128,0,119379:0:0:0:0:
192,192,119379,128,0,119460:0:0:0:0:
320,192,119460,1,0,0:0:0:0:
448,192,119460,128,0,119541:0:0:0:0:
64,192,119541,128,0,119622:0:0:0:0:
192,192,119622,128,0,119703:0:0:0:0:
320,192,119622,128,0,119785:0:0:0:0:
448,192,119703,128,0,119785:0:0:0:0:
64,192,119785,128,0,119866:0:0:0:0:
192,192,119785,1,0,0:0:0:0:
192,192,119866,128,0,119947:0:0:0:0:
448,192,119947,128,0,120028:0:0:0:0:
320,192,120028,128,0,120109:0:0:0:0:
448,192,120109,1,0,0:0:0:0:
64,192,120109,1,0,0:0:0:0:
192,192,120109,128,0,120190:0:0:0:0:
64,192,120190,128,0,120271:0:0:0:0:
448,192,120271,128,0,120352:0:0:0:0:
320,192,120352,128,0,120433:0:0:0:0:
192,192,120433,128,0,120514:0:0:0:0:
64,192,120433,1,0,0:0:0:0:
448,192,120433,1,0,0:0:0:0:
64,192,120514,128,0,120595:0:0:0:0:
320,192,120595,128,0,120676:0:0:0:0:
448,192,120676,128,0,120757:0:0:0:0:
320,192,120757,1,0,0:0:0:0:
192,192,120757,1,0,0:0:0:0:
64,192,120757,128,0,120839:0:0:0:0:
192,192,120839,128,0,120920:0:0:0:0:
320,192,120920,128,0,121001:0:0:0:0:
448,192,121001,128,0,121082:0:0:0:0:
320,192,121082,1,0,0:0:0:0:
192,192,121082,1,0,0:0:0:0:
64,192,121082,128,0,121163:0:0:0:0:
192,192,121163,128,0,121244:0:0:0:0:
320,192,121244,128,0,121325:0:0:0:0:
448,192,121325,1,0,0:0:0:0:
64,192,121325,1,0,0:0:0:0:
320,192,121406,1,0,0:0:0:0:
448,192,121406,1,0,0:0:0:0:
64,192,121406,128,0,121528:0:0:0:0:
192,192,121487,128,0,121609:0:0:0:0:
320,192,121568,128,0,121690:0:0:0:0:
64,192,121649,1,0,0:0:0:0:
448,192,121649,128,0,121730:0:0:0:0:
192,192,121730,1,0,0:0:0:0:
320,192,121812,1,0,0:0:0:0:
64,192,121812,128,0,122014:0:0:0:0:
448,192,121893,1,0,0:0:0:0:
192,192,121893,128,0,121933:0:0:0:0:
320,192,121974,1,0,0:0:0:0:
192,192,122055,1,0,0:0:0:0:
448,192,122055,128,0,122176:0:0:0:0:
64,192,122136,1,0,0:0:0:0:
320,192,122136,128,0,122257:0:0:0:0:
192,192,122217,128,0,122339:0:0:0:0:
448,192,122298,1,0,0:0:0:0:
64,192,122298,128,0,122379:0:0:0:0:
320,192,122379,1,0,0:0:0:0:
192,192,122460,1,0,0:0:0:0:
448,192,122460,128,0,122663:0:0:0:0:
64,192,122541,1,0,0:0:0:0:
320,192,122541,128,0,122582:0:0:0:0:
192,192,122622,1,0,0:0:0:0:
320,192,122703,1,0,0:0:0:0:
64,192,122703,128,0,122825:0:0:0:0:
448,192,122785,1,0,0:0:0:0:
192,192,122785,128,0,122906:0:0:0:0:
320,192,122866,128,0,122987:0:0:0:0:
64,192,122947,1,0,0:0:0:0:
448,192,122947,128,0,123028:0:0:0:0:
192,192,123028,1,0,0:0:0:0:
320,192,123109,1,0,0:0:0:0:
64,192,123109,128,0,123312:0:0:0:0:
448,192,123190,1,0,0:0:0:0:
192,192,123190,128,0,123230:0:0:0:0:
320,192,123271,1,0,0:0:0:0:
192,192,123352,1,0,0:0:0:0:
448,192,123352,128,0,123474:0:0:0:0:
64,192,123433,1,0,0:0:0:0:
320,192,123433,128,0,123555:0:0:0:0:
192,192,123514,128,0,123636:0:0:0:0:
448,192,123595,1,0,0:0:0:0:
64,192,123595,128,0,123676:0:0:0:0:
320,192,123676,1,0,0:0:0:0:
192,192,123757,1,0,0:0:0:0:
448,192,123757,128,0,123960:0:0:0:0:
64,192,123839,1,0,0:0:0:0:
320,192,123839,128,0,123879:0:0:0:0:
192,192,123920,1,0,0:0:0:0:
320,192,124001,1,0,0:0:0:0:
64,192,124001,128,0,124082:0:0:0:0:
448,192,124001,1,0,0:0:0:0:
192,192,124082,128,0,124163:0:0:0:0:
320,192,124163,128,0,124244:0:0:0:0:
448,192,124244,128,0,124325:0:0:0:0:
64,192,124325,1,0,0:0:0:0:
320,192,124325,1,0,0:0:0:0:
64,192,124487,1,0,0:0:0:0:
448,192,124487,1,0,0:0:0:0:
320,192,124568,1,0,0:0:0:0:
192,192,124568,1,0,0:0:0:0:
448,192,124649,1,0,0:0:0:0:
192,192,124649,1,0,0:0:0:0:
64,192,124649,1,0,0:0:0:0:
192,192,124812,1,0,0:0:0:0:
448,192,124812,128,0,124974:0:0:0:0:
64,192,124812,128,0,124893:0:0:0:0:
192,192,124974,1,0,0:0:0:0:
64,192,124974,1,0,0:0:0:0:
320,192,124974,1,0,0:0:0:0:
448,192,125136,1,0,0:0:0:0:
64,192,125136,1,0,0:0:0:0:
192,192,125136,128,0,125460:0:0:0:0:
320,192,125460,1,0,0:0:0:0:
448,192,125460,128,0,125703:0:0:0:0:
192,192,125622,1,0,0:0:0:0:
64,192,125622,128,0,126028:0:0:0:0:
320,192,125785,1,0,0:0:0:0:
448,192,125785,128,0,126028:0:0:0:0:
192,192,126109,1,0,0:0:0:0:
448,192,126109,1,0,0:0:0:0:
64,192,126109,128,0,126190:0:0:0:0:
320,192,126190,1,0,0:0:0:0:
64,192,126271,128,0,126352:0:0:0:0:
192,192,126271,1,0,0:0:0:0:
448,192,126271,1,0,0:0:0:0:
64,192,126433,128,0,127001:0:0:0:0:
448,192,126433,128,0,126757:0:0:0:0:
320,192,126433,1,0,0:0:0:0:
192,192,126433,128,0,126757:0:0:0:0:
192,192,126920,1,0,0:0:0:0:
448,192,126920,128,0,127001:0:0:0:0:
320,192,126920,1,0,0:0:0:0:
64,192,127082,1,0,0:0:0:0:
448,192,127082,128,0,127406:0:0:0:0:
192,192,127082,128,0,127244:0:0:0:0:
320,192,127244,1,0,0:0:0:0:
64,192,127244,128,0,127487:0:0:0:0:
320,192,127406,128,0,127487:0:0:0:0:
192,192,127406,1,0,0:0:0:0:
64,192,127568,1,0,0:0:0:0:
320,192,127568,1,0,0:0:0:0:
448,192,127568,128,0,127649:0:0:0:0:
192,192,127568,128,0,127730:0:0:0:0:
448,192,127730,128,0,128055:0:0:0:0:
64,192,127730,128,0,127812:0:0:0:0:
320,192,127893,1,0,0:0:0:0:
192,192,127893,128,0,127974:0:0:0:0:
64,192,127893,1,0,0:0:0:0:
64,192,128055,128,0,128379:0:0:0:0:
192,192,128055,1,0,0:0:0:0:
448,192,128217,128,0,128298:0:0:0:0:
320,192,128217,1,0,0:0:0:0:
192,192,128379,128,0,128541:0:0:0:0:
320,192,128379,1,0,0:0:0:0:
448,192,128379,128,0,128703:0:0:0:0:
320,192,128541,128,0,128622:0:0:0:0:
64,192,128541,1,0,0:0:0:0:
320,192,128703,1,0,0:0:0:0:
192,192,128703,128,0,128866:0:0:0:0:
320,192,128866,128,0,129028:0:0:0:0:
448,192,128866,1,0,0:0:0:0:
64,192,128866,1,0,0:0:0:0:
64,192,129028,5,0,0:0:0:0:
448,192,129028,128,0,129190:0:0:0:0:
320,192,129109,128,0,129433:0:0:0:0:
192,192,129190,128,0,129271:0:0:0:0:
64,192,129190,128,0,129352:0:0:0:0:
448,192,129271,128,0,129433:0:0:0:0:
192,192,129352,128,0,129514:0:0:0:0:
64,192,129433,128,0,129595:0:0:0:0:
448,192,129514,128,0,129757:0:0:0:0:
320,192,129514,128,0,129757:0:0:0:0:
192,192,129595,128,0,129676:0:0:0:0:
64,192,129676,128,0,129839:0:0:0:0:
192,192,129757,128,0,129920:0:0:0:0:
448,192,129839,128,0,130001:0:0:0:0:
320,192,129839,128,0,130082:0:0:0:0:
64,192,129920,128,0,130082:0:0:0:0:
192,192,130001,128,0,130163:0:0:0:0:
448,192,130082,128,0,130244:0:0:0:0:
320,192,130163,128,0,130325:0:0:0:0:
64,192,130163,128,0,130487:0:0:0:0:
192,192,130244,128,0,130406:0:0:0:0:
448,192,130325,128,0,130568:0:0:0:0:
320,192,130406,128,0,130649:0:0:0:0:
192,192,130487,128,0,130730:0:0:0:0:
64,192,130568,128,0,130812:0:0:0:0:
448,192,130649,128,0,130974:0:0:0:0:
320,192,130730,128,0,130893:0:0:0:0:
192,192,130812,128,0,131136:0:0:0:0:
64,192,130893,128,0,131055:0:0:0:0:
320,192,130974,128,0,131217:0:0:0:0:
448,192,131055,128,0,131298:0:0:0:0:
64,192,131136,128,0,131379:0:0:0:0:
192,192,131217,128,0,131379:0:0:0:0:
320,192,131298,128,0,131379:0:0:0:0:
448,192,131379,128,0,131460:0:0:0:0:
320,192,131460,1,0,0:0:0:0:
192,192,131460,1,0,0:0:0:0:
64,192,131460,128,0,131541:0:0:0:0:
192,192,131541,128,0,131622:0:0:0:0:
320,192,131622,128,0,131703:0:0:0:0:
448,192,131703,1,0,0:0:0:0:
64,192,131703,1,0,0:0:0:0:
448,192,131785,1,0,0:0:0:0:
320,192,131785,1,0,0:0:0:0:
64,192,131785,128,0,131866:0:0:0:0:
192,192,131866,128,0,131947:0:0:0:0:
320,192,131947,128,0,132028:0:0:0:0:
448,192,132028,128,0,132109:0:0:0:0:
64,192,132109,1,0,0:0:0:0:
192,192,132109,1,0,0:0:0:0:
320,192,132109,128,0,132190:0:0:0:0:
64,192,132190,128,0,132271:0:0:0:0:
192,192,132271,128,0,132352:0:0:0:0:
448,192,132271,128,0,132352:0:0:0:0:
320,192,132352,128,0,132433:0:0:0:0:
192,192,132433,128,0,132514:0:0:0:0:
64,192,132433,128,0,132514:0:0:0:0:
448,192,132433,1,0,0:0:0:0:
448,192,132514,128,0,132595:0:0:0:0:
192,192,132595,128,0,132676:0:0:0:0:
64,192,132676,128,0,132757:0:0:0:0:
320,192,132757,128,0,132839:0:0:0:0:
448,192,132757,1,0,0:0:0:0:
192,192,132757,1,0,0:0:0:0:
448,192,132839,128,0,132920:0:0:0:0:
320,192,132920,128,0,133001:0:0:0:0:
64,192,132920,1,0,0:0:0:0:
192,192,133001,128,0,133082:0:0:0:0:
64,192,133082,128,0,133163:0:0:0:0:
448,192,133082,128,0,133163:0:0:0:0:
320,192,133082,1,0,0:0:0:0:
192,192,133163,128,0,133244:0:0:0:0:
320,192,133244,128,0,133325:0:0:0:0:
448,192,133325,128,0,133406:0:0:0:0:
192,192,133406,128,0,133487:0:0:0:0:
64,192,133406,1,0,0:0:0:0:
320,192,133406,1,0,0:0:0:0:
64,192,133487,128,0,133568:0:0:0:0:
320,192,133568,128,0,133649:0:0:0:0:
448,192,133568,1,0,0:0:0:0:
64,192,133649,128,0,133730:0:0:0:0:
448,192,133730,128,0,133812:0:0:0:0:
192,192,133730,1,0,0:0:0:0:
320,192,133730,1,0,0:0:0:0:
192,192,133812,128,0,133893:0:0:0:0:
320,192,133893,128,0,133974:0:0:0:0:
64,192,133893,1,0,0:0:0:0:
448,192,133974,128,0,134055:0:0:0:0:
64,192,134055,128,0,134136:0:0:0:0:
320,192,134055,1,0,0:0:0:0:
192,192,134055,1,0,0:0:0:0:
320,192,134136,128,0,134217:0:0:0:0:
192,192,134217,128,0,134298:0:0:0:0:
448,192,134217,1,0,0:0:0:0:
320,192,134298,128,0,134379:0:0:0:0:
64,192,134379,1,0,0:0:0:0:
192,192,134379,1,0,0:0:0:0:
448,192,134379,128,0,134460:0:0:0:0:
320,192,134460,128,0,134541:0:0:0:0:
192,192,134541,128,0,134622:0:0:0:0:
64,192,134622,128,0,134703:0:0:0:0:
448,192,134703,128,0,134785:0:0:0:0:
320,192,134703,1,0,0:0:0:0:
192,192,134703,1,0,0:0:0:0:
320,192,134785,128,0,134866:0:0:0:0:
64,192,134866,128,0,134947:0:0:0:0:
192,192,134947,128,0,135028:0:0:0:0:
448,192,135028,128,0,135109:0:0:0:0:
64,192,135028,1,0,0:0:0:0:
320,192,135028,1,0,0:0:0:0:
64,192,135109,128,0,135190:0:0:0:0:
320,192,135190,128,0,135271:0:0:0:0:
192,192,135190,1,0,0:0:0:0:
448,192,135271,128,0,135352:0:0:0:0:
320,192,135352,128,0,135433:0:0:0:0:
64,192,135352,1,0,0:0:0:0:
192,192,135352,1,0,0:0:0:0:
64,192,135433,128,0,135514:0:0:0:0:
192,192,135514,128,0,135595:0:0:0:0:
448,192,135514,1,0,0:0:0:0:
320,192,135595,128,0,135676:0:0:0:0:
448,192,135676,128,0,135757:0:0:0:0:
64,192,135676,128,0,135757:0:0:0:0:
192,192,135676,1,0,0:0:0:0:
320,192,135757,128,0,135839:0:0:0:0:
192,192,135839,128,0,135920:0:0:0:0:
448,192,135839,1,0,0:0:0:0:
64,192,135920,128,0,136001:0:0:0:0:
448,192,136001,128,0,136082:0:0:0:0:
320,192,136001,128,0,136082:0:0:0:0:
192,192,136001,1,0,0:0:0:0:
64,192,136082,128,0,136163:0:0:0:0:
192,192,136163,128,0,136244:0:0:0:0:
320,192,136163,1,0,0:0:0:0:
448,192,136244,128,0,136325:0:0:0:0:
320,192,136325,128,0,136406:0:0:0:0:
64,192,136325,128,0,136406:0:0:0:0:
192,192,136325,128,0,136406:0:0:0:0:
448,192,136406,128,0,136487:0:0:0:0:
192,192,136487,128,0,136568:0:0:0:0:
64,192,136568,128,0,136649:0:0:0:0:
448,192,136568,1,0,0:0:0:0:
320,192,136649,128,0,136812:0:0:0:0:
192,192,136649,1,0,0:0:0:0:
448,192,136812,1,0,0:0:0:0:
192,192,136812,1,0,0:0:0:0:
64,192,136812,1,0,0:0:0:0:
320,192,136893,1,0,0:0:0:0:
192,192,136974,1,0,0:0:0:0:
64,192,136974,1,0,0:0:0:0:
448,192,136974,128,0,137298:0:0:0:0:
320,192,137136,128,0,137298:0:0:0:0:
192,192,137298,128,0,137379:0:0:0:0:
64,192,137298,128,0,137379:0:0:0:0:
64,192,137460,128,0,137785:0:0:0:0:
320,192,137460,1,0,0:0:0:0:
320,192,137622,128,0,137703:0:0:0:0:
448,192,137622,1,0,0:0:0:0:
192,192,137622,1,0,0:0:0:0:
320,192,137785,128,0,138028:0:0:0:0:
192,192,137785,1,0,0:0:0:0:
192,192,137947,1,0,0:0:0:0:
64,192,137947,128,0,138028:0:0:0:0:
448,192,137947,1,0,0:0:0:0:
448,192,138109,1,0,0:0:0:0:
192,192,138109,1,0,0:0:0:0:
320,192,138109,128,0,138271:0:0:0:0:
64,192,138271,128,0,138595:0:0:0:0:
192,192,138271,1,0,0:0:0:0:
448,192,138271,128,0,138352:0:0:0:0:
320,192,138595,128,0,138676:0:0:0:0:
448,192,138595,128,0,139001:0:0:0:0:
192,192,138595,1,0,0:0:0:0:
320,192,138757,128,0,138839:0:0:0:0:
64,192,138757,128,0,138839:0:0:0:0:
192,192,138920,128,0,139001:0:0:0:0:
64,192,138920,128,0,139325:0:0:0:0:
320,192,138920,1,0,0:0:0:0:
320,192,139082,128,0,139163:0:0:0:0:
448,192,139082,128,0,139487:0:0:0:0:
192,192,139082,1,0,0:0:0:0:
192,192,139244,128,0,139487:0:0:0:0:
320,192,139244,1,0,0:0:0:0:
320,192,139406,128,0,139487:0:0:0:0:
64,192,139406,128,0,139487:0:0:0:0:
448,192,139568,1,0,0:0:0:0:
320,192,139568,128,0,140217:0:0:0:0:
192,192,139568,1,0,0:0:0:0:
192,192,139893,1,0,0:0:0:0:
64,192,139893,1,0,0:0:0:0:
448,192,140055,1,0,0:0:0:0:
192,192,140055,1,0,0:0:0:0:
64,192,140217,128,0,141514:0:0:0:0:
448,192,140541,128,0,141028:0:0:0:0:
320,192,140541,128,0,141028:0:0:0:0:
192,192,140541,128,0,141028:0:0:0:0:
192,192,141190,1,0,0:0:0:0:
320,192,141190,1,0,0:0:0:0:
448,192,141190,1,0,0:0:0:0:
448,192,141514,128,0,141676:0:0:0:0:
64,192,141676,1,0,0:0:0:0:
192,192,141676,1,0,0:0:0:0:
192,192,141839,1,0,0:0:0:0:
320,192,141839,1,0,0:0:0:0:
64,192,142163,1,0,0:0:0:0:
192,192,142163,1,0,0:0:0:0:
320,192,142163,1,0,0:0:0:0:
448,192,142163,1,0,0:0:0:0:
448,192,146866,1,0,0:0:0:0:
320,192,146947,1,0,0:0:0:0:
192,192,147028,1,0,0:0:0:0:
64,192,147028,1,0,0:0:0:0:
64,192,147352,128,0,147676:0:0:0:0:
320,192,147352,1,0,0:0:0:0:
448,192,147352,1,0,0:0:0:0:
192,192,147514,1,0,0:0:0:0:
320,192,147676,1,0,0:0:0:0:
448,192,147676,1,0,0:0:0:0:
192,192,147839,1,0,0:0:0:0:
64,192,148001,128,0,148325:0:0:0:0:
320,192,148001,1,0,0:0:0:0:
448,192,148001,1,0,0:0:0:0:
192,192,148163,1,0,0:0:0:0:
320,192,148325,1,0,0:0:0:0:
448,192,148325,1,0,0:0:0:0:
64,192,148487,128,0,148568:0:0:0:0:
448,192,148487,128,0,148568:0:0:0:0:
64,192,148649,128,0,148974:0:0:0:0:
192,192,148649,1,0,0:0:0:0:
320,192,148649,1,0,0:0:0:0:
320,192,148812,1,0,0:0:0:0:
192,192,148974,128,0,149298:0:0:0:0:
448,192,148974,1,0,0:0:0:0:
320,192,148974,1,0,0:0:0:0:
320,192,149136,1,0,0:0:0:0:
320,192,149298,128,0,149622:0:0:0:0:
64,192,149298,1,0,0:0:0:0:
448,192,149298,1,0,0:0:0:0:
448,192,149460,1,0,0:0:0:0:
64,192,149541,1,0,0:0:0:0:
192,192,149622,1,0,0:0:0:0:
448,192,149622,1,0,0:0:0:0:
64,192,149785,128,0,150190:0:0:0:0:
320,192,149785,128,0,150190:0:0:0:0:
192,192,150109,1,0,0:0:0:0:
448,192,150109,1,0,0:0:0:0:
64,192,150271,128,0,150433:0:0:0:0:
192,192,150271,128,0,150433:0:0:0:0:
320,192,150271,1,0,0:0:0:0:
448,192,150433,1,0,0:0:0:0:
192,192,150595,1,0,0:0:0:0:
320,192,150595,128,0,150757:0:0:0:0:
448,192,150595,128,0,150757:0:0:0:0:
64,192,150757,1,0,0:0:0:0:
192,192,150920,128,0,151082:0:0:0:0:
320,192,150920,128,0,151082:0:0:0:0:
448,192,150920,1,0,0:0:0:0:
64,192,151082,1,0,0:0:0:0:
320,192,151244,128,0,151406:0:0:0:0:
192,192,151244,128,0,151406:0:0:0:0:
64,192,151244,1,0,0:0:0:0:
448,192,151406,1,0,0:0:0:0:
64,192,151487,1,0,0:0:0:0:
192,192,151487,1,0,0:0:0:0:
448,192,151568,128,0,151649:0:0:0:0:
320,192,151609,128,0,151690:0:0:0:0:
192,192,151649,128,0,151730:0:0:0:0:
64,192,151690,128,0,151771:0:0:0:0:
448,192,151730,128,0,151812:0:0:0:0:
320,192,151771,128,0,151852:0:0:0:0:
192,192,151812,128,0,151893:0:0:0:0:
64,192,151852,128,0,151933:0:0:0:0:
320,192,151893,128,0,151974:0:0:0:0:
448,192,151933,128,0,152014:0:0:0:0:
64,192,151974,128,0,152055:0:0:0:0:
192,192,152014,128,0,152095:0:0:0:0:
320,192,152055,128,0,152136:0:0:0:0:
448,192,152095,128,0,152176:0:0:0:0:
64,192,152136,128,0,152217:0:0:0:0:
192,192,152176,128,0,152257:0:0:0:0:
320,192,152217,128,0,152298:0:0:0:0:
448,192,152257,128,0,152339:0:0:0:0:
64,192,152298,128,0,152379:0:0:0:0:
192,192,152339,128,0,152379:0:0:0:0:
448,192,152379,128,0,152866:0:0:0:0:
192,192,152703,1,0,0:0:0:0:
64,192,152866,128,0,153028:0:0:0:0:
192,192,152866,1,0,0:0:0:0:
320,192,152866,1,0,0:0:0:0:
192,192,153190,128,0,153352:0:0:0:0:
320,192,153190,1,0,0:0:0:0:
448,192,153190,1,0,0:0:0:0:
64,192,153352,1,0,0:0:0:0:
320,192,153514,128,0,153676:0:0:0:0:
192,192,153514,1,0,0:0:0:0:
448,192,153514,1,0,0:0:0:0:
448,192,153839,128,0,154001:0:0:0:0:
64,192,153839,1,0,0:0:0:0:
192,192,153839,1,0,0:0:0:0:
192,192,154001,1,0,0:0:0:0:
320,192,154001,1,0,0:0:0:0:
192,192,154163,128,0,154325:0:0:0:0:
448,192,154163,1,0,0:0:0:0:
64,192,154325,1,0,0:0:0:0:
320,192,154325,1,0,0:0:0:0:
64,192,154487,128,0,154568:0:0:0:0:
320,192,154487,1,0,0:0:0:0:
320,192,154649,128,0,154730:0:0:0:0:
64,192,154649,1,0,0:0:0:0:
448,192,154649,1,0,0:0:0:0:
64,192,154812,1,0,0:0:0:0:
192,192,154812,1,0,0:0:0:0:
192,192,154974,128,0,155460:0:0:0:0:
448,192,154974,1,0,0:0:0:0:
320,192,155136,1,0,0:0:0:0:
320,192,155298,1,0,0:0:0:0:
64,192,155298,1,0,0:0:0:0:
64,192,155460,1,0,0:0:0:0:
320,192,155460,1,0,0:0:0:0:
448,192,155460,1,0,0:0:0:0:
192,192,155622,128,0,155785:0:0:0:0:
320,192,155785,128,0,156433:0:0:0:0:
64,192,155785,1,0,0:0:0:0:
448,192,155785,1,0,0:0:0:0:
192,192,155947,1,0,0:0:0:0:
448,192,155947,1,0,0:0:0:0:
64,192,156109,1,0,0:0:0:0:
192,192,156109,1,0,0:0:0:0:
448,192,156109,1,0,0:0:0:0:
192,192,156271,128,0,156433:0:0:0:0:
64,192,156433,128,0,157082:0:0:0:0:
448,192,156433,1,0,0:0:0:0:
192,192,156595,1,0,0:0:0:0:
320,192,156595,1,0,0:0:0:0:
320,192,156757,1,0,0:0:0:0:
448,192,156757,1,0,0:0:0:0:
320,192,156920,1,0,0:0:0:0:
192,192,156920,1,0,0:0:0:0:
192,192,157082,128,0,157406:0:0:0:0:
448,192,157082,1,0,0:0:0:0:
320,192,157244,1,0,0:0:0:0:
64,192,157244,1,0,0:0:0:0:
320,192,157406,1,0,0:0:0:0:
448,192,157406,1,0,0:0:0:0:
320,192,157568,128,0,157893:0:0:0:0:
448,192,157568,128,0,157893:0:0:0:0:
64,192,157568,1,0,0:0:0:0:
192,192,157730,1,0,0:0:0:0:
64,192,157893,1,0,0:0:0:0:
64,192,158055,128,0,158217:0:0:0:0:
192,192,158055,128,0,158217:0:0:0:0:
320,192,158055,1,0,0:0:0:0:
448,192,158055,1,0,0:0:0:0:
320,192,158217,1,0,0:0:0:0:
448,192,158379,128,0,158541:0:0:0:0:
64,192,158379,1,0,0:0:0:0:
192,192,158379,1,0,0:0:0:0:
320,192,158379,128,0,158541:0:0:0:0:
64,192,158541,1,0,0:0:0:0:
192,192,158703,128,0,158866:0:0:0:0:
320,192,158703,1,0,0:0:0:0:
448,192,158703,1,0,0:0:0:0:
448,192,159028,128,0,159352:0:0:0:0:
64,192,159028,128,0,159190:0:0:0:0:
192,192,159028,1,0,0:0:0:0:
320,192,159028,1,0,0:0:0:0:
192,192,159190,1,0,0:0:0:0:
64,192,159352,128,0,159514:0:0:0:0:
192,192,159352,128,0,159514:0:0:0:0:
320,192,159352,1,0,0:0:0:0:
448,192,159514,1,0,0:0:0:0:
320,192,159514,1,0,0:0:0:0:
320,192,159676,128,0,159839:0:0:0:0:
448,192,159676,128,0,159839:0:0:0:0:
192,192,159676,1,0,0:0:0:0:
192,192,159839,128,0,160163:0:0:0:0:
64,192,159839,1,0,0:0:0:0:
320,192,160001,1,0,0:0:0:0:
448,192,160001,1,0,0:0:0:0:
448,192,160163,128,0,160649:0:0:0:0:
64,192,160163,1,0,0:0:0:0:
192,192,160325,1,0,0:0:0:0:
320,192,160487,1,0,0:0:0:0:
192,192,160487,1,0,0:0:0:0:
64,192,160649,1,0,0:0:0:0:
192,192,160649,1,0,0:0:0:0:
192,192,160812,128,0,160893:0:0:0:0:
320,192,160812,128,0,160893:0:0:0:0:
448,192,160812,128,0,160893:0:0:0:0:
64,192,160974,128,0,161298:0:0:0:0:
320,192,160974,1,0,0:0:0:0:
448,192,160974,1,0,0:0:0:0:
192,192,161136,1,0,0:0:0:0:
320,192,161136,1,0,0:0:0:0:
448,192,161298,128,0,161622:0:0:0:0:
320,192,161298,1,0,0:0:0:0:
64,192,161460,128,0,162271:0:0:0:0:
192,192,161460,1,0,0:0:0:0:
320,192,161622,1,0,0:0:0:0:
320,192,161785,1,0,0:0:0:0:
448,192,161785,1,0,0:0:0:0:
192,192,161947,128,0,162109:0:0:0:0:
320,192,161947,1,0,0:0:0:0:
448,192,162109,128,0,162271:0:0:0:0:
320,192,162109,1,0,0:0:0:0:
192,192,162271,128,0,162433:0:0:0:0:
320,192,162271,1,0,0:0:0:0:
448,192,162433,128,0,162514:0:0:0:0:
64,192,162433,128,0,162514:0:0:0:0:
320,192,162433,1,0,0:0:0:0:
320,192,162595,128,0,162676:0:0:0:0:
448,192,162595,128,0,162676:0:0:0:0:
64,192,162595,1,0,0:0:0:0:
64,192,162757,128,0,163082:0:0:0:0:
320,192,162757,1,0,0:0:0:0:
448,192,163082,128,0,163244:0:0:0:0:
320,192,163244,128,0,163406:0:0:0:0:
64,192,163244,1,0,0:0:0:0:
192,192,163406,128,0,163568:0:0:0:0:
64,192,163568,1,0,0:0:0:0:
448,192,163568,128,0,164055:0:0:0:0:
64,192,163730,128,0,163812:0:0:0:0:
192,192,163730,128,0,163812:0:0:0:0:
192,192,163893,128,0,163974:0:0:0:0:
320,192,163893,128,0,163974:0:0:0:0:
64,192,164055,128,0,164379:0:0:0:0:
320,192,164055,1,0,0:0:0:0:
448,192,164379,128,0,164541:0:0:0:0:
320,192,164379,1,0,0:0:0:0:
192,192,164541,128,0,164703:0:0:0:0:
64,192,164541,1,0,0:0:0:0:
448,192,164703,128,0,164866:0:0:0:0:
192,192,164866,128,0,165352:0:0:0:0:
64,192,164866,1,0,0:0:0:0:
448,192,165028,128,0,165190:0:0:0:0:
320,192,165028,1,0,0:0:0:0:
320,192,165190,128,0,165352:0:0:0:0:
64,192,165352,128,0,165676:0:0:0:0:
448,192,165352,1,0,0:0:0:0:
320,192,165676,128,0,165839:0:0:0:0:
192,192,165839,128,0,166001:0:0:0:0:
64,192,165839,1,0,0:0:0:0:
448,192,166001,128,0,166163:0:0:0:0:
320,192,166163,128,0,166325:0:0:0:0:
64,192,166163,1,0,0:0:0:0:
192,192,166163,1,0,0:0:0:0:
64,192,166325,128,0,166649:0:0:0:0:
448,192,166325,1,0,0:0:0:0:
320,192,166487,128,0,166649:0:0:0:0:
448,192,166649,128,0,166974:0:0:0:0:
192,192,166649,1,0,0:0:0:0:
64,192,166974,128,0,167136:0:0:0:0:
320,192,167136,128,0,167298:0:0:0:0:
448,192,167136,1,0,0:0:0:0:
192,192,167136,1,0,0:0:0:0:
448,192,167298,128,0,167460:0:0:0:0:
64,192,167460,1,0,0:0:0:0:
192,192,167460,1,0,0:0:0:0:
320,192,167622,1,0,0:0:0:0:
448,192,167622,1,0,0:0:0:0:
320,192,167785,1,0,0:0:0:0:
448,192,167785,1,0,0:0:0:0:
192,192,167947,128,0,169406:0:0:0:0:
64,192,167947,1,0,0:0:0:0:
320,192,168433,1,0,0:0:0:0:
448,192,168433,1,0,0:0:0:0:
64,192,168433,1,0,0:0:0:0:
320,192,168595,1,0,0:0:0:0:
448,192,168595,1,0,0:0:0:0:
64,192,168595,1,0,0:0:0:0:
320,192,168757,1,0,0:0:0:0:
448,192,168757,1,0,0:0:0:0:
64,192,168757,1,0,0:0:0:0:
320,192,168920,1,0,0:0:0:0:
448,192,168920,1,0,0:0:0:0:
64,192,168920,1,0,0:0:0:0:
320,192,169082,1,0,0:0:0:0:
448,192,169082,1,0,0:0:0:0:
64,192,169082,1,0,0:0:0:0:
320,192,169244,1,0,0:0:0:0:
448,192,169244,1,0,0:0:0:0:
64,192,169244,1,0,0:0:0:0:
64,192,169406,1,0,0:0:0:0:
320,192,169406,1,0,0:0:0:0:
448,192,169406,128,0,170055:0:0:0:0:
192,192,169568,1,0,0:0:0:0:
320,192,169568,1,0,0:0:0:0:
64,192,169568,1,0,0:0:0:0:
192,192,169730,1,0,0:0:0:0:
320,192,169730,1,0,0:0:0:0:
64,192,169893,1,0,0:0:0:0:
192,192,169893,1,0,0:0:0:0:
64,192,170055,128,0,170703:0:0:0:0:
192,192,170055,1,0,0:0:0:0:
320,192,170055,1,0,0:0:0:0:
320,192,170217,1,0,0:0:0:0:
448,192,170217,1,0,0:0:0:0:
192,192,170379,1,0,0:0:0:0:
320,192,170379,1,0,0:0:0:0:
448,192,170379,1,0,0:0:0:0:
320,192,170541,1,0,0:0:0:0:
448,192,170541,1,0,0:0:0:0:
448,192,170703,128,0,171676:0:0:0:0:
192,192,171028,128,0,171109:0:0:0:0:
64,192,171109,128,0,171190:0:0:0:0:
192,192,171190,128,0,171271:0:0:0:0:
320,192,171271,128,0,171352:0:0:0:0:
64,192,171352,128,0,171676:0:0:0:0:
192,192,171352,1,0,0:0:0:0:
192,192,171676,128,0,171757:0:0:0:0:
320,192,171757,128,0,171839:0:0:0:0:
192,192,171839,128,0,171920:0:0:0:0:
64,192,171920,128,0,172001:0:0:0:0:
320,192,172001,1,0,0:0:0:0:
448,192,172001,128,0,172325:0:0:0:0:
192,192,172325,128,0,172649:0:0:0:0:
64,192,172325,1,0,0:0:0:0:
448,192,172487,1,0,0:0:0:0:
320,192,172568,1,0,0:0:0:0:
64,192,172649,1,0,0:0:0:0:
448,192,172649,128,0,172812:0:0:0:0:
192,192,172812,128,0,172974:0:0:0:0:
320,192,172812,1,0,0:0:0:0:
64,192,172974,128,0,173136:0:0:0:0:
448,192,172974,1,0,0:0:0:0:
448,192,173136,128,0,174757:0:0:0:0:
192,192,173136,1,0,0:0:0:0:
64,192,173460,1,0,0:0:0:0:
320,192,173622,1,0,0:0:0:0:
64,192,173622,1,0,0:0:0:0:
64,192,173785,1,0,0:0:0:0:
192,192,173947,1,0,0:0:0:0:
320,192,173947,1,0,0:0:0:0:
64,192,174109,1,0,0:0:0:0:
64,192,174271,1,0,0:0:0:0:
192,192,174271,1,0,0:0:0:0:
320,192,174433,1,0,0:0:0:0:
64,192,174595,1,0,0:0:0:0:
192,192,174595,1,0,0:0:0:0:
64,192,174757,128,0,175082:0:0:0:0:
320,192,174757,1,0,0:0:0:0:
320,192,174920,1,0,0:0:0:0:
448,192,174920,1,0,0:0:0:0:
192,192,175082,128,0,175244:0:0:0:0:
320,192,175244,128,0,175568:0:0:0:0:
64,192,175244,1,0,0:0:0:0:
448,192,175244,1,0,0:0:0:0:
448,192,175406,1,0,0:0:0:0:
448,192,175568,128,0,175730:0:0:0:0:
64,192,175568,1,0,0:0:0:0:
192,192,175568,1,0,0:0:0:0:
192,192,175730,128,0,175893:0:0:0:0:
64,192,175893,128,0,176217:0:0:0:0:
448,192,175893,1,0,0:0:0:0:
192,192,176055,1,0,0:0:0:0:
320,192,176217,128,0,176379:0:0:0:0:
448,192,176217,1,0,0:0:0:0:
192,192,176217,1,0,0:0:0:0:
448,192,176379,128,0,176703:0:0:0:0:
64,192,176541,1,0,0:0:0:0:
192,192,176541,1,0,0:0:0:0:
192,192,176703,128,0,177028:0:0:0:0:
448,192,176866,1,0,0:0:0:0:
320,192,176866,1,0,0:0:0:0:
64,192,177028,128,0,178001:0:0:0:0:
320,192,177028,128,0,177109:0:0:0:0:
448,192,177028,1,0,0:0:0:0:
320,192,177190,1,0,0:0:0:0:
448,192,177190,128,0,177271:0:0:0:0:
320,192,177352,1,0,0:0:0:0:
192,192,177514,128,0,177595:0:0:0:0:
320,192,177514,1,0,0:0:0:0:
320,192,177676,1,0,0:0:0:0:
192,192,177839,128,0,177920:0:0:0:0:
320,192,177839,1,0,0:0:0:0:
448,192,177839,1,0,0:0:0:0:
192,192,178001,128,0,178082:0:0:0:0:
320,192,178001,128,0,178082:0:0:0:0:
448,192,178001,128,0,178082:0:0:0:0:
64,192,178163,1,0,0:0:0:0:
192,192,178163,1,0,0:0:0:0:
448,192,178163,128,0,178730:0:0:0:0:
320,192,178325,128,0,178893:0:0:0:0:
64,192,178325,1,0,0:0:0:0:
192,192,178487,128,0,179055:0:0:0:0:
64,192,178649,128,0,179217:0:0:0:0:
448,192,178812,128,0,179703:0:0:0:0:
320,192,178974,128,0,179541:0:0:0:0:
192,192,179136,128,0,179379:0:0:0:0:
64,192,179298,128,0,179866:0:0:0:0:
192,192,179460,128,0,180028:0:0:0:0:
320,192,179622,128,0,180190:0:0:0:0:
448,192,179785,128,0,180352:0:0:0:0:
64,192,179947,128,0,180676:0:0:0:0:
192,192,180109,128,0,180514:0:0:0:0:
320,192,180271,128,0,180839:0:0:0:0:
448,192,180433,128,0,180920:0:0:0:0:
192,192,180595,128,0,180920:0:0:0:0:
64,192,180757,128,0,180920:0:0:0:0:
320,192,180920,128,0,181406:0:0:0:0:
64,192,181244,1,0,0:0:0:0:
192,192,181244,128,0,181325:0:0:0:0:
192,192,181406,1,0,0:0:0:0:
448,192,181406,1,0,0:0:0:0:
64,192,181406,1,0,0:0:0:0:
192,192,181568,1,0,0:0:0:0:
448,192,181568,1,0,0:0:0:0:
64,192,181730,128,0,182298:0:0:0:0:
192,192,181893,128,0,182460:0:0:0:0:
320,192,182055,128,0,182460:0:0:0:0:
448,192,182217,128,0,182460:0:0:0:0:
64,192,182379,128,0,182622:0:0:0:0:
448,192,182541,1,0,0:0:0:0:
320,192,182541,1,0,0:0:0:0:
192,192,182541,128,0,182622:0:0:0:0:
320,192,182703,128,0,182866:0:0:0:0:
64,192,182703,128,0,183190:0:0:0:0:
448,192,182703,128,0,182866:0:0:0:0:
192,192,182866,1,0,0:0:0:0:
320,192,182947,1,0,0:0:0:0:
448,192,183028,1,0,0:0:0:0:
448,192,183190,1,0,0:0:0:0:
320,192,183190,1,0,0:0:0:0:
192,192,183352,1,0,0:0:0:0:
64,192,183352,1,0,0:0:0:0:
192,192,183514,1,0,0:0:0:0:
320,192,183595,1,0,0:0:0:0:
192,192,183676,1,0,0:0:0:0:
448,192,183676,1,0,0:0:0:0:
64,192,183676,128,0,184163:0:0:0:0:
192,192,184001,128,0,184163:0:0:0:0:
320,192,184163,1,0,0:0:0:0:
448,192,184163,128,0,184325:0:0:0:0:
64,192,184325,1,0,0:0:0:0:
192,192,184325,1,0,0:0:0:0:
64,192,184487,128,0,184649:0:0:0:0:
192,192,184487,1,0,0:0:0:0:
320,192,184649,1,0,0:0:0:0:
448,192,184649,1,0,0:0:0:0:
192,192,184812,128,0,185055:0:0:0:0:
320,192,184812,128,0,185055:0:0:0:0:
64,192,184974,1,0,0:0:0:0:
448,192,184974,1,0,0:0:0:0:
320,192,185136,128,0,185379:0:0:0:0:
448,192,185136,128,0,185379:0:0:0:0:
64,192,185298,1,0,0:0:0:0:
192,192,185298,1,0,0:0:0:0:
64,192,185460,128,0,185703:0:0:0:0:
192,192,185460,128,0,185703:0:0:0:0:
320,192,185622,1,0,0:0:0:0:
448,192,185622,1,0,0:0:0:0:
320,192,185785,128,0,186028:0:0:0:0:
192,192,185785,128,0,186028:0:0:0:0:
64,192,185947,1,0,0:0:0:0:
448,192,185947,1,0,0:0:0:0:
448,192,186109,128,0,186595:0:0:0:0:
192,192,186109,128,0,186271:0:0:0:0:
320,192,186109,128,0,186271:0:0:0:0:
64,192,186271,1,0,0:0:0:0:
320,192,186433,1,0,0:0:0:0:
192,192,186595,128,0,186757:0:0:0:0:
64,192,186595,1,0,0:0:0:0:
320,192,186595,1,0,0:0:0:0:
448,192,186757,128,0,187244:0:0:0:0:
64,192,186920,1,0,0:0:0:0:
192,192,186920,1,0,0:0:0:0:
320,192,187082,128,0,187244:0:0:0:0:
192,192,187244,128,0,187406:0:0:0:0:
64,192,187244,1,0,0:0:0:0:
64,192,187406,128,0,187812:0:0:0:0:
448,192,187406,128,0,187812:0:0:0:0:
192,192,187568,1,0,0:0:0:0:
320,192,187730,128,0,187812:0:0:0:0:
64,192,187893,1,0,0:0:0:0:
192,192,187893,1,0,0:0:0:0:
320,192,187893,128,0,188055:0:0:0:0:
448,192,187893,128,0,188055:0:0:0:0:
192,192,188055,128,0,188703:0:0:0:0:
320,192,188379,1,0,0:0:0:0:
448,192,188379,1,0,0:0:0:0:
320,192,188541,1,0,0:0:0:0:
448,192,188541,1,0,0:0:0:0:
64,192,188541,1,0,0:0:0:0:
320,192,188703,1,0,0:0:0:0:
448,192,188703,1,0,0:0:0:0:
64,192,188703,1,0,0:0:0:0:
192,192,188785,1,0,0:0:0:0:
448,192,188866,128,0,188906:0:0:0:0:
320,192,188906,128,0,188947:0:0:0:0:
192,192,188947,128,0,188987:0:0:0:0:
64,192,188987,128,0,189028:0:0:0:0:
448,192,189028,128,0,189068:0:0:0:0:
320,192,189068,128,0,189109:0:0:0:0:
192,192,189109,128,0,189149:0:0:0:0:
64,192,189149,128,0,189190:0:0:0:0:
448,192,189190,128,0,189230:0:0:0:0:
320,192,189230,128,0,189271:0:0:0:0:
192,192,189271,128,0,189312:0:0:0:0:
64,192,189312,128,0,189352:0:0:0:0:
448,192,189352,128,0,189393:0:0:0:0:
320,192,189393,128,0,189433:0:0:0:0:
192,192,189433,128,0,189474:0:0:0:0:
64,192,189474,128,0,189514:0:0:0:0:
448,192,189514,128,0,189555:0:0:0:0:
320,192,189555,128,0,189595:0:0:0:0:
192,192,189595,128,0,189636:0:0:0:0:
64,192,189636,128,0,189676:0:0:0:0:
448,192,189676,128,0,189717:0:0:0:0:
320,192,189717,128,0,189757:0:0:0:0:
64,192,189757,128,0,189798:0:0:0:0:
192,192,189798,128,0,189839:0:0:0:0:
320,192,189839,128,0,189879:0:0:0:0:
448,192,189879,128,0,189920:0:0:0:0:
64,192,189920,128,0,189960:0:0:0:0:
192,192,189960,128,0,190001:0:0:0:0:
320,192,190001,128,0,190041:0:0:0:0:
448,192,190041,128,0,190082:0:0:0:0:
64,192,190082,128,0,190122:0:0:0:0:
192,192,190122,128,0,190163:0:0:0:0:
320,192,190163,128,0,190203:0:0:0:0:
448,192,190203,128,0,190244:0:0:0:0:
64,192,190244,128,0,190285:0:0:0:0:
192,192,190285,128,0,190325:0:0:0:0:
320,192,190325,128,0,190366:0:0:0:0:
448,192,190366,128,0,190406:0:0:0:0:
64,192,190406,128,0,190447:0:0:0:0:
192,192,190447,128,0,190487:0:0:0:0:
448,192,190487,128,0,190528:0:0:0:0:
320,192,190528,128,0,190568:0:0:0:0:
64,192,190568,128,0,190609:0:0:0:0:
192,192,190609,128,0,190649:0:0:0:0:
448,192,190649,128,0,190690:0:0:0:0:
320,192,190690,128,0,190730:0:0:0:0:
64,192,190730,128,0,190771:0:0:0:0:
192,192,190771,128,0,190812:0:0:0:0:
448,192,190812,1,0,0:0:0:0:
64,192,190852,128,0,190933:0:0:0:0:
192,192,190893,128,0,190974:0:0:0:0:
320,192,190933,128,0,191014:0:0:0:0:
448,192,190974,128,0,191055:0:0:0:0:
64,192,191014,128,0,191116:0:0:0:0:
192,192,191055,128,0,191116:0:0:0:0:
320,192,191095,128,0,191176:0:0:0:0:
448,192,191136,128,0,191176:0:0:0:0:
64,192,191176,1,0,0:0:0:0:
192,192,191176,1,0,0:0:0:0:
448,192,191298,1,0,0:0:0:0:
320,192,191298,1,0,0:0:0:0:
192,192,191298,1,0,0:0:0:0:
64,192,191298,1,0,0:0:0:0:
64,192,191460,128,0,191501:0:0:0:0:
192,192,191501,128,0,191541:0:0:0:0:
320,192,191541,128,0,191582:0:0:0:0:
448,192,191582,128,0,191622:0:0:0:0:
64,192,191622,128,0,191663:0:0:0:0:
192,192,191663,128,0,191703:0:0:0:0:
320,192,191703,128,0,191744:0:0:0:0:
448,192,191744,128,0,191785:0:0:0:0:
64,192,191785,128,0,191825:0:0:0:0:
192,192,191825,128,0,191866:0:0:0:0:
320,192,191866,128,0,191906:0:0:0:0:
448,192,191906,128,0,191947:0:0:0:0:
64,192,191947,128,0,191987:0:0:0:0:
192,192,191987,128,0,192028:0:0:0:0:
320,192,192028,128,0,192068:0:0:0:0:
448,192,192068,128,0,192109:0:0:0:0:
64,192,192109,128,0,192149:0:0:0:0:
192,192,192149,128,0,192190:0:0:0:0:
320,192,192190,128,0,192230:0:0:0:0:
448,192,192230,128,0,192271:0:0:0:0:
64,192,192271,128,0,192312:0:0:0:0:
192,192,192312,128,0,192352:0:0:0:0:
448,192,192352,128,0,192393:0:0:0:0:
320,192,192393,128,0,192433:0:0:0:0:
192,192,192433,128,0,192474:0:0:0:0:
64,192,192474,128,0,192514:0:0:0:0:
448,192,192514,128,0,192555:0:0:0:0:
320,192,192555,128,0,192595:0:0:0:0:
192,192,192595,128,0,192636:0:0:0:0:
64,192,192636,128,0,192676:0:0:0:0:
448,192,192676,128,0,192717:0:0:0:0:
320,192,192717,128,0,192757:0:0:0:0:
192,192,192757,128,0,192798:0:0:0:0:
64,192,192798,128,0,192839:0:0:0:0:
448,192,192839,128,0,192879:0:0:0:0:
320,192,192879,128,0,192920:0:0:0:0:
192,192,192920,128,0,192960:0:0:0:0:
64,192,192960,128,0,193001:0:0:0:0:
448,192,193001,128,0,193041:0:0:0:0:
320,192,193041,128,0,193082:0:0:0:0:
64,192,193082,128,0,193122:0:0:0:0:
192,192,193122,128,0,193163:0:0:0:0:
448,192,193163,128,0,193203:0:0:0:0:
320,192,193203,128,0,193244:0:0:0:0:
64,192,193244,128,0,193285:0:0:0:0:
192,192,193285,128,0,193325:0:0:0:0:
448,192,193325,128,0,193366:0:0:0:0:
320,192,193366,128,0,193406:0:0:0:0:
64,192,193406,1,0,0:0:0:0:
448,192,193447,128,0,193528:0:0:0:0:
320,192,193487,128,0,193568:0:0:0:0:
192,192,193528,128,0,193609:0:0:0:0:
64,192,193568,128,0,193649:0:0:0:0:
448,192,193609,128,0,193710:0:0:0:0:
320,192,193649,128,0,193710:0:0:0:0:
192,192,193690,128,0,193771:0:0:0:0:
64,192,193730,128,0,193771:0:0:0:0:
448,192,193771,1,0,0:0:0:0:
320,192,193771,1,0,0:0:0:0:
64,192,193893,1,0,0:0:0:0:
192,192,193893,1,0,0:0:0:0:
320,192,193893,1,0,0:0:0:0:
448,192,193893,1,0,0:0:0:0:
448,192,194055,128,0,194460:0:0:0:0:
192,192,194055,128,0,194298:0:0:0:0:
64,192,194055,128,0,194136:0:0:0:0:
320,192,194055,1,0,0:0:0:0:
192,192,194379,1,0,0:0:0:0:
320,192,194379,1,0,0:0:0:0:
64,192,194379,128,0,194663:0:0:0:0:
448,192,194541,1,0,0:0:0:0:
320,192,194541,128,0,194663:0:0:0:0:
192,192,194703,128,0,195028:0:0:0:0:
448,192,194703,1,0,0:0:0:0:
64,192,194703,1,0,0:0:0:0:
320,192,194866,1,0,0:0:0:0:
448,192,194866,128,0,195028:0:0:0:0:
64,192,195028,1,0,0:0:0:0:
320,192,195028,128,0,195453:0:0:0:0:
448,192,195190,1,0,0:0:0:0:
64,192,195190,128,0,195453:0:0:0:0:
192,192,195352,1,0,0:0:0:0:
448,192,195352,128,0,195453:0:0:0:0:
192,192,195514,1,0,0:0:0:0:
320,192,195514,1,0,0:0:0:0:
64,192,195514,1,0,0:0:0:0:
192,192,195676,128,0,195757:0:0:0:0:
320,192,195676,1,0,0:0:0:0:
448,192,195676,1,0,0:0:0:0:
64,192,195676,128,0,195839:0:0:0:0:
448,192,195839,1,0,0:0:0:0:
320,192,195920,1,0,0:0:0:0:
192,192,196001,1,0,0:0:0:0:
64,192,196001,1,0,0:0:0:0:
448,192,196163,128,0,196244:0:0:0:0:
192,192,196163,1,0,0:0:0:0:
320,192,196163,1,0,0:0:0:0:
64,192,196163,1,0,0:0:0:0:
320,192,196325,1,0,0:0:0:0:
448,192,196325,1,0,0:0:0:0:
192,192,196325,128,0,196649:0:0:0:0:
64,192,196487,1,0,0:0:0:0:
448,192,196487,128,0,196649:0:0:0:0:
320,192,196487,1,0,0:0:0:0:
64,192,196649,128,0,197947:0:0:0:0:
448,192,199244,1,0,0:0:0:0:
64,192,199568,128,0,199893:0:0:0:0:
320,192,199893,1,0,0:0:0:0:
448,192,199893,1,0,0:0:0:0:
64,192,200055,1,0,0:0:0:0:
192,192,200055,1,0,0:0:0:0:
192,192,200136,1,0,0:0:0:0:
320,192,200136,1,0,0:0:0:0:
320,192,200217,1,0,0:0:0:0:
448,192,200217,1,0,0:0:0:0:
448,192,200379,128,0,200622:0:0:0:0:
192,192,200379,128,0,200947:0:0:0:0:
320,192,200379,128,0,200785:0:0:0:0:
64,192,200379,128,0,201109:0:0:0:0:
448,192,200703,128,0,201109:0:0:0:0:
320,192,200866,128,0,201190:0:0:0:0:
192,192,201028,128,0,201271:0:0:0:0:
64,192,201190,128,0,201352:0:0:0:0:
448,192,201190,1,0,0:0:0:0:
320,192,201271,1,0,0:0:0:0:
192,192,201352,1,0,0:0:0:0:
64,192,201433,1,0,0:0:0:0:
192,192,201514,1,0,0:0:0:0:
320,192,201595,1,0,0:0:0:0:
64,192,201676,128,0,201757:0:0:0:0:
448,192,201676,1,0,0:0:0:0:
192,192,201717,128,0,201798:0:0:0:0:
320,192,201757,128,0,201839:0:0:0:0:
448,192,201798,128,0,201879:0:0:0:0:
64,192,201839,128,0,201920:0:0:0:0:
192,192,201879,128,0,201960:0:0:0:0:
320,192,201920,128,0,202001:0:0:0:0:
448,192,201960,128,0,202001:0:0:0:0:
64,192,202001,1,0,0:0:0:0:
192,192,202001,128,0,202163:0:0:0:0:
448,192,202163,128,0,202244:0:0:0:0:
64,192,202163,128,0,202203:0:0:0:0:
320,192,202163,128,0,202366:0:0:0:0:
192,192,202244,128,0,202325:0:0:0:0:
448,192,202325,128,0,202366:0:0:0:0:
64,192,202325,128,0,202366:0:0:0:0:
320,192,202406,128,0,202447:0:0:0:0:
448,192,202487,128,0,202528:0:0:0:0:
64,192,202487,128,0,202568:0:0:0:0:
192,192,202487,128,0,202690:0:0:0:0:
320,192,202568,128,0,202649:0:0:0:0:
64,192,202649,128,0,202690:0:0:0:0:
448,192,202649,128,0,202690:0:0:0:0:
192,192,202730,128,0,202771:0:0:0:0:
64,192,202812,128,0,202852:0:0:0:0:
448,192,202812,1,0,0:0:0:0:
320,192,202812,128,0,202974:0:0:0:0:
192,192,202893,128,0,202974:0:0:0:0:
448,192,202974,128,0,203055:0:0:0:0:
64,192,202974,1,0,0:0:0:0:
320,192,203014,128,0,203095:0:0:0:0:
192,192,203055,128,0,203136:0:0:0:0:
64,192,203095,128,0,203176:0:0:0:0:
448,192,203136,128,0,203217:0:0:0:0:
320,192,203176,128,0,203257:0:0:0:0:
192,192,203217,128,0,203298:0:0:0:0:
64,192,203257,128,0,203298:0:0:0:0:
320,192,203298,128,0,203460:0:0:0:0:
448,192,203298,1,0,0:0:0:0:
448,192,203460,128,0,203501:0:0:0:0:
192,192,203460,128,0,203663:0:0:0:0:
64,192,203460,128,0,203541:0:0:0:0:
320,192,203541,128,0,203622:0:0:0:0:
64,192,203622,128,0,203663:0:0:0:0:
448,192,203622,128,0,203663:0:0:0:0:
192,192,203703,128,0,203744:0:0:0:0:
64,192,203785,128,0,203825:0:0:0:0:
448,192,203785,128,0,203866:0:0:0:0:
320,192,203785,128,0,203987:0:0:0:0:
192,192,203866,128,0,203947:0:0:0:0:
448,192,203947,128,0,203987:0:0:0:0:
64,192,203947,128,0,203987:0:0:0:0:
320,192,204028,128,0,204109:0:0:0:0:
448,192,204109,128,0,204149:0:0:0:0:
64,192,204109,128,0,204149:0:0:0:0:
192,192,204109,1,0,0:0:0:0:
192,192,204190,128,0,204230:0:0:0:0:
64,192,204271,128,0,204433:0:0:0:0:
448,192,204271,128,0,204514:0:0:0:0:
320,192,204271,128,0,204312:0:0:0:0:
192,192,204352,128,0,204514:0:0:0:0:
320,192,204433,128,0,204595:0:0:0:0:
64,192,204514,128,0,204757:0:0:0:0:
448,192,204595,128,0,204757:0:0:0:0:
192,192,204595,128,0,204676:0:0:0:0:
320,192,204676,128,0,204839:0:0:0:0:
192,192,204757,128,0,204920:0:0:0:0:
448,192,204839,128,0,205163:0:0:0:0:
64,192,204839,128,0,205001:0:0:0:0:
320,192,204920,128,0,205082:0:0:0:0:
192,192,205001,128,0,205163:0:0:0:0:
64,192,205082,128,0,205244:0:0:0:0:
320,192,205163,128,0,205325:0:0:0:0:
448,192,205244,128,0,205730:0:0:0:0:
192,192,205244,128,0,205406:0:0:0:0:
64,192,205325,128,0,205487:0:0:0:0:
320,192,205406,128,0,205487:0:0:0:0:
192,192,205487,128,0,205649:0:0:0:0:
64,192,205568,128,0,205812:0:0:0:0:
320,192,205568,128,0,205974:0:0:0:0:
192,192,205730,128,0,205893:0:0:0:0:
448,192,205812,128,0,206055:0:0:0:0:
64,192,205893,128,0,206055:0:0:0:0:
192,192,205974,128,0,206136:0:0:0:0:
320,192,206055,128,0,206217:0:0:0:0:
64,192,206136,128,0,206460:0:0:0:0:
448,192,206136,128,0,206298:0:0:0:0:
192,192,206217,128,0,206379:0:0:0:0:
320,192,206298,128,0,206460:0:0:0:0:
448,192,206379,128,0,206541:0:0:0:0:
192,192,206460,128,0,206622:0:0:0:0:
320,192,206541,128,0,206703:0:0:0:0:
64,192,206541,128,0,206947:0:0:0:0:
448,192,206622,128,0,206785:0:0:0:0:
192,192,206703,128,0,206866:0:0:0:0:
320,192,206785,128,0,206947:0:0:0:0:
448,192,206866,128,0,206947:0:0:0:0:
192,192,206947,1,0,0:0:0:0:
64,192,207028,1,0,0:0:0:0:
192,192,207068,128,0,207109:0:0:0:0:
320,192,207109,1,0,0:0:0:0:
448,192,207149,128,0,207230:0:0:0:0:
64,192,207190,128,0,207230:0:0:0:0:
192,192,207230,1,0,0:0:0:0:
320,192,207271,128,0,207312:0:0:0:0:
448,192,207312,1,0,0:0:0:0:
64,192,207352,1,0,0:0:0:0:
192,192,207393,128,0,207433:0:0:0:0:
320,192,207433,1,0,0:0:0:0:
448,192,207474,128,0,207555:0:0:0:0:
64,192,207514,128,0,207555:0:0:0:0:
192,192,207555,1,0,0:0:0:0:
320,192,207595,128,0,207636:0:0:0:0:
448,192,207636,1,0,0:0:0:0:
64,192,207676,1,0,0:0:0:0:
192,192,207717,128,0,207757:0:0:0:0:
320,192,207757,1,0,0:0:0:0:
448,192,207798,128,0,207879:0:0:0:0:
64,192,207839,128,0,207879:0:0:0:0:
192,192,207879,1,0,0:0:0:0:
320,192,207920,128,0,207960:0:0:0:0:
448,192,207960,1,0,0:0:0:0:
64,192,208001,128,0,208122:0:0:0:0:
192,192,208001,128,0,208122:0:0:0:0:
64,192,208163,128,0,208285:0:0:0:0:
192,192,208163,128,0,208285:0:0:0:0:
448,192,208325,1,0,0:0:0:0:
320,192,208366,128,0,208406:0:0:0:0:
192,192,208406,1,0,0:0:0:0:
64,192,208447,128,0,208528:0:0:0:0:
448,192,208487,128,0,208528:0:0:0:0:
320,192,208528,1,0,0:0:0:0:
192,192,208568,128,0,208609:0:0:0:0:
64,192,208609,1,0,0:0:0:0:
448,192,208649,1,0,0:0:0:0:
320,192,208690,128,0,208730:0:0:0:0:
192,192,208730,1,0,0:0:0:0:
64,192,208771,128,0,208852:0:0:0:0:
448,192,208812,128,0,208852:0:0:0:0:
320,192,208852,1,0,0:0:0:0:
192,192,208893,128,0,208933:0:0:0:0:
64,192,208933,1,0,0:0:0:0:
448,192,208974,1,0,0:0:0:0:
320,192,209014,128,0,209055:0:0:0:0:
192,192,209055,1,0,0:0:0:0:
64,192,209095,128,0,209176:0:0:0:0:
448,192,209136,128,0,209176:0:0:0:0:
320,192,209176,1,0,0:0:0:0:
192,192,209217,128,0,209257:0:0:0:0:
64,192,209257,1,0,0:0:0:0:
448,192,209298,128,0,209339:0:0:0:0:
320,192,209339,128,0,209379:0:0:0:0:
192,192,209379,128,0,209420:0:0:0:0:
64,192,209420,128,0,209460:0:0:0:0:
448,192,209460,128,0,209501:0:0:0:0:
320,192,209501,128,0,209541:0:0:0:0:
192,192,209541,128,0,209582:0:0:0:0:
64,192,209582,128,0,209622:0:0:0:0:
448,192,209622,128,0,209703:0:0:0:0:
320,192,209663,128,0,209703:0:0:0:0:
192,192,209703,1,0,0:0:0:0:
64,192,209744,128,0,209825:0:0:0:0:
192,192,209785,128,0,209825:0:0:0:0:
320,192,209825,1,0,0:0:0:0:
448,192,209866,128,0,209947:0:0:0:0:
320,192,209906,128,0,209947:0:0:0:0:
192,192,209947,1,0,0:0:0:0:
64,192,209987,128,0,210068:0:0:0:0:
192,192,210028,128,0,210068:0:0:0:0:
320,192,210068,1,0,0:0:0:0:
448,192,210109,128,0,210190:0:0:0:0:
320,192,210149,128,0,210190:0:0:0:0:
192,192,210190,1,0,0:0:0:0:
64,192,210230,128,0,210312:0:0:0:0:
192,192,210271,128,0,210312:0:0:0:0:
320,192,210312,1,0,0:0:0:0:
448,192,210352,128,0,210433:0:0:0:0:
192,192,210433,1,0,0:0:0:0:
64,192,210433,128,0,210676:0:0:0:0:
320,192,210433,1,0,0:0:0:0:
320,192,210595,128,0,210757:0:0:0:0:
448,192,210595,1,0,0:0:0:0:
64,192,210757,1,0,0:0:0:0:
448,192,210757,128,0,211028:0:0:0:0:
192,192,210757,128,0,211028:0:0:0:0:
192,192,211082,1,0,0:0:0:0:
64,192,211082,128,0,211203:0:0:0:0:
320,192,211082,128,0,211203:0:0:0:0:
320,192,211244,1,0,0:0:0:0:
192,192,211244,128,0,211366:0:0:0:0:
448,192,211244,128,0,211366:0:0:0:0:
192,192,211406,1,0,0:0:0:0:
448,192,211406,128,0,211730:0:0:0:0:
64,192,211406,128,0,211568:0:0:0:0:
64,192,211730,1,0,0:0:0:0:
320,192,211730,1,0,0:0:0:0:
320,192,211893,1,0,0:0:0:0:
64,192,211893,128,0,211974:0:0:0:0:
448,192,211893,128,0,212055:0:0:0:0:
192,192,211974,128,0,212055:0:0:0:0:
64,192,212055,128,0,212217:0:0:0:0:
320,192,212055,128,0,212136:0:0:0:0:
192,192,212136,128,0,212420:0:0:0:0:
448,192,212136,128,0,212217:0:0:0:0:
320,192,212217,128,0,212420:0:0:0:0:
448,192,212298,128,0,212420:0:0:0:0:
64,192,212298,128,0,212420:0:0:0:0:
192,192,212541,1,0,0:0:0:0:
64,192,212541,128,0,212582:0:0:0:0:
320,192,212541,128,0,212622:0:0:0:0:
448,192,212541,128,0,212622:0:0:0:0:
320,192,212703,1,0,0:0:0:0:
448,192,212703,128,0,212744:0:0:0:0:
192,192,212703,128,0,212785:0:0:0:0:
64,192,212703,128,0,212785:0:0:0:0:
64,192,212866,128,0,212906:0:0:0:0:
192,192,212866,1,0,0:0:0:0:
320,192,212866,128,0,212947:0:0:0:0:
448,192,212866,128,0,212947:0:0:0:0:
448,192,213028,128,0,213068:0:0:0:0:
320,192,213028,1,0,0:0:0:0:
192,192,213028,128,0,213109:0:0:0:0:
64,192,213028,128,0,213109:0:0:0:0:
448,192,213190,128,0,213271:0:0:0:0:
320,192,213190,128,0,213251:0:0:0:0:
192,192,213190,128,0,213230:0:0:0:0:
64,192,213190,1,0,0:0:0:0:
64,192,213352,1,0,0:0:0:0:
192,192,213372,1,0,0:0:0:0:
320,192,213393,1,0,0:0:0:0:
448,192,213514,1,0,0:0:0:0:
64,192,213514,128,0,213595:0:0:0:0:
192,192,213514,128,0,213575:0:0:0:0:
320,192,213514,128,0,213555:0:0:0:0:
448,192,213676,128,0,213757:0:0:0:0:
64,192,213676,128,0,213697:0:0:0:0:
192,192,213676,128,0,213717:0:0:0:0:
320,192,213676,128,0,213737:0:0:0:0:
320,192,213839,128,0,213920:0:0:0:0:
64,192,213839,128,0,213879:0:0:0:0:
192,192,213839,1,0,0:0:0:0:
448,192,213839,128,0,213920:0:0:0:0:
192,192,214001,128,0,214082:0:0:0:0:
448,192,214001,128,0,214041:0:0:0:0:
320,192,214001,1,0,0:0:0:0:
64,192,214001,128,0,214082:0:0:0:0:
192,192,214163,128,0,214244:0:0:0:0:
448,192,214163,128,0,214244:0:0:0:0:
64,192,214163,128,0,214244:0:0:0:0:
320,192,214244,1,0,0:0:0:0:
64,192,214325,128,0,214406:0:0:0:0:
448,192,214325,128,0,214406:0:0:0:0:
320,192,214325,128,0,214406:0:0:0:0:
192,192,214406,1,0,0:0:0:0:
64,192,214487,128,0,214568:0:0:0:0:
192,192,214487,128,0,214568:0:0:0:0:
448,192,214487,128,0,214568:0:0:0:0:
320,192,214568,1,0,0:0:0:0:
448,192,214649,1,0,0:0:0:0:
64,192,214649,128,0,214730:0:0:0:0:
320,192,214649,1,0,0:0:0:0:
192,192,214730,128,0,214812:0:0:0:0:
320,192,214812,128,0,214893:0:0:0:0:
448,192,214893,128,0,214974:0:0:0:0:
64,192,214893,128,0,214974:0:0:0:0:
192,192,214974,128,0,215055:0:0:0:0:
320,192,215055,128,0,215136:0:0:0:0:
448,192,215136,128,0,215217:0:0:0:0:
64,192,215136,1,0,0:0:0:0:
320,192,215176,128,0,215257:0:0:0:0:
192,192,215217,128,0,215298:0:0:0:0:
64,192,215257,128,0,215339:0:0:0:0:
320,192,215298,128,0,215379:0:0:0:0:
448,192,215298,128,0,215379:0:0:0:0:
64,192,215460,128,0,215541:0:0:0:0:
448,192,215460,1,0,0:0:0:0:
192,192,215501,128,0,215582:0:0:0:0:
320,192,215541,128,0,215622:0:0:0:0:
448,192,215582,128,0,215663:0:0:0:0:
192,192,215622,128,0,215785:0:0:0:0:
64,192,215622,128,0,215785:0:0:0:0:
320,192,215785,128,0,215947:0:0:0:0:
448,192,215785,1,0,0:0:0:0:
192,192,215947,128,0,216190:0:0:0:0:
448,192,215947,128,0,216190:0:0:0:0:
64,192,215947,1,0,0:0:0:0:
64,192,216109,1,0,0:0:0:0:
320,192,216109,1,0,0:0:0:0:
192,192,216271,128,0,216352:0:0:0:0:
64,192,216271,128,0,216352:0:0:0:0:
448,192,216271,1,0,0:0:0:0:
320,192,216271,1,0,0:0:0:0:
448,192,216352,128,0,216433:0:0:0:0:
64,192,216433,1,0,0:0:0:0:
320,192,216433,128,0,216595:0:0:0:0:
192,192,216433,1,0,0:0:0:0:
64,192,216514,128,0,216595:0:0:0:0:
448,192,216595,1,0,0:0:0:0:
192,192,216595,1,0,0:0:0:0:
64,192,216676,1,0,0:0:0:0:
448,192,216757,1,0,0:0:0:0:
192,192,216757,1,0,0:0:0:0:
320,192,216757,1,0,0:0:0:0:
448,192,216920,1,0,0:0:0:0:
192,192,216920,1,0,0:0:0:0:
64,192,216920,1,0,0:0:0:0:
64,192,217082,1,0,0:0:0:0:
448,192,217082,128,0,217244:0:0:0:0:
320,192,217082,128,0,217244:0:0:0:0:
64,192,217244,1,0,0:0:0:0:
192,192,217244,1,0,0:0:0:0:
320,192,217325,1,0,0:0:0:0:
448,192,217325,1,0,0:0:0:0:
64,192,217406,1,0,0:0:0:0:
192,192,217406,1,0,0:0:0:0:
448,192,217406,128,0,217730:0:0:0:0:
320,192,217487,128,0,217649:0:0:0:0:
192,192,217568,128,0,217649:0:0:0:0:
64,192,217649,128,0,217812:0:0:0:0:
192,192,217730,128,0,217893:0:0:0:0:
320,192,217730,128,0,217812:0:0:0:0:
448,192,217812,128,0,217974:0:0:0:0:
320,192,217893,128,0,217974:0:0:0:0:
64,192,217893,128,0,218379:0:0:0:0:
192,192,217974,128,0,218055:0:0:0:0:
320,192,218055,128,0,218136:0:0:0:0:
448,192,218055,128,0,218217:0:0:0:0:
192,192,218136,128,0,218298:0:0:0:0:
320,192,218217,128,0,218298:0:0:0:0:
448,192,218298,128,0,218622:0:0:0:0:
320,192,218379,128,0,218541:0:0:0:0:
192,192,218379,128,0,218460:0:0:0:0:
64,192,218460,128,0,218622:0:0:0:0:
192,192,218541,128,0,218622:0:0:0:0:
320,192,218622,128,0,218703:0:0:0:0:
64,192,218703,128,0,218866:0:0:0:0:
192,192,218703,128,0,218785:0:0:0:0:
448,192,218703,128,0,218947:0:0:0:0:
320,192,218785,128,0,219028:0:0:0:0:
192,192,218866,128,0,218947:0:0:0:0:
64,192,218947,128,0,219271:0:0:0:0:
192,192,219028,128,0,219109:0:0:0:0:
448,192,219028,128,0,219190:0:0:0:0:
320,192,219109,128,0,219271:0:0:0:0:
192,192,219190,128,0,219271:0:0:0:0:
448,192,219271,128,0,219352:0:0:0:0:
320,192,219352,128,0,219433:0:0:0:0:
192,192,219352,128,0,219676:0:0:0:0:
64,192,219352,128,0,219514:0:0:0:0:
448,192,219433,128,0,219839:0:0:0:0:
320,192,219514,128,0,219595:0:0:0:0:
64,192,219595,128,0,219920:0:0:0:0:
320,192,219676,128,0,219757:0:0:0:0:
192,192,219757,128,0,219920:0:0:0:0:
320,192,219839,128,0,219920:0:0:0:0:
448,192,219920,128,0,220001:0:0:0:0:
320,192,220001,1,0,0:0:0:0:
64,192,220001,128,0,220325:0:0:0:0:
192,192,220001,1,0,0:0:0:0:
192,192,220082,128,0,220244:0:0:0:0:
320,192,220163,128,0,220244:0:0:0:0:
448,192,220244,128,0,220406:0:0:0:0:
320,192,220325,128,0,220487:0:0:0:0:
192,192,220325,128,0,220406:0:0:0:0:
64,192,220406,128,0,220568:0:0:0:0:
192,192,220487,128,0,220568:0:0:0:0:
448,192,220487,128,0,220974:0:0:0:0:
320,192,220568,128,0,220649:0:0:0:0:
192,192,220649,128,0,220730:0:0:0:0:
64,192,220649,128,0,220812:0:0:0:0:
320,192,220730,128,0,220893:0:0:0:0:
192,192,220812,128,0,220893:0:0:0:0:
64,192,220893,128,0,221217:0:0:0:0:
192,192,220974,128,0,221136:0:0:0:0:
320,192,220974,128,0,221055:0:0:0:0:
448,192,221055,128,0,221217:0:0:0:0:
320,192,221136,128,0,221217:0:0:0:0:
192,192,221217,128,0,221298:0:0:0:0:
448,192,221298,128,0,221460:0:0:0:0:
320,192,221298,128,0,221379:0:0:0:0:
64,192,221298,128,0,221541:0:0:0:0:
192,192,221379,128,0,221622:0:0:0:0:
320,192,221460,128,0,221541:0:0:0:0:
448,192,221541,128,0,221866:0:0:0:0:
320,192,221622,128,0,221703:0:0:0:0:
64,192,221622,128,0,221785:0:0:0:0:
192,192,221703,128,0,221866:0:0:0:0:
320,192,221785,128,0,221866:0:0:0:0:
64,192,221866,128,0,221947:0:0:0:0:
192,192,221947,128,0,222028:0:0:0:0:
320,192,221947,128,0,222190:0:0:0:0:
448,192,221947,128,0,222109:0:0:0:0:
64,192,222028,128,0,222514:0:0:0:0:
192,192,222109,128,0,222190:0:0:0:0:
448,192,222190,128,0,222352:0:0:0:0:
320,192,222271,128,0,222352:0:0:0:0:
192,192,222271,128,0,222433:0:0:0:0:
320,192,222433,1,0,0:0:0:0:
448,192,222433,1,0,0:0:0:0:
192,192,222514,1,0,0:0:0:0:
320,192,222595,1,0,0:0:0:0:
448,192,222595,1,0,0:0:0:0:
64,192,222595,128,0,223001:0:0:0:0:
192,192,222757,128,0,223001:0:0:0:0:
320,192,222920,128,0,223001:0:0:0:0:
448,192,222920,128,0,223001:0:0:0:0:
448,192,223082,128,0,223406:0:0:0:0:
192,192,223082,1,0,0:0:0:0:
320,192,223244,128,0,223325:0:0:0:0:
192,192,223244,128,0,223325:0:0:0:0:
64,192,223244,1,0,0:0:0:0:
192,192,223406,128,0,223649:0:0:0:0:
320,192,223406,1,0,0:0:0:0:
320,192,223568,128,0,223649:0:0:0:0:
448,192,223568,128,0,223649:0:0:0:0:
64,192,223568,1,0,0:0:0:0:
64,192,223730,1,0,0:0:0:0:
192,192,223730,128,0,223893:0:0:0:0:
448,192,223730,128,0,223812:0:0:0:0:
320,192,223730,1,0,0:0:0:0:
448,192,223893,128,0,224217:0:0:0:0:
64,192,223893,128,0,224136:0:0:0:0:
320,192,223893,1,0,0:0:0:0:
192,192,224217,128,0,224298:0:0:0:0:
64,192,224217,128,0,224622:0:0:0:0:
320,192,224217,1,0,0:0:0:0:
192,192,224379,128,0,224460:0:0:0:0:
448,192,224379,128,0,224460:0:0:0:0:
192,192,224541,128,0,224622:0:0:0:0:
320,192,224541,128,0,224622:0:0:0:0:
448,192,224541,128,0,224947:0:0:0:0:
192,192,224703,128,0,224785:0:0:0:0:
64,192,224703,128,0,225109:0:0:0:0:
320,192,224703,1,0,0:0:0:0:
320,192,224866,128,0,225109:0:0:0:0:
192,192,224866,1,0,0:0:0:0:
192,192,225028,128,0,225109:0:0:0:0:
448,192,225028,128,0,225190:0:0:0:0:
64,192,225190,1,0,0:0:0:0:
192,192,225190,128,0,225839:0:0:0:0:
320,192,225190,1,0,0:0:0:0:
320,192,225514,1,0,0:0:0:0:
448,192,225514,1,0,0:0:0:0:
64,192,225676,1,0,0:0:0:0:
320,192,225676,1,0,0:0:0:0:
448,192,225839,128,0,226487:0:0:0:0:
192,192,226163,128,0,226487:0:0:0:0:
320,192,226163,128,0,226487:0:0:0:0:
64,192,226163,128,0,226487:0:0:0:0:
192,192,226649,1,0,0:0:0:0:
448,192,226649,1,0,0:0:0:0:
64,192,226649,128,0,226974:0:0:0:0:
320,192,226812,1,0,0:0:0:0:
448,192,226812,1,0,0:0:0:0:
320,192,226974,128,0,227136:0:0:0:0:
192,192,226974,1,0,0:0:0:0:
448,192,227055,1,0,0:0:0:0:
64,192,227136,1,0,0:0:0:0:
192,192,227176,1,0,0:0:0:0:
448,192,227217,1,0,0:0:0:0:
320,192,227257,1,0,0:0:0:0:
64,192,227298,1,0,0:0:0:0:
192,192,227339,1,0,0:0:0:0:
448,192,227379,1,0,0:0:0:0:
320,192,227420,1,0,0:0:0:0:
64,192,227460,1,0,0:0:0:0:
192,192,227501,1,0,0:0:0:0:
320,192,227541,1,0,0:0:0:0:
448,192,227582,1,0,0:0:0:0:
64,192,227622,1,0,0:0:0:0:
192,192,227663,1,0,0:0:0:0:
320,192,227703,1,0,0:0:0:0:
448,192,227744,1,0,0:0:0:0:
192,192,227785,128,0,227866:0:0:0:0:
64,192,227785,128,0,227866:0:0:0:0:
192,192,227947,128,0,228028:0:0:0:0:
320,192,227947,128,0,228028:0:0:0:0:
448,192,227947,1,0,0:0:0:0:
64,192,227947,128,0,228190:0:0:0:0:
320,192,228109,128,0,228190:0:0:0:0:
448,192,228109,128,0,228352:0:0:0:0:
320,192,228271,128,0,228352:0:0:0:0:
64,192,228271,128,0,228352:0:0:0:0:
192,192,228271,1,0,0:0:0:0:
192,192,228433,128,0,228514:0:0:0:0:
320,192,228433,128,0,228514:0:0:0:0:
64,192,228433,128,0,228757:0:0:0:0:
448,192,228433,1,0,0:0:0:0:
320,192,228757,128,0,229082:0:0:0:0:
192,192,228757,128,0,228839:0:0:0:0:
448,192,228757,1,0,0:0:0:0:
64,192,228920,128,0,229001:0:0:0:0:
448,192,228920,128,0,229001:0:0:0:0:
192,192,228920,1,0,0:0:0:0:
64,192,229082,128,0,229406:0:0:0:0:
448,192,229082,128,0,229244:0:0:0:0:
192,192,229244,128,0,229325:0:0:0:0:
320,192,229244,1,0,0:0:0:0:
320,192,229406,128,0,229487:0:0:0:0:
448,192,229406,1,0,0:0:0:0:
64,192,229568,1,0,0:0:0:0:
320,192,229568,1,0,0:0:0:0:
448,192,229649,1,0,0:0:0:0:
320,192,229730,1,0,0:0:0:0:
64,192,229730,1,0,0:0:0:0:
320,192,229893,128,0,229974:0:0:0:0:
192,192,229893,128,0,230298:0:0:0:0:
448,192,229893,128,0,230298:0:0:0:0:
64,192,230055,128,0,230136:0:0:0:0:
320,192,230217,128,0,230298:0:0:0:0:
64,192,230379,128,0,230460:0:0:0:0:
320,192,230379,128,0,230460:0:0:0:0:
448,192,230379,1,0,0:0:0:0:
64,192,230541,1,0,0:0:0:0:
192,192,230541,128,0,230622:0:0:0:0:
448,192,230541,128,0,230703:0:0:0:0:
64,192,230703,128,0,230947:0:0:0:0:
320,192,230703,1,0,0:0:0:0:
192,192,230866,128,0,230947:0:0:0:0:
320,192,230866,128,0,230947:0:0:0:0:
448,192,230866,1,0,0:0:0:0:
64,192,231028,1,0,0:0:0:0:
192,192,231028,128,0,231109:0:0:0:0:
320,192,231028,128,0,231109:0:0:0:0:
448,192,231028,128,0,231352:0:0:0:0:
192,192,231352,128,0,231433:0:0:0:0:
64,192,231352,128,0,231595:0:0:0:0:
320,192,231352,1,0,0:0:0:0:
320,192,231514,128,0,231595:0:0:0:0:
448,192,231514,128,0,231676:0:0:0:0:
192,192,231514,128,0,231595:0:0:0:0:
320,192,231676,128,0,232001:0:0:0:0:
64,192,231676,1,0,0:0:0:0:
192,192,231839,128,0,231920:0:0:0:0:
64,192,231839,128,0,231920:0:0:0:0:
448,192,231839,128,0,232001:0:0:0:0:
192,192,232001,128,0,232244:0:0:0:0:
64,192,232001,1,0,0:0:0:0:
64,192,232163,128,0,232244:0:0:0:0:
448,192,232163,128,0,232244:0:0:0:0:
320,192,232163,128,0,232406:0:0:0:0:
64,192,232325,128,0,232406:0:0:0:0:
192,192,232325,128,0,232406:0:0:0:0:
448,192,232325,128,0,232487:0:0:0:0:
192,192,232487,128,0,232649:0:0:0:0:
320,192,232487,1,0,0:0:0:0:
64,192,232487,128,0,232649:0:0:0:0:
448,192,232568,1,0,0:0:0:0:
320,192,232649,1,0,0:0:0:0:
64,192,232812,128,0,232974:0:0:0:0:
192,192,232812,128,0,232974:0:0:0:0:
320,192,232812,1,0,0:0:0:0:
448,192,232974,128,0,233055:0:0:0:0:
320,192,232974,128,0,233055:0:0:0:0:
64,192,233136,128,0,233217:0:0:0:0:
192,192,233136,128,0,233217:0:0:0:0:
448,192,233136,128,0,233298:0:0:0:0:
320,192,233136,1,0,0:0:0:0:
64,192,233298,128,0,233460:0:0:0:0:
320,192,233298,1,0,0:0:0:0:
320,192,233460,128,0,233541:0:0:0:0:
448,192,233460,128,0,233541:0:0:0:0:
192,192,233460,1,0,0:0:0:0:
448,192,233622,128,0,233785:0:0:0:0:
64,192,233622,128,0,233703:0:0:0:0:
192,192,233622,128,0,233703:0:0:0:0:
320,192,233622,128,0,233703:0:0:0:0:
64,192,233785,128,0,233866:0:0:0:0:
192,192,233785,128,0,233866:0:0:0:0:
64,192,233947,128,0,234109:0:0:0:0:
192,192,233947,1,0,0:0:0:0:
320,192,233947,128,0,234028:0:0:0:0:
448,192,233947,128,0,234028:0:0:0:0:
192,192,234109,128,0,234271:0:0:0:0:
320,192,234109,128,0,234271:0:0:0:0:
448,192,234109,1,0,0:0:0:0:
64,192,234271,128,0,234433:0:0:0:0:
448,192,234271,128,0,234433:0:0:0:0:
64,192,234595,128,0,235568:0:0:0:0:
448,192,235082,1,0,0:0:0:0:
320,192,235244,1,0,0:0:0:0:
192,192,235487,128,0,238487:0:0:0:0:
320,192,235528,128,0,238487:0:0:0:0:
448,192,235568,128,0,238487:0:0:0:0:
