osu file format v14

[General]
AudioFilename: audio.mp3
AudioLeadIn: 0
PreviewTime: 200460
Countdown: 0
SampleSet: Normal
StackLeniency: 0.7
Mode: 3
LetterboxInBreaks: 0
SpecialStyle: 0
WidescreenStoryboard: 1

[Editor]
DistanceSpacing: 1
BeatDivisor: 4
GridSize: 16
TimelineZoom: 2.599999

[Metadata]
Title:fantastic dreamer
TitleUnicode:fantastic dreamer
Artist:Machico
ArtistUnicode:Machico
Creator:Niima
Version:7K Lvl95
Source:この素晴らしい世界に祝福を!
Tags:Kono Subarashii Sekai ni Syukufuku wo! Shukufuku o! KONOSUBA
BeatmapID:1059414
BeatmapSetID:495258

[Difficulty]
HPDrainRate:6
CircleSize:7
OverallDifficulty:0
ApproachRate:5
SliderMultiplier:1.4
SliderTickRate:1

[Events]
//Background and Video events
0,0,"2016032421181562893.jpg",0,0
//Break Periods
//Storyboard Layer 0 (Background)
//Storyboard Layer 1 (Fail)
//Storyboard Layer 2 (Pass)
//Storyboard Layer 3 (Foreground)
//Storyboard Sound Samples

[TimingPoints]
758,324.324324324324,4,1,0,0,1,0
5785,-66.6666666666667,4,1,0,0,0,0
5866,-200,4,1,0,0,0,0
6109,-100,4,1,0,0,0,0
20055,-66.6666666666667,4,1,0,0,0,0
20136,-200,4,1,0,0,0,0
20379,-100,4,1,0,0,0,0
25244,-40,4,1,0,0,0,0
25325,-200,4,1,0,0,0,0
25568,-100,4,1,0,0,0,0
33190,-40,4,1,0,0,0,0
33271,-200,4,1,0,0,0,0
33514,-40,4,1,0,0,0,0
33555,-200,4,1,0,0,0,0
33676,-40,4,1,0,0,0,0
33757,-200,4,1,0,0,0,0
34001,-100,4,1,0,0,0,0
34325,-40,4,1,0,0,0,0
34406,-200,4,1,0,0,0,0
34649,-100,4,1,0,0,0,0
34974,-66.6666666666667,4,1,0,0,0,0
35055,-200,4,1,0,0,0,0
35298,-100,4,1,0,0,0,0
42109,-40,4,1,0,0,0,0
42190,-200,4,1,0,0,0,0
42433,-100,4,1,0,0,0,0
42757,-66.6666666666667,4,1,0,0,0,0
42839,-200,4,1,0,0,0,0
43082,-100,4,1,0,0,0,0
46163,-133.333333333333,4,1,0,0,0,0
49082,-113.636363636364,4,1,0,0,0,0
49406,-100,4,1,0,0,0,0
53785,-1000,4,1,0,0,0,0
53866,-20,4,1,0,0,0,0
53947,-285.714285714286,4,1,0,0,0,0
54271,-111.111111111111,4,1,0,0,0,0
54595,-100,4,1,0,0,0,0
54703,-90.9090909090909,4,1,0,0,0,0
54812,-83.3333333333333,4,1,0,0,0,0
54920,-76.9230769230769,4,1,0,0,0,0
55028,-100,4,1,0,0,0,0
85893,-20,4,1,0,0,0,0
85947,-285.714285714286,4,1,0,0,0,0
86379,-100,4,1,0,0,0,0
90109,-40,4,1,0,0,0,0
90190,-200,4,1,0,0,0,0
90433,-100,4,1,0,0,0,0
107136,-113.636363636364,4,1,0,0,0,0
110703,-104.166666666667,4,1,0,0,0,0
111028,-100,4,1,0,0,0,0
114757,-10,4,1,0,0,0,0
114920,-1000,4,1,0,0,0,0
115082,-133.333333333333,4,1,0,0,0,0
115568,-100,4,1,0,0,0,0
126433,-90.0900900900901,4,1,0,0,0,0
126595,-129.87012987013,4,1,0,0,0,0
126757,-100,4,1,0,0,0,0
199244,-1000,4,1,0,0,0,0
199325,-10,4,1,0,0,0,0
199893,-285.714285714286,4,1,0,0,0,0
200379,-111.111111111111,4,1,0,0,0,0
200866,-100,4,1,0,0,0,0
201514,-90.0900900900901,4,1,0,0,0,0
201595,-129.87012987013,4,1,0,0,0,0
201676,-100,4,1,0,0,0,0

[HitObjects]
329,192,758,5,0,0:0:0:0:
329,192,1082,1,0,0:0:0:0:
182,192,1406,128,0,1568:0:0:0:0:
36,192,1406,1,0,0:0:0:0:
256,192,1406,1,0,0:0:0:0:
475,192,1568,128,0,1730:0:0:0:0:
109,192,1568,1,0,0:0:0:0:
329,192,1568,1,0,0:0:0:0:
256,192,1649,128,0,1893:0:0:0:0:
36,192,1649,128,0,1893:0:0:0:0:
182,192,1730,1,0,0:0:0:0:
402,192,1730,1,0,0:0:0:0:
329,192,1812,128,0,1893:0:0:0:0:
475,192,1893,128,0,3190:0:0:0:0:
256,192,2055,128,0,2298:0:0:0:0:
182,192,2136,128,0,2379:0:0:0:0:
109,192,2217,128,0,2460:0:0:0:0:
36,192,2298,128,0,2541:0:0:0:0:
329,192,2379,1,0,0:0:0:0:
256,192,2379,128,0,2622:0:0:0:0:
182,192,2460,128,0,2703:0:0:0:0:
109,192,2541,128,0,2785:0:0:0:0:
36,192,2622,128,0,2866:0:0:0:0:
256,192,2703,128,0,2920:0:0:0:0:
182,192,2785,128,0,3001:0:0:0:0:
109,192,2866,128,0,3082:0:0:0:0:
36,192,2947,128,0,3163:0:0:0:0:
256,192,3028,128,0,3271:0:0:0:0:
329,192,3028,1,0,0:0:0:0:
329,192,3109,128,0,3352:0:0:0:0:
402,192,3190,128,0,3433:0:0:0:0:
36,192,3190,128,0,4163:0:0:0:0:
109,192,3190,1,0,0:0:0:0:
475,192,3271,128,0,3514:0:0:0:0:
256,192,3352,128,0,3595:0:0:0:0:
329,192,3433,128,0,3622:0:0:0:0:
402,192,3514,128,0,3649:0:0:0:0:
475,192,3595,128,0,3676:0:0:0:0:
109,192,3676,128,0,4163:0:0:0:0:
182,192,3676,128,0,3920:0:0:0:0:
329,192,3676,1,0,0:0:0:0:
256,192,3757,128,0,3920:0:0:0:0:
329,192,3839,128,0,4001:0:0:0:0:
402,192,3920,128,0,4082:0:0:0:0:
182,192,4001,128,0,4325:0:0:0:0:
256,192,4001,128,0,4244:0:0:0:0:
329,192,4082,128,0,4406:0:0:0:0:
402,192,4163,128,0,4406:0:0:0:0:
475,192,4244,128,0,4447:0:0:0:0:
256,192,4325,128,0,4812:0:0:0:0:
36,192,4325,128,0,5379:0:0:0:0:
109,192,4325,1,0,0:0:0:0:
475,192,4487,128,0,5785:0:0:0:0:
182,192,4487,128,0,4812:0:0:0:0:
109,192,4487,128,0,5055:0:0:0:0:
329,192,4487,1,0,0:0:0:0:
402,192,4487,1,0,0:0:0:0:
402,192,4974,128,0,5785:0:0:0:0:
256,192,4974,128,0,5703:0:0:0:0:
329,192,5136,128,0,5785:0:0:0:0:
109,192,5136,128,0,5703:0:0:0:0:
36,192,5460,128,0,5703:0:0:0:0:
182,192,5622,128,0,5703:0:0:0:0:
36,192,5785,1,0,0:0:0:0:
182,192,5785,1,0,0:0:0:0:
256,192,5785,1,0,0:0:0:0:
109,192,5785,1,0,0:0:0:0:
256,192,6109,1,0,0:0:0:0:
329,192,6109,1,0,0:0:0:0:
402,192,6109,1,0,0:0:0:0:
475,192,6109,1,0,0:0:0:0:
182,192,6271,1,0,0:0:0:0:
256,192,6271,1,0,0:0:0:0:
329,192,6271,1,0,0:0:0:0:
402,192,6271,1,0,0:0:0:0:
329,192,6433,1,0,0:0:0:0:
256,192,6433,1,0,0:0:0:0:
182,192,6433,1,0,0:0:0:0:
109,192,6433,1,0,0:0:0:0:
36,192,6433,1,0,0:0:0:0:
402,192,6433,1,0,0:0:0:0:
475,192,6433,1,0,0:0:0:0:
182,192,6757,1,0,0:0:0:0:
109,192,6757,1,0,0:0:0:0:
329,192,6757,1,0,0:0:0:0:
402,192,6757,1,0,0:0:0:0:
36,192,6757,1,0,0:0:0:0:
475,192,6757,1,0,0:0:0:0:
256,192,6839,1,0,0:0:0:0:
182,192,6920,1,0,0:0:0:0:
329,192,6920,1,0,0:0:0:0:
36,192,6920,1,0,0:0:0:0:
475,192,6920,1,0,0:0:0:0:
109,192,6920,128,0,7244:0:0:0:0:
402,192,6920,128,0,7244:0:0:0:0:
256,192,7244,128,0,7730:0:0:0:0:
36,192,7244,128,0,7487:0:0:0:0:
475,192,7244,128,0,7487:0:0:0:0:
109,192,7568,128,0,7690:0:0:0:0:
402,192,7568,128,0,7690:0:0:0:0:
36,192,7568,1,0,0:0:0:0:
475,192,7568,1,0,0:0:0:0:
329,192,7568,1,0,0:0:0:0:
182,192,7568,1,0,0:0:0:0:
182,192,7730,128,0,7852:0:0:0:0:
109,192,7730,1,0,0:0:0:0:
329,192,7730,128,0,7852:0:0:0:0:
402,192,7730,1,0,0:0:0:0:
109,192,7893,128,0,8014:0:0:0:0:
182,192,7893,1,0,0:0:0:0:
256,192,7893,1,0,0:0:0:0:
329,192,7893,1,0,0:0:0:0:
402,192,7893,128,0,8014:0:0:0:0:
36,192,8055,1,0,0:0:0:0:
182,192,8055,1,0,0:0:0:0:
109,192,8055,1,0,0:0:0:0:
329,192,8055,1,0,0:0:0:0:
402,192,8055,1,0,0:0:0:0:
475,192,8055,128,0,8176:0:0:0:0:
36,192,8095,128,0,8176:0:0:0:0:
256,192,8217,128,0,8325:0:0:0:0:
36,192,8217,1,0,0:0:0:0:
475,192,8217,1,0,0:0:0:0:
182,192,8271,128,0,8379:0:0:0:0:
329,192,8271,128,0,8379:0:0:0:0:
109,192,8325,128,0,8433:0:0:0:0:
402,192,8325,128,0,8433:0:0:0:0:
256,192,8379,1,0,0:0:0:0:
182,192,8433,1,0,0:0:0:0:
329,192,8433,1,0,0:0:0:0:
109,192,8487,1,0,0:0:0:0:
402,192,8487,1,0,0:0:0:0:
256,192,8541,128,0,8703:0:0:0:0:
36,192,8541,128,0,8785:0:0:0:0:
475,192,8541,128,0,8785:0:0:0:0:
402,192,8703,128,0,8785:0:0:0:0:
109,192,8703,128,0,8785:0:0:0:0:
329,192,8703,1,0,0:0:0:0:
182,192,8703,1,0,0:0:0:0:
329,192,8866,128,0,9028:0:0:0:0:
109,192,8866,1,0,0:0:0:0:
256,192,8866,128,0,8947:0:0:0:0:
36,192,8866,128,0,8947:0:0:0:0:
475,192,8866,128,0,8947:0:0:0:0:
182,192,8866,128,0,9028:0:0:0:0:
402,192,8866,1,0,0:0:0:0:
36,192,9028,128,0,9352:0:0:0:0:
256,192,9028,128,0,9352:0:0:0:0:
475,192,9028,128,0,9352:0:0:0:0:
109,192,9028,1,0,0:0:0:0:
402,192,9028,1,0,0:0:0:0:
182,192,9352,1,0,0:0:0:0:
329,192,9352,1,0,0:0:0:0:
109,192,9352,128,0,9676:0:0:0:0:
402,192,9352,128,0,9676:0:0:0:0:
182,192,9514,128,0,9595:0:0:0:0:
329,192,9514,128,0,9595:0:0:0:0:
475,192,9514,1,0,0:0:0:0:
36,192,9514,1,0,0:0:0:0:
256,192,9514,128,0,9676:0:0:0:0:
329,192,9676,128,0,10163:0:0:0:0:
182,192,9676,128,0,10163:0:0:0:0:
36,192,9676,1,0,0:0:0:0:
475,192,9676,1,0,0:0:0:0:
256,192,10163,1,0,0:0:0:0:
36,192,10163,1,0,0:0:0:0:
109,192,10163,1,0,0:0:0:0:
402,192,10163,1,0,0:0:0:0:
475,192,10163,1,0,0:0:0:0:
329,192,10325,1,0,0:0:0:0:
182,192,10325,1,0,0:0:0:0:
256,192,10487,128,0,11460:0:0:0:0:
109,192,10487,1,0,0:0:0:0:
402,192,10487,1,0,0:0:0:0:
475,192,10649,1,0,0:0:0:0:
36,192,10649,1,0,0:0:0:0:
109,192,10812,1,0,0:0:0:0:
402,192,10812,1,0,0:0:0:0:
182,192,10974,1,0,0:0:0:0:
329,192,10974,1,0,0:0:0:0:
109,192,11136,128,0,11460:0:0:0:0:
402,192,11136,128,0,11460:0:0:0:0:
36,192,11136,1,0,0:0:0:0:
182,192,11136,1,0,0:0:0:0:
329,192,11136,1,0,0:0:0:0:
475,192,11136,1,0,0:0:0:0:
475,192,11785,128,0,11866:0:0:0:0:
402,192,11825,128,0,11947:0:0:0:0:
329,192,11866,128,0,11987:0:0:0:0:
256,192,11906,128,0,12068:0:0:0:0:
182,192,11947,128,0,12149:0:0:0:0:
475,192,11947,128,0,12190:0:0:0:0:
109,192,11987,128,0,12190:0:0:0:0:
36,192,12028,128,0,12230:0:0:0:0:
402,192,12028,128,0,12271:0:0:0:0:
329,192,12109,128,0,12352:0:0:0:0:
256,192,12163,128,0,12298:0:0:0:0:
182,192,12217,128,0,12352:0:0:0:0:
475,192,12271,1,0,0:0:0:0:
109,192,12271,128,0,12406:0:0:0:0:
36,192,12325,128,0,12460:0:0:0:0:
402,192,12352,1,0,0:0:0:0:
329,192,12433,1,0,0:0:0:0:
475,192,12433,1,0,0:0:0:0:
182,192,12433,128,0,12676:0:0:0:0:
109,192,12514,128,0,12595:0:0:0:0:
402,192,12514,1,0,0:0:0:0:
36,192,12595,1,0,0:0:0:0:
329,192,12595,1,0,0:0:0:0:
109,192,12676,1,0,0:0:0:0:
475,192,12676,1,0,0:0:0:0:
182,192,12757,128,0,13082:0:0:0:0:
402,192,12757,128,0,13001:0:0:0:0:
256,192,12757,1,0,0:0:0:0:
329,192,12839,128,0,12920:0:0:0:0:
36,192,12839,1,0,0:0:0:0:
256,192,12920,1,0,0:0:0:0:
109,192,12920,1,0,0:0:0:0:
329,192,13001,1,0,0:0:0:0:
402,192,13082,1,0,0:0:0:0:
475,192,13082,128,0,13406:0:0:0:0:
256,192,13082,128,0,13325:0:0:0:0:
109,192,13163,128,0,13244:0:0:0:0:
329,192,13163,1,0,0:0:0:0:
36,192,13244,1,0,0:0:0:0:
109,192,13325,1,0,0:0:0:0:
329,192,13406,1,0,0:0:0:0:
36,192,13406,128,0,13649:0:0:0:0:
182,192,13406,1,0,0:0:0:0:
256,192,13406,128,0,13730:0:0:0:0:
109,192,13487,128,0,13568:0:0:0:0:
402,192,13487,1,0,0:0:0:0:
182,192,13568,1,0,0:0:0:0:
475,192,13568,1,0,0:0:0:0:
109,192,13649,1,0,0:0:0:0:
402,192,13649,1,0,0:0:0:0:
36,192,13730,1,0,0:0:0:0:
329,192,13730,1,0,0:0:0:0:
475,192,13730,128,0,13974:0:0:0:0:
402,192,13812,128,0,13893:0:0:0:0:
182,192,13812,128,0,14055:0:0:0:0:
256,192,13812,1,0,0:0:0:0:
36,192,13893,128,0,14136:0:0:0:0:
329,192,13893,128,0,14136:0:0:0:0:
109,192,13974,128,0,14055:0:0:0:0:
256,192,13974,128,0,14217:0:0:0:0:
475,192,14055,128,0,14298:0:0:0:0:
402,192,14055,1,0,0:0:0:0:
402,192,14136,128,0,14379:0:0:0:0:
182,192,14136,1,0,0:0:0:0:
36,192,14217,128,0,14460:0:0:0:0:
109,192,14217,1,0,0:0:0:0:
182,192,14298,128,0,14541:0:0:0:0:
256,192,14298,1,0,0:0:0:0:
109,192,14379,128,0,14622:0:0:0:0:
329,192,14379,1,0,0:0:0:0:
256,192,14460,128,0,14663:0:0:0:0:
475,192,14460,128,0,14703:0:0:0:0:
402,192,14460,1,0,0:0:0:0:
329,192,14541,128,0,14785:0:0:0:0:
36,192,14541,128,0,14703:0:0:0:0:
402,192,14622,128,0,14866:0:0:0:0:
182,192,14622,128,0,14785:0:0:0:0:
256,192,14703,128,0,14947:0:0:0:0:
109,192,14703,128,0,14866:0:0:0:0:
36,192,14785,128,0,14947:0:0:0:0:
475,192,14785,128,0,14947:0:0:0:0:
329,192,14866,1,0,0:0:0:0:
182,192,14866,1,0,0:0:0:0:
402,192,14947,1,0,0:0:0:0:
109,192,14947,1,0,0:0:0:0:
329,192,15028,1,0,0:0:0:0:
475,192,15028,1,0,0:0:0:0:
36,192,15028,128,0,15271:0:0:0:0:
182,192,15028,128,0,15068:0:0:0:0:
256,192,15109,128,0,15190:0:0:0:0:
402,192,15109,128,0,15149:0:0:0:0:
475,192,15190,128,0,15230:0:0:0:0:
109,192,15190,128,0,15230:0:0:0:0:
329,192,15271,128,0,15312:0:0:0:0:
182,192,15271,128,0,15433:0:0:0:0:
402,192,15352,128,0,15433:0:0:0:0:
256,192,15352,128,0,15393:0:0:0:0:
36,192,15352,128,0,15393:0:0:0:0:
109,192,15433,128,0,15474:0:0:0:0:
475,192,15514,128,0,15757:0:0:0:0:
329,192,15514,128,0,15555:0:0:0:0:
182,192,15514,128,0,15555:0:0:0:0:
109,192,15595,128,0,15676:0:0:0:0:
256,192,15595,128,0,15636:0:0:0:0:
182,192,15676,128,0,15717:0:0:0:0:
329,192,15676,128,0,15717:0:0:0:0:
36,192,15757,128,0,15920:0:0:0:0:
256,192,15757,128,0,15798:0:0:0:0:
402,192,15757,128,0,15798:0:0:0:0:
329,192,15839,128,0,15920:0:0:0:0:
182,192,15839,128,0,15879:0:0:0:0:
109,192,15920,128,0,15960:0:0:0:0:
475,192,15920,128,0,15960:0:0:0:0:
256,192,16001,128,0,16244:0:0:0:0:
402,192,16001,128,0,16041:0:0:0:0:
36,192,16001,128,0,16041:0:0:0:0:
475,192,16082,128,0,16163:0:0:0:0:
329,192,16082,128,0,16122:0:0:0:0:
182,192,16082,128,0,16122:0:0:0:0:
402,192,16163,128,0,16203:0:0:0:0:
109,192,16163,128,0,16203:0:0:0:0:
182,192,16244,128,0,16447:0:0:0:0:
329,192,16244,128,0,16285:0:0:0:0:
36,192,16244,128,0,16285:0:0:0:0:
402,192,16325,128,0,16406:0:0:0:0:
256,192,16325,128,0,16366:0:0:0:0:
109,192,16325,128,0,16366:0:0:0:0:
475,192,16406,128,0,16447:0:0:0:0:
329,192,16406,128,0,16447:0:0:0:0:
256,192,16487,128,0,16730:0:0:0:0:
109,192,16487,128,0,16528:0:0:0:0:
402,192,16487,128,0,16528:0:0:0:0:
36,192,16568,128,0,16649:0:0:0:0:
329,192,16568,128,0,16609:0:0:0:0:
475,192,16649,128,0,16690:0:0:0:0:
109,192,16649,128,0,16690:0:0:0:0:
402,192,16730,128,0,16974:0:0:0:0:
182,192,16730,128,0,16771:0:0:0:0:
109,192,16812,128,0,16893:0:0:0:0:
329,192,16812,128,0,16852:0:0:0:0:
182,192,16893,128,0,16933:0:0:0:0:
36,192,16893,128,0,16933:0:0:0:0:
256,192,16974,128,0,17217:0:0:0:0:
109,192,16974,128,0,17014:0:0:0:0:
475,192,17055,128,0,17136:0:0:0:0:
182,192,17055,128,0,17095:0:0:0:0:
329,192,17136,128,0,17176:0:0:0:0:
36,192,17136,128,0,17176:0:0:0:0:
402,192,17217,128,0,17460:0:0:0:0:
109,192,17217,128,0,17257:0:0:0:0:
182,192,17298,128,0,17379:0:0:0:0:
329,192,17298,128,0,17339:0:0:0:0:
475,192,17298,128,0,17339:0:0:0:0:
256,192,17379,128,0,17420:0:0:0:0:
109,192,17379,128,0,17420:0:0:0:0:
182,192,17460,128,0,17501:0:0:0:0:
36,192,17460,128,0,17501:0:0:0:0:
475,192,17460,128,0,17501:0:0:0:0:
402,192,17541,128,0,17582:0:0:0:0:
256,192,17541,128,0,17582:0:0:0:0:
109,192,17541,128,0,17582:0:0:0:0:
329,192,17622,128,0,17785:0:0:0:0:
182,192,17622,1,0,0:0:0:0:
36,192,17622,1,0,0:0:0:0:
256,192,17703,128,0,17906:0:0:0:0:
109,192,17703,1,0,0:0:0:0:
36,192,17785,128,0,17947:0:0:0:0:
182,192,17785,1,0,0:0:0:0:
109,192,17866,128,0,18068:0:0:0:0:
329,192,17866,1,0,0:0:0:0:
402,192,17947,128,0,18109:0:0:0:0:
256,192,17947,1,0,0:0:0:0:
329,192,18028,128,0,18230:0:0:0:0:
182,192,18028,1,0,0:0:0:0:
109,192,18109,128,0,18271:0:0:0:0:
256,192,18109,1,0,0:0:0:0:
182,192,18190,128,0,18393:0:0:0:0:
402,192,18190,1,0,0:0:0:0:
475,192,18271,128,0,18433:0:0:0:0:
329,192,18271,1,0,0:0:0:0:
402,192,18352,128,0,18555:0:0:0:0:
256,192,18352,1,0,0:0:0:0:
182,192,18433,128,0,18595:0:0:0:0:
36,192,18433,1,0,0:0:0:0:
256,192,18514,128,0,18717:0:0:0:0:
109,192,18514,1,0,0:0:0:0:
475,192,18595,128,0,18757:0:0:0:0:
329,192,18595,1,0,0:0:0:0:
402,192,18676,128,0,18879:0:0:0:0:
182,192,18676,1,0,0:0:0:0:
109,192,18757,128,0,18920:0:0:0:0:
256,192,18757,1,0,0:0:0:0:
182,192,18839,128,0,19041:0:0:0:0:
329,192,18839,1,0,0:0:0:0:
475,192,18839,1,0,0:0:0:0:
402,192,18920,128,0,19082:0:0:0:0:
36,192,18920,1,0,0:0:0:0:
329,192,19001,128,0,19203:0:0:0:0:
109,192,19001,1,0,0:0:0:0:
36,192,19082,128,0,19244:0:0:0:0:
182,192,19082,1,0,0:0:0:0:
475,192,19082,1,0,0:0:0:0:
109,192,19163,128,0,19366:0:0:0:0:
402,192,19163,1,0,0:0:0:0:
329,192,19244,128,0,19406:0:0:0:0:
182,192,19244,1,0,0:0:0:0:
256,192,19325,128,0,19528:0:0:0:0:
402,192,19325,1,0,0:0:0:0:
36,192,19325,1,0,0:0:0:0:
109,192,19406,128,0,19568:0:0:0:0:
475,192,19406,1,0,0:0:0:0:
36,192,19487,128,0,19690:0:0:0:0:
329,192,19487,1,0,0:0:0:0:
402,192,19568,128,0,19730:0:0:0:0:
256,192,19568,1,0,0:0:0:0:
329,192,19649,128,0,19852:0:0:0:0:
475,192,19649,1,0,0:0:0:0:
109,192,19649,1,0,0:0:0:0:
182,192,19730,128,0,19893:0:0:0:0:
36,192,19730,1,0,0:0:0:0:
109,192,19812,128,0,20014:0:0:0:0:
256,192,19812,1,0,0:0:0:0:
402,192,19812,1,0,0:0:0:0:
475,192,19893,128,0,20055:0:0:0:0:
329,192,19893,1,0,0:0:0:0:
36,192,19974,1,0,0:0:0:0:
182,192,19974,1,0,0:0:0:0:
109,192,20055,1,0,0:0:0:0:
256,192,20055,1,0,0:0:0:0:
402,192,20055,1,0,0:0:0:0:
109,192,20379,1,0,0:0:0:0:
256,192,20379,1,0,0:0:0:0:
402,192,20379,1,0,0:0:0:0:
109,192,20541,128,0,20785:0:0:0:0:
402,192,20541,128,0,20785:0:0:0:0:
256,192,20541,1,0,0:0:0:0:
182,192,20703,128,0,20785:0:0:0:0:
475,192,20703,128,0,20785:0:0:0:0:
182,192,20866,1,0,0:0:0:0:
475,192,20866,1,0,0:0:0:0:
256,192,20866,1,0,0:0:0:0:
402,192,20866,1,0,0:0:0:0:
109,192,20866,1,0,0:0:0:0:
475,192,21028,128,0,21271:0:0:0:0:
182,192,21028,128,0,21271:0:0:0:0:
402,192,21190,128,0,21271:0:0:0:0:
109,192,21190,128,0,21271:0:0:0:0:
256,192,21190,1,0,0:0:0:0:
109,192,21352,1,0,0:0:0:0:
256,192,21352,1,0,0:0:0:0:
402,192,21352,1,0,0:0:0:0:
109,192,21514,128,0,21757:0:0:0:0:
402,192,21514,128,0,21757:0:0:0:0:
182,192,21514,1,0,0:0:0:0:
475,192,21514,1,0,0:0:0:0:
329,192,21676,128,0,21757:0:0:0:0:
36,192,21676,128,0,21757:0:0:0:0:
402,192,21839,1,0,0:0:0:0:
109,192,21839,1,0,0:0:0:0:
36,192,21839,1,0,0:0:0:0:
329,192,21839,1,0,0:0:0:0:
36,192,22001,128,0,22244:0:0:0:0:
329,192,22001,128,0,22244:0:0:0:0:
109,192,22163,128,0,22244:0:0:0:0:
402,192,22163,128,0,22244:0:0:0:0:
256,192,22163,1,0,0:0:0:0:
109,192,22325,1,0,0:0:0:0:
402,192,22325,1,0,0:0:0:0:
182,192,22325,1,0,0:0:0:0:
329,192,22325,1,0,0:0:0:0:
256,192,22406,1,0,0:0:0:0:
109,192,22487,1,0,0:0:0:0:
182,192,22487,1,0,0:0:0:0:
402,192,22487,1,0,0:0:0:0:
329,192,22487,1,0,0:0:0:0:
109,192,22649,128,0,22730:0:0:0:0:
256,192,22649,128,0,22730:0:0:0:0:
402,192,22649,128,0,22730:0:0:0:0:
36,192,22649,128,0,22730:0:0:0:0:
182,192,22649,128,0,22730:0:0:0:0:
329,192,22649,128,0,22730:0:0:0:0:
475,192,22649,128,0,22730:0:0:0:0:
256,192,22974,1,0,0:0:0:0:
402,192,22974,1,0,0:0:0:0:
109,192,22974,1,0,0:0:0:0:
402,192,23136,128,0,23379:0:0:0:0:
256,192,23136,128,0,23379:0:0:0:0:
109,192,23136,128,0,23379:0:0:0:0:
475,192,23298,128,0,23379:0:0:0:0:
182,192,23298,128,0,23379:0:0:0:0:
329,192,23298,128,0,23379:0:0:0:0:
109,192,23460,1,0,0:0:0:0:
475,192,23460,1,0,0:0:0:0:
402,192,23460,1,0,0:0:0:0:
329,192,23460,1,0,0:0:0:0:
182,192,23460,1,0,0:0:0:0:
256,192,23460,1,0,0:0:0:0:
182,192,23622,128,0,23866:0:0:0:0:
329,192,23622,128,0,23866:0:0:0:0:
475,192,23622,128,0,23866:0:0:0:0:
402,192,23785,128,0,23866:0:0:0:0:
109,192,23785,128,0,23866:0:0:0:0:
256,192,23785,128,0,23866:0:0:0:0:
329,192,23947,1,0,0:0:0:0:
475,192,23947,1,0,0:0:0:0:
182,192,23947,1,0,0:0:0:0:
182,192,24109,1,0,0:0:0:0:
109,192,24109,128,0,24352:0:0:0:0:
402,192,24109,128,0,24352:0:0:0:0:
256,192,24109,128,0,24352:0:0:0:0:
329,192,24109,1,0,0:0:0:0:
475,192,24109,1,0,0:0:0:0:
36,192,24271,128,0,24352:0:0:0:0:
475,192,24271,128,0,24352:0:0:0:0:
182,192,24352,1,0,0:0:0:0:
329,192,24352,1,0,0:0:0:0:
109,192,24433,1,0,0:0:0:0:
402,192,24433,1,0,0:0:0:0:
36,192,24433,1,0,0:0:0:0:
256,192,24433,1,0,0:0:0:0:
475,192,24433,1,0,0:0:0:0:
329,192,24595,128,0,24757:0:0:0:0:
36,192,24595,128,0,25001:0:0:0:0:
182,192,24595,128,0,24757:0:0:0:0:
475,192,24595,128,0,24676:0:0:0:0:
109,192,24676,128,0,24839:0:0:0:0:
256,192,24757,128,0,24839:0:0:0:0:
402,192,24757,128,0,24839:0:0:0:0:
475,192,24839,128,0,25244:0:0:0:0:
329,192,24839,128,0,25001:0:0:0:0:
182,192,24839,128,0,25001:0:0:0:0:
402,192,24920,128,0,25163:0:0:0:0:
256,192,25001,128,0,25082:0:0:0:0:
109,192,25001,128,0,25082:0:0:0:0:
182,192,25082,128,0,25244:0:0:0:0:
36,192,25082,128,0,25244:0:0:0:0:
329,192,25163,128,0,25244:0:0:0:0:
109,192,25244,1,0,0:0:0:0:
256,192,25244,1,0,0:0:0:0:
402,192,25244,1,0,0:0:0:0:
329,192,25568,1,0,0:0:0:0:
402,192,25568,1,0,0:0:0:0:
182,192,25730,1,0,0:0:0:0:
109,192,25730,1,0,0:0:0:0:
36,192,25730,1,0,0:0:0:0:
256,192,25730,128,0,26055:0:0:0:0:
329,192,25893,128,0,26055:0:0:0:0:
402,192,26055,1,0,0:0:0:0:
475,192,26055,128,0,26217:0:0:0:0:
182,192,26055,1,0,0:0:0:0:
402,192,26217,1,0,0:0:0:0:
329,192,26217,1,0,0:0:0:0:
109,192,26217,1,0,0:0:0:0:
256,192,26379,128,0,26703:0:0:0:0:
329,192,26379,1,0,0:0:0:0:
402,192,26379,1,0,0:0:0:0:
475,192,26379,1,0,0:0:0:0:
109,192,26379,1,0,0:0:0:0:
182,192,26379,128,0,26541:0:0:0:0:
36,192,26541,1,0,0:0:0:0:
109,192,26541,128,0,26703:0:0:0:0:
329,192,26703,1,0,0:0:0:0:
402,192,26703,128,0,26866:0:0:0:0:
36,192,26703,128,0,26947:0:0:0:0:
256,192,26866,1,0,0:0:0:0:
329,192,26866,128,0,27028:0:0:0:0:
182,192,27028,1,0,0:0:0:0:
256,192,27028,128,0,27352:0:0:0:0:
109,192,27028,1,0,0:0:0:0:
36,192,27028,1,0,0:0:0:0:
329,192,27190,128,0,27352:0:0:0:0:
475,192,27190,128,0,27433:0:0:0:0:
36,192,27352,1,0,0:0:0:0:
109,192,27352,128,0,27514:0:0:0:0:
182,192,27352,1,0,0:0:0:0:
256,192,27514,1,0,0:0:0:0:
182,192,27514,128,0,27676:0:0:0:0:
475,192,27514,1,0,0:0:0:0:
329,192,27676,1,0,0:0:0:0:
402,192,27676,1,0,0:0:0:0:
256,192,27676,128,0,28001:0:0:0:0:
475,192,27676,1,0,0:0:0:0:
402,192,27839,1,0,0:0:0:0:
475,192,27839,128,0,28001:0:0:0:0:
36,192,27839,128,0,28244:0:0:0:0:
329,192,28001,128,0,28163:0:0:0:0:
182,192,28163,128,0,28325:0:0:0:0:
402,192,28163,1,0,0:0:0:0:
475,192,28163,1,0,0:0:0:0:
36,192,28325,128,0,28487:0:0:0:0:
402,192,28325,128,0,28649:0:0:0:0:
329,192,28325,1,0,0:0:0:0:
475,192,28325,1,0,0:0:0:0:
256,192,28325,1,0,0:0:0:0:
329,192,28487,128,0,28974:0:0:0:0:
475,192,28487,128,0,28974:0:0:0:0:
109,192,28487,1,0,0:0:0:0:
36,192,28649,1,0,0:0:0:0:
182,192,28649,128,0,28812:0:0:0:0:
256,192,28812,1,0,0:0:0:0:
109,192,28812,128,0,28974:0:0:0:0:
402,192,28974,128,0,29298:0:0:0:0:
182,192,28974,1,0,0:0:0:0:
36,192,28974,1,0,0:0:0:0:
256,192,28974,128,0,29136:0:0:0:0:
182,192,29136,128,0,29622:0:0:0:0:
36,192,29136,128,0,29622:0:0:0:0:
329,192,29136,1,0,0:0:0:0:
475,192,29136,128,0,29460:0:0:0:0:
256,192,29298,1,0,0:0:0:0:
329,192,29460,1,0,0:0:0:0:
475,192,29622,1,0,0:0:0:0:
109,192,29622,128,0,29947:0:0:0:0:
402,192,29622,128,0,29785:0:0:0:0:
329,192,29785,128,0,29947:0:0:0:0:
256,192,29947,1,0,0:0:0:0:
36,192,29947,1,0,0:0:0:0:
475,192,29947,128,0,30109:0:0:0:0:
109,192,30109,1,0,0:0:0:0:
402,192,30109,1,0,0:0:0:0:
182,192,30109,128,0,30271:0:0:0:0:
329,192,30109,128,0,30352:0:0:0:0:
109,192,30271,128,0,30595:0:0:0:0:
256,192,30271,1,0,0:0:0:0:
36,192,30271,1,0,0:0:0:0:
475,192,30271,1,0,0:0:0:0:
402,192,30433,128,0,30595:0:0:0:0:
329,192,30433,1,0,0:0:0:0:
475,192,30433,1,0,0:0:0:0:
182,192,30433,1,0,0:0:0:0:
36,192,30433,1,0,0:0:0:0:
256,192,30595,128,0,30757:0:0:0:0:
109,192,30757,128,0,30920:0:0:0:0:
402,192,30757,128,0,31001:0:0:0:0:
475,192,30920,128,0,31082:0:0:0:0:
256,192,30920,128,0,31244:0:0:0:0:
182,192,30920,1,0,0:0:0:0:
36,192,30920,1,0,0:0:0:0:
329,192,30920,1,0,0:0:0:0:
329,192,31082,128,0,31244:0:0:0:0:
402,192,31082,1,0,0:0:0:0:
182,192,31244,128,0,31406:0:0:0:0:
36,192,31244,1,0,0:0:0:0:
109,192,31244,1,0,0:0:0:0:
329,192,31406,128,0,31568:0:0:0:0:
402,192,31406,1,0,0:0:0:0:
475,192,31406,1,0,0:0:0:0:
402,192,31568,128,0,31893:0:0:0:0:
36,192,31568,128,0,31730:0:0:0:0:
256,192,31568,1,0,0:0:0:0:
182,192,31568,1,0,0:0:0:0:
109,192,31568,1,0,0:0:0:0:
182,192,31730,128,0,31893:0:0:0:0:
256,192,31730,128,0,32055:0:0:0:0:
475,192,31730,128,0,31974:0:0:0:0:
109,192,31893,128,0,32217:0:0:0:0:
329,192,31893,128,0,32055:0:0:0:0:
475,192,32055,128,0,32217:0:0:0:0:
182,192,32055,1,0,0:0:0:0:
36,192,32055,1,0,0:0:0:0:
329,192,32217,128,0,32541:0:0:0:0:
182,192,32217,128,0,32379:0:0:0:0:
36,192,32217,1,0,0:0:0:0:
402,192,32217,1,0,0:0:0:0:
36,192,32379,128,0,32541:0:0:0:0:
182,192,32541,128,0,32866:0:0:0:0:
256,192,32541,128,0,32703:0:0:0:0:
475,192,32541,1,0,0:0:0:0:
402,192,32541,1,0,0:0:0:0:
402,192,32703,128,0,32866:0:0:0:0:
109,192,32703,1,0,0:0:0:0:
36,192,32703,1,0,0:0:0:0:
109,192,32866,128,0,33109:0:0:0:0:
256,192,32866,1,0,0:0:0:0:
475,192,32866,1,0,0:0:0:0:
36,192,32866,1,0,0:0:0:0:
182,192,32947,128,0,33190:0:0:0:0:
329,192,32947,1,0,0:0:0:0:
402,192,33028,1,0,0:0:0:0:
256,192,33028,128,0,33190:0:0:0:0:
475,192,33109,1,0,0:0:0:0:
329,192,33109,128,0,33190:0:0:0:0:
109,192,33190,1,0,0:0:0:0:
36,192,33190,1,0,0:0:0:0:
402,192,33190,1,0,0:0:0:0:
475,192,33190,1,0,0:0:0:0:
182,192,33514,1,0,0:0:0:0:
109,192,33514,1,0,0:0:0:0:
329,192,33514,1,0,0:0:0:0:
402,192,33514,1,0,0:0:0:0:
475,192,33514,1,0,0:0:0:0:
36,192,33514,1,0,0:0:0:0:
109,192,33676,1,0,0:0:0:0:
182,192,33676,1,0,0:0:0:0:
256,192,33676,1,0,0:0:0:0:
329,192,33676,1,0,0:0:0:0:
402,192,33676,1,0,0:0:0:0:
475,192,33676,1,0,0:0:0:0:
36,192,33676,1,0,0:0:0:0:
182,192,34001,1,0,0:0:0:0:
109,192,34001,1,0,0:0:0:0:
329,192,34001,1,0,0:0:0:0:
402,192,34001,1,0,0:0:0:0:
182,192,34163,1,0,0:0:0:0:
36,192,34163,1,0,0:0:0:0:
329,192,34163,1,0,0:0:0:0:
402,192,34163,1,0,0:0:0:0:
475,192,34163,1,0,0:0:0:0:
109,192,34163,1,0,0:0:0:0:
256,192,34163,128,0,34649:0:0:0:0:
109,192,34325,1,0,0:0:0:0:
36,192,34325,1,0,0:0:0:0:
402,192,34325,1,0,0:0:0:0:
475,192,34325,1,0,0:0:0:0:
182,192,34649,128,0,34812:0:0:0:0:
329,192,34649,128,0,34812:0:0:0:0:
402,192,34649,1,0,0:0:0:0:
109,192,34649,1,0,0:0:0:0:
36,192,34812,1,0,0:0:0:0:
109,192,34812,128,0,34974:0:0:0:0:
402,192,34812,128,0,34974:0:0:0:0:
475,192,34812,1,0,0:0:0:0:
475,192,34974,128,0,35298:0:0:0:0:
36,192,34974,128,0,35298:0:0:0:0:
256,192,34974,128,0,35298:0:0:0:0:
182,192,35298,1,0,0:0:0:0:
109,192,35298,1,0,0:0:0:0:
329,192,35298,1,0,0:0:0:0:
402,192,35298,1,0,0:0:0:0:
182,192,35460,1,0,0:0:0:0:
36,192,35460,1,0,0:0:0:0:
329,192,35460,1,0,0:0:0:0:
475,192,35460,1,0,0:0:0:0:
182,192,35622,1,0,0:0:0:0:
109,192,35622,1,0,0:0:0:0:
329,192,35622,1,0,0:0:0:0:
402,192,35622,1,0,0:0:0:0:
256,192,35703,1,0,0:0:0:0:
182,192,35785,1,0,0:0:0:0:
36,192,35785,1,0,0:0:0:0:
329,192,35785,1,0,0:0:0:0:
475,192,35785,128,0,36068:0:0:0:0:
256,192,35866,128,0,36149:0:0:0:0:
109,192,35866,1,0,0:0:0:0:
36,192,35947,128,0,36230:0:0:0:0:
182,192,35947,1,0,0:0:0:0:
329,192,36028,1,0,0:0:0:0:
402,192,36109,128,0,36393:0:0:0:0:
475,192,36109,1,0,0:0:0:0:
109,192,36109,1,0,0:0:0:0:
256,192,36190,128,0,36474:0:0:0:0:
329,192,36190,1,0,0:0:0:0:
109,192,36271,128,0,36555:0:0:0:0:
36,192,36271,1,0,0:0:0:0:
182,192,36352,1,0,0:0:0:0:
329,192,36433,128,0,36879:0:0:0:0:
402,192,36433,1,0,0:0:0:0:
36,192,36433,1,0,0:0:0:0:
256,192,36514,128,0,36798:0:0:0:0:
475,192,36514,1,0,0:0:0:0:
182,192,36595,128,0,36717:0:0:0:0:
109,192,36595,1,0,0:0:0:0:
402,192,36676,1,0,0:0:0:0:
182,192,36757,128,0,37041:0:0:0:0:
36,192,36757,1,0,0:0:0:0:
256,192,36839,128,0,37122:0:0:0:0:
475,192,36839,1,0,0:0:0:0:
329,192,36920,128,0,37203:0:0:0:0:
109,192,36920,1,0,0:0:0:0:
402,192,37001,1,0,0:0:0:0:
182,192,37082,1,0,0:0:0:0:
109,192,37082,128,0,37366:0:0:0:0:
256,192,37163,128,0,37447:0:0:0:0:
402,192,37163,1,0,0:0:0:0:
402,192,37244,128,0,37528:0:0:0:0:
182,192,37244,1,0,0:0:0:0:
329,192,37325,1,0,0:0:0:0:
109,192,37406,1,0,0:0:0:0:
36,192,37406,128,0,37690:0:0:0:0:
475,192,37406,1,0,0:0:0:0:
256,192,37487,128,0,37771:0:0:0:0:
475,192,37568,128,0,37852:0:0:0:0:
402,192,37568,1,0,0:0:0:0:
109,192,37649,1,0,0:0:0:0:
36,192,37730,128,0,37893:0:0:0:0:
329,192,37730,1,0,0:0:0:0:
182,192,37812,1,0,0:0:0:0:
256,192,37812,128,0,37974:0:0:0:0:
475,192,37893,128,0,38136:0:0:0:0:
402,192,37893,1,0,0:0:0:0:
109,192,37974,128,0,38055:0:0:0:0:
36,192,37974,1,0,0:0:0:0:
256,192,38055,128,0,38217:0:0:0:0:
329,192,38055,1,0,0:0:0:0:
402,192,38136,128,0,38298:0:0:0:0:
109,192,38136,1,0,0:0:0:0:
182,192,38217,128,0,38460:0:0:0:0:
475,192,38217,1,0,0:0:0:0:
256,192,38298,128,0,38379:0:0:0:0:
36,192,38298,1,0,0:0:0:0:
329,192,38379,128,0,38541:0:0:0:0:
402,192,38379,1,0,0:0:0:0:
109,192,38379,1,0,0:0:0:0:
256,192,38460,128,0,38622:0:0:0:0:
475,192,38460,1,0,0:0:0:0:
182,192,38541,128,0,38622:0:0:0:0:
36,192,38541,1,0,0:0:0:0:
402,192,38622,128,0,38703:0:0:0:0:
329,192,38622,1,0,0:0:0:0:
256,192,38703,128,0,38866:0:0:0:0:
182,192,38703,1,0,0:0:0:0:
475,192,38703,1,0,0:0:0:0:
109,192,38785,128,0,38947:0:0:0:0:
402,192,38785,1,0,0:0:0:0:
475,192,38866,128,0,38947:0:0:0:0:
182,192,38866,1,0,0:0:0:0:
256,192,38947,128,0,39109:0:0:0:0:
329,192,38947,1,0,0:0:0:0:
36,192,39028,128,0,39433:0:0:0:0:
109,192,39028,1,0,0:0:0:0:
475,192,39028,1,0,0:0:0:0:
402,192,39109,128,0,39271:0:0:0:0:
329,192,39109,1,0,0:0:0:0:
256,192,39190,128,0,39352:0:0:0:0:
182,192,39190,1,0,0:0:0:0:
109,192,39271,128,0,39352:0:0:0:0:
475,192,39271,1,0,0:0:0:0:
329,192,39352,128,0,39514:0:0:0:0:
402,192,39352,1,0,0:0:0:0:
182,192,39352,1,0,0:0:0:0:
256,192,39433,128,0,39595:0:0:0:0:
109,192,39433,1,0,0:0:0:0:
402,192,39514,128,0,39595:0:0:0:0:
475,192,39514,1,0,0:0:0:0:
36,192,39514,1,0,0:0:0:0:
329,192,39595,128,0,39676:0:0:0:0:
109,192,39595,1,0,0:0:0:0:
182,192,39676,1,0,0:0:0:0:
475,192,39676,128,0,39757:0:0:0:0:
402,192,39757,128,0,39839:0:0:0:0:
256,192,39757,1,0,0:0:0:0:
329,192,39839,128,0,39920:0:0:0:0:
182,192,39839,1,0,0:0:0:0:
109,192,39920,1,0,0:0:0:0:
475,192,39920,128,0,40001:0:0:0:0:
402,192,40001,128,0,40082:0:0:0:0:
36,192,40001,1,0,0:0:0:0:
256,192,40001,1,0,0:0:0:0:
329,192,40082,128,0,40163:0:0:0:0:
182,192,40082,1,0,0:0:0:0:
256,192,40163,128,0,40244:0:0:0:0:
109,192,40163,1,0,0:0:0:0:
36,192,40244,1,0,0:0:0:0:
402,192,40244,128,0,40325:0:0:0:0:
329,192,40325,128,0,40406:0:0:0:0:
182,192,40325,1,0,0:0:0:0:
256,192,40406,128,0,40487:0:0:0:0:
109,192,40406,1,0,0:0:0:0:
182,192,40487,128,0,40568:0:0:0:0:
36,192,40487,1,0,0:0:0:0:
475,192,40487,1,0,0:0:0:0:
402,192,40568,1,0,0:0:0:0:
109,192,40568,1,0,0:0:0:0:
329,192,40649,1,0,0:0:0:0:
182,192,40649,1,0,0:0:0:0:
256,192,40649,128,0,40812:0:0:0:0:
109,192,40730,1,0,0:0:0:0:
402,192,40730,1,0,0:0:0:0:
475,192,40812,1,0,0:0:0:0:
36,192,40812,1,0,0:0:0:0:
256,192,40893,1,0,0:0:0:0:
329,192,40974,1,0,0:0:0:0:
36,192,40974,1,0,0:0:0:0:
182,192,40974,128,0,41055:0:0:0:0:
475,192,40974,128,0,41055:0:0:0:0:
182,192,41136,1,0,0:0:0:0:
475,192,41136,1,0,0:0:0:0:
109,192,41298,128,0,41379:0:0:0:0:
402,192,41298,128,0,41379:0:0:0:0:
109,192,41460,1,0,0:0:0:0:
402,192,41460,1,0,0:0:0:0:
329,192,41622,128,0,41703:0:0:0:0:
36,192,41622,128,0,41703:0:0:0:0:
329,192,41785,1,0,0:0:0:0:
36,192,41785,1,0,0:0:0:0:
182,192,41947,1,0,0:0:0:0:
36,192,41947,1,0,0:0:0:0:
329,192,41947,1,0,0:0:0:0:
475,192,41947,1,0,0:0:0:0:
109,192,42109,1,0,0:0:0:0:
402,192,42109,1,0,0:0:0:0:
256,192,42109,1,0,0:0:0:0:
109,192,42433,1,0,0:0:0:0:
182,192,42433,1,0,0:0:0:0:
329,192,42433,1,0,0:0:0:0:
402,192,42433,1,0,0:0:0:0:
256,192,42433,1,0,0:0:0:0:
256,192,42595,1,0,0:0:0:0:
182,192,42595,1,0,0:0:0:0:
329,192,42595,1,0,0:0:0:0:
36,192,42595,1,0,0:0:0:0:
475,192,42595,1,0,0:0:0:0:
109,192,42757,1,0,0:0:0:0:
402,192,42757,1,0,0:0:0:0:
329,192,42757,1,0,0:0:0:0:
182,192,42757,1,0,0:0:0:0:
256,192,42757,128,0,43001:0:0:0:0:
256,192,43082,1,0,0:0:0:0:
109,192,43082,1,0,0:0:0:0:
36,192,43082,1,0,0:0:0:0:
402,192,43082,1,0,0:0:0:0:
475,192,43082,1,0,0:0:0:0:
109,192,43244,1,0,0:0:0:0:
182,192,43244,1,0,0:0:0:0:
256,192,43244,1,0,0:0:0:0:
329,192,43244,1,0,0:0:0:0:
402,192,43244,1,0,0:0:0:0:
182,192,43406,1,0,0:0:0:0:
329,192,43406,1,0,0:0:0:0:
256,192,43568,1,0,0:0:0:0:
36,192,43568,1,0,0:0:0:0:
475,192,43568,1,0,0:0:0:0:
182,192,43649,1,0,0:0:0:0:
329,192,43649,1,0,0:0:0:0:
402,192,43649,1,0,0:0:0:0:
256,192,43730,1,0,0:0:0:0:
36,192,43730,1,0,0:0:0:0:
475,192,43730,1,0,0:0:0:0:
109,192,43812,1,0,0:0:0:0:
182,192,43812,1,0,0:0:0:0:
329,192,43812,1,0,0:0:0:0:
36,192,43893,1,0,0:0:0:0:
256,192,43893,1,0,0:0:0:0:
475,192,43893,1,0,0:0:0:0:
329,192,43974,1,0,0:0:0:0:
109,192,43974,1,0,0:0:0:0:
402,192,43974,1,0,0:0:0:0:
256,192,44055,128,0,44136:0:0:0:0:
36,192,44055,128,0,44136:0:0:0:0:
475,192,44055,128,0,44136:0:0:0:0:
109,192,44136,1,0,0:0:0:0:
182,192,44136,1,0,0:0:0:0:
402,192,44136,1,0,0:0:0:0:
256,192,44217,1,0,0:0:0:0:
36,192,44217,1,0,0:0:0:0:
475,192,44217,1,0,0:0:0:0:
182,192,44298,1,0,0:0:0:0:
329,192,44298,1,0,0:0:0:0:
256,192,44379,128,0,44460:0:0:0:0:
36,192,44379,128,0,44460:0:0:0:0:
475,192,44379,128,0,44460:0:0:0:0:
402,192,44460,1,0,0:0:0:0:
109,192,44460,1,0,0:0:0:0:
182,192,44541,128,0,44622:0:0:0:0:
329,192,44541,128,0,44622:0:0:0:0:
256,192,44541,128,0,44622:0:0:0:0:
36,192,44622,1,0,0:0:0:0:
475,192,44622,1,0,0:0:0:0:
109,192,44703,128,0,44785:0:0:0:0:
182,192,44703,128,0,44785:0:0:0:0:
256,192,44703,128,0,44785:0:0:0:0:
402,192,44703,128,0,44785:0:0:0:0:
329,192,44703,128,0,44785:0:0:0:0:
182,192,45028,128,0,45109:0:0:0:0:
256,192,45028,128,0,45109:0:0:0:0:
329,192,45028,128,0,45109:0:0:0:0:
109,192,45190,128,0,45271:0:0:0:0:
182,192,45190,128,0,45271:0:0:0:0:
256,192,45190,128,0,45271:0:0:0:0:
329,192,45190,128,0,45271:0:0:0:0:
402,192,45190,128,0,45271:0:0:0:0:
182,192,45352,128,0,46082:0:0:0:0:
109,192,45352,128,0,46082:0:0:0:0:
36,192,45352,128,0,46082:0:0:0:0:
402,192,45352,128,0,46082:0:0:0:0:
329,192,45352,128,0,46082:0:0:0:0:
475,192,45352,128,0,46082:0:0:0:0:
256,192,45514,128,0,45555:0:0:0:0:
256,192,45676,1,0,0:0:0:0:
256,192,45839,128,0,45879:0:0:0:0:
256,192,46001,1,0,0:0:0:0:
256,192,46082,1,0,0:0:0:0:
256,192,46163,1,0,0:0:0:0:
402,192,46379,1,0,0:0:0:0:
402,192,46487,1,0,0:0:0:0:
256,192,46703,1,0,0:0:0:0:
256,192,46812,1,0,0:0:0:0:
109,192,47028,128,0,47082:0:0:0:0:
329,192,47028,1,0,0:0:0:0:
109,192,47136,1,0,0:0:0:0:
329,192,47136,128,0,47460:0:0:0:0:
475,192,47352,128,0,47406:0:0:0:0:
475,192,47460,1,0,0:0:0:0:
182,192,47460,128,0,47785:0:0:0:0:
329,192,47676,128,0,47730:0:0:0:0:
36,192,47785,128,0,48109:0:0:0:0:
329,192,47785,1,0,0:0:0:0:
402,192,48109,128,0,48433:0:0:0:0:
329,192,48109,128,0,48163:0:0:0:0:
256,192,48325,1,0,0:0:0:0:
182,192,48325,128,0,48379:0:0:0:0:
256,192,48433,128,0,48757:0:0:0:0:
182,192,48433,1,0,0:0:0:0:
109,192,48649,1,0,0:0:0:0:
36,192,48649,128,0,48703:0:0:0:0:
109,192,48757,128,0,49082:0:0:0:0:
36,192,48757,1,0,0:0:0:0:
329,192,48974,128,0,49028:0:0:0:0:
256,192,49082,128,0,49406:0:0:0:0:
329,192,49082,1,0,0:0:0:0:
36,192,49082,1,0,0:0:0:0:
475,192,49298,128,0,49352:0:0:0:0:
402,192,49406,128,0,49730:0:0:0:0:
475,192,49406,1,0,0:0:0:0:
182,192,49406,1,0,0:0:0:0:
109,192,49406,1,0,0:0:0:0:
256,192,49730,1,0,0:0:0:0:
182,192,49730,1,0,0:0:0:0:
329,192,49730,1,0,0:0:0:0:
109,192,49812,1,0,0:0:0:0:
402,192,49812,1,0,0:0:0:0:
36,192,49893,1,0,0:0:0:0:
475,192,49893,1,0,0:0:0:0:
182,192,49893,1,0,0:0:0:0:
329,192,49893,1,0,0:0:0:0:
109,192,49974,1,0,0:0:0:0:
402,192,49974,1,0,0:0:0:0:
182,192,50055,1,0,0:0:0:0:
256,192,50055,1,0,0:0:0:0:
329,192,50055,1,0,0:0:0:0:
475,192,50055,128,0,50298:0:0:0:0:
109,192,50136,1,0,0:0:0:0:
36,192,50136,128,0,50217:0:0:0:0:
402,192,50217,1,0,0:0:0:0:
329,192,50217,1,0,0:0:0:0:
256,192,50217,128,0,50298:0:0:0:0:
182,192,50298,1,0,0:0:0:0:
109,192,50298,128,0,50379:0:0:0:0:
329,192,50379,1,0,0:0:0:0:
402,192,50379,1,0,0:0:0:0:
475,192,50379,1,0,0:0:0:0:
36,192,50379,128,0,50460:0:0:0:0:
256,192,50460,1,0,0:0:0:0:
182,192,50460,128,0,50541:0:0:0:0:
109,192,50541,128,0,50622:0:0:0:0:
475,192,50541,1,0,0:0:0:0:
329,192,50622,128,0,50703:0:0:0:0:
402,192,50622,1,0,0:0:0:0:
256,192,50622,1,0,0:0:0:0:
36,192,50703,128,0,50947:0:0:0:0:
182,192,50703,128,0,50785:0:0:0:0:
109,192,50703,1,0,0:0:0:0:
475,192,50703,1,0,0:0:0:0:
402,192,50785,128,0,50866:0:0:0:0:
329,192,50785,1,0,0:0:0:0:
256,192,50866,128,0,50947:0:0:0:0:
182,192,50866,1,0,0:0:0:0:
109,192,50866,1,0,0:0:0:0:
475,192,50947,128,0,51028:0:0:0:0:
402,192,50947,1,0,0:0:0:0:
36,192,51028,1,0,0:0:0:0:
109,192,51028,1,0,0:0:0:0:
182,192,51028,1,0,0:0:0:0:
329,192,51028,128,0,51109:0:0:0:0:
402,192,51109,128,0,51190:0:0:0:0:
256,192,51109,1,0,0:0:0:0:
36,192,51190,1,0,0:0:0:0:
475,192,51190,1,0,0:0:0:0:
109,192,51190,128,0,51271:0:0:0:0:
329,192,51271,128,0,51352:0:0:0:0:
182,192,51271,1,0,0:0:0:0:
402,192,51352,128,0,51595:0:0:0:0:
475,192,51352,1,0,0:0:0:0:
36,192,51352,1,0,0:0:0:0:
256,192,51352,128,0,51433:0:0:0:0:
109,192,51433,128,0,51514:0:0:0:0:
182,192,51514,1,0,0:0:0:0:
475,192,51514,1,0,0:0:0:0:
329,192,51514,128,0,51595:0:0:0:0:
109,192,51595,1,0,0:0:0:0:
256,192,51595,128,0,51676:0:0:0:0:
329,192,51676,1,0,0:0:0:0:
182,192,51676,1,0,0:0:0:0:
402,192,51676,128,0,51757:0:0:0:0:
36,192,51676,128,0,51920:0:0:0:0:
475,192,51676,128,0,51920:0:0:0:0:
256,192,51757,128,0,51839:0:0:0:0:
109,192,51757,128,0,51920:0:0:0:0:
329,192,51839,1,0,0:0:0:0:
182,192,51839,128,0,51920:0:0:0:0:
256,192,51920,1,0,0:0:0:0:
402,192,51920,128,0,52001:0:0:0:0:
109,192,52001,128,0,52244:0:0:0:0:
182,192,52001,1,0,0:0:0:0:
329,192,52001,128,0,52082:0:0:0:0:
475,192,52001,1,0,0:0:0:0:
256,192,52082,1,0,0:0:0:0:
402,192,52082,1,0,0:0:0:0:
329,192,52163,1,0,0:0:0:0:
475,192,52163,128,0,52244:0:0:0:0:
402,192,52244,1,0,0:0:0:0:
256,192,52244,1,0,0:0:0:0:
36,192,52325,1,0,0:0:0:0:
109,192,52325,1,0,0:0:0:0:
182,192,52325,1,0,0:0:0:0:
329,192,52325,1,0,0:0:0:0:
475,192,52325,1,0,0:0:0:0:
256,192,52406,128,0,52487:0:0:0:0:
402,192,52406,128,0,52487:0:0:0:0:
329,192,52487,128,0,52568:0:0:0:0:
182,192,52487,128,0,52568:0:0:0:0:
109,192,52568,128,0,52649:0:0:0:0:
402,192,52568,128,0,52649:0:0:0:0:
256,192,52649,128,0,53622:0:0:0:0:
36,192,52649,128,0,52730:0:0:0:0:
475,192,52649,128,0,52730:0:0:0:0:
182,192,52649,128,0,52730:0:0:0:0:
329,192,52649,128,0,52730:0:0:0:0:
402,192,52730,1,0,0:0:0:0:
109,192,52730,1,0,0:0:0:0:
182,192,52812,1,0,0:0:0:0:
329,192,52812,1,0,0:0:0:0:
109,192,52893,1,0,0:0:0:0:
402,192,52893,1,0,0:0:0:0:
329,192,52974,128,0,53055:0:0:0:0:
182,192,52974,128,0,53055:0:0:0:0:
36,192,52974,128,0,53055:0:0:0:0:
475,192,52974,128,0,53055:0:0:0:0:
402,192,53055,1,0,0:0:0:0:
109,192,53055,1,0,0:0:0:0:
182,192,53136,1,0,0:0:0:0:
329,192,53136,1,0,0:0:0:0:
109,192,53217,1,0,0:0:0:0:
402,192,53217,1,0,0:0:0:0:
182,192,53298,128,0,53379:0:0:0:0:
36,192,53298,128,0,53379:0:0:0:0:
329,192,53298,128,0,53379:0:0:0:0:
475,192,53298,128,0,53379:0:0:0:0:
402,192,53379,1,0,0:0:0:0:
109,192,53379,1,0,0:0:0:0:
475,192,53460,1,0,0:0:0:0:
36,192,53460,1,0,0:0:0:0:
109,192,53541,1,0,0:0:0:0:
402,192,53541,1,0,0:0:0:0:
402,192,53622,1,0,0:0:0:0:
329,192,53622,1,0,0:0:0:0:
182,192,53622,1,0,0:0:0:0:
109,192,53622,1,0,0:0:0:0:
182,192,53785,1,0,0:0:0:0:
109,192,53785,1,0,0:0:0:0:
36,192,53785,1,0,0:0:0:0:
256,192,53785,1,0,0:0:0:0:
329,192,53785,1,0,0:0:0:0:
402,192,53785,1,0,0:0:0:0:
475,192,53785,1,0,0:0:0:0:
256,192,54271,1,0,0:0:0:0:
36,192,55082,128,0,55163:0:0:0:0:
109,192,55082,128,0,55163:0:0:0:0:
329,192,55082,128,0,55163:0:0:0:0:
402,192,55082,128,0,55163:0:0:0:0:
182,192,55163,128,0,55244:0:0:0:0:
256,192,55163,128,0,55244:0:0:0:0:
475,192,55163,128,0,55244:0:0:0:0:
329,192,55244,128,0,55325:0:0:0:0:
402,192,55244,128,0,55325:0:0:0:0:
36,192,55244,128,0,55325:0:0:0:0:
109,192,55325,128,0,55406:0:0:0:0:
182,192,55325,128,0,55406:0:0:0:0:
256,192,55325,128,0,55406:0:0:0:0:
329,192,55406,128,0,55487:0:0:0:0:
402,192,55406,128,0,55487:0:0:0:0:
36,192,55406,128,0,55487:0:0:0:0:
109,192,55487,128,0,55568:0:0:0:0:
256,192,55487,128,0,55568:0:0:0:0:
475,192,55568,128,0,55812:0:0:0:0:
329,192,55568,128,0,55649:0:0:0:0:
182,192,55568,128,0,55649:0:0:0:0:
36,192,55568,1,0,0:0:0:0:
402,192,55649,128,0,55893:0:0:0:0:
256,192,55649,128,0,55730:0:0:0:0:
109,192,55649,128,0,55730:0:0:0:0:
329,192,55730,128,0,55974:0:0:0:0:
36,192,55730,128,0,55812:0:0:0:0:
109,192,55812,128,0,55893:0:0:0:0:
256,192,55812,128,0,55893:0:0:0:0:
36,192,55893,128,0,56136:0:0:0:0:
475,192,55893,1,0,0:0:0:0:
182,192,55893,128,0,55974:0:0:0:0:
109,192,55974,128,0,56217:0:0:0:0:
402,192,55974,128,0,56055:0:0:0:0:
475,192,55974,128,0,56055:0:0:0:0:
182,192,56055,128,0,56298:0:0:0:0:
329,192,56055,128,0,56136:0:0:0:0:
256,192,56055,128,0,56136:0:0:0:0:
475,192,56136,128,0,56217:0:0:0:0:
402,192,56136,128,0,56217:0:0:0:0:
36,192,56217,1,0,0:0:0:0:
329,192,56217,128,0,56298:0:0:0:0:
256,192,56217,128,0,56298:0:0:0:0:
109,192,56298,128,0,56379:0:0:0:0:
402,192,56298,128,0,56379:0:0:0:0:
182,192,56379,128,0,56460:0:0:0:0:
475,192,56379,128,0,56460:0:0:0:0:
329,192,56379,128,0,56622:0:0:0:0:
256,192,56460,128,0,56541:0:0:0:0:
36,192,56460,128,0,56541:0:0:0:0:
402,192,56460,128,0,56703:0:0:0:0:
475,192,56541,128,0,56785:0:0:0:0:
109,192,56541,128,0,56622:0:0:0:0:
182,192,56541,128,0,56622:0:0:0:0:
256,192,56622,128,0,56703:0:0:0:0:
36,192,56622,128,0,56703:0:0:0:0:
182,192,56703,128,0,56947:0:0:0:0:
329,192,56703,128,0,56785:0:0:0:0:
109,192,56785,128,0,57028:0:0:0:0:
402,192,56785,128,0,56866:0:0:0:0:
256,192,56866,128,0,56947:0:0:0:0:
36,192,56866,128,0,57109:0:0:0:0:
475,192,56866,128,0,56947:0:0:0:0:
329,192,56866,1,0,0:0:0:0:
402,192,56947,128,0,57028:0:0:0:0:
329,192,56947,128,0,57028:0:0:0:0:
182,192,57028,128,0,57109:0:0:0:0:
256,192,57028,128,0,57109:0:0:0:0:
109,192,57109,128,0,57190:0:0:0:0:
402,192,57109,128,0,57190:0:0:0:0:
182,192,57190,1,0,0:0:0:0:
36,192,57190,128,0,57271:0:0:0:0:
329,192,57190,128,0,57271:0:0:0:0:
475,192,57190,128,0,57271:0:0:0:0:
256,192,57271,128,0,57352:0:0:0:0:
402,192,57271,128,0,57352:0:0:0:0:
329,192,57352,128,0,57433:0:0:0:0:
182,192,57352,128,0,57433:0:0:0:0:
36,192,57352,128,0,57433:0:0:0:0:
109,192,57433,128,0,57514:0:0:0:0:
256,192,57433,128,0,57514:0:0:0:0:
329,192,57514,1,0,0:0:0:0:
182,192,57514,128,0,57595:0:0:0:0:
475,192,57514,128,0,57595:0:0:0:0:
402,192,57595,128,0,57676:0:0:0:0:
256,192,57595,128,0,57676:0:0:0:0:
329,192,57676,128,0,57757:0:0:0:0:
182,192,57676,128,0,57757:0:0:0:0:
36,192,57676,128,0,58041:0:0:0:0:
475,192,57676,128,0,57920:0:0:0:0:
109,192,57757,128,0,58122:0:0:0:0:
402,192,57757,128,0,57839:0:0:0:0:
182,192,57839,128,0,58203:0:0:0:0:
256,192,57839,128,0,57960:0:0:0:0:
329,192,57920,128,0,58285:0:0:0:0:
402,192,58001,128,0,58366:0:0:0:0:
256,192,58001,128,0,58122:0:0:0:0:
475,192,58082,128,0,58447:0:0:0:0:
36,192,58082,128,0,58285:0:0:0:0:
109,192,58163,128,0,58528:0:0:0:0:
256,192,58163,128,0,58366:0:0:0:0:
182,192,58244,128,0,58609:0:0:0:0:
329,192,58325,128,0,58690:0:0:0:0:
36,192,58325,128,0,58447:0:0:0:0:
402,192,58406,128,0,58690:0:0:0:0:
256,192,58406,128,0,58609:0:0:0:0:
36,192,58487,128,0,58771:0:0:0:0:
475,192,58487,128,0,58771:0:0:0:0:
109,192,58568,128,0,58852:0:0:0:0:
256,192,58649,128,0,58852:0:0:0:0:
182,192,58649,128,0,58771:0:0:0:0:
402,192,58730,128,0,58974:0:0:0:0:
329,192,58730,128,0,58933:0:0:0:0:
475,192,58812,128,0,59055:0:0:0:0:
182,192,58812,128,0,58933:0:0:0:0:
36,192,58812,128,0,58933:0:0:0:0:
109,192,58893,128,0,58974:0:0:0:0:
256,192,58893,128,0,58974:0:0:0:0:
182,192,58974,128,0,59055:0:0:0:0:
329,192,58974,128,0,59055:0:0:0:0:
36,192,58974,128,0,59055:0:0:0:0:
256,192,59055,128,0,59136:0:0:0:0:
402,192,59055,128,0,59136:0:0:0:0:
109,192,59055,128,0,59136:0:0:0:0:
182,192,59136,128,0,59217:0:0:0:0:
329,192,59136,128,0,59379:0:0:0:0:
475,192,59136,128,0,59379:0:0:0:0:
256,192,59217,1,0,0:0:0:0:
109,192,59217,1,0,0:0:0:0:
182,192,59298,1,0,0:0:0:0:
36,192,59298,1,0,0:0:0:0:
256,192,59379,1,0,0:0:0:0:
402,192,59379,1,0,0:0:0:0:
182,192,59460,128,0,59541:0:0:0:0:
329,192,59460,128,0,59703:0:0:0:0:
475,192,59460,128,0,59866:0:0:0:0:
256,192,59541,1,0,0:0:0:0:
109,192,59541,1,0,0:0:0:0:
182,192,59622,1,0,0:0:0:0:
36,192,59622,1,0,0:0:0:0:
256,192,59703,1,0,0:0:0:0:
402,192,59703,1,0,0:0:0:0:
182,192,59785,128,0,60028:0:0:0:0:
36,192,59785,128,0,60028:0:0:0:0:
329,192,59785,128,0,59866:0:0:0:0:
256,192,59866,1,0,0:0:0:0:
402,192,59866,1,0,0:0:0:0:
329,192,59947,1,0,0:0:0:0:
475,192,59947,1,0,0:0:0:0:
256,192,60028,1,0,0:0:0:0:
109,192,60028,1,0,0:0:0:0:
182,192,60109,128,0,60271:0:0:0:0:
36,192,60109,128,0,60352:0:0:0:0:
329,192,60109,128,0,60190:0:0:0:0:
329,192,60271,1,0,0:0:0:0:
402,192,60271,1,0,0:0:0:0:
256,192,60352,1,0,0:0:0:0:
182,192,60352,1,0,0:0:0:0:
109,192,60433,1,0,0:0:0:0:
36,192,60433,1,0,0:0:0:0:
475,192,60433,128,0,60649:0:0:0:0:
402,192,60487,128,0,60757:0:0:0:0:
329,192,60541,128,0,60703:0:0:0:0:
256,192,60595,128,0,60649:0:0:0:0:
36,192,60595,128,0,60703:0:0:0:0:
109,192,60649,128,0,60757:0:0:0:0:
182,192,60703,128,0,60812:0:0:0:0:
256,192,60757,128,0,60866:0:0:0:0:
475,192,60757,128,0,60839:0:0:0:0:
329,192,60812,128,0,61001:0:0:0:0:
36,192,60812,128,0,60974:0:0:0:0:
109,192,60866,128,0,60920:0:0:0:0:
402,192,60866,128,0,61109:0:0:0:0:
182,192,60920,128,0,61001:0:0:0:0:
475,192,60920,128,0,61055:0:0:0:0:
256,192,60974,128,0,61055:0:0:0:0:
109,192,61028,128,0,61190:0:0:0:0:
329,192,61082,128,0,61163:0:0:0:0:
36,192,61082,128,0,61244:0:0:0:0:
182,192,61082,128,0,61136:0:0:0:0:
475,192,61136,128,0,61271:0:0:0:0:
402,192,61190,128,0,61325:0:0:0:0:
329,192,61244,128,0,61379:0:0:0:0:
182,192,61244,128,0,61433:0:0:0:0:
109,192,61298,128,0,61379:0:0:0:0:
256,192,61298,128,0,61487:0:0:0:0:
36,192,61352,128,0,61487:0:0:0:0:
475,192,61352,128,0,61649:0:0:0:0:
402,192,61406,128,0,61514:0:0:0:0:
329,192,61460,128,0,61568:0:0:0:0:
109,192,61460,128,0,61568:0:0:0:0:
182,192,61514,128,0,61649:0:0:0:0:
256,192,61568,128,0,61730:0:0:0:0:
36,192,61568,128,0,61757:0:0:0:0:
329,192,61622,128,0,61785:0:0:0:0:
402,192,61676,128,0,61866:0:0:0:0:
182,192,61730,128,0,61920:0:0:0:0:
475,192,61730,128,0,61947:0:0:0:0:
109,192,61785,128,0,61974:0:0:0:0:
36,192,61839,128,0,61920:0:0:0:0:
329,192,61893,128,0,62109:0:0:0:0:
256,192,61947,128,0,62055:0:0:0:0:
402,192,61947,128,0,62001:0:0:0:0:
182,192,62001,128,0,62352:0:0:0:0:
475,192,62055,128,0,62163:0:0:0:0:
109,192,62055,128,0,62136:0:0:0:0:
36,192,62055,128,0,62190:0:0:0:0:
402,192,62109,128,0,62217:0:0:0:0:
329,192,62163,128,0,62271:0:0:0:0:
256,192,62217,128,0,62298:0:0:0:0:
109,192,62217,128,0,62325:0:0:0:0:
36,192,62271,128,0,62379:0:0:0:0:
475,192,62325,128,0,62649:0:0:0:0:
256,192,62379,128,0,62487:0:0:0:0:
402,192,62379,128,0,62433:0:0:0:0:
329,192,62379,128,0,62460:0:0:0:0:
182,192,62433,128,0,62568:0:0:0:0:
36,192,62487,128,0,62676:0:0:0:0:
402,192,62541,128,0,62649:0:0:0:0:
109,192,62541,128,0,62622:0:0:0:0:
329,192,62595,128,0,62703:0:0:0:0:
256,192,62595,128,0,62649:0:0:0:0:
182,192,62649,128,0,62757:0:0:0:0:
109,192,62703,128,0,62812:0:0:0:0:
475,192,62703,128,0,62812:0:0:0:0:
36,192,62757,128,0,62866:0:0:0:0:
402,192,62757,128,0,62866:0:0:0:0:
329,192,62812,128,0,62920:0:0:0:0:
256,192,62866,128,0,62974:0:0:0:0:
109,192,62866,128,0,62920:0:0:0:0:
182,192,62920,128,0,62974:0:0:0:0:
329,192,62974,128,0,63028:0:0:0:0:
402,192,63028,128,0,63082:0:0:0:0:
475,192,63028,128,0,63109:0:0:0:0:
109,192,63028,128,0,63109:0:0:0:0:
182,192,63028,128,0,63230:0:0:0:0:
36,192,63028,128,0,63149:0:0:0:0:
256,192,63109,128,0,63163:0:0:0:0:
329,192,63109,128,0,63190:0:0:0:0:
36,192,63190,128,0,63271:0:0:0:0:
402,192,63190,128,0,63244:0:0:0:0:
475,192,63190,128,0,63271:0:0:0:0:
182,192,63271,128,0,63325:0:0:0:0:
256,192,63271,128,0,63352:0:0:0:0:
329,192,63352,128,0,63406:0:0:0:0:
402,192,63352,128,0,63433:0:0:0:0:
475,192,63352,128,0,63433:0:0:0:0:
109,192,63352,128,0,63433:0:0:0:0:
36,192,63352,128,0,63474:0:0:0:0:
182,192,63433,128,0,63514:0:0:0:0:
256,192,63433,128,0,63487:0:0:0:0:
109,192,63514,128,0,63568:0:0:0:0:
36,192,63514,128,0,63595:0:0:0:0:
475,192,63514,128,0,63636:0:0:0:0:
402,192,63514,128,0,63595:0:0:0:0:
256,192,63595,128,0,63676:0:0:0:0:
329,192,63595,128,0,63649:0:0:0:0:
36,192,63676,128,0,63757:0:0:0:0:
109,192,63676,128,0,63757:0:0:0:0:
182,192,63676,128,0,63730:0:0:0:0:
475,192,63676,128,0,63839:0:0:0:0:
329,192,63757,128,0,63839:0:0:0:0:
402,192,63757,128,0,63812:0:0:0:0:
109,192,63839,128,0,63920:0:0:0:0:
182,192,63839,128,0,63893:0:0:0:0:
256,192,63839,128,0,63920:0:0:0:0:
329,192,63920,128,0,63974:0:0:0:0:
402,192,63920,128,0,64001:0:0:0:0:
109,192,64001,128,0,64055:0:0:0:0:
182,192,64001,128,0,64082:0:0:0:0:
36,192,64001,128,0,64082:0:0:0:0:
475,192,64001,128,0,64122:0:0:0:0:
256,192,64082,128,0,64136:0:0:0:0:
329,192,64082,128,0,64163:0:0:0:0:
402,192,64163,128,0,64217:0:0:0:0:
475,192,64163,128,0,64244:0:0:0:0:
109,192,64163,128,0,64203:0:0:0:0:
182,192,64163,128,0,64244:0:0:0:0:
36,192,64163,128,0,64244:0:0:0:0:
109,192,64325,128,0,64406:0:0:0:0:
256,192,64325,128,0,64406:0:0:0:0:
182,192,64325,128,0,64366:0:0:0:0:
402,192,64325,128,0,64568:0:0:0:0:
182,192,64487,128,0,64568:0:0:0:0:
329,192,64487,128,0,64568:0:0:0:0:
256,192,64487,128,0,64528:0:0:0:0:
36,192,64487,128,0,64528:0:0:0:0:
475,192,64487,128,0,64528:0:0:0:0:
402,192,64649,128,0,64730:0:0:0:0:
256,192,64649,128,0,64730:0:0:0:0:
329,192,64649,128,0,64690:0:0:0:0:
109,192,64649,128,0,64730:0:0:0:0:
182,192,64649,128,0,64690:0:0:0:0:
329,192,64812,128,0,64893:0:0:0:0:
475,192,64812,128,0,64893:0:0:0:0:
402,192,64812,128,0,64852:0:0:0:0:
109,192,64812,128,0,65055:0:0:0:0:
256,192,64974,128,0,65055:0:0:0:0:
402,192,64974,128,0,65055:0:0:0:0:
329,192,65001,128,0,65028:0:0:0:0:
182,192,65136,128,0,65217:0:0:0:0:
329,192,65136,128,0,65217:0:0:0:0:
475,192,65136,128,0,65190:0:0:0:0:
109,192,65136,128,0,65190:0:0:0:0:
256,192,65163,128,0,65190:0:0:0:0:
36,192,65190,128,0,65244:0:0:0:0:
109,192,65298,128,0,65379:0:0:0:0:
256,192,65298,128,0,65379:0:0:0:0:
475,192,65298,128,0,65352:0:0:0:0:
182,192,65325,128,0,65352:0:0:0:0:
402,192,65352,128,0,65406:0:0:0:0:
329,192,65406,128,0,65460:0:0:0:0:
182,192,65460,128,0,65947:0:0:0:0:
36,192,65460,128,0,66271:0:0:0:0:
256,192,65460,128,0,65568:0:0:0:0:
109,192,65487,128,0,65514:0:0:0:0:
475,192,65541,128,0,65703:0:0:0:0:
329,192,65622,128,0,65730:0:0:0:0:
256,192,65643,128,0,65663:0:0:0:0:
109,192,65703,128,0,65866:0:0:0:0:
402,192,65785,128,0,65893:0:0:0:0:
329,192,65805,128,0,65825:0:0:0:0:
475,192,65866,128,0,66028:0:0:0:0:
329,192,65947,128,0,66595:0:0:0:0:
109,192,65947,128,0,66055:0:0:0:0:
402,192,65967,128,0,65987:0:0:0:0:
256,192,66028,128,0,66190:0:0:0:0:
182,192,66109,128,0,66217:0:0:0:0:
475,192,66129,128,0,66149:0:0:0:0:
109,192,66190,128,0,66352:0:0:0:0:
475,192,66271,128,0,66920:0:0:0:0:
256,192,66271,128,0,66379:0:0:0:0:
402,192,66271,128,0,66352:0:0:0:0:
182,192,66291,128,0,66312:0:0:0:0:
36,192,66352,128,0,66514:0:0:0:0:
182,192,66433,128,0,66541:0:0:0:0:
109,192,66453,128,0,66474:0:0:0:0:
402,192,66514,128,0,66676:0:0:0:0:
109,192,66595,128,0,67244:0:0:0:0:
256,192,66595,128,0,66703:0:0:0:0:
182,192,66616,128,0,66636:0:0:0:0:
36,192,66676,128,0,66839:0:0:0:0:
329,192,66757,128,0,66866:0:0:0:0:
256,192,66778,128,0,66798:0:0:0:0:
182,192,66839,128,0,67001:0:0:0:0:
256,192,66920,128,0,67568:0:0:0:0:
36,192,66920,128,0,67028:0:0:0:0:
402,192,66960,128,0,66980:0:0:0:0:
329,192,67001,128,0,67163:0:0:0:0:
182,192,67082,128,0,67190:0:0:0:0:
475,192,67102,128,0,67122:0:0:0:0:
36,192,67163,128,0,67325:0:0:0:0:
402,192,67244,128,0,67893:0:0:0:0:
329,192,67244,128,0,67352:0:0:0:0:
182,192,67264,128,0,67285:0:0:0:0:
475,192,67325,128,0,67487:0:0:0:0:
182,192,67406,128,0,67514:0:0:0:0:
109,192,67426,128,0,67447:0:0:0:0:
329,192,67487,128,0,67649:0:0:0:0:
182,192,67568,128,0,68217:0:0:0:0:
109,192,67568,128,0,67676:0:0:0:0:
475,192,67568,128,0,67649:0:0:0:0:
36,192,67589,128,0,67609:0:0:0:0:
256,192,67649,128,0,67812:0:0:0:0:
36,192,67730,128,0,67839:0:0:0:0:
475,192,67751,128,0,67771:0:0:0:0:
109,192,67812,128,0,67974:0:0:0:0:
475,192,67893,128,0,68541:0:0:0:0:
256,192,67893,128,0,68001:0:0:0:0:
329,192,67913,128,0,67933:0:0:0:0:
36,192,67974,128,0,68136:0:0:0:0:
329,192,68055,128,0,68163:0:0:0:0:
109,192,68075,128,0,68095:0:0:0:0:
402,192,68136,128,0,68298:0:0:0:0:
36,192,68217,128,0,68866:0:0:0:0:
256,192,68217,128,0,68318:0:0:0:0:
329,192,68237,128,0,68257:0:0:0:0:
182,192,68298,128,0,68460:0:0:0:0:
109,192,68379,128,0,68501:0:0:0:0:
402,192,68379,128,0,68460:0:0:0:0:
256,192,68399,128,0,68420:0:0:0:0:
329,192,68460,128,0,68622:0:0:0:0:
402,192,68541,128,0,69190:0:0:0:0:
256,192,68541,128,0,68643:0:0:0:0:
109,192,68562,128,0,68582:0:0:0:0:
475,192,68622,128,0,68785:0:0:0:0:
329,192,68703,128,0,68812:0:0:0:0:
182,192,68724,128,0,68744:0:0:0:0:
109,192,68785,128,0,68947:0:0:0:0:
256,192,68866,128,0,69514:0:0:0:0:
182,192,68866,128,0,68974:0:0:0:0:
475,192,68886,128,0,68906:0:0:0:0:
36,192,68947,128,0,69109:0:0:0:0:
329,192,69028,128,0,69136:0:0:0:0:
475,192,69028,128,0,69109:0:0:0:0:
109,192,69048,128,0,69068:0:0:0:0:
182,192,69109,128,0,69271:0:0:0:0:
109,192,69190,128,0,69839:0:0:0:0:
36,192,69190,128,0,69291:0:0:0:0:
329,192,69210,128,0,69230:0:0:0:0:
475,192,69271,128,0,69433:0:0:0:0:
182,192,69352,128,0,69453:0:0:0:0:
329,192,69352,128,0,69433:0:0:0:0:
402,192,69372,128,0,69393:0:0:0:0:
36,192,69433,128,0,69595:0:0:0:0:
475,192,69514,128,0,70163:0:0:0:0:
329,192,69514,128,0,69616:0:0:0:0:
402,192,69535,128,0,69555:0:0:0:0:
182,192,69595,128,0,69757:0:0:0:0:
256,192,69676,128,0,69778:0:0:0:0:
329,192,69697,128,0,69717:0:0:0:0:
402,192,69757,128,0,69920:0:0:0:0:
256,192,69839,128,0,70487:0:0:0:0:
36,192,69839,128,0,69947:0:0:0:0:
182,192,69859,128,0,69879:0:0:0:0:
329,192,69920,128,0,70082:0:0:0:0:
109,192,70001,128,0,70109:0:0:0:0:
36,192,70001,128,0,70082:0:0:0:0:
182,192,70021,128,0,70041:0:0:0:0:
402,192,70082,128,0,70244:0:0:0:0:
36,192,70163,128,0,70812:0:0:0:0:
182,192,70163,128,0,70271:0:0:0:0:
109,192,70163,128,0,70244:0:0:0:0:
329,192,70183,128,0,70203:0:0:0:0:
475,192,70244,128,0,70406:0:0:0:0:
329,192,70325,128,0,70433:0:0:0:0:
182,192,70325,128,0,70406:0:0:0:0:
402,192,70345,128,0,70366:0:0:0:0:
109,192,70406,128,0,70568:0:0:0:0:
402,192,70487,128,0,70595:0:0:0:0:
329,192,70487,128,0,70568:0:0:0:0:
475,192,70507,128,0,70528:0:0:0:0:
256,192,70568,128,0,70730:0:0:0:0:
475,192,70649,128,0,70757:0:0:0:0:
182,192,70649,128,0,70730:0:0:0:0:
329,192,70649,128,0,70730:0:0:0:0:
109,192,70730,128,0,70812:0:0:0:0:
402,192,70730,128,0,70812:0:0:0:0:
182,192,70812,1,0,0:0:0:0:
256,192,70812,1,0,0:0:0:0:
329,192,70812,1,0,0:0:0:0:
256,192,70974,1,0,0:0:0:0:
109,192,70974,1,0,0:0:0:0:
402,192,70974,1,0,0:0:0:0:
182,192,71136,128,0,71379:0:0:0:0:
329,192,71136,128,0,71379:0:0:0:0:
256,192,71136,1,0,0:0:0:0:
256,192,71298,1,0,0:0:0:0:
109,192,71298,1,0,0:0:0:0:
402,192,71298,1,0,0:0:0:0:
182,192,71460,1,0,0:0:0:0:
109,192,71460,1,0,0:0:0:0:
329,192,71460,1,0,0:0:0:0:
402,192,71460,1,0,0:0:0:0:
182,192,71622,1,0,0:0:0:0:
36,192,71622,1,0,0:0:0:0:
329,192,71622,1,0,0:0:0:0:
475,192,71622,1,0,0:0:0:0:
402,192,71785,128,0,72028:0:0:0:0:
109,192,71785,128,0,72028:0:0:0:0:
182,192,71785,1,0,0:0:0:0:
329,192,71785,1,0,0:0:0:0:
329,192,71947,1,0,0:0:0:0:
182,192,71947,1,0,0:0:0:0:
36,192,71947,1,0,0:0:0:0:
475,192,71947,1,0,0:0:0:0:
256,192,72109,1,0,0:0:0:0:
36,192,72109,1,0,0:0:0:0:
475,192,72109,1,0,0:0:0:0:
182,192,72271,1,0,0:0:0:0:
109,192,72271,1,0,0:0:0:0:
329,192,72271,1,0,0:0:0:0:
402,192,72271,1,0,0:0:0:0:
256,192,72433,1,0,0:0:0:0:
475,192,72433,128,0,72676:0:0:0:0:
36,192,72433,128,0,72676:0:0:0:0:
109,192,72595,1,0,0:0:0:0:
182,192,72595,1,0,0:0:0:0:
329,192,72595,1,0,0:0:0:0:
402,192,72595,1,0,0:0:0:0:
109,192,72757,1,0,0:0:0:0:
36,192,72757,1,0,0:0:0:0:
402,192,72757,1,0,0:0:0:0:
475,192,72757,1,0,0:0:0:0:
256,192,72920,1,0,0:0:0:0:
109,192,72920,1,0,0:0:0:0:
402,192,72920,1,0,0:0:0:0:
36,192,73082,128,0,73325:0:0:0:0:
182,192,73082,1,0,0:0:0:0:
329,192,73082,1,0,0:0:0:0:
475,192,73082,128,0,73325:0:0:0:0:
109,192,73244,1,0,0:0:0:0:
256,192,73244,1,0,0:0:0:0:
402,192,73244,1,0,0:0:0:0:
256,192,73406,128,0,74055:0:0:0:0:
36,192,73406,1,0,0:0:0:0:
182,192,73406,1,0,0:0:0:0:
329,192,73406,1,0,0:0:0:0:
475,192,73406,1,0,0:0:0:0:
109,192,73568,1,0,0:0:0:0:
402,192,73568,1,0,0:0:0:0:
182,192,73730,128,0,73974:0:0:0:0:
36,192,73730,1,0,0:0:0:0:
329,192,73730,128,0,73974:0:0:0:0:
475,192,73730,128,0,73974:0:0:0:0:
402,192,73893,1,0,0:0:0:0:
109,192,73893,1,0,0:0:0:0:
36,192,74055,1,0,0:0:0:0:
182,192,74055,1,0,0:0:0:0:
329,192,74055,1,0,0:0:0:0:
475,192,74055,1,0,0:0:0:0:
182,192,74217,1,0,0:0:0:0:
109,192,74217,1,0,0:0:0:0:
329,192,74217,1,0,0:0:0:0:
402,192,74217,1,0,0:0:0:0:
182,192,74379,128,0,74622:0:0:0:0:
36,192,74379,128,0,74622:0:0:0:0:
329,192,74379,128,0,74622:0:0:0:0:
475,192,74379,1,0,0:0:0:0:
109,192,74541,1,0,0:0:0:0:
402,192,74541,1,0,0:0:0:0:
256,192,74541,128,0,75028:0:0:0:0:
329,192,74703,1,0,0:0:0:0:
182,192,74703,1,0,0:0:0:0:
36,192,74703,1,0,0:0:0:0:
109,192,74866,1,0,0:0:0:0:
182,192,74866,1,0,0:0:0:0:
402,192,74866,1,0,0:0:0:0:
475,192,74866,1,0,0:0:0:0:
182,192,75028,128,0,75271:0:0:0:0:
329,192,75028,128,0,75271:0:0:0:0:
36,192,75028,1,0,0:0:0:0:
256,192,75190,1,0,0:0:0:0:
402,192,75190,1,0,0:0:0:0:
475,192,75190,1,0,0:0:0:0:
329,192,75352,1,0,0:0:0:0:
182,192,75352,1,0,0:0:0:0:
109,192,75352,128,0,75595:0:0:0:0:
402,192,75352,128,0,75595:0:0:0:0:
36,192,75514,1,0,0:0:0:0:
475,192,75514,1,0,0:0:0:0:
256,192,75595,1,0,0:0:0:0:
182,192,75676,128,0,75920:0:0:0:0:
329,192,75676,128,0,75920:0:0:0:0:
109,192,75676,1,0,0:0:0:0:
402,192,75676,1,0,0:0:0:0:
256,192,75839,1,0,0:0:0:0:
475,192,75839,1,0,0:0:0:0:
36,192,75839,1,0,0:0:0:0:
109,192,75920,1,0,0:0:0:0:
402,192,75920,1,0,0:0:0:0:
182,192,76001,1,0,0:0:0:0:
36,192,76001,1,0,0:0:0:0:
329,192,76001,128,0,76163:0:0:0:0:
475,192,76001,128,0,76082:0:0:0:0:
256,192,76082,128,0,76244:0:0:0:0:
402,192,76082,128,0,76163:0:0:0:0:
182,192,76163,128,0,76325:0:0:0:0:
475,192,76163,128,0,76244:0:0:0:0:
329,192,76244,128,0,76325:0:0:0:0:
109,192,76244,128,0,76406:0:0:0:0:
402,192,76325,128,0,76406:0:0:0:0:
36,192,76325,128,0,76487:0:0:0:0:
256,192,76406,128,0,76487:0:0:0:0:
475,192,76406,128,0,76568:0:0:0:0:
402,192,76487,128,0,76649:0:0:0:0:
109,192,76487,128,0,76568:0:0:0:0:
329,192,76568,128,0,76730:0:0:0:0:
182,192,76568,128,0,76649:0:0:0:0:
256,192,76649,128,0,76812:0:0:0:0:
36,192,76649,128,0,76690:0:0:0:0:
475,192,76649,128,0,76730:0:0:0:0:
36,192,76730,128,0,76893:0:0:0:0:
182,192,76730,128,0,76812:0:0:0:0:
402,192,76730,128,0,76893:0:0:0:0:
109,192,76812,128,0,76974:0:0:0:0:
475,192,76812,128,0,76893:0:0:0:0:
182,192,76893,128,0,77055:0:0:0:0:
329,192,76893,128,0,76974:0:0:0:0:
256,192,76974,128,0,77136:0:0:0:0:
402,192,76974,128,0,77055:0:0:0:0:
36,192,76974,1,0,0:0:0:0:
329,192,77055,128,0,77217:0:0:0:0:
109,192,77055,1,0,0:0:0:0:
475,192,77055,128,0,77136:0:0:0:0:
402,192,77136,128,0,77257:0:0:0:0:
182,192,77136,1,0,0:0:0:0:
475,192,77217,128,0,77298:0:0:0:0:
256,192,77217,1,0,0:0:0:0:
182,192,77298,1,0,0:0:0:0:
109,192,77298,1,0,0:0:0:0:
36,192,77298,1,0,0:0:0:0:
329,192,77298,1,0,0:0:0:0:
402,192,77325,1,0,0:0:0:0:
475,192,77352,1,0,0:0:0:0:
182,192,77622,1,0,0:0:0:0:
256,192,77622,1,0,0:0:0:0:
329,192,77622,1,0,0:0:0:0:
109,192,77643,1,0,0:0:0:0:
402,192,77643,1,0,0:0:0:0:
36,192,77663,1,0,0:0:0:0:
475,192,77663,1,0,0:0:0:0:
329,192,77785,1,0,0:0:0:0:
402,192,77785,1,0,0:0:0:0:
475,192,77785,1,0,0:0:0:0:
182,192,77785,1,0,0:0:0:0:
109,192,77805,1,0,0:0:0:0:
36,192,77825,1,0,0:0:0:0:
109,192,77947,1,0,0:0:0:0:
36,192,77947,1,0,0:0:0:0:
402,192,77947,1,0,0:0:0:0:
475,192,77947,1,0,0:0:0:0:
182,192,77967,1,0,0:0:0:0:
329,192,77967,1,0,0:0:0:0:
256,192,77987,1,0,0:0:0:0:
329,192,78109,1,0,0:0:0:0:
402,192,78109,1,0,0:0:0:0:
475,192,78109,1,0,0:0:0:0:
182,192,78109,1,0,0:0:0:0:
109,192,78129,1,0,0:0:0:0:
36,192,78149,1,0,0:0:0:0:
182,192,78271,1,0,0:0:0:0:
256,192,78271,1,0,0:0:0:0:
329,192,78271,1,0,0:0:0:0:
109,192,78291,1,0,0:0:0:0:
402,192,78291,1,0,0:0:0:0:
36,192,78312,1,0,0:0:0:0:
475,192,78312,1,0,0:0:0:0:
182,192,78433,1,0,0:0:0:0:
109,192,78433,1,0,0:0:0:0:
36,192,78433,1,0,0:0:0:0:
329,192,78433,1,0,0:0:0:0:
402,192,78453,1,0,0:0:0:0:
475,192,78474,1,0,0:0:0:0:
36,192,78595,128,0,79244:0:0:0:0:
256,192,78595,1,0,0:0:0:0:
256,192,78920,1,0,0:0:0:0:
182,192,79082,1,0,0:0:0:0:
109,192,79082,1,0,0:0:0:0:
329,192,79082,1,0,0:0:0:0:
402,192,79082,1,0,0:0:0:0:
475,192,79244,128,0,79893:0:0:0:0:
402,192,79244,1,0,0:0:0:0:
329,192,79244,1,0,0:0:0:0:
182,192,79244,1,0,0:0:0:0:
109,192,79244,1,0,0:0:0:0:
256,192,79406,1,0,0:0:0:0:
256,192,79568,128,0,80217:0:0:0:0:
182,192,79568,1,0,0:0:0:0:
109,192,79568,1,0,0:0:0:0:
329,192,79568,1,0,0:0:0:0:
402,192,79568,1,0,0:0:0:0:
109,192,79893,128,0,80541:0:0:0:0:
182,192,79893,1,0,0:0:0:0:
329,192,79893,1,0,0:0:0:0:
475,192,80055,1,0,0:0:0:0:
36,192,80055,1,0,0:0:0:0:
182,192,80217,1,0,0:0:0:0:
329,192,80217,1,0,0:0:0:0:
475,192,80460,1,0,0:0:0:0:
36,192,80460,1,0,0:0:0:0:
36,192,80541,1,0,0:0:0:0:
475,192,80541,1,0,0:0:0:0:
109,192,80582,1,0,0:0:0:0:
402,192,80582,1,0,0:0:0:0:
182,192,80622,1,0,0:0:0:0:
329,192,80622,1,0,0:0:0:0:
256,192,80663,1,0,0:0:0:0:
36,192,80703,128,0,80764:0:0:0:0:
475,192,80703,128,0,80764:0:0:0:0:
109,192,80744,128,0,80805:0:0:0:0:
402,192,80744,128,0,80805:0:0:0:0:
182,192,80785,128,0,80845:0:0:0:0:
329,192,80785,128,0,80845:0:0:0:0:
256,192,80825,128,0,80886:0:0:0:0:
36,192,80866,128,0,80987:0:0:0:0:
475,192,80866,128,0,80987:0:0:0:0:
109,192,80906,128,0,81028:0:0:0:0:
402,192,80906,128,0,81028:0:0:0:0:
182,192,80947,128,0,81068:0:0:0:0:
329,192,80947,128,0,81068:0:0:0:0:
256,192,80987,128,0,81109:0:0:0:0:
475,192,81028,1,0,0:0:0:0:
36,192,81028,1,0,0:0:0:0:
109,192,81082,1,0,0:0:0:0:
402,192,81082,1,0,0:0:0:0:
182,192,81136,1,0,0:0:0:0:
329,192,81136,1,0,0:0:0:0:
36,192,81190,128,0,81433:0:0:0:0:
475,192,81190,128,0,81433:0:0:0:0:
256,192,81190,128,0,81433:0:0:0:0:
182,192,81352,128,0,81433:0:0:0:0:
109,192,81352,128,0,81433:0:0:0:0:
402,192,81352,128,0,81433:0:0:0:0:
329,192,81352,128,0,81433:0:0:0:0:
109,192,81514,1,0,0:0:0:0:
36,192,81514,1,0,0:0:0:0:
256,192,81514,1,0,0:0:0:0:
402,192,81514,1,0,0:0:0:0:
475,192,81514,1,0,0:0:0:0:
109,192,81676,128,0,81757:0:0:0:0:
182,192,81676,128,0,81757:0:0:0:0:
256,192,81676,128,0,81757:0:0:0:0:
329,192,81676,128,0,81757:0:0:0:0:
402,192,81676,128,0,81757:0:0:0:0:
256,192,82001,128,0,82244:0:0:0:0:
36,192,82001,128,0,82244:0:0:0:0:
109,192,82001,1,0,0:0:0:0:
402,192,82001,1,0,0:0:0:0:
475,192,82001,128,0,82244:0:0:0:0:
182,192,82163,128,0,82244:0:0:0:0:
109,192,82163,128,0,82244:0:0:0:0:
329,192,82163,128,0,82244:0:0:0:0:
402,192,82163,128,0,82244:0:0:0:0:
182,192,82325,1,0,0:0:0:0:
109,192,82325,1,0,0:0:0:0:
256,192,82325,128,0,82649:0:0:0:0:
329,192,82325,1,0,0:0:0:0:
402,192,82325,1,0,0:0:0:0:
182,192,82649,1,0,0:0:0:0:
329,192,82649,1,0,0:0:0:0:
256,192,82812,128,0,82893:0:0:0:0:
109,192,82812,128,0,82893:0:0:0:0:
182,192,82812,128,0,82893:0:0:0:0:
329,192,82812,128,0,82893:0:0:0:0:
402,192,82812,128,0,82893:0:0:0:0:
182,192,82974,1,0,0:0:0:0:
109,192,82974,1,0,0:0:0:0:
36,192,82974,128,0,83379:0:0:0:0:
329,192,82974,1,0,0:0:0:0:
402,192,82974,1,0,0:0:0:0:
475,192,82974,128,0,83379:0:0:0:0:
182,192,83298,128,0,83379:0:0:0:0:
256,192,83298,128,0,83379:0:0:0:0:
329,192,83298,128,0,83379:0:0:0:0:
402,192,83298,128,0,83703:0:0:0:0:
109,192,83298,128,0,83703:0:0:0:0:
182,192,83622,128,0,83703:0:0:0:0:
329,192,83622,128,0,83703:0:0:0:0:
256,192,83622,128,0,84028:0:0:0:0:
182,192,83947,128,0,84028:0:0:0:0:
329,192,83947,128,0,84028:0:0:0:0:
109,192,84109,128,0,84190:0:0:0:0:
402,192,84109,128,0,84190:0:0:0:0:
256,192,84109,1,0,0:0:0:0:
36,192,84271,128,0,84352:0:0:0:0:
475,192,84271,128,0,84352:0:0:0:0:
402,192,84433,128,0,84514:0:0:0:0:
109,192,84433,128,0,84514:0:0:0:0:
182,192,84595,128,0,84636:0:0:0:0:
329,192,84595,128,0,84636:0:0:0:0:
256,192,84757,1,0,0:0:0:0:
109,192,84757,128,0,84798:0:0:0:0:
402,192,84757,128,0,84798:0:0:0:0:
475,192,84920,128,0,84960:0:0:0:0:
36,192,84920,128,0,84960:0:0:0:0:
109,192,84960,1,0,0:0:0:0:
402,192,84960,1,0,0:0:0:0:
182,192,85001,1,0,0:0:0:0:
329,192,85001,1,0,0:0:0:0:
256,192,85041,1,0,0:0:0:0:
109,192,85082,1,0,0:0:0:0:
36,192,85082,1,0,0:0:0:0:
402,192,85082,1,0,0:0:0:0:
475,192,85082,1,0,0:0:0:0:
329,192,85244,1,0,0:0:0:0:
256,192,85244,1,0,0:0:0:0:
182,192,85244,1,0,0:0:0:0:
109,192,85406,1,0,0:0:0:0:
36,192,85406,1,0,0:0:0:0:
402,192,85406,1,0,0:0:0:0:
475,192,85406,1,0,0:0:0:0:
109,192,85568,1,0,0:0:0:0:
182,192,85568,1,0,0:0:0:0:
256,192,85568,1,0,0:0:0:0:
329,192,85568,1,0,0:0:0:0:
402,192,85568,1,0,0:0:0:0:
182,192,85730,1,0,0:0:0:0:
256,192,85730,1,0,0:0:0:0:
329,192,85730,1,0,0:0:0:0:
475,192,85730,1,0,0:0:0:0:
36,192,85730,1,0,0:0:0:0:
402,192,85893,128,0,86379:0:0:0:0:
109,192,85893,128,0,86379:0:0:0:0:
256,192,85893,128,0,86379:0:0:0:0:
182,192,86379,1,0,0:0:0:0:
36,192,86379,1,0,0:0:0:0:
329,192,86379,1,0,0:0:0:0:
475,192,86379,1,0,0:0:0:0:
182,192,86703,1,0,0:0:0:0:
329,192,86703,1,0,0:0:0:0:
256,192,86785,1,0,0:0:0:0:
182,192,86866,1,0,0:0:0:0:
329,192,86866,1,0,0:0:0:0:
109,192,86947,1,0,0:0:0:0:
402,192,86947,1,0,0:0:0:0:
329,192,87028,1,0,0:0:0:0:
182,192,87028,1,0,0:0:0:0:
109,192,87190,1,0,0:0:0:0:
36,192,87190,1,0,0:0:0:0:
402,192,87190,1,0,0:0:0:0:
475,192,87190,1,0,0:0:0:0:
329,192,87352,1,0,0:0:0:0:
256,192,87352,1,0,0:0:0:0:
182,192,87352,1,0,0:0:0:0:
402,192,87352,1,0,0:0:0:0:
475,192,87352,1,0,0:0:0:0:
329,192,87514,1,0,0:0:0:0:
256,192,87514,1,0,0:0:0:0:
182,192,87514,1,0,0:0:0:0:
109,192,87514,128,0,87839:0:0:0:0:
36,192,87514,128,0,87839:0:0:0:0:
182,192,87839,1,0,0:0:0:0:
329,192,87839,1,0,0:0:0:0:
256,192,87839,1,0,0:0:0:0:
402,192,87839,128,0,88001:0:0:0:0:
475,192,87839,128,0,88001:0:0:0:0:
36,192,88163,128,0,88244:0:0:0:0:
109,192,88244,128,0,88406:0:0:0:0:
182,192,88325,128,0,88487:0:0:0:0:
256,192,88406,128,0,88568:0:0:0:0:
109,192,88487,128,0,88568:0:0:0:0:
475,192,88487,1,0,0:0:0:0:
182,192,88568,128,0,88649:0:0:0:0:
402,192,88568,1,0,0:0:0:0:
256,192,88649,128,0,88893:0:0:0:0:
329,192,88649,1,0,0:0:0:0:
475,192,88649,1,0,0:0:0:0:
109,192,88649,1,0,0:0:0:0:
36,192,88649,1,0,0:0:0:0:
36,192,88812,128,0,89055:0:0:0:0:
182,192,88812,1,0,0:0:0:0:
109,192,88812,1,0,0:0:0:0:
475,192,88812,1,0,0:0:0:0:
402,192,88812,1,0,0:0:0:0:
402,192,88974,128,0,89217:0:0:0:0:
182,192,88974,1,0,0:0:0:0:
329,192,88974,1,0,0:0:0:0:
256,192,88974,1,0,0:0:0:0:
475,192,88974,1,0,0:0:0:0:
182,192,89136,128,0,89379:0:0:0:0:
329,192,89136,1,0,0:0:0:0:
256,192,89136,1,0,0:0:0:0:
109,192,89136,1,0,0:0:0:0:
36,192,89136,1,0,0:0:0:0:
329,192,89298,128,0,89541:0:0:0:0:
36,192,89298,1,0,0:0:0:0:
109,192,89298,1,0,0:0:0:0:
475,192,89298,1,0,0:0:0:0:
402,192,89298,1,0,0:0:0:0:
109,192,89460,128,0,89703:0:0:0:0:
256,192,89460,1,0,0:0:0:0:
182,192,89460,1,0,0:0:0:0:
36,192,89460,1,0,0:0:0:0:
475,192,89460,1,0,0:0:0:0:
475,192,89622,128,0,89866:0:0:0:0:
402,192,89622,1,0,0:0:0:0:
329,192,89622,1,0,0:0:0:0:
256,192,89622,1,0,0:0:0:0:
36,192,89622,1,0,0:0:0:0:
256,192,89785,128,0,90028:0:0:0:0:
109,192,89785,1,0,0:0:0:0:
182,192,89785,1,0,0:0:0:0:
329,192,89785,1,0,0:0:0:0:
402,192,89785,1,0,0:0:0:0:
36,192,89947,128,0,90109:0:0:0:0:
182,192,89947,1,0,0:0:0:0:
109,192,89947,1,0,0:0:0:0:
475,192,89947,1,0,0:0:0:0:
402,192,89947,1,0,0:0:0:0:
182,192,90109,1,0,0:0:0:0:
256,192,90109,1,0,0:0:0:0:
329,192,90109,1,0,0:0:0:0:
402,192,90109,1,0,0:0:0:0:
475,192,90109,1,0,0:0:0:0:
182,192,90433,1,0,0:0:0:0:
256,192,90433,1,0,0:0:0:0:
329,192,90433,1,0,0:0:0:0:
109,192,90433,128,0,90595:0:0:0:0:
36,192,90433,128,0,90595:0:0:0:0:
182,192,90595,1,0,0:0:0:0:
256,192,90595,1,0,0:0:0:0:
329,192,90595,1,0,0:0:0:0:
402,192,90595,128,0,90920:0:0:0:0:
475,192,90595,128,0,90920:0:0:0:0:
109,192,90757,128,0,90920:0:0:0:0:
36,192,90757,128,0,90920:0:0:0:0:
182,192,90757,128,0,91082:0:0:0:0:
329,192,90920,128,0,91244:0:0:0:0:
109,192,91082,1,0,0:0:0:0:
36,192,91082,1,0,0:0:0:0:
475,192,91082,1,0,0:0:0:0:
402,192,91082,1,0,0:0:0:0:
256,192,91244,1,0,0:0:0:0:
109,192,91244,1,0,0:0:0:0:
36,192,91244,1,0,0:0:0:0:
182,192,91244,128,0,91406:0:0:0:0:
402,192,91406,1,0,0:0:0:0:
475,192,91406,1,0,0:0:0:0:
329,192,91406,128,0,91730:0:0:0:0:
36,192,91568,128,0,91649:0:0:0:0:
182,192,91568,128,0,91812:0:0:0:0:
402,192,91649,128,0,91730:0:0:0:0:
109,192,91730,128,0,91812:0:0:0:0:
256,192,91730,128,0,91974:0:0:0:0:
36,192,91730,1,0,0:0:0:0:
475,192,91812,128,0,91893:0:0:0:0:
182,192,91893,128,0,91974:0:0:0:0:
329,192,91893,128,0,92136:0:0:0:0:
109,192,91893,1,0,0:0:0:0:
402,192,91893,1,0,0:0:0:0:
36,192,91974,128,0,92055:0:0:0:0:
256,192,92055,128,0,92298:0:0:0:0:
402,192,92055,128,0,92136:0:0:0:0:
182,192,92055,1,0,0:0:0:0:
109,192,92136,128,0,92176:0:0:0:0:
329,192,92217,128,0,92460:0:0:0:0:
475,192,92217,128,0,92298:0:0:0:0:
109,192,92217,128,0,92298:0:0:0:0:
402,192,92217,1,0,0:0:0:0:
36,192,92298,128,0,92379:0:0:0:0:
402,192,92379,128,0,92541:0:0:0:0:
182,192,92379,128,0,92622:0:0:0:0:
109,192,92379,1,0,0:0:0:0:
475,192,92460,128,0,92501:0:0:0:0:
256,192,92541,128,0,92622:0:0:0:0:
475,192,92541,128,0,92622:0:0:0:0:
109,192,92541,128,0,92785:0:0:0:0:
36,192,92541,1,0,0:0:0:0:
329,192,92541,1,0,0:0:0:0:
402,192,92622,128,0,92663:0:0:0:0:
402,192,92703,128,0,92785:0:0:0:0:
182,192,92703,128,0,92785:0:0:0:0:
36,192,92703,128,0,92947:0:0:0:0:
256,192,92703,1,0,0:0:0:0:
475,192,92785,128,0,92866:0:0:0:0:
329,192,92866,128,0,93109:0:0:0:0:
109,192,92866,128,0,92947:0:0:0:0:
182,192,92866,1,0,0:0:0:0:
402,192,92947,128,0,93028:0:0:0:0:
256,192,93028,128,0,93271:0:0:0:0:
36,192,93028,128,0,93109:0:0:0:0:
109,192,93028,1,0,0:0:0:0:
475,192,93109,128,0,93190:0:0:0:0:
182,192,93190,128,0,93352:0:0:0:0:
329,192,93190,128,0,93271:0:0:0:0:
402,192,93190,1,0,0:0:0:0:
36,192,93190,1,0,0:0:0:0:
402,192,93271,128,0,93474:0:0:0:0:
36,192,93352,128,0,93393:0:0:0:0:
256,192,93352,1,0,0:0:0:0:
182,192,93393,128,0,93433:0:0:0:0:
329,192,93433,128,0,93474:0:0:0:0:
36,192,93433,128,0,93514:0:0:0:0:
475,192,93474,128,0,93514:0:0:0:0:
109,192,93514,128,0,93595:0:0:0:0:
256,192,93514,128,0,93595:0:0:0:0:
182,192,93514,1,0,0:0:0:0:
402,192,93595,128,0,93676:0:0:0:0:
182,192,93676,128,0,94082:0:0:0:0:
329,192,93676,128,0,94082:0:0:0:0:
256,192,93676,1,0,0:0:0:0:
109,192,93757,1,0,0:0:0:0:
36,192,93839,1,0,0:0:0:0:
475,192,93839,1,0,0:0:0:0:
475,192,94001,1,0,0:0:0:0:
402,192,94082,1,0,0:0:0:0:
329,192,94163,1,0,0:0:0:0:
182,192,94163,1,0,0:0:0:0:
36,192,94163,1,0,0:0:0:0:
109,192,94325,1,0,0:0:0:0:
256,192,94325,1,0,0:0:0:0:
402,192,94325,1,0,0:0:0:0:
182,192,94487,1,0,0:0:0:0:
329,192,94487,1,0,0:0:0:0:
475,192,94487,1,0,0:0:0:0:
256,192,94649,128,0,94812:0:0:0:0:
402,192,94649,128,0,94812:0:0:0:0:
109,192,94649,128,0,94730:0:0:0:0:
182,192,94812,1,0,0:0:0:0:
109,192,94812,1,0,0:0:0:0:
36,192,94812,1,0,0:0:0:0:
182,192,94974,128,0,95136:0:0:0:0:
329,192,94974,128,0,95136:0:0:0:0:
475,192,94974,128,0,95055:0:0:0:0:
402,192,95136,1,0,0:0:0:0:
475,192,95136,1,0,0:0:0:0:
256,192,95298,128,0,95622:0:0:0:0:
109,192,95298,128,0,95622:0:0:0:0:
329,192,95298,1,0,0:0:0:0:
182,192,95298,1,0,0:0:0:0:
329,192,95622,1,0,0:0:0:0:
402,192,95622,1,0,0:0:0:0:
475,192,95622,1,0,0:0:0:0:
182,192,95622,128,0,95703:0:0:0:0:
329,192,95785,1,0,0:0:0:0:
256,192,95785,1,0,0:0:0:0:
402,192,95785,1,0,0:0:0:0:
109,192,95785,128,0,95866:0:0:0:0:
182,192,95947,128,0,96271:0:0:0:0:
36,192,95947,128,0,96271:0:0:0:0:
256,192,95947,1,0,0:0:0:0:
109,192,95947,1,0,0:0:0:0:
109,192,96271,1,0,0:0:0:0:
329,192,96271,1,0,0:0:0:0:
475,192,96271,1,0,0:0:0:0:
256,192,96433,1,0,0:0:0:0:
182,192,96433,1,0,0:0:0:0:
36,192,96433,1,0,0:0:0:0:
402,192,96433,1,0,0:0:0:0:
475,192,96595,128,0,96757:0:0:0:0:
182,192,96595,128,0,96757:0:0:0:0:
402,192,96676,128,0,96757:0:0:0:0:
109,192,96676,128,0,96757:0:0:0:0:
36,192,96757,128,0,97001:0:0:0:0:
256,192,96757,128,0,97325:0:0:0:0:
329,192,96757,128,0,97001:0:0:0:0:
109,192,96920,128,0,97001:0:0:0:0:
182,192,96920,128,0,97001:0:0:0:0:
402,192,96920,128,0,97001:0:0:0:0:
475,192,96920,128,0,97001:0:0:0:0:
36,192,97082,128,0,97325:0:0:0:0:
402,192,97082,128,0,97325:0:0:0:0:
182,192,97082,128,0,97122:0:0:0:0:
109,192,97082,128,0,97122:0:0:0:0:
329,192,97082,128,0,97122:0:0:0:0:
475,192,97082,128,0,97122:0:0:0:0:
475,192,97244,128,0,97649:0:0:0:0:
182,192,97244,128,0,97325:0:0:0:0:
109,192,97244,128,0,97325:0:0:0:0:
329,192,97244,128,0,97325:0:0:0:0:
182,192,97406,128,0,97974:0:0:0:0:
329,192,97406,128,0,97649:0:0:0:0:
109,192,97406,128,0,97649:0:0:0:0:
36,192,97406,128,0,97447:0:0:0:0:
256,192,97406,128,0,97447:0:0:0:0:
402,192,97406,128,0,97447:0:0:0:0:
256,192,97568,128,0,97649:0:0:0:0:
36,192,97568,128,0,97649:0:0:0:0:
402,192,97568,128,0,97649:0:0:0:0:
36,192,97730,128,0,97974:0:0:0:0:
475,192,97730,128,0,97974:0:0:0:0:
402,192,97730,128,0,97771:0:0:0:0:
329,192,97730,128,0,97771:0:0:0:0:
109,192,97730,128,0,97771:0:0:0:0:
329,192,97893,128,0,98298:0:0:0:0:
256,192,97893,128,0,98460:0:0:0:0:
109,192,97893,128,0,97974:0:0:0:0:
402,192,97893,128,0,97974:0:0:0:0:
182,192,98055,128,0,98298:0:0:0:0:
36,192,98055,128,0,98095:0:0:0:0:
109,192,98055,128,0,98095:0:0:0:0:
402,192,98055,128,0,98095:0:0:0:0:
475,192,98055,128,0,98095:0:0:0:0:
36,192,98217,128,0,98622:0:0:0:0:
109,192,98217,128,0,98298:0:0:0:0:
475,192,98217,128,0,98298:0:0:0:0:
402,192,98379,128,0,98622:0:0:0:0:
182,192,98379,128,0,98622:0:0:0:0:
329,192,98379,128,0,98420:0:0:0:0:
475,192,98379,128,0,98420:0:0:0:0:
329,192,98541,128,0,98947:0:0:0:0:
109,192,98541,128,0,98622:0:0:0:0:
256,192,98541,128,0,98622:0:0:0:0:
475,192,98541,128,0,98622:0:0:0:0:
109,192,98703,128,0,98947:0:0:0:0:
36,192,98703,128,0,98744:0:0:0:0:
182,192,98703,128,0,98744:0:0:0:0:
402,192,98703,128,0,98744:0:0:0:0:
475,192,98703,128,0,98744:0:0:0:0:
475,192,98866,128,0,99271:0:0:0:0:
256,192,98866,128,0,99109:0:0:0:0:
402,192,98866,128,0,98947:0:0:0:0:
182,192,98866,128,0,98906:0:0:0:0:
36,192,98866,128,0,98906:0:0:0:0:
402,192,99028,128,0,99271:0:0:0:0:
182,192,99028,128,0,99068:0:0:0:0:
329,192,99028,128,0,99068:0:0:0:0:
109,192,99028,128,0,99068:0:0:0:0:
36,192,99028,128,0,99068:0:0:0:0:
36,192,99190,128,0,99433:0:0:0:0:
256,192,99190,128,0,99595:0:0:0:0:
329,192,99190,128,0,99433:0:0:0:0:
182,192,99190,128,0,99271:0:0:0:0:
109,192,99190,128,0,99271:0:0:0:0:
109,192,99352,128,0,99393:0:0:0:0:
182,192,99352,128,0,99393:0:0:0:0:
402,192,99352,128,0,99393:0:0:0:0:
475,192,99352,128,0,99393:0:0:0:0:
109,192,99514,128,0,99717:0:0:0:0:
402,192,99514,128,0,99717:0:0:0:0:
182,192,99514,128,0,99595:0:0:0:0:
329,192,99514,128,0,99595:0:0:0:0:
475,192,99514,128,0,99595:0:0:0:0:
36,192,99514,128,0,99595:0:0:0:0:
329,192,99676,128,0,100082:0:0:0:0:
182,192,99676,128,0,99920:0:0:0:0:
36,192,99676,128,0,99920:0:0:0:0:
256,192,99676,128,0,99717:0:0:0:0:
475,192,99676,128,0,99717:0:0:0:0:
109,192,99839,128,0,99920:0:0:0:0:
256,192,99839,128,0,99920:0:0:0:0:
402,192,99839,128,0,99920:0:0:0:0:
475,192,99839,128,0,99920:0:0:0:0:
182,192,100001,128,0,100406:0:0:0:0:
475,192,100001,128,0,100244:0:0:0:0:
256,192,100001,128,0,100244:0:0:0:0:
109,192,100001,128,0,100041:0:0:0:0:
36,192,100001,128,0,100041:0:0:0:0:
402,192,100001,128,0,100041:0:0:0:0:
329,192,100163,128,0,100244:0:0:0:0:
402,192,100163,128,0,100244:0:0:0:0:
109,192,100163,128,0,100244:0:0:0:0:
36,192,100163,128,0,100244:0:0:0:0:
402,192,100325,128,0,100730:0:0:0:0:
256,192,100325,128,0,100568:0:0:0:0:
109,192,100325,128,0,100568:0:0:0:0:
36,192,100325,128,0,100366:0:0:0:0:
329,192,100325,128,0,100366:0:0:0:0:
475,192,100325,128,0,100366:0:0:0:0:
182,192,100487,128,0,100568:0:0:0:0:
36,192,100487,128,0,100568:0:0:0:0:
329,192,100487,128,0,100568:0:0:0:0:
475,192,100487,128,0,100568:0:0:0:0:
109,192,100649,128,0,101055:0:0:0:0:
329,192,100649,128,0,100893:0:0:0:0:
475,192,100649,128,0,100893:0:0:0:0:
256,192,100649,128,0,100730:0:0:0:0:
182,192,100649,128,0,100690:0:0:0:0:
36,192,100649,128,0,100690:0:0:0:0:
182,192,100812,128,0,100893:0:0:0:0:
36,192,100812,128,0,100893:0:0:0:0:
256,192,100812,128,0,100852:0:0:0:0:
402,192,100812,128,0,100852:0:0:0:0:
475,192,100974,128,0,101379:0:0:0:0:
256,192,100974,128,0,101217:0:0:0:0:
402,192,100974,128,0,101217:0:0:0:0:
329,192,100974,128,0,101055:0:0:0:0:
182,192,100974,128,0,101055:0:0:0:0:
36,192,100974,128,0,101055:0:0:0:0:
36,192,101136,128,0,101176:0:0:0:0:
182,192,101136,128,0,101176:0:0:0:0:
109,192,101136,128,0,101217:0:0:0:0:
329,192,101136,128,0,101176:0:0:0:0:
36,192,101298,128,0,101703:0:0:0:0:
329,192,101298,128,0,101541:0:0:0:0:
182,192,101298,128,0,101541:0:0:0:0:
109,192,101298,128,0,101339:0:0:0:0:
256,192,101298,128,0,101339:0:0:0:0:
402,192,101298,128,0,101339:0:0:0:0:
256,192,101460,128,0,101541:0:0:0:0:
109,192,101460,128,0,101541:0:0:0:0:
402,192,101460,128,0,101541:0:0:0:0:
475,192,101460,128,0,101501:0:0:0:0:
402,192,101622,128,0,101866:0:0:0:0:
256,192,101622,128,0,101866:0:0:0:0:
109,192,101622,128,0,101866:0:0:0:0:
182,192,101622,128,0,101703:0:0:0:0:
329,192,101622,128,0,101703:0:0:0:0:
475,192,101622,128,0,101703:0:0:0:0:
182,192,101785,1,0,0:0:0:0:
36,192,101785,1,0,0:0:0:0:
329,192,101866,1,0,0:0:0:0:
475,192,101866,1,0,0:0:0:0:
256,192,101947,1,0,0:0:0:0:
109,192,101947,1,0,0:0:0:0:
402,192,101947,1,0,0:0:0:0:
36,192,101947,1,0,0:0:0:0:
182,192,101947,128,0,102230:0:0:0:0:
329,192,101947,128,0,102555:0:0:0:0:
475,192,101947,128,0,102879:0:0:0:0:
109,192,102109,1,0,0:0:0:0:
256,192,102109,1,0,0:0:0:0:
402,192,102109,1,0,0:0:0:0:
36,192,102109,1,0,0:0:0:0:
36,192,102271,128,0,102879:0:0:0:0:
402,192,102271,1,0,0:0:0:0:
109,192,102271,1,0,0:0:0:0:
182,192,102271,1,0,0:0:0:0:
256,192,102271,1,0,0:0:0:0:
182,192,102433,1,0,0:0:0:0:
109,192,102433,1,0,0:0:0:0:
256,192,102433,1,0,0:0:0:0:
402,192,102433,1,0,0:0:0:0:
182,192,102595,128,0,103203:0:0:0:0:
402,192,102595,1,0,0:0:0:0:
329,192,102595,1,0,0:0:0:0:
256,192,102595,1,0,0:0:0:0:
109,192,102595,1,0,0:0:0:0:
109,192,102757,1,0,0:0:0:0:
256,192,102757,1,0,0:0:0:0:
329,192,102757,1,0,0:0:0:0:
402,192,102757,1,0,0:0:0:0:
329,192,102920,128,0,103528:0:0:0:0:
256,192,102920,1,0,0:0:0:0:
109,192,102920,1,0,0:0:0:0:
36,192,102920,1,0,0:0:0:0:
402,192,102920,1,0,0:0:0:0:
475,192,102920,1,0,0:0:0:0:
475,192,103082,128,0,104176:0:0:0:0:
36,192,103082,128,0,104460:0:0:0:0:
256,192,103082,128,0,103163:0:0:0:0:
109,192,103082,128,0,103163:0:0:0:0:
402,192,103082,128,0,103163:0:0:0:0:
256,192,103244,128,0,103852:0:0:0:0:
109,192,103244,1,0,0:0:0:0:
402,192,103244,1,0,0:0:0:0:
182,192,103325,1,0,0:0:0:0:
109,192,103406,1,0,0:0:0:0:
402,192,103406,1,0,0:0:0:0:
182,192,103487,1,0,0:0:0:0:
402,192,103568,1,0,0:0:0:0:
109,192,103568,1,0,0:0:0:0:
182,192,103649,1,0,0:0:0:0:
329,192,103649,1,0,0:0:0:0:
109,192,103730,1,0,0:0:0:0:
402,192,103730,1,0,0:0:0:0:
329,192,103812,1,0,0:0:0:0:
182,192,103812,1,0,0:0:0:0:
109,192,103893,1,0,0:0:0:0:
402,192,103893,1,0,0:0:0:0:
256,192,103893,1,0,0:0:0:0:
329,192,103974,1,0,0:0:0:0:
182,192,103974,1,0,0:0:0:0:
109,192,104055,1,0,0:0:0:0:
402,192,104055,1,0,0:0:0:0:
256,192,104055,1,0,0:0:0:0:
329,192,104136,1,0,0:0:0:0:
182,192,104136,1,0,0:0:0:0:
256,192,104217,1,0,0:0:0:0:
109,192,104217,1,0,0:0:0:0:
402,192,104217,1,0,0:0:0:0:
475,192,104217,1,0,0:0:0:0:
329,192,104298,1,0,0:0:0:0:
182,192,104298,1,0,0:0:0:0:
109,192,104379,1,0,0:0:0:0:
256,192,104379,1,0,0:0:0:0:
402,192,104379,1,0,0:0:0:0:
475,192,104379,1,0,0:0:0:0:
329,192,104460,1,0,0:0:0:0:
182,192,104460,1,0,0:0:0:0:
256,192,104541,128,0,104582:0:0:0:0:
109,192,104541,128,0,104582:0:0:0:0:
36,192,104541,128,0,104582:0:0:0:0:
475,192,104541,128,0,104622:0:0:0:0:
402,192,104541,128,0,104703:0:0:0:0:
182,192,104622,128,0,104663:0:0:0:0:
329,192,104622,128,0,104785:0:0:0:0:
256,192,104703,128,0,104744:0:0:0:0:
109,192,104703,128,0,104744:0:0:0:0:
475,192,104703,128,0,104744:0:0:0:0:
182,192,104785,128,0,104825:0:0:0:0:
36,192,104785,128,0,104825:0:0:0:0:
109,192,104866,128,0,104906:0:0:0:0:
256,192,104866,128,0,104906:0:0:0:0:
402,192,104866,128,0,104947:0:0:0:0:
475,192,104866,128,0,105109:0:0:0:0:
329,192,104947,128,0,105028:0:0:0:0:
182,192,104947,128,0,104987:0:0:0:0:
36,192,104947,128,0,104987:0:0:0:0:
109,192,105028,128,0,105068:0:0:0:0:
256,192,105028,128,0,105068:0:0:0:0:
402,192,105028,128,0,105068:0:0:0:0:
182,192,105109,128,0,105149:0:0:0:0:
329,192,105109,128,0,105149:0:0:0:0:
109,192,105190,128,0,105230:0:0:0:0:
36,192,105190,128,0,105312:0:0:0:0:
256,192,105190,128,0,105230:0:0:0:0:
402,192,105190,128,0,105230:0:0:0:0:
475,192,105190,128,0,105230:0:0:0:0:
329,192,105271,128,0,105312:0:0:0:0:
182,192,105271,128,0,105312:0:0:0:0:
256,192,105352,128,0,105393:0:0:0:0:
402,192,105352,128,0,105393:0:0:0:0:
109,192,105352,128,0,105433:0:0:0:0:
329,192,105433,128,0,105474:0:0:0:0:
475,192,105433,128,0,105474:0:0:0:0:
256,192,105514,128,0,105555:0:0:0:0:
182,192,105514,128,0,105595:0:0:0:0:
109,192,105514,128,0,105676:0:0:0:0:
36,192,105514,128,0,105757:0:0:0:0:
402,192,105514,128,0,105555:0:0:0:0:
329,192,105595,128,0,105636:0:0:0:0:
475,192,105595,128,0,105636:0:0:0:0:
402,192,105676,128,0,105717:0:0:0:0:
256,192,105676,128,0,105717:0:0:0:0:
182,192,105757,128,0,105798:0:0:0:0:
329,192,105757,128,0,105798:0:0:0:0:
256,192,105839,128,0,106001:0:0:0:0:
36,192,105839,128,0,105920:0:0:0:0:
109,192,105839,128,0,105879:0:0:0:0:
402,192,105839,128,0,105879:0:0:0:0:
475,192,105839,128,0,105920:0:0:0:0:
182,192,105920,128,0,106082:0:0:0:0:
109,192,106001,128,0,106163:0:0:0:0:
402,192,106001,128,0,106082:0:0:0:0:
329,192,106001,128,0,106082:0:0:0:0:
475,192,106001,128,0,106163:0:0:0:0:
36,192,106082,128,0,106244:0:0:0:0:
256,192,106082,128,0,106163:0:0:0:0:
402,192,106163,128,0,106244:0:0:0:0:
329,192,106163,128,0,106244:0:0:0:0:
182,192,106244,128,0,106325:0:0:0:0:
256,192,106244,128,0,106325:0:0:0:0:
109,192,106244,128,0,106325:0:0:0:0:
475,192,106244,128,0,106730:0:0:0:0:
329,192,106325,128,0,106406:0:0:0:0:
36,192,106325,128,0,106406:0:0:0:0:
109,192,106406,128,0,106487:0:0:0:0:
402,192,106406,128,0,106649:0:0:0:0:
256,192,106406,128,0,106487:0:0:0:0:
329,192,106487,128,0,106568:0:0:0:0:
36,192,106487,1,0,0:0:0:0:
182,192,106487,128,0,106568:0:0:0:0:
256,192,106568,128,0,106649:0:0:0:0:
329,192,106649,128,0,106730:0:0:0:0:
182,192,106649,1,0,0:0:0:0:
402,192,106730,128,0,106812:0:0:0:0:
475,192,106812,128,0,106893:0:0:0:0:
329,192,106812,1,0,0:0:0:0:
475,192,106974,1,0,0:0:0:0:
329,192,107136,128,0,107298:0:0:0:0:
329,192,107352,1,0,0:0:0:0:
329,192,107460,128,0,107744:0:0:0:0:
182,192,107460,128,0,107622:0:0:0:0:
329,192,107785,1,0,0:0:0:0:
182,192,107785,128,0,107947:0:0:0:0:
36,192,107785,128,0,108055:0:0:0:0:
36,192,108109,1,0,0:0:0:0:
329,192,108109,128,0,108271:0:0:0:0:
475,192,108109,128,0,108379:0:0:0:0:
256,192,108271,128,0,108433:0:0:0:0:
475,192,108433,1,0,0:0:0:0:
182,192,108433,128,0,108595:0:0:0:0:
36,192,108433,128,0,108703:0:0:0:0:
402,192,108541,1,0,0:0:0:0:
329,192,108649,1,0,0:0:0:0:
256,192,108757,1,0,0:0:0:0:
36,192,108757,1,0,0:0:0:0:
475,192,108757,128,0,109028:0:0:0:0:
109,192,109082,128,0,109244:0:0:0:0:
402,192,109082,128,0,109352:0:0:0:0:
109,192,109298,1,0,0:0:0:0:
109,192,109406,128,0,109676:0:0:0:0:
402,192,109406,1,0,0:0:0:0:
109,192,109730,1,0,0:0:0:0:
256,192,109730,128,0,109893:0:0:0:0:
402,192,109730,128,0,110001:0:0:0:0:
402,192,110055,1,0,0:0:0:0:
256,192,110055,128,0,110703:0:0:0:0:
36,192,110055,128,0,110325:0:0:0:0:
36,192,110379,1,0,0:0:0:0:
475,192,110379,128,0,110649:0:0:0:0:
329,192,110379,128,0,110541:0:0:0:0:
182,192,110487,1,0,0:0:0:0:
329,192,110595,1,0,0:0:0:0:
475,192,110703,1,0,0:0:0:0:
182,192,110703,128,0,110974:0:0:0:0:
36,192,110703,128,0,110974:0:0:0:0:
182,192,111028,1,0,0:0:0:0:
36,192,111028,1,0,0:0:0:0:
256,192,111190,1,0,0:0:0:0:
109,192,111190,1,0,0:0:0:0:
182,192,111352,1,0,0:0:0:0:
36,192,111352,1,0,0:0:0:0:
329,192,111352,1,0,0:0:0:0:
475,192,111352,1,0,0:0:0:0:
256,192,111514,1,0,0:0:0:0:
402,192,111514,1,0,0:0:0:0:
329,192,111676,1,0,0:0:0:0:
475,192,111676,1,0,0:0:0:0:
182,192,111676,1,0,0:0:0:0:
36,192,111676,1,0,0:0:0:0:
256,192,111839,1,0,0:0:0:0:
402,192,111839,1,0,0:0:0:0:
329,192,112001,1,0,0:0:0:0:
182,192,112001,1,0,0:0:0:0:
36,192,112001,1,0,0:0:0:0:
475,192,112001,1,0,0:0:0:0:
256,192,112163,1,0,0:0:0:0:
109,192,112163,1,0,0:0:0:0:
475,192,112325,1,0,0:0:0:0:
182,192,112325,128,0,112568:0:0:0:0:
36,192,112325,128,0,112568:0:0:0:0:
329,192,112325,128,0,112568:0:0:0:0:
256,192,112487,1,0,0:0:0:0:
109,192,112487,1,0,0:0:0:0:
329,192,112649,128,0,112893:0:0:0:0:
182,192,112649,128,0,112893:0:0:0:0:
475,192,112649,128,0,112893:0:0:0:0:
36,192,112649,1,0,0:0:0:0:
256,192,112812,1,0,0:0:0:0:
402,192,112812,1,0,0:0:0:0:
182,192,112974,128,0,113217:0:0:0:0:
329,192,112974,128,0,113217:0:0:0:0:
36,192,112974,128,0,113217:0:0:0:0:
475,192,112974,1,0,0:0:0:0:
256,192,113136,1,0,0:0:0:0:
402,192,113136,1,0,0:0:0:0:
36,192,113298,1,0,0:0:0:0:
182,192,113298,128,0,113541:0:0:0:0:
329,192,113298,128,0,113541:0:0:0:0:
475,192,113298,128,0,113541:0:0:0:0:
402,192,113379,128,0,113541:0:0:0:0:
109,192,113460,1,0,0:0:0:0:
256,192,113460,128,0,113541:0:0:0:0:
109,192,113541,128,0,113622:0:0:0:0:
36,192,113622,128,0,114028:0:0:0:0:
182,192,113622,128,0,114028:0:0:0:0:
329,192,113622,128,0,114028:0:0:0:0:
475,192,113622,128,0,114028:0:0:0:0:
109,192,113785,1,0,0:0:0:0:
256,192,113785,1,0,0:0:0:0:
402,192,113785,1,0,0:0:0:0:
109,192,113947,128,0,114352:0:0:0:0:
256,192,113947,128,0,114352:0:0:0:0:
402,192,113947,128,0,114352:0:0:0:0:
36,192,114109,1,0,0:0:0:0:
475,192,114109,1,0,0:0:0:0:
329,192,114190,1,0,0:0:0:0:
182,192,114190,1,0,0:0:0:0:
36,192,114271,1,0,0:0:0:0:
475,192,114271,1,0,0:0:0:0:
109,192,114433,1,0,0:0:0:0:
256,192,114433,1,0,0:0:0:0:
402,192,114433,1,0,0:0:0:0:
182,192,114595,128,0,114757:0:0:0:0:
36,192,114595,128,0,114757:0:0:0:0:
329,192,114595,128,0,114757:0:0:0:0:
475,192,114595,128,0,114757:0:0:0:0:
402,192,114757,1,0,0:0:0:0:
256,192,114757,1,0,0:0:0:0:
109,192,114757,1,0,0:0:0:0:
256,192,115730,128,0,115852:0:0:0:0:
329,192,115730,128,0,115812:0:0:0:0:
402,192,115730,128,0,115771:0:0:0:0:
475,192,115730,128,0,115771:0:0:0:0:
182,192,115771,128,0,115893:0:0:0:0:
109,192,115812,128,0,115933:0:0:0:0:
36,192,115852,128,0,115933:0:0:0:0:
475,192,115852,128,0,115933:0:0:0:0:
402,192,115893,128,0,115974:0:0:0:0:
329,192,115933,128,0,116014:0:0:0:0:
256,192,115974,128,0,116014:0:0:0:0:
182,192,115974,128,0,116014:0:0:0:0:
109,192,115974,128,0,116014:0:0:0:0:
36,192,115974,128,0,116014:0:0:0:0:
329,192,116055,128,0,116136:0:0:0:0:
402,192,116055,128,0,116095:0:0:0:0:
475,192,116055,128,0,116136:0:0:0:0:
182,192,116136,128,0,116217:0:0:0:0:
109,192,116136,128,0,116176:0:0:0:0:
36,192,116136,128,0,116217:0:0:0:0:
256,192,116217,128,0,116501:0:0:0:0:
475,192,116217,128,0,116298:0:0:0:0:
402,192,116217,128,0,116298:0:0:0:0:
109,192,116298,128,0,116460:0:0:0:0:
182,192,116379,128,0,116460:0:0:0:0:
402,192,116379,128,0,116460:0:0:0:0:
329,192,116379,128,0,116460:0:0:0:0:
36,192,116460,128,0,116622:0:0:0:0:
109,192,116541,128,0,116622:0:0:0:0:
329,192,116541,128,0,116622:0:0:0:0:
475,192,116541,128,0,116785:0:0:0:0:
256,192,116541,128,0,116703:0:0:0:0:
402,192,116622,128,0,117028:0:0:0:0:
36,192,116703,128,0,116785:0:0:0:0:
182,192,116703,128,0,116825:0:0:0:0:
329,192,116703,128,0,116785:0:0:0:0:
256,192,116785,128,0,116866:0:0:0:0:
109,192,116866,128,0,116947:0:0:0:0:
329,192,116866,128,0,116947:0:0:0:0:
182,192,116866,128,0,116947:0:0:0:0:
475,192,116866,128,0,116947:0:0:0:0:
36,192,116947,128,0,117109:0:0:0:0:
182,192,117028,128,0,117190:0:0:0:0:
475,192,117028,128,0,117109:0:0:0:0:
329,192,117028,128,0,117271:0:0:0:0:
256,192,117028,128,0,117109:0:0:0:0:
109,192,117109,128,0,117271:0:0:0:0:
402,192,117109,128,0,117271:0:0:0:0:
256,192,117190,128,0,117271:0:0:0:0:
475,192,117190,128,0,117271:0:0:0:0:
182,192,117271,128,0,117474:0:0:0:0:
36,192,117271,128,0,117352:0:0:0:0:
109,192,117352,128,0,117433:0:0:0:0:
402,192,117352,128,0,117433:0:0:0:0:
475,192,117433,128,0,117514:0:0:0:0:
329,192,117433,128,0,117595:0:0:0:0:
36,192,117514,128,0,117757:0:0:0:0:
256,192,117514,128,0,117595:0:0:0:0:
182,192,117514,128,0,117676:0:0:0:0:
402,192,117595,128,0,117757:0:0:0:0:
329,192,117676,128,0,117757:0:0:0:0:
109,192,117676,128,0,117839:0:0:0:0:
475,192,117757,128,0,117920:0:0:0:0:
256,192,117757,128,0,117839:0:0:0:0:
36,192,117839,128,0,118122:0:0:0:0:
182,192,117839,128,0,117920:0:0:0:0:
402,192,117839,128,0,117920:0:0:0:0:
329,192,117839,128,0,117920:0:0:0:0:
109,192,117920,128,0,118082:0:0:0:0:
256,192,117920,128,0,118001:0:0:0:0:
475,192,118001,128,0,118082:0:0:0:0:
182,192,118001,128,0,118082:0:0:0:0:
329,192,118001,128,0,118082:0:0:0:0:
256,192,118082,128,0,118285:0:0:0:0:
402,192,118163,128,0,118244:0:0:0:0:
182,192,118163,128,0,118244:0:0:0:0:
36,192,118163,128,0,118244:0:0:0:0:
329,192,118163,128,0,118244:0:0:0:0:
475,192,118244,128,0,118406:0:0:0:0:
109,192,118244,128,0,118325:0:0:0:0:
36,192,118325,128,0,118406:0:0:0:0:
329,192,118325,128,0,118406:0:0:0:0:
182,192,118325,128,0,118568:0:0:0:0:
256,192,118325,128,0,118406:0:0:0:0:
402,192,118406,128,0,118568:0:0:0:0:
109,192,118406,128,0,118568:0:0:0:0:
256,192,118487,128,0,118568:0:0:0:0:
36,192,118487,128,0,118568:0:0:0:0:
329,192,118568,128,0,118730:0:0:0:0:
36,192,118649,128,0,118812:0:0:0:0:
475,192,118649,128,0,118730:0:0:0:0:
182,192,118649,128,0,118852:0:0:0:0:
109,192,118730,128,0,118812:0:0:0:0:
402,192,118730,128,0,118812:0:0:0:0:
256,192,118812,128,0,118974:0:0:0:0:
329,192,118812,128,0,118893:0:0:0:0:
182,192,118893,128,0,119055:0:0:0:0:
402,192,118893,128,0,118933:0:0:0:0:
109,192,118974,128,0,119136:0:0:0:0:
475,192,118974,128,0,119014:0:0:0:0:
36,192,119055,128,0,119217:0:0:0:0:
329,192,119055,128,0,119095:0:0:0:0:
402,192,119136,128,0,119176:0:0:0:0:
182,192,119136,128,0,119217:0:0:0:0:
475,192,119136,128,0,119298:0:0:0:0:
256,192,119217,128,0,119379:0:0:0:0:
109,192,119217,128,0,119257:0:0:0:0:
329,192,119298,128,0,119460:0:0:0:0:
36,192,119298,128,0,119339:0:0:0:0:
402,192,119379,128,0,119541:0:0:0:0:
182,192,119379,128,0,119420:0:0:0:0:
109,192,119460,128,0,119501:0:0:0:0:
256,192,119460,128,0,119541:0:0:0:0:
475,192,119460,128,0,119622:0:0:0:0:
329,192,119541,128,0,119622:0:0:0:0:
36,192,119541,128,0,119582:0:0:0:0:
402,192,119622,128,0,119703:0:0:0:0:
182,192,119622,128,0,119663:0:0:0:0:
256,192,119622,128,0,119703:0:0:0:0:
475,192,119703,128,0,119825:0:0:0:0:
109,192,119703,128,0,119744:0:0:0:0:
256,192,119785,128,0,119825:0:0:0:0:
402,192,119785,128,0,119825:0:0:0:0:
36,192,119785,128,0,119866:0:0:0:0:
182,192,119866,128,0,119906:0:0:0:0:
329,192,119866,128,0,119906:0:0:0:0:
109,192,119947,128,0,119987:0:0:0:0:
402,192,119947,128,0,119987:0:0:0:0:
256,192,119947,128,0,120068:0:0:0:0:
36,192,119947,128,0,120230:0:0:0:0:
475,192,119947,128,0,120230:0:0:0:0:
329,192,120028,128,0,120068:0:0:0:0:
182,192,120028,128,0,120068:0:0:0:0:
256,192,120109,128,0,120230:0:0:0:0:
109,192,120109,128,0,120149:0:0:0:0:
402,192,120109,128,0,120149:0:0:0:0:
329,192,120190,128,0,120230:0:0:0:0:
182,192,120190,128,0,120230:0:0:0:0:
36,192,120271,128,0,120312:0:0:0:0:
475,192,120271,128,0,120312:0:0:0:0:
402,192,120271,128,0,120312:0:0:0:0:
109,192,120271,128,0,120312:0:0:0:0:
182,192,120352,128,0,120433:0:0:0:0:
329,192,120352,128,0,120433:0:0:0:0:
256,192,120433,128,0,120717:0:0:0:0:
109,192,120433,128,0,120555:0:0:0:0:
36,192,120433,128,0,120636:0:0:0:0:
402,192,120433,128,0,120555:0:0:0:0:
475,192,120433,128,0,120636:0:0:0:0:
329,192,120514,128,0,120555:0:0:0:0:
182,192,120514,128,0,120555:0:0:0:0:
109,192,120595,128,0,120636:0:0:0:0:
402,192,120595,128,0,120636:0:0:0:0:
36,192,120676,128,0,120717:0:0:0:0:
475,192,120676,128,0,120717:0:0:0:0:
182,192,120757,128,0,120839:0:0:0:0:
109,192,120757,128,0,120798:0:0:0:0:
256,192,120757,128,0,120879:0:0:0:0:
329,192,120757,128,0,120839:0:0:0:0:
402,192,120757,128,0,120798:0:0:0:0:
36,192,120839,128,0,120960:0:0:0:0:
475,192,120839,128,0,120960:0:0:0:0:
109,192,120920,128,0,121041:0:0:0:0:
402,192,120920,128,0,121041:0:0:0:0:
256,192,120920,128,0,121163:0:0:0:0:
182,192,121001,128,0,121122:0:0:0:0:
329,192,121001,128,0,121122:0:0:0:0:
109,192,121082,128,0,121203:0:0:0:0:
36,192,121082,128,0,121285:0:0:0:0:
402,192,121082,128,0,121203:0:0:0:0:
475,192,121082,128,0,121285:0:0:0:0:
329,192,121163,128,0,121203:0:0:0:0:
182,192,121163,128,0,121203:0:0:0:0:
109,192,121244,128,0,121285:0:0:0:0:
402,192,121244,128,0,121285:0:0:0:0:
36,192,121325,128,0,121366:0:0:0:0:
475,192,121325,128,0,121366:0:0:0:0:
109,192,121406,128,0,121487:0:0:0:0:
402,192,121406,128,0,121595:0:0:0:0:
182,192,121447,128,0,121528:0:0:0:0:
475,192,121460,128,0,121541:0:0:0:0:
256,192,121487,128,0,121568:0:0:0:0:
36,192,121514,128,0,121649:0:0:0:0:
329,192,121514,128,0,121649:0:0:0:0:
109,192,121568,128,0,121703:0:0:0:0:
182,192,121622,128,0,121757:0:0:0:0:
475,192,121622,128,0,121757:0:0:0:0:
402,192,121676,128,0,121812:0:0:0:0:
256,192,121676,1,0,0:0:0:0:
329,192,121730,128,0,121893:0:0:0:0:
36,192,121730,128,0,121852:0:0:0:0:
109,192,121771,128,0,121812:0:0:0:0:
256,192,121785,128,0,121812:0:0:0:0:
182,192,121839,128,0,121920:0:0:0:0:
475,192,121839,128,0,122001:0:0:0:0:
109,192,121893,128,0,121974:0:0:0:0:
402,192,121893,128,0,121947:0:0:0:0:
36,192,121947,128,0,122028:0:0:0:0:
256,192,121947,128,0,122109:0:0:0:0:
182,192,122001,128,0,122190:0:0:0:0:
329,192,122001,128,0,122244:0:0:0:0:
475,192,122055,128,0,122136:0:0:0:0:
402,192,122055,128,0,122190:0:0:0:0:
109,192,122055,128,0,122136:0:0:0:0:
36,192,122109,128,0,122379:0:0:0:0:
256,192,122163,128,0,122298:0:0:0:0:
475,192,122217,128,0,122271:0:0:0:0:
109,192,122217,128,0,122325:0:0:0:0:
402,192,122271,128,0,122325:0:0:0:0:
329,192,122325,128,0,122379:0:0:0:0:
182,192,122325,128,0,122487:0:0:0:0:
109,192,122379,128,0,122541:0:0:0:0:
475,192,122379,128,0,122460:0:0:0:0:
256,192,122379,1,0,0:0:0:0:
329,192,122433,128,0,122541:0:0:0:0:
36,192,122460,128,0,122595:0:0:0:0:
402,192,122487,128,0,122595:0:0:0:0:
475,192,122541,128,0,122649:0:0:0:0:
256,192,122541,128,0,122785:0:0:0:0:
182,192,122582,128,0,122825:0:0:0:0:
109,192,122622,128,0,122866:0:0:0:0:
36,192,122663,128,0,122906:0:0:0:0:
475,192,122703,128,0,123055:0:0:0:0:
402,192,122757,128,0,123001:0:0:0:0:
329,192,122812,128,0,122947:0:0:0:0:
256,192,122866,128,0,122974:0:0:0:0:
182,192,122906,128,0,122947:0:0:0:0:
109,192,122947,128,0,122987:0:0:0:0:
36,192,122974,128,0,123028:0:0:0:0:
329,192,123028,128,0,123109:0:0:0:0:
182,192,123028,128,0,123217:0:0:0:0:
256,192,123028,1,0,0:0:0:0:
402,192,123082,128,0,123163:0:0:0:0:
109,192,123082,128,0,123163:0:0:0:0:
475,192,123136,128,0,123217:0:0:0:0:
36,192,123136,128,0,123217:0:0:0:0:
256,192,123149,128,0,123271:0:0:0:0:
329,192,123190,128,0,123325:0:0:0:0:
402,192,123244,128,0,123352:0:0:0:0:
109,192,123244,128,0,123325:0:0:0:0:
182,192,123298,128,0,123379:0:0:0:0:
475,192,123298,128,0,123433:0:0:0:0:
256,192,123352,128,0,123433:0:0:0:0:
36,192,123352,128,0,123595:0:0:0:0:
402,192,123406,128,0,123487:0:0:0:0:
109,192,123406,128,0,123541:0:0:0:0:
182,192,123460,128,0,123514:0:0:0:0:
329,192,123460,128,0,123541:0:0:0:0:
475,192,123514,128,0,123622:0:0:0:0:
256,192,123514,128,0,123595:0:0:0:0:
402,192,123568,128,0,123676:0:0:0:0:
182,192,123568,128,0,123649:0:0:0:0:
329,192,123622,128,0,123730:0:0:0:0:
109,192,123622,128,0,123703:0:0:0:0:
36,192,123676,128,0,123757:0:0:0:0:
256,192,123676,128,0,123785:0:0:0:0:
475,192,123676,128,0,123947:0:0:0:0:
402,192,123730,128,0,123866:0:0:0:0:
182,192,123730,128,0,123866:0:0:0:0:
329,192,123785,128,0,123839:0:0:0:0:
109,192,123785,128,0,123947:0:0:0:0:
256,192,123839,128,0,123893:0:0:0:0:
36,192,123839,128,0,123974:0:0:0:0:
182,192,123920,1,0,0:0:0:0:
402,192,123920,1,0,0:0:0:0:
109,192,124001,1,0,0:0:0:0:
329,192,124001,1,0,0:0:0:0:
36,192,124001,1,0,0:0:0:0:
475,192,124001,1,0,0:0:0:0:
36,192,124082,1,0,0:0:0:0:
402,192,124082,1,0,0:0:0:0:
256,192,124082,1,0,0:0:0:0:
182,192,124163,1,0,0:0:0:0:
329,192,124163,1,0,0:0:0:0:
475,192,124163,1,0,0:0:0:0:
109,192,124244,1,0,0:0:0:0:
402,192,124244,1,0,0:0:0:0:
256,192,124244,1,0,0:0:0:0:
36,192,124325,1,0,0:0:0:0:
329,192,124325,1,0,0:0:0:0:
475,192,124325,1,0,0:0:0:0:
182,192,124325,1,0,0:0:0:0:
256,192,124406,1,0,0:0:0:0:
402,192,124406,1,0,0:0:0:0:
109,192,124406,1,0,0:0:0:0:
182,192,124487,1,0,0:0:0:0:
475,192,124487,1,0,0:0:0:0:
329,192,124487,1,0,0:0:0:0:
256,192,124568,1,0,0:0:0:0:
36,192,124568,1,0,0:0:0:0:
402,192,124568,1,0,0:0:0:0:
109,192,124649,1,0,0:0:0:0:
475,192,124649,1,0,0:0:0:0:
329,192,124649,1,0,0:0:0:0:
182,192,124730,1,0,0:0:0:0:
36,192,124730,1,0,0:0:0:0:
256,192,124730,1,0,0:0:0:0:
402,192,124730,1,0,0:0:0:0:
329,192,124812,1,0,0:0:0:0:
475,192,124812,1,0,0:0:0:0:
109,192,124812,1,0,0:0:0:0:
256,192,124893,1,0,0:0:0:0:
402,192,124893,1,0,0:0:0:0:
36,192,124893,1,0,0:0:0:0:
182,192,124893,1,0,0:0:0:0:
475,192,124974,1,0,0:0:0:0:
329,192,124974,1,0,0:0:0:0:
109,192,124974,1,0,0:0:0:0:
36,192,125055,1,0,0:0:0:0:
402,192,125055,1,0,0:0:0:0:
256,192,125055,1,0,0:0:0:0:
475,192,125136,128,0,125420:0:0:0:0:
182,192,125136,128,0,125176:0:0:0:0:
36,192,125136,128,0,125176:0:0:0:0:
329,192,125136,128,0,125176:0:0:0:0:
109,192,125217,128,0,125257:0:0:0:0:
256,192,125217,128,0,125257:0:0:0:0:
402,192,125217,128,0,125257:0:0:0:0:
329,192,125298,128,0,125582:0:0:0:0:
182,192,125298,128,0,125339:0:0:0:0:
36,192,125298,128,0,125339:0:0:0:0:
109,192,125379,128,0,125420:0:0:0:0:
256,192,125379,128,0,125420:0:0:0:0:
402,192,125379,128,0,125420:0:0:0:0:
182,192,125460,128,0,125744:0:0:0:0:
36,192,125460,128,0,125501:0:0:0:0:
475,192,125460,128,0,125501:0:0:0:0:
256,192,125541,128,0,125582:0:0:0:0:
109,192,125541,128,0,125582:0:0:0:0:
402,192,125541,128,0,125582:0:0:0:0:
36,192,125622,128,0,125906:0:0:0:0:
329,192,125622,128,0,125663:0:0:0:0:
475,192,125622,128,0,125663:0:0:0:0:
256,192,125703,128,0,125744:0:0:0:0:
109,192,125703,128,0,125744:0:0:0:0:
402,192,125703,128,0,125744:0:0:0:0:
182,192,125785,128,0,125825:0:0:0:0:
329,192,125785,128,0,125825:0:0:0:0:
475,192,125785,128,0,125825:0:0:0:0:
256,192,125866,128,0,125906:0:0:0:0:
109,192,125866,128,0,125906:0:0:0:0:
402,192,125866,128,0,125906:0:0:0:0:
329,192,125947,128,0,126028:0:0:0:0:
475,192,125947,128,0,125987:0:0:0:0:
36,192,125987,128,0,126068:0:0:0:0:
182,192,125987,128,0,126028:0:0:0:0:
402,192,126028,128,0,126109:0:0:0:0:
256,192,126068,128,0,126109:0:0:0:0:
109,192,126068,128,0,126149:0:0:0:0:
475,192,126109,128,0,126190:0:0:0:0:
329,192,126149,128,0,126190:0:0:0:0:
182,192,126149,128,0,126230:0:0:0:0:
36,192,126190,128,0,126271:0:0:0:0:
402,192,126230,128,0,126312:0:0:0:0:
256,192,126271,128,0,126312:0:0:0:0:
109,192,126271,128,0,126312:0:0:0:0:
475,192,126271,1,0,0:0:0:0:
182,192,126312,128,0,126393:0:0:0:0:
36,192,126352,1,0,0:0:0:0:
329,192,126352,1,0,0:0:0:0:
256,192,126433,1,0,0:0:0:0:
109,192,126433,1,0,0:0:0:0:
402,192,126433,1,0,0:0:0:0:
182,192,126757,128,0,126839:0:0:0:0:
36,192,126757,128,0,127001:0:0:0:0:
109,192,126757,128,0,126839:0:0:0:0:
256,192,126757,128,0,126839:0:0:0:0:
402,192,126757,128,0,126839:0:0:0:0:
256,192,126920,128,0,127163:0:0:0:0:
182,192,126920,128,0,127001:0:0:0:0:
329,192,126920,128,0,127001:0:0:0:0:
475,192,126920,128,0,127001:0:0:0:0:
402,192,126920,128,0,127041:0:0:0:0:
109,192,126947,128,0,126974:0:0:0:0:
402,192,127082,128,0,127325:0:0:0:0:
36,192,127082,128,0,127163:0:0:0:0:
109,192,127082,128,0,127163:0:0:0:0:
475,192,127082,128,0,127163:0:0:0:0:
109,192,127244,128,0,127487:0:0:0:0:
36,192,127244,128,0,127325:0:0:0:0:
182,192,127244,128,0,127325:0:0:0:0:
475,192,127244,128,0,127528:0:0:0:0:
256,192,127244,128,0,127366:0:0:0:0:
329,192,127271,128,0,127298:0:0:0:0:
329,192,127406,128,0,127649:0:0:0:0:
256,192,127406,128,0,127487:0:0:0:0:
182,192,127406,128,0,127487:0:0:0:0:
402,192,127406,128,0,127487:0:0:0:0:
475,192,127568,128,0,127812:0:0:0:0:
36,192,127568,128,0,127649:0:0:0:0:
256,192,127568,128,0,127649:0:0:0:0:
402,192,127568,128,0,127649:0:0:0:0:
182,192,127568,128,0,127690:0:0:0:0:
109,192,127595,128,0,127622:0:0:0:0:
182,192,127730,128,0,127974:0:0:0:0:
36,192,127730,128,0,127812:0:0:0:0:
402,192,127730,128,0,127852:0:0:0:0:
109,192,127730,128,0,127812:0:0:0:0:
329,192,127730,128,0,127812:0:0:0:0:
402,192,127893,128,0,128136:0:0:0:0:
36,192,127893,128,0,127974:0:0:0:0:
475,192,127893,128,0,127974:0:0:0:0:
109,192,127893,128,0,127974:0:0:0:0:
256,192,127893,128,0,128014:0:0:0:0:
329,192,127920,128,0,127947:0:0:0:0:
36,192,128055,128,0,128298:0:0:0:0:
182,192,128055,128,0,128136:0:0:0:0:
256,192,128055,128,0,128136:0:0:0:0:
329,192,128055,128,0,128136:0:0:0:0:
256,192,128217,128,0,128460:0:0:0:0:
109,192,128217,128,0,128298:0:0:0:0:
402,192,128217,128,0,128298:0:0:0:0:
475,192,128217,128,0,128339:0:0:0:0:
329,192,128244,128,0,128271:0:0:0:0:
475,192,128379,128,0,128622:0:0:0:0:
402,192,128379,128,0,128460:0:0:0:0:
329,192,128379,128,0,128460:0:0:0:0:
182,192,128379,128,0,128460:0:0:0:0:
36,192,128379,128,0,128460:0:0:0:0:
109,192,128379,1,0,0:0:0:0:
329,192,128541,128,0,128785:0:0:0:0:
109,192,128541,128,0,128622:0:0:0:0:
402,192,128541,128,0,128622:0:0:0:0:
182,192,128541,128,0,128825:0:0:0:0:
36,192,128568,128,0,128622:0:0:0:0:
256,192,128568,128,0,128595:0:0:0:0:
109,192,128703,128,0,128947:0:0:0:0:
36,192,128703,1,0,0:0:0:0:
256,192,128703,128,0,128785:0:0:0:0:
402,192,128703,128,0,128785:0:0:0:0:
475,192,128703,128,0,128785:0:0:0:0:
402,192,128866,128,0,129109:0:0:0:0:
182,192,128866,128,0,128947:0:0:0:0:
256,192,128866,128,0,128947:0:0:0:0:
36,192,128866,128,0,128947:0:0:0:0:
475,192,128866,128,0,129149:0:0:0:0:
329,192,128893,128,0,128920:0:0:0:0:
256,192,129028,128,0,129271:0:0:0:0:
182,192,129028,128,0,129109:0:0:0:0:
36,192,129028,128,0,129109:0:0:0:0:
329,192,129028,128,0,129109:0:0:0:0:
36,192,129190,128,0,129433:0:0:0:0:
402,192,129190,128,0,129312:0:0:0:0:
475,192,129190,128,0,129271:0:0:0:0:
109,192,129190,128,0,129474:0:0:0:0:
329,192,129190,1,0,0:0:0:0:
182,192,129217,128,0,129244:0:0:0:0:
329,192,129352,128,0,129595:0:0:0:0:
256,192,129352,1,0,0:0:0:0:
182,192,129352,128,0,129433:0:0:0:0:
402,192,129352,128,0,129433:0:0:0:0:
182,192,129514,128,0,129757:0:0:0:0:
36,192,129514,128,0,129595:0:0:0:0:
109,192,129514,128,0,129595:0:0:0:0:
475,192,129514,128,0,129636:0:0:0:0:
256,192,129514,128,0,129798:0:0:0:0:
402,192,129541,128,0,129568:0:0:0:0:
475,192,129676,128,0,129920:0:0:0:0:
36,192,129676,128,0,129757:0:0:0:0:
402,192,129676,1,0,0:0:0:0:
329,192,129676,128,0,129798:0:0:0:0:
256,192,129839,128,0,130082:0:0:0:0:
109,192,129839,128,0,129920:0:0:0:0:
182,192,129839,128,0,129920:0:0:0:0:
329,192,129839,1,0,0:0:0:0:
402,192,129839,128,0,129920:0:0:0:0:
36,192,129866,128,0,129893:0:0:0:0:
109,192,130001,128,0,130244:0:0:0:0:
36,192,130001,128,0,130082:0:0:0:0:
402,192,130001,128,0,130122:0:0:0:0:
475,192,130001,128,0,130082:0:0:0:0:
182,192,130001,1,0,0:0:0:0:
402,192,130163,128,0,130406:0:0:0:0:
36,192,130163,128,0,130244:0:0:0:0:
182,192,130163,128,0,130285:0:0:0:0:
329,192,130163,128,0,130244:0:0:0:0:
475,192,130163,128,0,130244:0:0:0:0:
256,192,130190,128,0,130217:0:0:0:0:
182,192,130325,128,0,130568:0:0:0:0:
475,192,130325,128,0,130447:0:0:0:0:
109,192,130325,1,0,0:0:0:0:
329,192,130325,128,0,130406:0:0:0:0:
475,192,130487,128,0,130730:0:0:0:0:
36,192,130487,128,0,130568:0:0:0:0:
109,192,130487,128,0,130568:0:0:0:0:
329,192,130487,128,0,130568:0:0:0:0:
256,192,130487,128,0,130609:0:0:0:0:
402,192,130514,128,0,130541:0:0:0:0:
36,192,130649,128,0,130893:0:0:0:0:
256,192,130649,1,0,0:0:0:0:
182,192,130649,128,0,130730:0:0:0:0:
109,192,130649,128,0,130730:0:0:0:0:
402,192,130649,128,0,130771:0:0:0:0:
256,192,130812,128,0,131055:0:0:0:0:
475,192,130812,128,0,130893:0:0:0:0:
402,192,130812,128,0,130893:0:0:0:0:
329,192,130812,1,0,0:0:0:0:
109,192,130812,128,0,130893:0:0:0:0:
182,192,130839,128,0,130866:0:0:0:0:
109,192,130974,128,0,131217:0:0:0:0:
36,192,130974,1,0,0:0:0:0:
182,192,130974,128,0,131055:0:0:0:0:
402,192,130974,128,0,131095:0:0:0:0:
329,192,130974,128,0,131055:0:0:0:0:
475,192,130974,128,0,131055:0:0:0:0:
402,192,131136,128,0,131379:0:0:0:0:
36,192,131136,128,0,131217:0:0:0:0:
329,192,131136,128,0,131217:0:0:0:0:
475,192,131136,1,0,0:0:0:0:
256,192,131136,128,0,131257:0:0:0:0:
182,192,131163,128,0,131190:0:0:0:0:
182,192,131298,128,0,131541:0:0:0:0:
256,192,131298,128,0,131379:0:0:0:0:
475,192,131298,128,0,131379:0:0:0:0:
109,192,131298,128,0,131379:0:0:0:0:
36,192,131298,1,0,0:0:0:0:
329,192,131379,1,0,0:0:0:0:
329,192,131460,128,0,131703:0:0:0:0:
36,192,131460,128,0,131541:0:0:0:0:
109,192,131460,128,0,131541:0:0:0:0:
475,192,131460,128,0,131541:0:0:0:0:
402,192,131460,128,0,131541:0:0:0:0:
256,192,131487,128,0,131514:0:0:0:0:
182,192,131622,128,0,131703:0:0:0:0:
109,192,131622,128,0,131703:0:0:0:0:
36,192,131622,128,0,131703:0:0:0:0:
256,192,131703,1,0,0:0:0:0:
475,192,131785,128,0,132028:0:0:0:0:
329,192,131785,128,0,131866:0:0:0:0:
402,192,131866,128,0,132109:0:0:0:0:
256,192,131866,128,0,131947:0:0:0:0:
329,192,131947,128,0,132190:0:0:0:0:
182,192,131947,128,0,132028:0:0:0:0:
256,192,132028,128,0,132271:0:0:0:0:
109,192,132028,128,0,132109:0:0:0:0:
182,192,132109,128,0,132190:0:0:0:0:
36,192,132109,128,0,132514:0:0:0:0:
475,192,132109,128,0,132190:0:0:0:0:
109,192,132190,128,0,132433:0:0:0:0:
402,192,132190,128,0,132271:0:0:0:0:
182,192,132271,128,0,132352:0:0:0:0:
475,192,132271,128,0,132676:0:0:0:0:
329,192,132271,128,0,132352:0:0:0:0:
402,192,132352,128,0,132595:0:0:0:0:
256,192,132352,128,0,132433:0:0:0:0:
329,192,132433,128,0,132514:0:0:0:0:
182,192,132433,128,0,132676:0:0:0:0:
256,192,132514,128,0,132757:0:0:0:0:
109,192,132514,128,0,132595:0:0:0:0:
329,192,132595,128,0,132839:0:0:0:0:
36,192,132595,128,0,132676:0:0:0:0:
109,192,132676,128,0,132757:0:0:0:0:
402,192,132676,128,0,132920:0:0:0:0:
182,192,132757,128,0,132839:0:0:0:0:
475,192,132757,128,0,133001:0:0:0:0:
36,192,132757,128,0,133001:0:0:0:0:
256,192,132839,128,0,132920:0:0:0:0:
109,192,132839,128,0,133001:0:0:0:0:
329,192,132920,128,0,133001:0:0:0:0:
182,192,132920,128,0,133001:0:0:0:0:
402,192,133001,128,0,133082:0:0:0:0:
256,192,133001,128,0,133082:0:0:0:0:
475,192,133082,128,0,133366:0:0:0:0:
329,192,133082,128,0,133122:0:0:0:0:
182,192,133082,128,0,133122:0:0:0:0:
109,192,133082,128,0,133163:0:0:0:0:
36,192,133082,128,0,133244:0:0:0:0:
402,192,133163,128,0,133366:0:0:0:0:
256,192,133163,128,0,133203:0:0:0:0:
329,192,133244,128,0,133366:0:0:0:0:
182,192,133244,128,0,133285:0:0:0:0:
256,192,133325,128,0,133366:0:0:0:0:
109,192,133325,128,0,133366:0:0:0:0:
36,192,133406,128,0,133690:0:0:0:0:
182,192,133406,128,0,133447:0:0:0:0:
329,192,133406,128,0,133447:0:0:0:0:
402,192,133406,128,0,133487:0:0:0:0:
475,192,133406,128,0,133528:0:0:0:0:
109,192,133487,128,0,133690:0:0:0:0:
256,192,133487,128,0,133528:0:0:0:0:
182,192,133568,128,0,133690:0:0:0:0:
329,192,133568,128,0,133609:0:0:0:0:
475,192,133568,128,0,133690:0:0:0:0:
256,192,133649,128,0,133690:0:0:0:0:
402,192,133649,128,0,133690:0:0:0:0:
329,192,133730,128,0,133812:0:0:0:0:
182,192,133730,128,0,133812:0:0:0:0:
475,192,133730,128,0,133852:0:0:0:0:
109,192,133812,128,0,134055:0:0:0:0:
256,192,133812,128,0,133893:0:0:0:0:
402,192,133812,128,0,133893:0:0:0:0:
36,192,133893,128,0,133974:0:0:0:0:
182,192,133893,128,0,133974:0:0:0:0:
329,192,133893,128,0,133974:0:0:0:0:
475,192,133893,128,0,134136:0:0:0:0:
256,192,133974,128,0,134055:0:0:0:0:
182,192,134055,128,0,134136:0:0:0:0:
329,192,134055,128,0,134136:0:0:0:0:
36,192,134055,128,0,134176:0:0:0:0:
256,192,134136,128,0,134217:0:0:0:0:
109,192,134136,128,0,134217:0:0:0:0:
402,192,134136,128,0,134217:0:0:0:0:
329,192,134217,128,0,134298:0:0:0:0:
182,192,134217,128,0,134298:0:0:0:0:
475,192,134217,128,0,134298:0:0:0:0:
36,192,134217,128,0,134379:0:0:0:0:
256,192,134298,128,0,134379:0:0:0:0:
109,192,134379,128,0,134420:0:0:0:0:
182,192,134379,128,0,134420:0:0:0:0:
329,192,134379,128,0,134460:0:0:0:0:
475,192,134379,128,0,134460:0:0:0:0:
256,192,134460,128,0,134622:0:0:0:0:
402,192,134460,128,0,134622:0:0:0:0:
109,192,134541,128,0,134582:0:0:0:0:
36,192,134541,128,0,134582:0:0:0:0:
475,192,134541,128,0,134622:0:0:0:0:
329,192,134622,128,0,134785:0:0:0:0:
182,192,134622,128,0,134703:0:0:0:0:
402,192,134703,128,0,134744:0:0:0:0:
475,192,134703,128,0,134744:0:0:0:0:
256,192,134703,128,0,134785:0:0:0:0:
109,192,134703,128,0,134785:0:0:0:0:
182,192,134785,128,0,134947:0:0:0:0:
36,192,134785,128,0,135109:0:0:0:0:
402,192,134866,128,0,134906:0:0:0:0:
329,192,134866,128,0,134906:0:0:0:0:
109,192,134866,128,0,134947:0:0:0:0:
475,192,134947,128,0,135028:0:0:0:0:
256,192,134947,128,0,135028:0:0:0:0:
182,192,135028,128,0,135068:0:0:0:0:
109,192,135028,128,0,135068:0:0:0:0:
402,192,135028,128,0,135109:0:0:0:0:
475,192,135109,128,0,135190:0:0:0:0:
256,192,135109,128,0,135190:0:0:0:0:
329,192,135190,128,0,135230:0:0:0:0:
402,192,135190,128,0,135230:0:0:0:0:
182,192,135190,128,0,135352:0:0:0:0:
36,192,135190,128,0,135271:0:0:0:0:
256,192,135271,128,0,135352:0:0:0:0:
475,192,135271,128,0,135433:0:0:0:0:
109,192,135352,128,0,135393:0:0:0:0:
36,192,135352,128,0,135393:0:0:0:0:
402,192,135352,128,0,135433:0:0:0:0:
329,192,135433,128,0,135514:0:0:0:0:
182,192,135433,128,0,135514:0:0:0:0:
402,192,135514,128,0,135555:0:0:0:0:
475,192,135514,128,0,135555:0:0:0:0:
109,192,135514,128,0,135676:0:0:0:0:
256,192,135514,128,0,135595:0:0:0:0:
182,192,135595,128,0,135676:0:0:0:0:
329,192,135595,128,0,135676:0:0:0:0:
256,192,135676,128,0,135960:0:0:0:0:
36,192,135676,128,0,135839:0:0:0:0:
402,192,135676,128,0,135798:0:0:0:0:
329,192,135757,128,0,135879:0:0:0:0:
109,192,135757,128,0,135839:0:0:0:0:
475,192,135757,128,0,135920:0:0:0:0:
402,192,135839,128,0,136001:0:0:0:0:
182,192,135839,128,0,136001:0:0:0:0:
109,192,135920,128,0,136001:0:0:0:0:
329,192,135920,128,0,136082:0:0:0:0:
256,192,136001,128,0,136163:0:0:0:0:
36,192,136001,128,0,136244:0:0:0:0:
475,192,136001,128,0,136285:0:0:0:0:
182,192,136082,128,0,136163:0:0:0:0:
402,192,136082,128,0,136163:0:0:0:0:
109,192,136163,128,0,136244:0:0:0:0:
329,192,136163,128,0,136244:0:0:0:0:
182,192,136244,128,0,136406:0:0:0:0:
402,192,136244,128,0,136325:0:0:0:0:
256,192,136325,128,0,136406:0:0:0:0:
475,192,136325,128,0,136487:0:0:0:0:
36,192,136325,128,0,136528:0:0:0:0:
329,192,136325,128,0,136406:0:0:0:0:
402,192,136406,128,0,136568:0:0:0:0:
109,192,136406,128,0,136487:0:0:0:0:
329,192,136487,128,0,136649:0:0:0:0:
182,192,136487,128,0,136568:0:0:0:0:
256,192,136568,128,0,136730:0:0:0:0:
109,192,136568,128,0,136649:0:0:0:0:
36,192,136568,128,0,136649:0:0:0:0:
475,192,136568,128,0,136730:0:0:0:0:
182,192,136649,128,0,136730:0:0:0:0:
402,192,136649,128,0,136730:0:0:0:0:
329,192,136730,128,0,136812:0:0:0:0:
109,192,136730,128,0,136812:0:0:0:0:
36,192,136812,128,0,136893:0:0:0:0:
256,192,136812,128,0,136893:0:0:0:0:
402,192,136812,128,0,136893:0:0:0:0:
329,192,136893,128,0,136974:0:0:0:0:
475,192,136893,128,0,136974:0:0:0:0:
182,192,136893,128,0,136974:0:0:0:0:
109,192,136893,128,0,136974:0:0:0:0:
256,192,136974,1,0,0:0:0:0:
36,192,136974,1,0,0:0:0:0:
402,192,136974,1,0,0:0:0:0:
109,192,137136,128,0,137217:0:0:0:0:
182,192,137136,128,0,137217:0:0:0:0:
36,192,137136,128,0,137217:0:0:0:0:
402,192,137136,128,0,137217:0:0:0:0:
182,192,137298,1,0,0:0:0:0:
109,192,137298,1,0,0:0:0:0:
36,192,137298,1,0,0:0:0:0:
402,192,137298,1,0,0:0:0:0:
329,192,137298,1,0,0:0:0:0:
475,192,137298,1,0,0:0:0:0:
109,192,137460,128,0,137541:0:0:0:0:
329,192,137460,128,0,137541:0:0:0:0:
402,192,137460,128,0,137541:0:0:0:0:
475,192,137460,128,0,137541:0:0:0:0:
329,192,137622,1,0,0:0:0:0:
475,192,137622,1,0,0:0:0:0:
402,192,137622,1,0,0:0:0:0:
182,192,137622,1,0,0:0:0:0:
109,192,137622,1,0,0:0:0:0:
36,192,137622,1,0,0:0:0:0:
256,192,137785,128,0,137866:0:0:0:0:
109,192,137785,128,0,137866:0:0:0:0:
36,192,137785,128,0,137866:0:0:0:0:
402,192,137785,128,0,137866:0:0:0:0:
475,192,137785,128,0,137866:0:0:0:0:
182,192,137947,1,0,0:0:0:0:
109,192,137947,1,0,0:0:0:0:
36,192,137947,1,0,0:0:0:0:
329,192,137947,1,0,0:0:0:0:
402,192,137947,1,0,0:0:0:0:
475,192,137947,1,0,0:0:0:0:
109,192,138109,128,0,138190:0:0:0:0:
182,192,138109,128,0,138190:0:0:0:0:
329,192,138109,128,0,138190:0:0:0:0:
402,192,138109,128,0,138190:0:0:0:0:
475,192,138109,128,0,138190:0:0:0:0:
36,192,138109,128,0,138190:0:0:0:0:
109,192,138271,1,0,0:0:0:0:
36,192,138271,1,0,0:0:0:0:
402,192,138271,1,0,0:0:0:0:
475,192,138271,1,0,0:0:0:0:
182,192,138271,1,0,0:0:0:0:
329,192,138271,1,0,0:0:0:0:
256,192,138271,128,0,138595:0:0:0:0:
36,192,138595,128,0,138636:0:0:0:0:
475,192,138595,128,0,138636:0:0:0:0:
182,192,138616,1,0,0:0:0:0:
329,192,138616,1,0,0:0:0:0:
109,192,138757,128,0,138798:0:0:0:0:
402,192,138757,128,0,138798:0:0:0:0:
329,192,138778,1,0,0:0:0:0:
182,192,138778,1,0,0:0:0:0:
256,192,138778,1,0,0:0:0:0:
182,192,138920,128,0,138960:0:0:0:0:
329,192,138920,128,0,138960:0:0:0:0:
256,192,138940,1,0,0:0:0:0:
109,192,139082,128,0,139122:0:0:0:0:
402,192,139082,128,0,139122:0:0:0:0:
256,192,139102,1,0,0:0:0:0:
36,192,139244,128,0,139285:0:0:0:0:
475,192,139244,128,0,139285:0:0:0:0:
402,192,139264,1,0,0:0:0:0:
329,192,139264,1,0,0:0:0:0:
256,192,139264,1,0,0:0:0:0:
182,192,139264,1,0,0:0:0:0:
109,192,139264,1,0,0:0:0:0:
109,192,139406,128,0,139447:0:0:0:0:
402,192,139406,128,0,139447:0:0:0:0:
329,192,139447,1,0,0:0:0:0:
182,192,139447,1,0,0:0:0:0:
256,192,139487,1,0,0:0:0:0:
36,192,139528,1,0,0:0:0:0:
475,192,139528,1,0,0:0:0:0:
109,192,139568,1,0,0:0:0:0:
182,192,139568,1,0,0:0:0:0:
329,192,139568,1,0,0:0:0:0:
402,192,139568,1,0,0:0:0:0:
256,192,139893,1,0,0:0:0:0:
36,192,140055,1,0,0:0:0:0:
475,192,140055,1,0,0:0:0:0:
256,192,140217,1,0,0:0:0:0:
36,192,140217,1,0,0:0:0:0:
475,192,140217,1,0,0:0:0:0:
182,192,140541,1,0,0:0:0:0:
109,192,140541,1,0,0:0:0:0:
329,192,140541,1,0,0:0:0:0:
402,192,140541,1,0,0:0:0:0:
36,192,141190,128,0,141676:0:0:0:0:
475,192,141190,128,0,141676:0:0:0:0:
256,192,141676,1,0,0:0:0:0:
256,192,141839,1,0,0:0:0:0:
256,192,142163,1,0,0:0:0:0:
329,192,142244,1,0,0:0:0:0:
402,192,142325,1,0,0:0:0:0:
475,192,142406,1,0,0:0:0:0:
256,192,142487,128,0,142812:0:0:0:0:
329,192,142568,128,0,142730:0:0:0:0:
402,192,142649,128,0,142812:0:0:0:0:
475,192,142730,128,0,142893:0:0:0:0:
329,192,142812,1,0,0:0:0:0:
402,192,142893,1,0,0:0:0:0:
475,192,142974,1,0,0:0:0:0:
402,192,143055,1,0,0:0:0:0:
329,192,143136,1,0,0:0:0:0:
256,192,143136,128,0,143460:0:0:0:0:
182,192,143217,128,0,143379:0:0:0:0:
109,192,143298,128,0,143460:0:0:0:0:
36,192,143379,128,0,143541:0:0:0:0:
182,192,143460,1,0,0:0:0:0:
402,192,143460,128,0,143785:0:0:0:0:
109,192,143541,1,0,0:0:0:0:
36,192,143622,1,0,0:0:0:0:
109,192,143703,1,0,0:0:0:0:
182,192,143785,1,0,0:0:0:0:
256,192,143785,1,0,0:0:0:0:
329,192,143866,1,0,0:0:0:0:
402,192,143947,1,0,0:0:0:0:
475,192,144028,1,0,0:0:0:0:
182,192,144109,128,0,144352:0:0:0:0:
256,192,144190,128,0,144433:0:0:0:0:
329,192,144271,128,0,144514:0:0:0:0:
402,192,144352,128,0,144595:0:0:0:0:
109,192,144433,128,0,144757:0:0:0:0:
182,192,144433,1,0,0:0:0:0:
256,192,144514,1,0,0:0:0:0:
329,192,144595,1,0,0:0:0:0:
402,192,144676,1,0,0:0:0:0:
475,192,144757,128,0,145082:0:0:0:0:
329,192,144757,1,0,0:0:0:0:
256,192,144839,1,0,0:0:0:0:
182,192,144920,1,0,0:0:0:0:
109,192,145001,1,0,0:0:0:0:
256,192,145082,128,0,145325:0:0:0:0:
402,192,145082,128,0,145406:0:0:0:0:
182,192,145163,128,0,145406:0:0:0:0:
109,192,145244,128,0,145487:0:0:0:0:
475,192,145298,1,0,0:0:0:0:
36,192,145325,128,0,145568:0:0:0:0:
329,192,145366,1,0,0:0:0:0:
256,192,145406,128,0,145812:0:0:0:0:
182,192,145487,1,0,0:0:0:0:
109,192,145568,1,0,0:0:0:0:
36,192,145649,1,0,0:0:0:0:
475,192,145730,1,0,0:0:0:0:
402,192,145812,1,0,0:0:0:0:
329,192,145893,1,0,0:0:0:0:
256,192,145893,1,0,0:0:0:0:
182,192,145893,1,0,0:0:0:0:
109,192,145974,1,0,0:0:0:0:
256,192,145974,1,0,0:0:0:0:
36,192,146055,1,0,0:0:0:0:
402,192,146055,128,0,146379:0:0:0:0:
109,192,146136,1,0,0:0:0:0:
182,192,146217,1,0,0:0:0:0:
256,192,146298,1,0,0:0:0:0:
109,192,146379,128,0,146703:0:0:0:0:
182,192,146379,1,0,0:0:0:0:
256,192,146460,1,0,0:0:0:0:
329,192,146541,1,0,0:0:0:0:
475,192,146541,128,0,146866:0:0:0:0:
402,192,146622,1,0,0:0:0:0:
36,192,146703,128,0,147028:0:0:0:0:
329,192,146703,1,0,0:0:0:0:
256,192,146785,1,0,0:0:0:0:
402,192,146866,128,0,147190:0:0:0:0:
182,192,146866,1,0,0:0:0:0:
109,192,146947,1,0,0:0:0:0:
109,192,147028,128,0,147352:0:0:0:0:
182,192,147028,1,0,0:0:0:0:
256,192,147109,1,0,0:0:0:0:
475,192,147190,128,0,147352:0:0:0:0:
329,192,147190,1,0,0:0:0:0:
402,192,147271,1,0,0:0:0:0:
182,192,147352,128,0,147433:0:0:0:0:
36,192,147352,128,0,147433:0:0:0:0:
329,192,147352,128,0,147433:0:0:0:0:
36,192,147514,128,0,147595:0:0:0:0:
182,192,147514,128,0,147595:0:0:0:0:
329,192,147514,128,0,147595:0:0:0:0:
182,192,147676,128,0,147757:0:0:0:0:
36,192,147676,128,0,147757:0:0:0:0:
109,192,147676,1,0,0:0:0:0:
329,192,147676,128,0,147920:0:0:0:0:
36,192,147839,128,0,147920:0:0:0:0:
182,192,147839,128,0,147920:0:0:0:0:
402,192,147839,128,0,147920:0:0:0:0:
182,192,148001,128,0,148082:0:0:0:0:
36,192,148001,128,0,148082:0:0:0:0:
109,192,148001,1,0,0:0:0:0:
402,192,148001,128,0,148082:0:0:0:0:
182,192,148163,128,0,148244:0:0:0:0:
36,192,148163,128,0,148244:0:0:0:0:
402,192,148163,128,0,148244:0:0:0:0:
36,192,148325,128,0,148406:0:0:0:0:
182,192,148325,128,0,148406:0:0:0:0:
109,192,148325,1,0,0:0:0:0:
402,192,148325,128,0,148406:0:0:0:0:
36,192,148487,128,0,148568:0:0:0:0:
182,192,148487,128,0,148568:0:0:0:0:
475,192,148487,128,0,148568:0:0:0:0:
109,192,148649,128,0,148730:0:0:0:0:
256,192,148649,128,0,148730:0:0:0:0:
182,192,148649,1,0,0:0:0:0:
256,192,148812,128,0,148893:0:0:0:0:
109,192,148812,128,0,148893:0:0:0:0:
182,192,148974,128,0,149055:0:0:0:0:
329,192,148974,128,0,149055:0:0:0:0:
256,192,148974,1,0,0:0:0:0:
329,192,149136,128,0,149217:0:0:0:0:
182,192,149136,128,0,149217:0:0:0:0:
256,192,149298,128,0,149379:0:0:0:0:
402,192,149298,128,0,149379:0:0:0:0:
329,192,149298,1,0,0:0:0:0:
329,192,149460,128,0,149541:0:0:0:0:
475,192,149460,128,0,149541:0:0:0:0:
36,192,149460,1,0,0:0:0:0:
182,192,149460,1,0,0:0:0:0:
256,192,149541,1,0,0:0:0:0:
402,192,149622,1,0,0:0:0:0:
329,192,149622,128,0,149703:0:0:0:0:
475,192,149622,128,0,149703:0:0:0:0:
182,192,149622,1,0,0:0:0:0:
109,192,149622,1,0,0:0:0:0:
36,192,149622,1,0,0:0:0:0:
182,192,149785,128,0,149866:0:0:0:0:
36,192,149785,128,0,149866:0:0:0:0:
329,192,149785,128,0,149866:0:0:0:0:
475,192,149785,128,0,149866:0:0:0:0:
256,192,149785,128,0,150190:0:0:0:0:
182,192,149947,128,0,150028:0:0:0:0:
36,192,149947,128,0,150028:0:0:0:0:
329,192,149947,128,0,150028:0:0:0:0:
475,192,149947,128,0,150028:0:0:0:0:
475,192,150109,128,0,150190:0:0:0:0:
329,192,150109,128,0,150190:0:0:0:0:
182,192,150109,128,0,150190:0:0:0:0:
36,192,150109,128,0,150190:0:0:0:0:
109,192,150109,1,0,0:0:0:0:
402,192,150109,1,0,0:0:0:0:
182,192,150271,1,0,0:0:0:0:
36,192,150271,1,0,0:0:0:0:
329,192,150271,1,0,0:0:0:0:
475,192,150271,1,0,0:0:0:0:
109,192,150433,1,0,0:0:0:0:
402,192,150433,1,0,0:0:0:0:
256,192,150595,1,0,0:0:0:0:
182,192,150595,1,0,0:0:0:0:
329,192,150595,1,0,0:0:0:0:
36,192,150595,1,0,0:0:0:0:
475,192,150595,1,0,0:0:0:0:
256,192,150757,1,0,0:0:0:0:
182,192,150920,1,0,0:0:0:0:
109,192,150920,1,0,0:0:0:0:
36,192,150920,1,0,0:0:0:0:
402,192,150920,1,0,0:0:0:0:
329,192,150920,1,0,0:0:0:0:
475,192,150920,1,0,0:0:0:0:
256,192,151082,1,0,0:0:0:0:
109,192,151244,1,0,0:0:0:0:
36,192,151244,1,0,0:0:0:0:
402,192,151244,1,0,0:0:0:0:
475,192,151244,1,0,0:0:0:0:
256,192,151325,1,0,0:0:0:0:
182,192,151406,1,0,0:0:0:0:
329,192,151406,1,0,0:0:0:0:
36,192,151406,1,0,0:0:0:0:
475,192,151406,1,0,0:0:0:0:
256,192,151487,1,0,0:0:0:0:
109,192,151487,1,0,0:0:0:0:
402,192,151487,1,0,0:0:0:0:
36,192,151568,128,0,151730:0:0:0:0:
475,192,151568,128,0,151730:0:0:0:0:
329,192,151568,128,0,151649:0:0:0:0:
182,192,151568,128,0,151649:0:0:0:0:
109,192,151649,128,0,151730:0:0:0:0:
256,192,151649,128,0,151730:0:0:0:0:
402,192,151649,128,0,151730:0:0:0:0:
182,192,151730,128,0,151893:0:0:0:0:
329,192,151730,128,0,151893:0:0:0:0:
256,192,151812,128,0,151893:0:0:0:0:
36,192,151812,128,0,151893:0:0:0:0:
475,192,151812,128,0,151893:0:0:0:0:
109,192,151893,128,0,152055:0:0:0:0:
402,192,151893,128,0,152055:0:0:0:0:
182,192,151974,128,0,152055:0:0:0:0:
329,192,151974,128,0,152055:0:0:0:0:
475,192,152055,128,0,152217:0:0:0:0:
36,192,152055,128,0,152217:0:0:0:0:
109,192,152136,128,0,152217:0:0:0:0:
402,192,152136,128,0,152217:0:0:0:0:
182,192,152217,128,0,152379:0:0:0:0:
329,192,152217,128,0,152379:0:0:0:0:
36,192,152379,128,0,152460:0:0:0:0:
256,192,152379,1,0,0:0:0:0:
475,192,152379,1,0,0:0:0:0:
109,192,152460,128,0,152541:0:0:0:0:
329,192,152460,1,0,0:0:0:0:
182,192,152541,128,0,152622:0:0:0:0:
402,192,152541,1,0,0:0:0:0:
256,192,152622,128,0,152703:0:0:0:0:
475,192,152622,1,0,0:0:0:0:
109,192,152703,128,0,152785:0:0:0:0:
329,192,152703,1,0,0:0:0:0:
182,192,152785,128,0,152866:0:0:0:0:
36,192,152785,1,0,0:0:0:0:
256,192,152866,128,0,152947:0:0:0:0:
475,192,152866,1,0,0:0:0:0:
402,192,152866,1,0,0:0:0:0:
109,192,152866,1,0,0:0:0:0:
329,192,152947,128,0,153028:0:0:0:0:
182,192,152947,1,0,0:0:0:0:
109,192,153028,1,0,0:0:0:0:
475,192,153028,128,0,153109:0:0:0:0:
402,192,153109,128,0,153190:0:0:0:0:
36,192,153109,1,0,0:0:0:0:
329,192,153190,128,0,153271:0:0:0:0:
182,192,153190,1,0,0:0:0:0:
256,192,153271,128,0,153352:0:0:0:0:
109,192,153271,1,0,0:0:0:0:
402,192,153352,128,0,153433:0:0:0:0:
36,192,153352,1,0,0:0:0:0:
329,192,153433,128,0,153514:0:0:0:0:
109,192,153433,1,0,0:0:0:0:
256,192,153514,128,0,153595:0:0:0:0:
475,192,153514,1,0,0:0:0:0:
36,192,153514,1,0,0:0:0:0:
182,192,153595,128,0,153676:0:0:0:0:
402,192,153595,1,0,0:0:0:0:
329,192,153676,1,0,0:0:0:0:
109,192,153676,1,0,0:0:0:0:
475,192,153676,1,0,0:0:0:0:
256,192,153676,128,0,153757:0:0:0:0:
402,192,153757,128,0,153839:0:0:0:0:
36,192,153757,1,0,0:0:0:0:
182,192,153839,128,0,153920:0:0:0:0:
109,192,153839,1,0,0:0:0:0:
256,192,153839,1,0,0:0:0:0:
329,192,153920,128,0,154001:0:0:0:0:
475,192,153920,1,0,0:0:0:0:
109,192,154001,128,0,154082:0:0:0:0:
182,192,154001,1,0,0:0:0:0:
36,192,154001,1,0,0:0:0:0:
256,192,154082,128,0,154163:0:0:0:0:
402,192,154082,1,0,0:0:0:0:
329,192,154163,128,0,154244:0:0:0:0:
182,192,154163,1,0,0:0:0:0:
36,192,154163,1,0,0:0:0:0:
475,192,154244,128,0,154325:0:0:0:0:
109,192,154244,1,0,0:0:0:0:
402,192,154244,1,0,0:0:0:0:
256,192,154325,128,0,154406:0:0:0:0:
182,192,154325,1,0,0:0:0:0:
329,192,154325,1,0,0:0:0:0:
402,192,154406,128,0,154487:0:0:0:0:
36,192,154406,1,0,0:0:0:0:
475,192,154406,1,0,0:0:0:0:
182,192,154487,128,0,154568:0:0:0:0:
109,192,154487,1,0,0:0:0:0:
256,192,154487,1,0,0:0:0:0:
329,192,154568,128,0,154649:0:0:0:0:
402,192,154568,1,0,0:0:0:0:
109,192,154649,128,0,154730:0:0:0:0:
182,192,154649,1,0,0:0:0:0:
36,192,154649,1,0,0:0:0:0:
256,192,154730,128,0,154812:0:0:0:0:
329,192,154730,1,0,0:0:0:0:
475,192,154730,1,0,0:0:0:0:
182,192,154812,128,0,154893:0:0:0:0:
402,192,154812,1,0,0:0:0:0:
109,192,154812,1,0,0:0:0:0:
36,192,154893,128,0,154974:0:0:0:0:
329,192,154893,1,0,0:0:0:0:
256,192,154974,128,0,155055:0:0:0:0:
182,192,154974,1,0,0:0:0:0:
402,192,154974,128,0,155217:0:0:0:0:
109,192,155055,128,0,155136:0:0:0:0:
36,192,155055,1,0,0:0:0:0:
329,192,155136,128,0,155217:0:0:0:0:
475,192,155136,1,0,0:0:0:0:
256,192,155136,1,0,0:0:0:0:
182,192,155217,128,0,155298:0:0:0:0:
109,192,155217,1,0,0:0:0:0:
402,192,155298,128,0,155379:0:0:0:0:
329,192,155298,1,0,0:0:0:0:
475,192,155298,1,0,0:0:0:0:
109,192,155379,128,0,155460:0:0:0:0:
36,192,155379,1,0,0:0:0:0:
256,192,155460,128,0,155541:0:0:0:0:
475,192,155460,128,0,155703:0:0:0:0:
182,192,155460,1,0,0:0:0:0:
329,192,155460,1,0,0:0:0:0:
109,192,155541,128,0,155622:0:0:0:0:
402,192,155541,1,0,0:0:0:0:
329,192,155622,128,0,155703:0:0:0:0:
36,192,155622,1,0,0:0:0:0:
256,192,155622,1,0,0:0:0:0:
182,192,155703,128,0,155785:0:0:0:0:
402,192,155785,128,0,155866:0:0:0:0:
109,192,155785,1,0,0:0:0:0:
329,192,155785,1,0,0:0:0:0:
256,192,155866,128,0,155947:0:0:0:0:
36,192,155866,1,0,0:0:0:0:
475,192,155947,128,0,156028:0:0:0:0:
182,192,155947,1,0,0:0:0:0:
402,192,155947,1,0,0:0:0:0:
329,192,156028,128,0,156109:0:0:0:0:
109,192,156028,1,0,0:0:0:0:
109,192,156109,128,0,156190:0:0:0:0:
36,192,156109,1,0,0:0:0:0:
475,192,156109,1,0,0:0:0:0:
402,192,156109,128,0,156352:0:0:0:0:
256,192,156190,128,0,156271:0:0:0:0:
182,192,156190,1,0,0:0:0:0:
36,192,156271,128,0,156352:0:0:0:0:
329,192,156271,1,0,0:0:0:0:
109,192,156271,1,0,0:0:0:0:
182,192,156352,128,0,156433:0:0:0:0:
256,192,156352,1,0,0:0:0:0:
475,192,156352,1,0,0:0:0:0:
329,192,156433,128,0,156514:0:0:0:0:
402,192,156433,1,0,0:0:0:0:
109,192,156433,128,0,156676:0:0:0:0:
36,192,156433,1,0,0:0:0:0:
475,192,156514,128,0,156595:0:0:0:0:
256,192,156514,1,0,0:0:0:0:
182,192,156595,128,0,156676:0:0:0:0:
402,192,156595,1,0,0:0:0:0:
36,192,156595,1,0,0:0:0:0:
329,192,156676,128,0,156757:0:0:0:0:
256,192,156676,1,0,0:0:0:0:
36,192,156757,128,0,156839:0:0:0:0:
109,192,156757,1,0,0:0:0:0:
475,192,156757,1,0,0:0:0:0:
402,192,156757,1,0,0:0:0:0:
182,192,156839,128,0,156920:0:0:0:0:
329,192,156839,1,0,0:0:0:0:
475,192,156920,128,0,157001:0:0:0:0:
256,192,156920,1,0,0:0:0:0:
36,192,156920,1,0,0:0:0:0:
329,192,157001,128,0,157082:0:0:0:0:
182,192,157001,1,0,0:0:0:0:
402,192,157082,128,0,157163:0:0:0:0:
36,192,157082,1,0,0:0:0:0:
475,192,157082,128,0,157325:0:0:0:0:
109,192,157082,1,0,0:0:0:0:
256,192,157163,128,0,157244:0:0:0:0:
182,192,157163,1,0,0:0:0:0:
109,192,157244,128,0,157325:0:0:0:0:
402,192,157244,1,0,0:0:0:0:
36,192,157244,1,0,0:0:0:0:
329,192,157325,128,0,157406:0:0:0:0:
256,192,157325,1,0,0:0:0:0:
182,192,157406,128,0,157487:0:0:0:0:
109,192,157406,1,0,0:0:0:0:
36,192,157406,1,0,0:0:0:0:
475,192,157406,1,0,0:0:0:0:
402,192,157487,128,0,157568:0:0:0:0:
329,192,157487,1,0,0:0:0:0:
36,192,157568,128,0,157649:0:0:0:0:
109,192,157568,128,0,157649:0:0:0:0:
182,192,157568,128,0,157649:0:0:0:0:
256,192,157568,128,0,157649:0:0:0:0:
475,192,157568,1,0,0:0:0:0:
475,192,157730,128,0,158055:0:0:0:0:
256,192,157730,1,0,0:0:0:0:
182,192,157730,1,0,0:0:0:0:
109,192,157730,1,0,0:0:0:0:
36,192,157730,1,0,0:0:0:0:
256,192,157893,128,0,157974:0:0:0:0:
109,192,157893,128,0,157974:0:0:0:0:
182,192,157893,128,0,157974:0:0:0:0:
329,192,157893,128,0,157974:0:0:0:0:
402,192,157893,128,0,157974:0:0:0:0:
182,192,158055,1,0,0:0:0:0:
256,192,158055,1,0,0:0:0:0:
329,192,158055,1,0,0:0:0:0:
402,192,158055,1,0,0:0:0:0:
109,192,158055,1,0,0:0:0:0:
36,192,158055,128,0,158460:0:0:0:0:
256,192,158217,1,0,0:0:0:0:
329,192,158217,1,0,0:0:0:0:
402,192,158217,1,0,0:0:0:0:
475,192,158217,1,0,0:0:0:0:
256,192,158379,128,0,158460:0:0:0:0:
329,192,158379,128,0,158460:0:0:0:0:
475,192,158379,128,0,158460:0:0:0:0:
402,192,158379,128,0,158460:0:0:0:0:
109,192,158379,1,0,0:0:0:0:
109,192,158541,128,0,158622:0:0:0:0:
256,192,158541,1,0,0:0:0:0:
402,192,158541,1,0,0:0:0:0:
475,192,158541,1,0,0:0:0:0:
329,192,158541,1,0,0:0:0:0:
182,192,158703,1,0,0:0:0:0:
109,192,158703,1,0,0:0:0:0:
36,192,158703,1,0,0:0:0:0:
329,192,158703,1,0,0:0:0:0:
475,192,158703,1,0,0:0:0:0:
402,192,158703,128,0,158947:0:0:0:0:
182,192,158866,128,0,158947:0:0:0:0:
109,192,158866,1,0,0:0:0:0:
36,192,158866,128,0,158947:0:0:0:0:
256,192,158866,128,0,158947:0:0:0:0:
329,192,158866,128,0,158947:0:0:0:0:
475,192,158866,128,0,158947:0:0:0:0:
109,192,159028,128,0,159271:0:0:0:0:
36,192,159028,1,0,0:0:0:0:
182,192,159028,1,0,0:0:0:0:
256,192,159028,1,0,0:0:0:0:
329,192,159028,1,0,0:0:0:0:
475,192,159028,1,0,0:0:0:0:
182,192,159190,128,0,159271:0:0:0:0:
329,192,159190,128,0,159271:0:0:0:0:
402,192,159190,128,0,159271:0:0:0:0:
475,192,159190,128,0,159271:0:0:0:0:
256,192,159190,128,0,159271:0:0:0:0:
36,192,159190,1,0,0:0:0:0:
182,192,159352,1,0,0:0:0:0:
329,192,159352,1,0,0:0:0:0:
402,192,159352,1,0,0:0:0:0:
475,192,159352,1,0,0:0:0:0:
256,192,159352,1,0,0:0:0:0:
36,192,159352,128,0,159433:0:0:0:0:
109,192,159514,128,0,159595:0:0:0:0:
36,192,159514,128,0,159595:0:0:0:0:
329,192,159514,128,0,159595:0:0:0:0:
256,192,159514,128,0,159595:0:0:0:0:
475,192,159514,128,0,159595:0:0:0:0:
402,192,159514,1,0,0:0:0:0:
402,192,159676,128,0,159757:0:0:0:0:
36,192,159676,1,0,0:0:0:0:
109,192,159676,1,0,0:0:0:0:
256,192,159676,1,0,0:0:0:0:
329,192,159676,1,0,0:0:0:0:
475,192,159676,1,0,0:0:0:0:
182,192,159839,1,0,0:0:0:0:
109,192,159839,1,0,0:0:0:0:
36,192,159839,1,0,0:0:0:0:
329,192,159839,1,0,0:0:0:0:
402,192,159839,1,0,0:0:0:0:
475,192,159839,1,0,0:0:0:0:
256,192,159839,128,0,160082:0:0:0:0:
475,192,160001,128,0,160082:0:0:0:0:
329,192,160001,128,0,160082:0:0:0:0:
402,192,160001,128,0,160082:0:0:0:0:
182,192,160001,128,0,160082:0:0:0:0:
109,192,160001,128,0,160082:0:0:0:0:
36,192,160001,128,0,160082:0:0:0:0:
182,192,160163,1,0,0:0:0:0:
36,192,160163,1,0,0:0:0:0:
329,192,160163,1,0,0:0:0:0:
475,192,160163,1,0,0:0:0:0:
109,192,160163,128,0,160244:0:0:0:0:
402,192,160163,128,0,160406:0:0:0:0:
256,192,160163,128,0,160244:0:0:0:0:
182,192,160325,128,0,160406:0:0:0:0:
36,192,160325,128,0,160406:0:0:0:0:
329,192,160325,128,0,160406:0:0:0:0:
475,192,160325,128,0,160406:0:0:0:0:
256,192,160325,1,0,0:0:0:0:
109,192,160325,128,0,160568:0:0:0:0:
182,192,160487,1,0,0:0:0:0:
36,192,160487,1,0,0:0:0:0:
329,192,160487,1,0,0:0:0:0:
475,192,160487,1,0,0:0:0:0:
256,192,160487,128,0,160568:0:0:0:0:
402,192,160487,128,0,160568:0:0:0:0:
256,192,160649,1,0,0:0:0:0:
402,192,160649,1,0,0:0:0:0:
109,192,160649,1,0,0:0:0:0:
36,192,160649,128,0,160893:0:0:0:0:
329,192,160649,128,0,160893:0:0:0:0:
109,192,160812,128,0,160893:0:0:0:0:
256,192,160812,128,0,160893:0:0:0:0:
402,192,160812,128,0,160893:0:0:0:0:
109,192,160974,128,0,161055:0:0:0:0:
256,192,160974,128,0,161055:0:0:0:0:
475,192,160974,128,0,161055:0:0:0:0:
182,192,160974,1,0,0:0:0:0:
36,192,160974,1,0,0:0:0:0:
329,192,160974,128,0,161217:0:0:0:0:
109,192,161136,1,0,0:0:0:0:
36,192,161136,1,0,0:0:0:0:
256,192,161136,1,0,0:0:0:0:
402,192,161136,1,0,0:0:0:0:
182,192,161136,128,0,161217:0:0:0:0:
475,192,161136,128,0,161217:0:0:0:0:
182,192,161298,1,0,0:0:0:0:
475,192,161298,1,0,0:0:0:0:
402,192,161298,128,0,161379:0:0:0:0:
256,192,161298,128,0,161379:0:0:0:0:
109,192,161298,128,0,161379:0:0:0:0:
36,192,161298,128,0,161379:0:0:0:0:
256,192,161460,1,0,0:0:0:0:
109,192,161460,1,0,0:0:0:0:
36,192,161460,1,0,0:0:0:0:
402,192,161460,1,0,0:0:0:0:
329,192,161460,128,0,161541:0:0:0:0:
475,192,161460,128,0,161541:0:0:0:0:
182,192,161460,128,0,161541:0:0:0:0:
329,192,161622,1,0,0:0:0:0:
475,192,161622,1,0,0:0:0:0:
182,192,161622,128,0,161703:0:0:0:0:
109,192,161622,1,0,0:0:0:0:
36,192,161622,128,0,161703:0:0:0:0:
256,192,161622,128,0,161703:0:0:0:0:
402,192,161622,128,0,161703:0:0:0:0:
36,192,161785,1,0,0:0:0:0:
182,192,161785,1,0,0:0:0:0:
256,192,161785,1,0,0:0:0:0:
402,192,161785,1,0,0:0:0:0:
329,192,161785,128,0,161866:0:0:0:0:
475,192,161785,128,0,161866:0:0:0:0:
109,192,161785,128,0,161866:0:0:0:0:
182,192,161947,128,0,162028:0:0:0:0:
36,192,161947,128,0,162028:0:0:0:0:
402,192,161947,128,0,162028:0:0:0:0:
256,192,161947,1,0,0:0:0:0:
329,192,161947,1,0,0:0:0:0:
475,192,161947,1,0,0:0:0:0:
109,192,161947,128,0,162028:0:0:0:0:
256,192,162109,128,0,162190:0:0:0:0:
329,192,162109,128,0,162190:0:0:0:0:
402,192,162109,128,0,162190:0:0:0:0:
475,192,162109,128,0,162190:0:0:0:0:
182,192,162109,128,0,162352:0:0:0:0:
36,192,162109,128,0,162352:0:0:0:0:
329,192,162271,1,0,0:0:0:0:
256,192,162271,1,0,0:0:0:0:
402,192,162271,1,0,0:0:0:0:
475,192,162271,1,0,0:0:0:0:
109,192,162271,128,0,162352:0:0:0:0:
182,192,162433,1,0,0:0:0:0:
109,192,162433,1,0,0:0:0:0:
36,192,162433,1,0,0:0:0:0:
256,192,162433,1,0,0:0:0:0:
329,192,162433,1,0,0:0:0:0:
402,192,162433,128,0,162514:0:0:0:0:
475,192,162433,128,0,162676:0:0:0:0:
109,192,162595,1,0,0:0:0:0:
182,192,162595,1,0,0:0:0:0:
256,192,162595,1,0,0:0:0:0:
329,192,162595,1,0,0:0:0:0:
402,192,162595,1,0,0:0:0:0:
36,192,162595,128,0,162839:0:0:0:0:
182,192,162757,1,0,0:0:0:0:
256,192,162757,1,0,0:0:0:0:
329,192,162757,1,0,0:0:0:0:
402,192,162757,1,0,0:0:0:0:
475,192,162757,1,0,0:0:0:0:
109,192,162757,128,0,162839:0:0:0:0:
182,192,162920,128,0,163001:0:0:0:0:
256,192,162920,128,0,163001:0:0:0:0:
329,192,162920,128,0,163001:0:0:0:0:
402,192,163001,128,0,163082:0:0:0:0:
475,192,163001,128,0,163082:0:0:0:0:
182,192,163082,128,0,163163:0:0:0:0:
109,192,163082,128,0,163163:0:0:0:0:
256,192,163082,128,0,163163:0:0:0:0:
329,192,163163,128,0,163244:0:0:0:0:
402,192,163163,128,0,163244:0:0:0:0:
182,192,163244,128,0,163325:0:0:0:0:
109,192,163244,128,0,163325:0:0:0:0:
36,192,163244,128,0,163325:0:0:0:0:
256,192,163244,128,0,163487:0:0:0:0:
402,192,163325,128,0,163406:0:0:0:0:
475,192,163325,128,0,163406:0:0:0:0:
329,192,163406,128,0,163487:0:0:0:0:
182,192,163406,128,0,163487:0:0:0:0:
109,192,163406,128,0,163487:0:0:0:0:
36,192,163487,128,0,163568:0:0:0:0:
475,192,163487,128,0,163568:0:0:0:0:
256,192,163568,128,0,163649:0:0:0:0:
402,192,163568,128,0,163649:0:0:0:0:
329,192,163568,128,0,163649:0:0:0:0:
182,192,163568,128,0,163649:0:0:0:0:
109,192,163568,128,0,163649:0:0:0:0:
36,192,163649,128,0,163730:0:0:0:0:
475,192,163649,128,0,163730:0:0:0:0:
256,192,163730,1,0,0:0:0:0:
402,192,163730,1,0,0:0:0:0:
329,192,163730,1,0,0:0:0:0:
182,192,163730,1,0,0:0:0:0:
109,192,163730,1,0,0:0:0:0:
182,192,163893,128,0,163974:0:0:0:0:
109,192,163893,128,0,163974:0:0:0:0:
36,192,163893,128,0,163974:0:0:0:0:
329,192,163893,128,0,163974:0:0:0:0:
402,192,163893,128,0,163974:0:0:0:0:
475,192,163893,128,0,163974:0:0:0:0:
475,192,164055,1,0,0:0:0:0:
402,192,164055,1,0,0:0:0:0:
329,192,164055,1,0,0:0:0:0:
182,192,164055,1,0,0:0:0:0:
109,192,164055,1,0,0:0:0:0:
36,192,164055,1,0,0:0:0:0:
256,192,164136,1,0,0:0:0:0:
109,192,164217,1,0,0:0:0:0:
36,192,164217,1,0,0:0:0:0:
402,192,164217,1,0,0:0:0:0:
475,192,164217,1,0,0:0:0:0:
329,192,164298,1,0,0:0:0:0:
182,192,164298,1,0,0:0:0:0:
256,192,164379,1,0,0:0:0:0:
36,192,164379,1,0,0:0:0:0:
475,192,164379,1,0,0:0:0:0:
402,192,164460,1,0,0:0:0:0:
109,192,164460,1,0,0:0:0:0:
256,192,164541,128,0,164785:0:0:0:0:
182,192,164541,1,0,0:0:0:0:
329,192,164541,1,0,0:0:0:0:
109,192,164622,1,0,0:0:0:0:
402,192,164622,1,0,0:0:0:0:
475,192,164703,1,0,0:0:0:0:
36,192,164703,1,0,0:0:0:0:
182,192,164703,1,0,0:0:0:0:
402,192,164785,1,0,0:0:0:0:
109,192,164785,1,0,0:0:0:0:
256,192,164866,128,0,164947:0:0:0:0:
36,192,164866,1,0,0:0:0:0:
329,192,164866,1,0,0:0:0:0:
475,192,164866,1,0,0:0:0:0:
402,192,164947,1,0,0:0:0:0:
109,192,164947,1,0,0:0:0:0:
256,192,165028,1,0,0:0:0:0:
182,192,165028,1,0,0:0:0:0:
36,192,165028,1,0,0:0:0:0:
329,192,165028,1,0,0:0:0:0:
475,192,165028,1,0,0:0:0:0:
182,192,165190,128,0,165271:0:0:0:0:
36,192,165190,128,0,165271:0:0:0:0:
256,192,165190,128,0,165271:0:0:0:0:
329,192,165190,128,0,165271:0:0:0:0:
475,192,165190,128,0,165271:0:0:0:0:
329,192,165352,128,0,165433:0:0:0:0:
475,192,165352,128,0,165433:0:0:0:0:
402,192,165352,128,0,165433:0:0:0:0:
109,192,165433,128,0,165514:0:0:0:0:
36,192,165433,128,0,165676:0:0:0:0:
329,192,165514,128,0,165595:0:0:0:0:
402,192,165514,128,0,165676:0:0:0:0:
475,192,165514,128,0,165595:0:0:0:0:
109,192,165595,128,0,165757:0:0:0:0:
182,192,165595,128,0,165676:0:0:0:0:
256,192,165676,128,0,165757:0:0:0:0:
329,192,165676,128,0,165757:0:0:0:0:
475,192,165676,128,0,165839:0:0:0:0:
402,192,165757,128,0,166001:0:0:0:0:
36,192,165757,128,0,165920:0:0:0:0:
329,192,165839,128,0,165920:0:0:0:0:
256,192,165839,128,0,165920:0:0:0:0:
182,192,165839,128,0,165920:0:0:0:0:
475,192,165920,128,0,166163:0:0:0:0:
109,192,165920,128,0,166001:0:0:0:0:
36,192,166001,128,0,166082:0:0:0:0:
182,192,166001,128,0,166082:0:0:0:0:
256,192,166001,128,0,166082:0:0:0:0:
329,192,166082,128,0,166244:0:0:0:0:
402,192,166082,128,0,166163:0:0:0:0:
36,192,166163,128,0,166244:0:0:0:0:
109,192,166163,128,0,166244:0:0:0:0:
182,192,166163,128,0,166244:0:0:0:0:
256,192,166163,128,0,166244:0:0:0:0:
402,192,166244,128,0,166325:0:0:0:0:
475,192,166244,128,0,166325:0:0:0:0:
182,192,166325,1,0,0:0:0:0:
36,192,166325,1,0,0:0:0:0:
109,192,166325,1,0,0:0:0:0:
256,192,166325,1,0,0:0:0:0:
329,192,166325,1,0,0:0:0:0:
182,192,166487,1,0,0:0:0:0:
256,192,166487,1,0,0:0:0:0:
329,192,166487,1,0,0:0:0:0:
402,192,166487,1,0,0:0:0:0:
109,192,166487,1,0,0:0:0:0:
182,192,166649,1,0,0:0:0:0:
329,192,166649,1,0,0:0:0:0:
256,192,166649,1,0,0:0:0:0:
109,192,166649,1,0,0:0:0:0:
36,192,166730,1,0,0:0:0:0:
475,192,166730,1,0,0:0:0:0:
182,192,166812,1,0,0:0:0:0:
256,192,166812,1,0,0:0:0:0:
329,192,166812,1,0,0:0:0:0:
402,192,166812,1,0,0:0:0:0:
36,192,166893,1,0,0:0:0:0:
475,192,166893,1,0,0:0:0:0:
329,192,166974,1,0,0:0:0:0:
256,192,166974,1,0,0:0:0:0:
182,192,166974,1,0,0:0:0:0:
109,192,167055,1,0,0:0:0:0:
402,192,167055,1,0,0:0:0:0:
475,192,167136,1,0,0:0:0:0:
36,192,167136,1,0,0:0:0:0:
329,192,167136,1,0,0:0:0:0:
182,192,167136,1,0,0:0:0:0:
109,192,167217,1,0,0:0:0:0:
402,192,167217,1,0,0:0:0:0:
329,192,167298,1,0,0:0:0:0:
182,192,167298,1,0,0:0:0:0:
256,192,167298,1,0,0:0:0:0:
109,192,167379,1,0,0:0:0:0:
475,192,167379,1,0,0:0:0:0:
256,192,167460,1,0,0:0:0:0:
402,192,167460,1,0,0:0:0:0:
329,192,167460,1,0,0:0:0:0:
182,192,167460,1,0,0:0:0:0:
36,192,167541,1,0,0:0:0:0:
475,192,167541,1,0,0:0:0:0:
256,192,167622,1,0,0:0:0:0:
182,192,167622,1,0,0:0:0:0:
109,192,167622,1,0,0:0:0:0:
329,192,167622,1,0,0:0:0:0:
402,192,167703,1,0,0:0:0:0:
36,192,167703,1,0,0:0:0:0:
182,192,167785,1,0,0:0:0:0:
329,192,167785,1,0,0:0:0:0:
256,192,167785,1,0,0:0:0:0:
256,192,167947,128,0,168028:0:0:0:0:
182,192,167947,128,0,168352:0:0:0:0:
109,192,167947,128,0,168352:0:0:0:0:
36,192,167947,128,0,168352:0:0:0:0:
402,192,167947,128,0,168352:0:0:0:0:
329,192,167947,128,0,168352:0:0:0:0:
475,192,167947,128,0,168352:0:0:0:0:
256,192,168109,128,0,168190:0:0:0:0:
256,192,168271,128,0,168352:0:0:0:0:
256,192,168433,128,0,169325:0:0:0:0:
182,192,168433,1,0,0:0:0:0:
109,192,168433,1,0,0:0:0:0:
36,192,168433,1,0,0:0:0:0:
329,192,168433,1,0,0:0:0:0:
402,192,168433,1,0,0:0:0:0:
475,192,168433,1,0,0:0:0:0:
475,192,168595,1,0,0:0:0:0:
402,192,168595,1,0,0:0:0:0:
329,192,168595,1,0,0:0:0:0:
182,192,168595,1,0,0:0:0:0:
109,192,168595,1,0,0:0:0:0:
36,192,168595,1,0,0:0:0:0:
36,192,168757,1,0,0:0:0:0:
109,192,168757,1,0,0:0:0:0:
182,192,168757,1,0,0:0:0:0:
402,192,168757,1,0,0:0:0:0:
329,192,168757,1,0,0:0:0:0:
475,192,168757,1,0,0:0:0:0:
475,192,168920,1,0,0:0:0:0:
402,192,168920,1,0,0:0:0:0:
329,192,168920,1,0,0:0:0:0:
182,192,168920,1,0,0:0:0:0:
109,192,168920,1,0,0:0:0:0:
36,192,168920,1,0,0:0:0:0:
36,192,169082,1,0,0:0:0:0:
182,192,169082,1,0,0:0:0:0:
109,192,169082,1,0,0:0:0:0:
329,192,169082,1,0,0:0:0:0:
402,192,169082,1,0,0:0:0:0:
475,192,169082,1,0,0:0:0:0:
475,192,169244,1,0,0:0:0:0:
36,192,169244,1,0,0:0:0:0:
182,192,169244,1,0,0:0:0:0:
402,192,169285,1,0,0:0:0:0:
329,192,169325,1,0,0:0:0:0:
182,192,169325,1,0,0:0:0:0:
109,192,169366,1,0,0:0:0:0:
36,192,169406,1,0,0:0:0:0:
475,192,169406,1,0,0:0:0:0:
329,192,169406,1,0,0:0:0:0:
36,192,169568,128,0,169649:0:0:0:0:
329,192,169568,128,0,169649:0:0:0:0:
475,192,169568,128,0,169649:0:0:0:0:
182,192,169730,128,0,169812:0:0:0:0:
36,192,169730,128,0,169812:0:0:0:0:
329,192,169730,128,0,169812:0:0:0:0:
475,192,169730,128,0,169812:0:0:0:0:
36,192,169893,128,0,169974:0:0:0:0:
182,192,169893,128,0,169974:0:0:0:0:
475,192,169893,128,0,169974:0:0:0:0:
109,192,169974,128,0,170055:0:0:0:0:
329,192,169974,128,0,170055:0:0:0:0:
402,192,169974,128,0,170055:0:0:0:0:
256,192,170055,128,0,170136:0:0:0:0:
475,192,170055,128,0,170136:0:0:0:0:
36,192,170055,128,0,170136:0:0:0:0:
109,192,170136,128,0,170217:0:0:0:0:
182,192,170136,128,0,170217:0:0:0:0:
402,192,170136,128,0,170217:0:0:0:0:
329,192,170217,128,0,170298:0:0:0:0:
475,192,170217,128,0,170298:0:0:0:0:
36,192,170217,128,0,170298:0:0:0:0:
109,192,170298,128,0,170379:0:0:0:0:
256,192,170298,128,0,170379:0:0:0:0:
402,192,170298,128,0,170379:0:0:0:0:
182,192,170379,128,0,170460:0:0:0:0:
36,192,170379,128,0,170460:0:0:0:0:
329,192,170379,128,0,170460:0:0:0:0:
475,192,170379,128,0,170460:0:0:0:0:
402,192,170460,128,0,170541:0:0:0:0:
256,192,170460,128,0,170541:0:0:0:0:
109,192,170460,128,0,170541:0:0:0:0:
182,192,170541,128,0,170622:0:0:0:0:
36,192,170541,128,0,170622:0:0:0:0:
329,192,170541,128,0,170622:0:0:0:0:
475,192,170541,128,0,170622:0:0:0:0:
402,192,170622,128,0,170703:0:0:0:0:
256,192,170622,128,0,170703:0:0:0:0:
109,192,170622,128,0,170703:0:0:0:0:
182,192,170703,128,0,171352:0:0:0:0:
329,192,170703,128,0,171352:0:0:0:0:
36,192,170703,1,0,0:0:0:0:
475,192,170703,1,0,0:0:0:0:
402,192,171028,1,0,0:0:0:0:
256,192,171109,1,0,0:0:0:0:
109,192,171190,1,0,0:0:0:0:
402,192,171271,1,0,0:0:0:0:
402,192,171352,128,0,172001:0:0:0:0:
256,192,171352,128,0,172001:0:0:0:0:
109,192,171352,128,0,172001:0:0:0:0:
36,192,171676,1,0,0:0:0:0:
182,192,171757,1,0,0:0:0:0:
329,192,171839,1,0,0:0:0:0:
475,192,171920,1,0,0:0:0:0:
36,192,172001,128,0,172568:0:0:0:0:
182,192,172001,128,0,172568:0:0:0:0:
329,192,172001,128,0,172568:0:0:0:0:
475,192,172001,128,0,172568:0:0:0:0:
256,192,172325,1,0,0:0:0:0:
402,192,172487,128,0,172568:0:0:0:0:
109,192,172487,1,0,0:0:0:0:
256,192,172568,128,0,172649:0:0:0:0:
109,192,172649,128,0,172730:0:0:0:0:
402,192,172649,1,0,0:0:0:0:
329,192,172649,1,0,0:0:0:0:
475,192,172649,1,0,0:0:0:0:
182,192,172812,128,0,172893:0:0:0:0:
329,192,172812,128,0,172893:0:0:0:0:
109,192,172812,1,0,0:0:0:0:
36,192,172812,1,0,0:0:0:0:
109,192,172974,128,0,173055:0:0:0:0:
402,192,172974,128,0,173055:0:0:0:0:
256,192,172974,1,0,0:0:0:0:
475,192,172974,1,0,0:0:0:0:
36,192,172974,1,0,0:0:0:0:
475,192,173136,1,0,0:0:0:0:
329,192,173136,128,0,173217:0:0:0:0:
182,192,173136,128,0,173217:0:0:0:0:
256,192,173217,128,0,173298:0:0:0:0:
402,192,173217,128,0,173298:0:0:0:0:
109,192,173298,128,0,173501:0:0:0:0:
329,192,173298,128,0,173379:0:0:0:0:
475,192,173298,128,0,173379:0:0:0:0:
256,192,173379,128,0,173460:0:0:0:0:
402,192,173379,128,0,173460:0:0:0:0:
329,192,173460,128,0,173541:0:0:0:0:
182,192,173460,128,0,173541:0:0:0:0:
256,192,173541,128,0,173622:0:0:0:0:
109,192,173541,128,0,173622:0:0:0:0:
182,192,173622,128,0,173703:0:0:0:0:
36,192,173622,128,0,173703:0:0:0:0:
402,192,173622,128,0,173825:0:0:0:0:
256,192,173703,128,0,173785:0:0:0:0:
109,192,173703,128,0,173785:0:0:0:0:
329,192,173785,128,0,173866:0:0:0:0:
182,192,173785,128,0,173866:0:0:0:0:
402,192,173866,128,0,173947:0:0:0:0:
109,192,173866,128,0,173947:0:0:0:0:
256,192,173947,128,0,174028:0:0:0:0:
36,192,173947,128,0,174028:0:0:0:0:
475,192,173947,128,0,174149:0:0:0:0:
329,192,174028,128,0,174109:0:0:0:0:
109,192,174028,128,0,174109:0:0:0:0:
402,192,174109,128,0,174190:0:0:0:0:
182,192,174109,128,0,174190:0:0:0:0:
475,192,174190,128,0,174271:0:0:0:0:
256,192,174190,128,0,174271:0:0:0:0:
109,192,174271,128,0,174352:0:0:0:0:
329,192,174271,128,0,174474:0:0:0:0:
36,192,174271,128,0,174474:0:0:0:0:
182,192,174352,128,0,174433:0:0:0:0:
402,192,174352,128,0,174433:0:0:0:0:
256,192,174433,128,0,174514:0:0:0:0:
475,192,174433,128,0,174514:0:0:0:0:
329,192,174514,128,0,174595:0:0:0:0:
182,192,174514,128,0,174595:0:0:0:0:
109,192,174595,128,0,174676:0:0:0:0:
402,192,174595,128,0,174717:0:0:0:0:
256,192,174595,128,0,174798:0:0:0:0:
475,192,174676,128,0,174798:0:0:0:0:
36,192,174676,128,0,174757:0:0:0:0:
109,192,174757,128,0,174839:0:0:0:0:
402,192,174757,128,0,174839:0:0:0:0:
329,192,174839,128,0,174920:0:0:0:0:
182,192,174839,128,0,174920:0:0:0:0:
256,192,174920,128,0,175041:0:0:0:0:
109,192,174920,128,0,175001:0:0:0:0:
402,192,174920,128,0,175122:0:0:0:0:
182,192,175001,128,0,175082:0:0:0:0:
36,192,175001,128,0,175122:0:0:0:0:
109,192,175082,128,0,175163:0:0:0:0:
256,192,175082,128,0,175163:0:0:0:0:
329,192,175163,128,0,175244:0:0:0:0:
182,192,175163,128,0,175244:0:0:0:0:
402,192,175244,128,0,175325:0:0:0:0:
256,192,175244,128,0,175366:0:0:0:0:
36,192,175244,128,0,175447:0:0:0:0:
182,192,175325,128,0,175406:0:0:0:0:
329,192,175325,128,0,175406:0:0:0:0:
109,192,175406,128,0,175487:0:0:0:0:
256,192,175406,128,0,175487:0:0:0:0:
36,192,175487,128,0,175568:0:0:0:0:
182,192,175487,128,0,175568:0:0:0:0:
329,192,175568,128,0,175649:0:0:0:0:
109,192,175568,128,0,175771:0:0:0:0:
475,192,175568,128,0,175690:0:0:0:0:
256,192,175649,128,0,175730:0:0:0:0:
402,192,175649,128,0,175730:0:0:0:0:
182,192,175730,128,0,175812:0:0:0:0:
475,192,175730,128,0,175812:0:0:0:0:
109,192,175812,128,0,175893:0:0:0:0:
402,192,175812,128,0,175893:0:0:0:0:
329,192,175893,128,0,175974:0:0:0:0:
36,192,175893,128,0,175974:0:0:0:0:
256,192,175893,128,0,176095:0:0:0:0:
109,192,175974,128,0,176055:0:0:0:0:
402,192,175974,128,0,176055:0:0:0:0:
182,192,176055,128,0,176136:0:0:0:0:
475,192,176055,128,0,176136:0:0:0:0:
402,192,176136,128,0,176217:0:0:0:0:
256,192,176136,128,0,176217:0:0:0:0:
329,192,176217,128,0,176298:0:0:0:0:
182,192,176217,128,0,176339:0:0:0:0:
475,192,176217,128,0,176420:0:0:0:0:
256,192,176298,128,0,176420:0:0:0:0:
109,192,176298,128,0,176379:0:0:0:0:
182,192,176379,128,0,176460:0:0:0:0:
36,192,176379,128,0,176460:0:0:0:0:
109,192,176460,128,0,176541:0:0:0:0:
256,192,176460,128,0,176541:0:0:0:0:
329,192,176541,128,0,176622:0:0:0:0:
475,192,176541,128,0,176622:0:0:0:0:
182,192,176541,128,0,176622:0:0:0:0:
36,192,176541,128,0,176744:0:0:0:0:
256,192,176622,128,0,176703:0:0:0:0:
402,192,176622,128,0,176744:0:0:0:0:
182,192,176703,128,0,176785:0:0:0:0:
329,192,176703,128,0,176785:0:0:0:0:
109,192,176785,128,0,176866:0:0:0:0:
256,192,176785,128,0,176866:0:0:0:0:
36,192,176866,128,0,176947:0:0:0:0:
329,192,176866,128,0,177068:0:0:0:0:
475,192,176866,128,0,176987:0:0:0:0:
256,192,176947,128,0,177028:0:0:0:0:
402,192,176947,128,0,177028:0:0:0:0:
182,192,177028,128,0,177109:0:0:0:0:
475,192,177028,128,0,177109:0:0:0:0:
109,192,177109,128,0,177190:0:0:0:0:
329,192,177109,128,0,177190:0:0:0:0:
256,192,177190,128,0,177271:0:0:0:0:
36,192,177190,128,0,177393:0:0:0:0:
475,192,177190,128,0,177271:0:0:0:0:
182,192,177271,128,0,177393:0:0:0:0:
402,192,177271,128,0,177352:0:0:0:0:
329,192,177352,128,0,177433:0:0:0:0:
109,192,177352,128,0,177433:0:0:0:0:
256,192,177433,128,0,177514:0:0:0:0:
475,192,177433,128,0,177514:0:0:0:0:
182,192,177514,128,0,177717:0:0:0:0:
402,192,177514,128,0,177595:0:0:0:0:
109,192,177595,128,0,177676:0:0:0:0:
329,192,177595,128,0,177676:0:0:0:0:
256,192,177676,128,0,177757:0:0:0:0:
36,192,177676,128,0,177757:0:0:0:0:
182,192,177757,128,0,177839:0:0:0:0:
329,192,177757,128,0,177839:0:0:0:0:
109,192,177839,128,0,177920:0:0:0:0:
402,192,177839,128,0,177920:0:0:0:0:
256,192,177839,128,0,178041:0:0:0:0:
329,192,177920,128,0,178001:0:0:0:0:
182,192,177920,128,0,178001:0:0:0:0:
36,192,178001,128,0,178082:0:0:0:0:
475,192,178001,128,0,178082:0:0:0:0:
402,192,178082,128,0,178163:0:0:0:0:
109,192,178082,128,0,178163:0:0:0:0:
182,192,178163,128,0,178366:0:0:0:0:
329,192,178163,128,0,178366:0:0:0:0:
256,192,178163,128,0,178244:0:0:0:0:
109,192,178244,128,0,178325:0:0:0:0:
402,192,178244,128,0,178325:0:0:0:0:
475,192,178325,128,0,178406:0:0:0:0:
36,192,178325,128,0,178406:0:0:0:0:
182,192,178406,128,0,178487:0:0:0:0:
329,192,178406,128,0,178487:0:0:0:0:
109,192,178487,128,0,178568:0:0:0:0:
36,192,178487,128,0,178568:0:0:0:0:
402,192,178487,128,0,178568:0:0:0:0:
475,192,178487,128,0,178568:0:0:0:0:
182,192,178568,128,0,178609:0:0:0:0:
109,192,178649,128,0,178730:0:0:0:0:
36,192,178649,128,0,178730:0:0:0:0:
402,192,178649,128,0,178730:0:0:0:0:
475,192,178649,128,0,178730:0:0:0:0:
256,192,178730,128,0,178771:0:0:0:0:
36,192,178812,128,0,178893:0:0:0:0:
109,192,178812,128,0,178893:0:0:0:0:
402,192,178812,128,0,178893:0:0:0:0:
475,192,178812,128,0,178893:0:0:0:0:
329,192,178893,128,0,178933:0:0:0:0:
109,192,178974,128,0,179055:0:0:0:0:
182,192,178974,128,0,179055:0:0:0:0:
402,192,178974,128,0,179055:0:0:0:0:
329,192,178974,128,0,179055:0:0:0:0:
36,192,179055,128,0,179095:0:0:0:0:
182,192,179136,128,0,179217:0:0:0:0:
109,192,179136,128,0,179217:0:0:0:0:
329,192,179136,128,0,179217:0:0:0:0:
402,192,179136,128,0,179217:0:0:0:0:
256,192,179217,128,0,179257:0:0:0:0:
182,192,179298,128,0,179379:0:0:0:0:
109,192,179298,128,0,179379:0:0:0:0:
329,192,179298,128,0,179379:0:0:0:0:
402,192,179298,128,0,179379:0:0:0:0:
475,192,179379,128,0,179420:0:0:0:0:
109,192,179460,128,0,179541:0:0:0:0:
36,192,179460,128,0,179541:0:0:0:0:
402,192,179460,128,0,179541:0:0:0:0:
475,192,179460,128,0,179541:0:0:0:0:
182,192,179541,128,0,179582:0:0:0:0:
109,192,179622,128,0,179703:0:0:0:0:
36,192,179622,128,0,179703:0:0:0:0:
402,192,179622,128,0,179703:0:0:0:0:
475,192,179622,128,0,179703:0:0:0:0:
256,192,179703,128,0,179744:0:0:0:0:
109,192,179785,128,0,179866:0:0:0:0:
36,192,179785,128,0,179866:0:0:0:0:
475,192,179785,128,0,179866:0:0:0:0:
402,192,179785,128,0,179866:0:0:0:0:
329,192,179866,128,0,179906:0:0:0:0:
182,192,179947,128,0,180028:0:0:0:0:
109,192,179947,128,0,180028:0:0:0:0:
329,192,179947,128,0,180028:0:0:0:0:
402,192,179947,128,0,180028:0:0:0:0:
475,192,180028,128,0,180068:0:0:0:0:
182,192,180109,128,0,180190:0:0:0:0:
109,192,180109,128,0,180190:0:0:0:0:
329,192,180109,128,0,180190:0:0:0:0:
402,192,180109,128,0,180190:0:0:0:0:
256,192,180190,128,0,180230:0:0:0:0:
402,192,180271,128,0,180352:0:0:0:0:
329,192,180271,128,0,180352:0:0:0:0:
182,192,180271,128,0,180352:0:0:0:0:
109,192,180271,128,0,180352:0:0:0:0:
36,192,180352,128,0,180393:0:0:0:0:
182,192,180433,128,0,180514:0:0:0:0:
256,192,180433,128,0,180514:0:0:0:0:
402,192,180433,128,0,180514:0:0:0:0:
475,192,180433,128,0,180514:0:0:0:0:
329,192,180474,1,0,0:0:0:0:
109,192,180595,128,0,180676:0:0:0:0:
182,192,180595,128,0,180676:0:0:0:0:
329,192,180595,128,0,180676:0:0:0:0:
402,192,180595,128,0,180676:0:0:0:0:
256,192,180636,1,0,0:0:0:0:
256,192,180757,128,0,180839:0:0:0:0:
329,192,180757,128,0,180839:0:0:0:0:
36,192,180757,128,0,180839:0:0:0:0:
109,192,180757,128,0,180839:0:0:0:0:
182,192,180798,1,0,0:0:0:0:
36,192,180920,128,0,181082:0:0:0:0:
256,192,180920,128,0,181001:0:0:0:0:
475,192,180920,128,0,181001:0:0:0:0:
182,192,181001,128,0,181082:0:0:0:0:
329,192,181001,128,0,181082:0:0:0:0:
402,192,181001,128,0,181163:0:0:0:0:
109,192,181082,128,0,181163:0:0:0:0:
475,192,181082,128,0,181244:0:0:0:0:
256,192,181082,128,0,181163:0:0:0:0:
182,192,181163,128,0,181244:0:0:0:0:
36,192,181163,128,0,181325:0:0:0:0:
329,192,181163,128,0,181244:0:0:0:0:
109,192,181244,128,0,181325:0:0:0:0:
402,192,181244,128,0,181325:0:0:0:0:
256,192,181244,128,0,181325:0:0:0:0:
475,192,181325,128,0,181649:0:0:0:0:
329,192,181325,128,0,181406:0:0:0:0:
182,192,181325,128,0,181406:0:0:0:0:
402,192,181406,128,0,181487:0:0:0:0:
36,192,181406,128,0,181487:0:0:0:0:
109,192,181406,128,0,181568:0:0:0:0:
256,192,181406,128,0,181487:0:0:0:0:
329,192,181487,128,0,181568:0:0:0:0:
182,192,181487,128,0,181568:0:0:0:0:
256,192,181568,128,0,181649:0:0:0:0:
402,192,181568,128,0,181730:0:0:0:0:
36,192,181568,128,0,181649:0:0:0:0:
109,192,181649,128,0,181812:0:0:0:0:
182,192,181649,128,0,181812:0:0:0:0:
329,192,181649,128,0,181730:0:0:0:0:
36,192,181730,128,0,181812:0:0:0:0:
256,192,181730,128,0,181893:0:0:0:0:
475,192,181730,128,0,181974:0:0:0:0:
402,192,181812,128,0,181974:0:0:0:0:
329,192,181812,128,0,181893:0:0:0:0:
182,192,181893,128,0,182055:0:0:0:0:
109,192,181893,128,0,181974:0:0:0:0:
36,192,181893,128,0,181974:0:0:0:0:
256,192,181974,128,0,182136:0:0:0:0:
329,192,181974,128,0,182055:0:0:0:0:
402,192,182055,128,0,182136:0:0:0:0:
475,192,182055,128,0,182298:0:0:0:0:
109,192,182055,128,0,182217:0:0:0:0:
36,192,182055,128,0,182136:0:0:0:0:
329,192,182136,128,0,182217:0:0:0:0:
182,192,182136,128,0,182298:0:0:0:0:
256,192,182217,128,0,182298:0:0:0:0:
402,192,182217,128,0,182298:0:0:0:0:
36,192,182217,128,0,182460:0:0:0:0:
329,192,182298,128,0,182460:0:0:0:0:
109,192,182298,128,0,182379:0:0:0:0:
182,192,182379,128,0,182460:0:0:0:0:
402,192,182379,128,0,182460:0:0:0:0:
475,192,182379,128,0,182541:0:0:0:0:
256,192,182379,128,0,182460:0:0:0:0:
109,192,182460,128,0,182622:0:0:0:0:
36,192,182541,128,0,182703:0:0:0:0:
256,192,182541,128,0,182703:0:0:0:0:
329,192,182541,128,0,182622:0:0:0:0:
402,192,182541,128,0,182622:0:0:0:0:
182,192,182541,128,0,182622:0:0:0:0:
475,192,182622,128,0,182703:0:0:0:0:
402,192,182703,128,0,182785:0:0:0:0:
182,192,182703,128,0,182785:0:0:0:0:
109,192,182703,128,0,182866:0:0:0:0:
329,192,182703,128,0,182785:0:0:0:0:
256,192,182785,128,0,182947:0:0:0:0:
36,192,182785,128,0,182866:0:0:0:0:
475,192,182785,128,0,182866:0:0:0:0:
402,192,182866,128,0,183028:0:0:0:0:
329,192,182866,128,0,183028:0:0:0:0:
182,192,182866,128,0,182947:0:0:0:0:
475,192,182947,128,0,183109:0:0:0:0:
109,192,182947,128,0,183109:0:0:0:0:
36,192,182947,128,0,183109:0:0:0:0:
182,192,183028,128,0,183190:0:0:0:0:
256,192,183028,128,0,183190:0:0:0:0:
329,192,183109,128,0,183271:0:0:0:0:
402,192,183109,128,0,183190:0:0:0:0:
109,192,183190,128,0,183271:0:0:0:0:
36,192,183190,128,0,183271:0:0:0:0:
475,192,183190,128,0,183271:0:0:0:0:
402,192,183271,128,0,183352:0:0:0:0:
256,192,183271,128,0,183352:0:0:0:0:
182,192,183271,128,0,183433:0:0:0:0:
109,192,183352,128,0,183514:0:0:0:0:
36,192,183352,128,0,183595:0:0:0:0:
329,192,183352,128,0,183433:0:0:0:0:
475,192,183352,128,0,183433:0:0:0:0:
402,192,183433,128,0,183514:0:0:0:0:
256,192,183433,128,0,183514:0:0:0:0:
329,192,183514,128,0,183595:0:0:0:0:
182,192,183514,128,0,183595:0:0:0:0:
109,192,183595,128,0,183676:0:0:0:0:
256,192,183595,128,0,183676:0:0:0:0:
475,192,183676,128,0,183717:0:0:0:0:
402,192,183697,128,0,183737:0:0:0:0:
329,192,183717,128,0,183757:0:0:0:0:
256,192,183737,128,0,183778:0:0:0:0:
182,192,183757,128,0,183798:0:0:0:0:
109,192,183798,128,0,183839:0:0:0:0:
36,192,183839,128,0,183920:0:0:0:0:
329,192,183839,128,0,183920:0:0:0:0:
109,192,183920,128,0,184001:0:0:0:0:
402,192,183920,128,0,184001:0:0:0:0:
182,192,184001,128,0,184082:0:0:0:0:
475,192,184001,128,0,184082:0:0:0:0:
256,192,184001,128,0,184244:0:0:0:0:
329,192,184082,128,0,184163:0:0:0:0:
36,192,184082,128,0,184163:0:0:0:0:
109,192,184163,128,0,184244:0:0:0:0:
402,192,184163,128,0,184244:0:0:0:0:
475,192,184244,128,0,184325:0:0:0:0:
182,192,184244,128,0,184325:0:0:0:0:
109,192,184325,128,0,184406:0:0:0:0:
402,192,184325,128,0,184406:0:0:0:0:
329,192,184406,128,0,184487:0:0:0:0:
182,192,184406,128,0,184487:0:0:0:0:
256,192,184487,128,0,184568:0:0:0:0:
402,192,184487,128,0,184568:0:0:0:0:
329,192,184568,128,0,184649:0:0:0:0:
475,192,184568,128,0,184649:0:0:0:0:
182,192,184649,128,0,184730:0:0:0:0:
36,192,184649,128,0,184730:0:0:0:0:
109,192,184730,128,0,184812:0:0:0:0:
256,192,184730,128,0,184812:0:0:0:0:
182,192,184812,128,0,184893:0:0:0:0:
402,192,184812,128,0,184893:0:0:0:0:
329,192,184812,128,0,184893:0:0:0:0:
475,192,184812,128,0,184893:0:0:0:0:
109,192,184893,128,0,184974:0:0:0:0:
256,192,184893,128,0,184974:0:0:0:0:
36,192,184974,128,0,185055:0:0:0:0:
329,192,184974,128,0,185055:0:0:0:0:
475,192,185055,128,0,185136:0:0:0:0:
256,192,185055,128,0,185136:0:0:0:0:
182,192,185136,128,0,185217:0:0:0:0:
109,192,185136,128,0,185217:0:0:0:0:
36,192,185136,128,0,185217:0:0:0:0:
329,192,185136,128,0,185217:0:0:0:0:
475,192,185217,128,0,185298:0:0:0:0:
402,192,185217,128,0,185298:0:0:0:0:
109,192,185298,128,0,185379:0:0:0:0:
329,192,185298,128,0,185379:0:0:0:0:
256,192,185379,128,0,185460:0:0:0:0:
36,192,185379,128,0,185460:0:0:0:0:
182,192,185460,128,0,185541:0:0:0:0:
329,192,185460,128,0,185541:0:0:0:0:
475,192,185460,128,0,185541:0:0:0:0:
109,192,185460,128,0,185541:0:0:0:0:
402,192,185460,128,0,185541:0:0:0:0:
256,192,185541,128,0,185622:0:0:0:0:
36,192,185541,128,0,185622:0:0:0:0:
182,192,185622,128,0,185703:0:0:0:0:
402,192,185622,128,0,185703:0:0:0:0:
329,192,185703,128,0,185785:0:0:0:0:
475,192,185703,128,0,185785:0:0:0:0:
182,192,185785,128,0,185866:0:0:0:0:
109,192,185785,128,0,185866:0:0:0:0:
36,192,185785,128,0,185866:0:0:0:0:
402,192,185785,128,0,185866:0:0:0:0:
256,192,185866,128,0,185947:0:0:0:0:
475,192,185866,128,0,185947:0:0:0:0:
109,192,185947,128,0,186028:0:0:0:0:
329,192,185947,128,0,186028:0:0:0:0:
256,192,186028,128,0,186109:0:0:0:0:
329,192,186109,128,0,186190:0:0:0:0:
402,192,186109,128,0,186190:0:0:0:0:
475,192,186109,128,0,186190:0:0:0:0:
182,192,186109,128,0,186190:0:0:0:0:
109,192,186109,128,0,186190:0:0:0:0:
36,192,186109,128,0,186190:0:0:0:0:
256,192,186190,128,0,186271:0:0:0:0:
109,192,186271,128,0,186352:0:0:0:0:
36,192,186271,128,0,186352:0:0:0:0:
402,192,186271,128,0,186352:0:0:0:0:
475,192,186271,128,0,186352:0:0:0:0:
182,192,186352,128,0,186433:0:0:0:0:
36,192,186433,128,0,186514:0:0:0:0:
109,192,186433,128,0,186514:0:0:0:0:
402,192,186433,128,0,186514:0:0:0:0:
475,192,186433,128,0,186514:0:0:0:0:
256,192,186514,128,0,186595:0:0:0:0:
402,192,186595,128,0,186676:0:0:0:0:
475,192,186595,128,0,186676:0:0:0:0:
109,192,186595,128,0,186676:0:0:0:0:
36,192,186595,128,0,186676:0:0:0:0:
329,192,186676,128,0,186757:0:0:0:0:
182,192,186757,128,0,186839:0:0:0:0:
109,192,186757,128,0,186839:0:0:0:0:
402,192,186757,128,0,186839:0:0:0:0:
475,192,186757,128,0,186839:0:0:0:0:
36,192,186839,128,0,186920:0:0:0:0:
109,192,186920,128,0,187001:0:0:0:0:
182,192,186920,128,0,187001:0:0:0:0:
329,192,186920,128,0,187001:0:0:0:0:
402,192,186920,128,0,187001:0:0:0:0:
256,192,187001,128,0,187082:0:0:0:0:
402,192,187082,128,0,187163:0:0:0:0:
329,192,187082,128,0,187163:0:0:0:0:
182,192,187082,128,0,187163:0:0:0:0:
109,192,187082,128,0,187163:0:0:0:0:
475,192,187163,128,0,187244:0:0:0:0:
109,192,187244,128,0,187325:0:0:0:0:
36,192,187244,128,0,187325:0:0:0:0:
329,192,187244,128,0,187325:0:0:0:0:
402,192,187244,128,0,187325:0:0:0:0:
182,192,187325,128,0,187406:0:0:0:0:
329,192,187406,128,0,187487:0:0:0:0:
402,192,187406,128,0,187487:0:0:0:0:
475,192,187406,128,0,187487:0:0:0:0:
109,192,187406,128,0,187487:0:0:0:0:
36,192,187406,128,0,187487:0:0:0:0:
256,192,187487,128,0,187568:0:0:0:0:
109,192,187568,128,0,187649:0:0:0:0:
36,192,187568,128,0,187649:0:0:0:0:
402,192,187568,128,0,187649:0:0:0:0:
475,192,187568,128,0,187649:0:0:0:0:
329,192,187649,128,0,187730:0:0:0:0:
402,192,187730,128,0,187812:0:0:0:0:
475,192,187730,128,0,187812:0:0:0:0:
182,192,187730,128,0,187812:0:0:0:0:
109,192,187730,128,0,187812:0:0:0:0:
256,192,187812,128,0,187893:0:0:0:0:
329,192,187893,128,0,187974:0:0:0:0:
402,192,187893,128,0,187974:0:0:0:0:
109,192,187893,128,0,187974:0:0:0:0:
36,192,187893,128,0,187974:0:0:0:0:
256,192,187974,128,0,188055:0:0:0:0:
402,192,188055,128,0,188136:0:0:0:0:
475,192,188055,128,0,188136:0:0:0:0:
182,192,188055,128,0,188136:0:0:0:0:
109,192,188055,128,0,188136:0:0:0:0:
36,192,188055,128,0,188136:0:0:0:0:
329,192,188136,128,0,188217:0:0:0:0:
256,192,188217,128,0,188298:0:0:0:0:
109,192,188217,128,0,188298:0:0:0:0:
36,192,188217,128,0,188298:0:0:0:0:
402,192,188217,128,0,188298:0:0:0:0:
475,192,188217,128,0,188298:0:0:0:0:
182,192,188298,128,0,188379:0:0:0:0:
36,192,188379,1,0,0:0:0:0:
475,192,188379,1,0,0:0:0:0:
256,192,188379,128,0,188460:0:0:0:0:
402,192,188379,1,0,0:0:0:0:
109,192,188379,1,0,0:0:0:0:
329,192,188460,128,0,188541:0:0:0:0:
36,192,188541,1,0,0:0:0:0:
475,192,188541,1,0,0:0:0:0:
402,192,188541,1,0,0:0:0:0:
109,192,188541,1,0,0:0:0:0:
256,192,188541,128,0,188622:0:0:0:0:
182,192,188622,128,0,188703:0:0:0:0:
36,192,188703,1,0,0:0:0:0:
475,192,188703,1,0,0:0:0:0:
256,192,188703,128,0,188785:0:0:0:0:
109,192,188785,1,0,0:0:0:0:
402,192,188785,1,0,0:0:0:0:
329,192,188785,128,0,188866:0:0:0:0:
256,192,188866,128,0,188947:0:0:0:0:
182,192,188866,128,0,189068:0:0:0:0:
475,192,188866,1,0,0:0:0:0:
36,192,188866,1,0,0:0:0:0:
109,192,188906,128,0,189028:0:0:0:0:
36,192,188947,128,0,188987:0:0:0:0:
402,192,188947,128,0,188987:0:0:0:0:
256,192,189028,128,0,189109:0:0:0:0:
329,192,189028,128,0,189230:0:0:0:0:
402,192,189068,128,0,189190:0:0:0:0:
475,192,189109,128,0,189149:0:0:0:0:
109,192,189109,128,0,189149:0:0:0:0:
182,192,189190,128,0,189393:0:0:0:0:
36,192,189190,1,0,0:0:0:0:
256,192,189190,128,0,189271:0:0:0:0:
109,192,189230,128,0,189352:0:0:0:0:
36,192,189271,128,0,189312:0:0:0:0:
402,192,189271,128,0,189312:0:0:0:0:
256,192,189352,128,0,189433:0:0:0:0:
329,192,189352,128,0,189555:0:0:0:0:
402,192,189393,128,0,189514:0:0:0:0:
475,192,189433,128,0,189474:0:0:0:0:
109,192,189433,128,0,189474:0:0:0:0:
256,192,189514,128,0,189595:0:0:0:0:
182,192,189514,128,0,189717:0:0:0:0:
109,192,189555,128,0,189676:0:0:0:0:
36,192,189595,128,0,189636:0:0:0:0:
402,192,189595,128,0,189636:0:0:0:0:
329,192,189676,128,0,189879:0:0:0:0:
256,192,189676,128,0,189757:0:0:0:0:
402,192,189717,128,0,189839:0:0:0:0:
475,192,189757,128,0,189798:0:0:0:0:
109,192,189757,128,0,189798:0:0:0:0:
256,192,189839,128,0,189920:0:0:0:0:
182,192,189839,128,0,190041:0:0:0:0:
109,192,189879,128,0,190001:0:0:0:0:
36,192,189920,128,0,189960:0:0:0:0:
402,192,189920,128,0,189960:0:0:0:0:
256,192,190001,128,0,190082:0:0:0:0:
329,192,190001,128,0,190203:0:0:0:0:
402,192,190041,128,0,190163:0:0:0:0:
475,192,190082,128,0,190122:0:0:0:0:
109,192,190082,128,0,190122:0:0:0:0:
182,192,190163,128,0,190366:0:0:0:0:
256,192,190163,128,0,190244:0:0:0:0:
109,192,190203,128,0,190325:0:0:0:0:
402,192,190244,128,0,190285:0:0:0:0:
36,192,190244,128,0,190285:0:0:0:0:
256,192,190325,128,0,190406:0:0:0:0:
329,192,190325,128,0,190528:0:0:0:0:
402,192,190366,128,0,190487:0:0:0:0:
109,192,190406,128,0,190447:0:0:0:0:
475,192,190406,128,0,190447:0:0:0:0:
256,192,190487,128,0,190568:0:0:0:0:
182,192,190487,128,0,190690:0:0:0:0:
109,192,190528,128,0,190649:0:0:0:0:
402,192,190568,128,0,190609:0:0:0:0:
36,192,190568,128,0,190609:0:0:0:0:
329,192,190649,128,0,190852:0:0:0:0:
256,192,190649,128,0,190730:0:0:0:0:
402,192,190690,128,0,190812:0:0:0:0:
109,192,190730,128,0,190771:0:0:0:0:
475,192,190730,128,0,190771:0:0:0:0:
256,192,190812,128,0,190893:0:0:0:0:
182,192,190812,128,0,191014:0:0:0:0:
109,192,190852,128,0,190974:0:0:0:0:
36,192,190893,128,0,190933:0:0:0:0:
402,192,190893,128,0,190933:0:0:0:0:
256,192,190974,128,0,191055:0:0:0:0:
329,192,190974,128,0,191095:0:0:0:0:
402,192,191014,128,0,191095:0:0:0:0:
475,192,191055,128,0,191095:0:0:0:0:
109,192,191055,128,0,191095:0:0:0:0:
36,192,191136,1,0,0:0:0:0:
182,192,191136,1,0,0:0:0:0:
329,192,191136,1,0,0:0:0:0:
475,192,191136,1,0,0:0:0:0:
256,192,191136,1,0,0:0:0:0:
109,192,191217,1,0,0:0:0:0:
402,192,191217,1,0,0:0:0:0:
36,192,191298,1,0,0:0:0:0:
182,192,191298,1,0,0:0:0:0:
329,192,191298,1,0,0:0:0:0:
475,192,191298,1,0,0:0:0:0:
109,192,191379,1,0,0:0:0:0:
402,192,191379,1,0,0:0:0:0:
182,192,191460,128,0,191663:0:0:0:0:
256,192,191460,128,0,191541:0:0:0:0:
329,192,191460,1,0,0:0:0:0:
475,192,191460,1,0,0:0:0:0:
36,192,191460,1,0,0:0:0:0:
109,192,191501,128,0,191622:0:0:0:0:
402,192,191541,128,0,191582:0:0:0:0:
36,192,191541,128,0,191582:0:0:0:0:
329,192,191622,128,0,191825:0:0:0:0:
256,192,191622,128,0,191703:0:0:0:0:
402,192,191663,128,0,191785:0:0:0:0:
109,192,191703,128,0,191744:0:0:0:0:
475,192,191703,128,0,191744:0:0:0:0:
256,192,191785,128,0,191866:0:0:0:0:
182,192,191785,128,0,191987:0:0:0:0:
109,192,191825,128,0,191947:0:0:0:0:
402,192,191866,128,0,191906:0:0:0:0:
36,192,191866,128,0,191906:0:0:0:0:
329,192,191947,128,0,192149:0:0:0:0:
256,192,191947,128,0,192028:0:0:0:0:
402,192,191987,128,0,192109:0:0:0:0:
109,192,192028,128,0,192068:0:0:0:0:
475,192,192028,128,0,192068:0:0:0:0:
182,192,192109,128,0,192312:0:0:0:0:
256,192,192109,128,0,192190:0:0:0:0:
109,192,192149,128,0,192271:0:0:0:0:
402,192,192190,128,0,192230:0:0:0:0:
36,192,192190,128,0,192230:0:0:0:0:
256,192,192271,128,0,192352:0:0:0:0:
329,192,192271,128,0,192474:0:0:0:0:
402,192,192312,128,0,192433:0:0:0:0:
109,192,192352,128,0,192393:0:0:0:0:
475,192,192352,128,0,192393:0:0:0:0:
182,192,192433,128,0,192636:0:0:0:0:
256,192,192433,128,0,192514:0:0:0:0:
109,192,192474,128,0,192595:0:0:0:0:
402,192,192514,128,0,192555:0:0:0:0:
36,192,192514,128,0,192555:0:0:0:0:
329,192,192595,128,0,192798:0:0:0:0:
256,192,192595,128,0,192676:0:0:0:0:
402,192,192636,128,0,192757:0:0:0:0:
109,192,192676,128,0,192717:0:0:0:0:
475,192,192676,128,0,192717:0:0:0:0:
256,192,192757,128,0,192839:0:0:0:0:
182,192,192757,128,0,192960:0:0:0:0:
109,192,192798,128,0,192920:0:0:0:0:
36,192,192839,128,0,192879:0:0:0:0:
402,192,192839,128,0,192879:0:0:0:0:
256,192,192920,128,0,193001:0:0:0:0:
329,192,192920,128,0,193122:0:0:0:0:
402,192,192960,128,0,193082:0:0:0:0:
475,192,193001,128,0,193041:0:0:0:0:
109,192,193001,128,0,193041:0:0:0:0:
182,192,193082,128,0,193285:0:0:0:0:
256,192,193082,128,0,193163:0:0:0:0:
109,192,193122,128,0,193244:0:0:0:0:
36,192,193163,128,0,193203:0:0:0:0:
402,192,193163,128,0,193203:0:0:0:0:
256,192,193244,128,0,193325:0:0:0:0:
329,192,193244,128,0,193447:0:0:0:0:
402,192,193285,128,0,193406:0:0:0:0:
475,192,193325,128,0,193366:0:0:0:0:
109,192,193325,128,0,193366:0:0:0:0:
256,192,193406,128,0,193487:0:0:0:0:
182,192,193406,128,0,193609:0:0:0:0:
109,192,193447,128,0,193568:0:0:0:0:
36,192,193487,128,0,193528:0:0:0:0:
402,192,193487,128,0,193528:0:0:0:0:
329,192,193568,128,0,193771:0:0:0:0:
256,192,193568,128,0,193649:0:0:0:0:
402,192,193609,128,0,193730:0:0:0:0:
475,192,193649,128,0,193690:0:0:0:0:
109,192,193649,128,0,193690:0:0:0:0:
256,192,193730,128,0,193812:0:0:0:0:
182,192,193730,128,0,193933:0:0:0:0:
109,192,193771,128,0,193893:0:0:0:0:
36,192,193812,128,0,193852:0:0:0:0:
402,192,193812,128,0,193852:0:0:0:0:
256,192,193893,128,0,193974:0:0:0:0:
329,192,193893,128,0,194014:0:0:0:0:
402,192,193933,128,0,194014:0:0:0:0:
475,192,193974,128,0,194014:0:0:0:0:
109,192,193974,128,0,194014:0:0:0:0:
36,192,194055,128,0,194136:0:0:0:0:
182,192,194055,128,0,194136:0:0:0:0:
256,192,194055,128,0,194298:0:0:0:0:
329,192,194055,128,0,194136:0:0:0:0:
475,192,194055,128,0,194136:0:0:0:0:
36,192,194217,128,0,194298:0:0:0:0:
182,192,194217,128,0,194298:0:0:0:0:
329,192,194217,128,0,194298:0:0:0:0:
475,192,194217,128,0,194298:0:0:0:0:
109,192,194379,128,0,194460:0:0:0:0:
256,192,194379,128,0,194460:0:0:0:0:
402,192,194379,128,0,194460:0:0:0:0:
36,192,194379,1,0,0:0:0:0:
475,192,194379,1,0,0:0:0:0:
329,192,194541,128,0,194622:0:0:0:0:
182,192,194541,128,0,194622:0:0:0:0:
36,192,194703,128,0,194785:0:0:0:0:
475,192,194703,128,0,194785:0:0:0:0:
256,192,194703,1,0,0:0:0:0:
109,192,194703,128,0,194785:0:0:0:0:
402,192,194703,128,0,194785:0:0:0:0:
109,192,194866,128,0,194947:0:0:0:0:
402,192,194866,128,0,194947:0:0:0:0:
329,192,194866,128,0,194947:0:0:0:0:
182,192,194866,128,0,194947:0:0:0:0:
182,192,195028,128,0,195109:0:0:0:0:
329,192,195028,128,0,195109:0:0:0:0:
36,192,195028,128,0,195109:0:0:0:0:
256,192,195028,128,0,195109:0:0:0:0:
475,192,195028,128,0,195109:0:0:0:0:
109,192,195190,128,0,195271:0:0:0:0:
402,192,195190,128,0,195271:0:0:0:0:
256,192,195190,128,0,195271:0:0:0:0:
182,192,195352,128,0,195433:0:0:0:0:
256,192,195352,128,0,195433:0:0:0:0:
329,192,195352,128,0,195433:0:0:0:0:
402,192,195352,128,0,195433:0:0:0:0:
109,192,195352,128,0,195433:0:0:0:0:
475,192,195352,1,0,0:0:0:0:
36,192,195352,1,0,0:0:0:0:
182,192,195514,128,0,195595:0:0:0:0:
109,192,195514,128,0,195595:0:0:0:0:
36,192,195514,128,0,195595:0:0:0:0:
329,192,195514,128,0,195595:0:0:0:0:
402,192,195514,128,0,195595:0:0:0:0:
475,192,195514,128,0,195595:0:0:0:0:
256,192,195514,1,0,0:0:0:0:
109,192,195676,128,0,195757:0:0:0:0:
182,192,195676,128,0,195757:0:0:0:0:
329,192,195676,128,0,195757:0:0:0:0:
475,192,195676,128,0,195757:0:0:0:0:
36,192,195676,128,0,195757:0:0:0:0:
256,192,195703,1,0,0:0:0:0:
402,192,195703,1,0,0:0:0:0:
256,192,195839,128,0,195920:0:0:0:0:
402,192,195839,128,0,195920:0:0:0:0:
109,192,195839,128,0,195920:0:0:0:0:
36,192,195839,128,0,195920:0:0:0:0:
475,192,195839,128,0,195920:0:0:0:0:
182,192,195879,1,0,0:0:0:0:
329,192,195879,1,0,0:0:0:0:
182,192,196001,128,0,196122:0:0:0:0:
36,192,196001,128,0,196122:0:0:0:0:
329,192,196001,128,0,196122:0:0:0:0:
402,192,196001,128,0,196122:0:0:0:0:
475,192,196001,128,0,196122:0:0:0:0:
256,192,196021,1,0,0:0:0:0:
109,192,196021,1,0,0:0:0:0:
36,192,196163,128,0,196285:0:0:0:0:
109,192,196163,128,0,196285:0:0:0:0:
256,192,196163,128,0,196285:0:0:0:0:
402,192,196163,128,0,196285:0:0:0:0:
475,192,196163,128,0,196285:0:0:0:0:
182,192,196203,1,0,0:0:0:0:
329,192,196203,1,0,0:0:0:0:
182,192,196325,128,0,196447:0:0:0:0:
109,192,196325,128,0,196447:0:0:0:0:
36,192,196325,128,0,196447:0:0:0:0:
329,192,196325,128,0,196447:0:0:0:0:
475,192,196325,128,0,196447:0:0:0:0:
256,192,196366,1,0,0:0:0:0:
402,192,196366,1,0,0:0:0:0:
402,192,196487,128,0,196609:0:0:0:0:
475,192,196487,128,0,196609:0:0:0:0:
256,192,196487,128,0,196609:0:0:0:0:
109,192,196487,128,0,196609:0:0:0:0:
36,192,196487,128,0,196609:0:0:0:0:
182,192,196528,1,0,0:0:0:0:
329,192,196528,1,0,0:0:0:0:
182,192,196649,128,0,197947:0:0:0:0:
329,192,196649,128,0,197947:0:0:0:0:
256,192,199244,1,0,0:0:0:0:
256,192,200379,128,0,201352:0:0:0:0:
475,192,200866,1,0,0:0:0:0:
402,192,200906,1,0,0:0:0:0:
329,192,200947,1,0,0:0:0:0:
182,192,200987,1,0,0:0:0:0:
109,192,201028,1,0,0:0:0:0:
475,192,201028,1,0,0:0:0:0:
36,192,201068,1,0,0:0:0:0:
402,192,201082,1,0,0:0:0:0:
329,192,201136,1,0,0:0:0:0:
182,192,201190,1,0,0:0:0:0:
475,192,201190,1,0,0:0:0:0:
109,192,201244,1,0,0:0:0:0:
402,192,201271,1,0,0:0:0:0:
36,192,201298,1,0,0:0:0:0:
329,192,201352,1,0,0:0:0:0:
182,192,201352,1,0,0:0:0:0:
109,192,201433,1,0,0:0:0:0:
402,192,201433,1,0,0:0:0:0:
475,192,201514,1,0,0:0:0:0:
36,192,201514,1,0,0:0:0:0:
256,192,201514,1,0,0:0:0:0:
402,192,201676,128,0,201757:0:0:0:0:
329,192,201676,128,0,201757:0:0:0:0:
182,192,201676,128,0,201757:0:0:0:0:
36,192,201676,128,0,202001:0:0:0:0:
475,192,201676,128,0,201920:0:0:0:0:
256,192,201757,128,0,201839:0:0:0:0:
182,192,201839,128,0,201920:0:0:0:0:
109,192,201839,128,0,201920:0:0:0:0:
329,192,201839,128,0,201920:0:0:0:0:
256,192,201920,128,0,202001:0:0:0:0:
402,192,202001,128,0,202082:0:0:0:0:
475,192,202001,128,0,202082:0:0:0:0:
182,192,202001,128,0,202082:0:0:0:0:
109,192,202001,128,0,202122:0:0:0:0:
329,192,202082,128,0,202163:0:0:0:0:
109,192,202163,128,0,202244:0:0:0:0:
36,192,202163,128,0,202244:0:0:0:0:
256,192,202163,128,0,202244:0:0:0:0:
475,192,202163,128,0,202406:0:0:0:0:
402,192,202163,1,0,0:0:0:0:
182,192,202244,128,0,202325:0:0:0:0:
329,192,202325,128,0,202447:0:0:0:0:
402,192,202325,128,0,202406:0:0:0:0:
109,192,202325,128,0,202406:0:0:0:0:
36,192,202406,128,0,202487:0:0:0:0:
256,192,202487,128,0,202568:0:0:0:0:
109,192,202487,128,0,202568:0:0:0:0:
475,192,202487,128,0,202568:0:0:0:0:
402,192,202487,128,0,202730:0:0:0:0:
329,192,202487,1,0,0:0:0:0:
36,192,202568,128,0,202649:0:0:0:0:
329,192,202649,128,0,202771:0:0:0:0:
475,192,202649,128,0,202730:0:0:0:0:
182,192,202649,128,0,202730:0:0:0:0:
256,192,202730,128,0,202812:0:0:0:0:
182,192,202812,128,0,202893:0:0:0:0:
36,192,202812,128,0,202893:0:0:0:0:
329,192,202812,128,0,202893:0:0:0:0:
109,192,202812,128,0,202974:0:0:0:0:
402,192,202812,1,0,0:0:0:0:
475,192,202893,128,0,202974:0:0:0:0:
256,192,202974,128,0,203095:0:0:0:0:
402,192,202974,128,0,203055:0:0:0:0:
36,192,202974,128,0,203055:0:0:0:0:
329,192,202974,128,0,203136:0:0:0:0:
109,192,203055,128,0,203136:0:0:0:0:
36,192,203136,128,0,203217:0:0:0:0:
182,192,203136,128,0,203217:0:0:0:0:
256,192,203136,128,0,203379:0:0:0:0:
475,192,203136,1,0,0:0:0:0:
402,192,203217,128,0,203298:0:0:0:0:
329,192,203298,128,0,203379:0:0:0:0:
475,192,203298,128,0,203379:0:0:0:0:
36,192,203298,128,0,203420:0:0:0:0:
182,192,203379,128,0,203460:0:0:0:0:
256,192,203460,128,0,203541:0:0:0:0:
329,192,203460,128,0,203703:0:0:0:0:
36,192,203460,128,0,203541:0:0:0:0:
475,192,203460,1,0,0:0:0:0:
109,192,203460,128,0,203582:0:0:0:0:
402,192,203541,128,0,203622:0:0:0:0:
182,192,203622,128,0,203703:0:0:0:0:
475,192,203622,128,0,203703:0:0:0:0:
109,192,203622,128,0,203703:0:0:0:0:
256,192,203703,128,0,203785:0:0:0:0:
182,192,203785,128,0,203866:0:0:0:0:
36,192,203785,128,0,204028:0:0:0:0:
109,192,203785,128,0,203866:0:0:0:0:
329,192,203785,1,0,0:0:0:0:
402,192,203785,128,0,203906:0:0:0:0:
256,192,203866,128,0,203947:0:0:0:0:
402,192,203947,128,0,204028:0:0:0:0:
475,192,203947,128,0,204068:0:0:0:0:
329,192,203947,128,0,204028:0:0:0:0:
109,192,203947,128,0,204028:0:0:0:0:
182,192,204028,128,0,204109:0:0:0:0:
109,192,204109,128,0,204230:0:0:0:0:
36,192,204109,128,0,204190:0:0:0:0:
402,192,204109,128,0,204190:0:0:0:0:
256,192,204109,128,0,204352:0:0:0:0:
475,192,204109,1,0,0:0:0:0:
329,192,204190,128,0,204271:0:0:0:0:
402,192,204271,128,0,204393:0:0:0:0:
475,192,204271,128,0,204352:0:0:0:0:
109,192,204271,128,0,204352:0:0:0:0:
36,192,204352,128,0,204433:0:0:0:0:
182,192,204433,128,0,204555:0:0:0:0:
109,192,204433,128,0,204514:0:0:0:0:
402,192,204433,128,0,204514:0:0:0:0:
256,192,204433,128,0,204514:0:0:0:0:
329,192,204433,1,0,0:0:0:0:
475,192,204514,128,0,204595:0:0:0:0:
329,192,204595,128,0,204676:0:0:0:0:
402,192,204595,128,0,204676:0:0:0:0:
109,192,204595,128,0,204717:0:0:0:0:
182,192,204595,128,0,204676:0:0:0:0:
36,192,204676,128,0,204757:0:0:0:0:
182,192,204757,128,0,204839:0:0:0:0:
256,192,204757,128,0,204839:0:0:0:0:
475,192,204757,128,0,204879:0:0:0:0:
402,192,204757,128,0,204839:0:0:0:0:
109,192,204757,1,0,0:0:0:0:
329,192,204839,128,0,204920:0:0:0:0:
475,192,204920,128,0,205001:0:0:0:0:
402,192,204920,128,0,205001:0:0:0:0:
109,192,204920,128,0,205041:0:0:0:0:
36,192,204920,128,0,205001:0:0:0:0:
256,192,205001,128,0,205082:0:0:0:0:
109,192,205082,128,0,205163:0:0:0:0:
182,192,205082,128,0,205163:0:0:0:0:
402,192,205082,128,0,205203:0:0:0:0:
475,192,205082,128,0,205163:0:0:0:0:
36,192,205082,1,0,0:0:0:0:
256,192,205163,128,0,205244:0:0:0:0:
329,192,205244,128,0,205366:0:0:0:0:
402,192,205244,128,0,205325:0:0:0:0:
36,192,205244,128,0,205325:0:0:0:0:
109,192,205244,128,0,205325:0:0:0:0:
182,192,205325,128,0,205649:0:0:0:0:
109,192,205406,128,0,205528:0:0:0:0:
36,192,205406,128,0,205649:0:0:0:0:
256,192,205406,128,0,205487:0:0:0:0:
402,192,205406,128,0,205487:0:0:0:0:
329,192,205406,1,0,0:0:0:0:
475,192,205487,128,0,205568:0:0:0:0:
256,192,205568,128,0,205690:0:0:0:0:
329,192,205568,128,0,205649:0:0:0:0:
402,192,205568,128,0,205649:0:0:0:0:
109,192,205568,128,0,205649:0:0:0:0:
475,192,205649,128,0,205730:0:0:0:0:
182,192,205730,128,0,205812:0:0:0:0:
109,192,205730,128,0,205974:0:0:0:0:
36,192,205730,128,0,205893:0:0:0:0:
402,192,205730,128,0,205852:0:0:0:0:
329,192,205730,128,0,205812:0:0:0:0:
256,192,205730,1,0,0:0:0:0:
475,192,205812,128,0,206055:0:0:0:0:
182,192,205893,128,0,206014:0:0:0:0:
256,192,205893,128,0,205974:0:0:0:0:
329,192,205893,128,0,205974:0:0:0:0:
402,192,205893,128,0,205974:0:0:0:0:
36,192,205974,128,0,206136:0:0:0:0:
256,192,206055,128,0,206176:0:0:0:0:
182,192,206055,128,0,206298:0:0:0:0:
109,192,206055,128,0,206217:0:0:0:0:
402,192,206055,128,0,206136:0:0:0:0:
329,192,206055,1,0,0:0:0:0:
475,192,206136,128,0,206298:0:0:0:0:
256,192,206217,128,0,206298:0:0:0:0:
329,192,206217,128,0,206339:0:0:0:0:
402,192,206217,128,0,206298:0:0:0:0:
36,192,206217,128,0,206541:0:0:0:0:
109,192,206298,128,0,206379:0:0:0:0:
329,192,206379,128,0,206460:0:0:0:0:
256,192,206379,128,0,206501:0:0:0:0:
182,192,206379,128,0,206622:0:0:0:0:
475,192,206379,128,0,206460:0:0:0:0:
402,192,206379,1,0,0:0:0:0:
109,192,206460,128,0,206622:0:0:0:0:
329,192,206541,128,0,206622:0:0:0:0:
402,192,206541,128,0,206622:0:0:0:0:
475,192,206541,128,0,206703:0:0:0:0:
256,192,206541,128,0,206622:0:0:0:0:
36,192,206622,128,0,206785:0:0:0:0:
109,192,206703,128,0,206825:0:0:0:0:
182,192,206703,128,0,206866:0:0:0:0:
256,192,206703,128,0,206785:0:0:0:0:
402,192,206703,128,0,206785:0:0:0:0:
329,192,206703,1,0,0:0:0:0:
475,192,206785,128,0,206947:0:0:0:0:
329,192,206866,128,0,206947:0:0:0:0:
402,192,206866,128,0,206987:0:0:0:0:
256,192,206866,128,0,206947:0:0:0:0:
36,192,206866,128,0,206947:0:0:0:0:
109,192,206866,128,0,206947:0:0:0:0:
182,192,206947,128,0,207028:0:0:0:0:
36,192,207028,128,0,207244:0:0:0:0:
109,192,207082,128,0,207352:0:0:0:0:
182,192,207136,128,0,207298:0:0:0:0:
475,192,207190,128,0,207298:0:0:0:0:
256,192,207190,128,0,207244:0:0:0:0:
402,192,207244,128,0,207352:0:0:0:0:
329,192,207298,128,0,207406:0:0:0:0:
256,192,207352,128,0,207460:0:0:0:0:
36,192,207352,128,0,207433:0:0:0:0:
182,192,207406,128,0,207568:0:0:0:0:
475,192,207406,128,0,207568:0:0:0:0:
109,192,207460,128,0,207703:0:0:0:0:
402,192,207460,128,0,207514:0:0:0:0:
36,192,207514,128,0,207649:0:0:0:0:
256,192,207514,128,0,207595:0:0:0:0:
329,192,207555,128,0,207636:0:0:0:0:
402,192,207622,128,0,207785:0:0:0:0:
182,192,207676,128,0,207757:0:0:0:0:
475,192,207676,128,0,207839:0:0:0:0:
256,192,207676,128,0,207839:0:0:0:0:
329,192,207717,128,0,207757:0:0:0:0:
36,192,207730,128,0,207866:0:0:0:0:
109,192,207785,128,0,207920:0:0:0:0:
329,192,207839,128,0,208028:0:0:0:0:
182,192,207839,128,0,207974:0:0:0:0:
402,192,207893,128,0,207974:0:0:0:0:
256,192,207893,128,0,208082:0:0:0:0:
36,192,207947,128,0,208244:0:0:0:0:
475,192,207947,128,0,208082:0:0:0:0:
109,192,208001,128,0,208109:0:0:0:0:
182,192,208055,128,0,208163:0:0:0:0:
402,192,208055,128,0,208163:0:0:0:0:
329,192,208109,128,0,208244:0:0:0:0:
256,192,208163,128,0,208271:0:0:0:0:
475,192,208163,128,0,208352:0:0:0:0:
182,192,208217,128,0,208298:0:0:0:0:
109,192,208244,128,0,208406:0:0:0:0:
329,192,208325,128,0,208433:0:0:0:0:
36,192,208325,128,0,208433:0:0:0:0:
182,192,208352,128,0,208433:0:0:0:0:
402,192,208379,128,0,208487:0:0:0:0:
256,192,208406,128,0,208487:0:0:0:0:
475,192,208433,128,0,208541:0:0:0:0:
182,192,208487,128,0,208595:0:0:0:0:
36,192,208487,128,0,208568:0:0:0:0:
402,192,208541,128,0,208595:0:0:0:0:
256,192,208541,128,0,208649:0:0:0:0:
109,192,208568,128,0,208649:0:0:0:0:
329,192,208595,128,0,208947:0:0:0:0:
36,192,208649,128,0,208757:0:0:0:0:
475,192,208649,128,0,208785:0:0:0:0:
402,192,208703,128,0,208757:0:0:0:0:
109,192,208703,128,0,208812:0:0:0:0:
182,192,208757,128,0,208866:0:0:0:0:
256,192,208812,128,0,208893:0:0:0:0:
402,192,208866,128,0,208920:0:0:0:0:
109,192,208866,128,0,208920:0:0:0:0:
475,192,208920,128,0,209028:0:0:0:0:
36,192,208920,128,0,209244:0:0:0:0:
182,192,208974,128,0,209055:0:0:0:0:
256,192,208974,128,0,209055:0:0:0:0:
109,192,209028,128,0,209136:0:0:0:0:
402,192,209055,128,0,209136:0:0:0:0:
329,192,209055,128,0,209136:0:0:0:0:
475,192,209082,128,0,209271:0:0:0:0:
256,192,209136,128,0,209217:0:0:0:0:
182,192,209190,128,0,209298:0:0:0:0:
402,192,209217,128,0,209460:0:0:0:0:
109,192,209217,128,0,209298:0:0:0:0:
329,192,209244,128,0,209406:0:0:0:0:
36,192,209298,128,0,209406:0:0:0:0:
256,192,209298,128,0,209379:0:0:0:0:
475,192,209352,128,0,209514:0:0:0:0:
109,192,209352,128,0,209460:0:0:0:0:
182,192,209406,128,0,209514:0:0:0:0:
256,192,209460,128,0,209568:0:0:0:0:
36,192,209460,128,0,209541:0:0:0:0:
329,192,209514,128,0,209568:0:0:0:0:
109,192,209541,128,0,209622:0:0:0:0:
402,192,209568,128,0,209622:0:0:0:0:
182,192,209622,128,0,209785:0:0:0:0:
36,192,209622,128,0,209703:0:0:0:0:
329,192,209622,128,0,209703:0:0:0:0:
475,192,209622,128,0,209703:0:0:0:0:
256,192,209703,128,0,209866:0:0:0:0:
402,192,209703,128,0,209785:0:0:0:0:
329,192,209785,128,0,209866:0:0:0:0:
475,192,209785,128,0,209866:0:0:0:0:
109,192,209785,128,0,209866:0:0:0:0:
36,192,209785,128,0,209866:0:0:0:0:
402,192,209866,128,0,209947:0:0:0:0:
182,192,209866,128,0,209947:0:0:0:0:
475,192,209947,128,0,210109:0:0:0:0:
329,192,209947,128,0,210028:0:0:0:0:
256,192,209947,128,0,210028:0:0:0:0:
109,192,209947,128,0,210028:0:0:0:0:
402,192,210028,128,0,210190:0:0:0:0:
182,192,210028,128,0,210109:0:0:0:0:
329,192,210109,128,0,210190:0:0:0:0:
109,192,210109,128,0,210190:0:0:0:0:
256,192,210190,128,0,210271:0:0:0:0:
36,192,210190,128,0,210271:0:0:0:0:
475,192,210190,128,0,210271:0:0:0:0:
109,192,210271,128,0,210352:0:0:0:0:
182,192,210271,128,0,210352:0:0:0:0:
329,192,210271,128,0,210352:0:0:0:0:
402,192,210271,128,0,210352:0:0:0:0:
256,192,210352,128,0,210433:0:0:0:0:
475,192,210352,128,0,210433:0:0:0:0:
36,192,210352,128,0,210433:0:0:0:0:
109,192,210433,128,0,210514:0:0:0:0:
182,192,210433,128,0,210514:0:0:0:0:
329,192,210433,128,0,210514:0:0:0:0:
402,192,210433,128,0,210514:0:0:0:0:
475,192,210514,128,0,210595:0:0:0:0:
256,192,210514,128,0,210595:0:0:0:0:
36,192,210514,128,0,210595:0:0:0:0:
402,192,210595,128,0,210676:0:0:0:0:
329,192,210595,128,0,210676:0:0:0:0:
182,192,210595,128,0,210676:0:0:0:0:
109,192,210595,128,0,210676:0:0:0:0:
256,192,210757,1,0,0:0:0:0:
182,192,210757,1,0,0:0:0:0:
109,192,210757,1,0,0:0:0:0:
36,192,210757,1,0,0:0:0:0:
329,192,210757,1,0,0:0:0:0:
402,192,210757,1,0,0:0:0:0:
475,192,210757,1,0,0:0:0:0:
109,192,211082,1,0,0:0:0:0:
36,192,211082,128,0,211163:0:0:0:0:
182,192,211082,1,0,0:0:0:0:
256,192,211082,128,0,211163:0:0:0:0:
402,192,211163,128,0,211244:0:0:0:0:
109,192,211244,128,0,211325:0:0:0:0:
182,192,211244,1,0,0:0:0:0:
256,192,211244,1,0,0:0:0:0:
329,192,211244,128,0,211325:0:0:0:0:
475,192,211325,128,0,211406:0:0:0:0:
182,192,211406,128,0,211487:0:0:0:0:
329,192,211406,1,0,0:0:0:0:
256,192,211406,1,0,0:0:0:0:
402,192,211406,128,0,211730:0:0:0:0:
109,192,211406,128,0,211649:0:0:0:0:
36,192,211406,128,0,211812:0:0:0:0:
109,192,211730,1,0,0:0:0:0:
182,192,211730,1,0,0:0:0:0:
256,192,211730,1,0,0:0:0:0:
329,192,211730,1,0,0:0:0:0:
402,192,211812,128,0,211893:0:0:0:0:
475,192,211812,128,0,211893:0:0:0:0:
256,192,211893,1,0,0:0:0:0:
182,192,211893,1,0,0:0:0:0:
109,192,211893,1,0,0:0:0:0:
36,192,211893,1,0,0:0:0:0:
329,192,211893,128,0,211974:0:0:0:0:
402,192,211974,128,0,212055:0:0:0:0:
475,192,211974,128,0,212217:0:0:0:0:
256,192,212055,128,0,212217:0:0:0:0:
36,192,212055,128,0,212298:0:0:0:0:
109,192,212055,128,0,212136:0:0:0:0:
329,192,212136,128,0,212298:0:0:0:0:
402,192,212136,128,0,212379:0:0:0:0:
182,192,212217,128,0,212460:0:0:0:0:
109,192,212217,128,0,212298:0:0:0:0:
256,192,212298,128,0,212541:0:0:0:0:
475,192,212298,128,0,212460:0:0:0:0:
109,192,212379,128,0,212460:0:0:0:0:
36,192,212379,128,0,212460:0:0:0:0:
329,192,212460,128,0,212622:0:0:0:0:
402,192,212460,128,0,212541:0:0:0:0:
182,192,212541,128,0,212622:0:0:0:0:
109,192,212541,128,0,212622:0:0:0:0:
475,192,212541,128,0,212703:0:0:0:0:
256,192,212622,128,0,213271:0:0:0:0:
36,192,212622,128,0,212703:0:0:0:0:
402,192,212622,128,0,212785:0:0:0:0:
329,192,212703,128,0,212866:0:0:0:0:
182,192,212703,128,0,212866:0:0:0:0:
475,192,212785,128,0,213109:0:0:0:0:
109,192,212785,128,0,212947:0:0:0:0:
36,192,212866,128,0,213028:0:0:0:0:
402,192,212866,128,0,212947:0:0:0:0:
329,192,212947,128,0,213028:0:0:0:0:
182,192,212947,128,0,213028:0:0:0:0:
109,192,213028,128,0,213109:0:0:0:0:
402,192,213028,128,0,213109:0:0:0:0:
182,192,213109,128,0,213190:0:0:0:0:
329,192,213109,128,0,213190:0:0:0:0:
36,192,213190,128,0,213230:0:0:0:0:
475,192,213190,128,0,213230:0:0:0:0:
402,192,213271,128,0,213312:0:0:0:0:
109,192,213271,128,0,213312:0:0:0:0:
182,192,213352,128,0,213393:0:0:0:0:
329,192,213352,128,0,213393:0:0:0:0:
256,192,213433,128,0,213474:0:0:0:0:
402,192,213433,128,0,213474:0:0:0:0:
182,192,213514,128,0,213555:0:0:0:0:
329,192,213514,128,0,213555:0:0:0:0:
109,192,213595,128,0,213636:0:0:0:0:
256,192,213595,128,0,213636:0:0:0:0:
182,192,213676,128,0,213717:0:0:0:0:
329,192,213676,128,0,213717:0:0:0:0:
402,192,213757,128,0,213798:0:0:0:0:
256,192,213757,128,0,213798:0:0:0:0:
329,192,213839,128,0,213879:0:0:0:0:
475,192,213839,128,0,213879:0:0:0:0:
36,192,213839,128,0,213879:0:0:0:0:
109,192,213920,128,0,213960:0:0:0:0:
402,192,213920,128,0,213960:0:0:0:0:
182,192,214001,128,0,214041:0:0:0:0:
329,192,214001,128,0,214041:0:0:0:0:
256,192,214082,128,0,214122:0:0:0:0:
475,192,214082,128,0,214122:0:0:0:0:
109,192,214163,128,0,214203:0:0:0:0:
402,192,214163,128,0,214203:0:0:0:0:
36,192,214163,128,0,214203:0:0:0:0:
182,192,214244,128,0,214285:0:0:0:0:
329,192,214244,128,0,214285:0:0:0:0:
475,192,214244,128,0,214285:0:0:0:0:
256,192,214325,128,0,214366:0:0:0:0:
402,192,214325,128,0,214366:0:0:0:0:
109,192,214325,128,0,214366:0:0:0:0:
329,192,214406,128,0,214447:0:0:0:0:
475,192,214406,128,0,214447:0:0:0:0:
36,192,214406,128,0,214447:0:0:0:0:
182,192,214487,128,0,214528:0:0:0:0:
402,192,214487,128,0,214528:0:0:0:0:
256,192,214487,128,0,214528:0:0:0:0:
109,192,214568,128,0,214609:0:0:0:0:
329,192,214568,128,0,214609:0:0:0:0:
36,192,214649,128,0,214690:0:0:0:0:
256,192,214649,128,0,214690:0:0:0:0:
475,192,214649,128,0,214690:0:0:0:0:
182,192,214730,128,0,214812:0:0:0:0:
402,192,214730,128,0,214812:0:0:0:0:
329,192,214812,128,0,214893:0:0:0:0:
475,192,214812,128,0,214893:0:0:0:0:
109,192,214812,128,0,214852:0:0:0:0:
256,192,214893,128,0,214974:0:0:0:0:
36,192,214893,128,0,214933:0:0:0:0:
402,192,214893,128,0,214933:0:0:0:0:
182,192,214974,128,0,215095:0:0:0:0:
475,192,214974,128,0,215014:0:0:0:0:
329,192,214974,128,0,215014:0:0:0:0:
402,192,215055,128,0,215136:0:0:0:0:
109,192,215055,128,0,215095:0:0:0:0:
256,192,215055,128,0,215095:0:0:0:0:
329,192,215136,128,0,215217:0:0:0:0:
36,192,215136,128,0,215176:0:0:0:0:
182,192,215136,128,0,215176:0:0:0:0:
256,192,215217,128,0,215339:0:0:0:0:
475,192,215217,128,0,215257:0:0:0:0:
109,192,215217,128,0,215257:0:0:0:0:
36,192,215298,128,0,215379:0:0:0:0:
402,192,215298,128,0,215339:0:0:0:0:
182,192,215298,128,0,215339:0:0:0:0:
109,192,215379,128,0,215460:0:0:0:0:
256,192,215379,128,0,215420:0:0:0:0:
475,192,215379,128,0,215420:0:0:0:0:
182,192,215460,128,0,215582:0:0:0:0:
329,192,215460,128,0,215501:0:0:0:0:
36,192,215460,128,0,215501:0:0:0:0:
256,192,215541,128,0,215622:0:0:0:0:
402,192,215541,128,0,215582:0:0:0:0:
329,192,215622,128,0,215703:0:0:0:0:
475,192,215622,128,0,215663:0:0:0:0:
109,192,215622,128,0,215663:0:0:0:0:
402,192,215703,128,0,215825:0:0:0:0:
182,192,215703,128,0,215744:0:0:0:0:
36,192,215703,128,0,215744:0:0:0:0:
109,192,215785,128,0,215866:0:0:0:0:
256,192,215785,128,0,215825:0:0:0:0:
475,192,215785,128,0,215825:0:0:0:0:
182,192,215866,128,0,215947:0:0:0:0:
329,192,215866,128,0,215906:0:0:0:0:
256,192,215947,128,0,216068:0:0:0:0:
402,192,215947,128,0,216028:0:0:0:0:
36,192,215947,128,0,216028:0:0:0:0:
329,192,216028,128,0,216109:0:0:0:0:
475,192,216028,128,0,216109:0:0:0:0:
109,192,216028,128,0,216109:0:0:0:0:
402,192,216109,128,0,216190:0:0:0:0:
36,192,216109,128,0,216190:0:0:0:0:
182,192,216109,128,0,216190:0:0:0:0:
475,192,216190,128,0,216312:0:0:0:0:
109,192,216190,128,0,216271:0:0:0:0:
256,192,216190,128,0,216271:0:0:0:0:
182,192,216271,128,0,216514:0:0:0:0:
329,192,216271,128,0,216352:0:0:0:0:
36,192,216271,1,0,0:0:0:0:
256,192,216352,128,0,216433:0:0:0:0:
402,192,216352,128,0,216433:0:0:0:0:
329,192,216433,128,0,216514:0:0:0:0:
475,192,216433,128,0,216514:0:0:0:0:
109,192,216433,1,0,0:0:0:0:
36,192,216433,128,0,216555:0:0:0:0:
256,192,216514,128,0,216595:0:0:0:0:
402,192,216514,128,0,216595:0:0:0:0:
329,192,216595,128,0,216839:0:0:0:0:
182,192,216595,128,0,216676:0:0:0:0:
36,192,216595,1,0,0:0:0:0:
475,192,216595,128,0,216703:0:0:0:0:
109,192,216676,128,0,216757:0:0:0:0:
256,192,216676,128,0,216757:0:0:0:0:
475,192,216757,1,0,0:0:0:0:
182,192,216757,128,0,216839:0:0:0:0:
36,192,216757,128,0,216839:0:0:0:0:
402,192,216757,128,0,216920:0:0:0:0:
256,192,216839,128,0,216920:0:0:0:0:
109,192,216839,128,0,216920:0:0:0:0:
182,192,216920,128,0,217001:0:0:0:0:
329,192,216920,128,0,217001:0:0:0:0:
256,192,217001,128,0,217082:0:0:0:0:
402,192,217001,128,0,217082:0:0:0:0:
329,192,217082,1,0,0:0:0:0:
475,192,217082,1,0,0:0:0:0:
402,192,217163,1,0,0:0:0:0:
256,192,217163,1,0,0:0:0:0:
329,192,217244,1,0,0:0:0:0:
182,192,217244,1,0,0:0:0:0:
256,192,217325,1,0,0:0:0:0:
109,192,217325,1,0,0:0:0:0:
182,192,217406,1,0,0:0:0:0:
36,192,217406,1,0,0:0:0:0:
475,192,217406,128,0,217649:0:0:0:0:
402,192,217487,128,0,217730:0:0:0:0:
256,192,217487,1,0,0:0:0:0:
329,192,217568,128,0,217649:0:0:0:0:
182,192,217568,1,0,0:0:0:0:
256,192,217649,128,0,217730:0:0:0:0:
109,192,217649,1,0,0:0:0:0:
329,192,217730,128,0,217812:0:0:0:0:
475,192,217730,128,0,217812:0:0:0:0:
36,192,217730,128,0,217974:0:0:0:0:
182,192,217730,1,0,0:0:0:0:
402,192,217812,128,0,217893:0:0:0:0:
109,192,217812,128,0,218055:0:0:0:0:
256,192,217812,1,0,0:0:0:0:
475,192,217893,128,0,217974:0:0:0:0:
182,192,217893,128,0,217974:0:0:0:0:
329,192,217893,1,0,0:0:0:0:
256,192,217974,128,0,218055:0:0:0:0:
402,192,217974,1,0,0:0:0:0:
182,192,218055,128,0,218136:0:0:0:0:
36,192,218055,128,0,218136:0:0:0:0:
475,192,218055,128,0,218379:0:0:0:0:
329,192,218055,128,0,218217:0:0:0:0:
402,192,218136,128,0,218298:0:0:0:0:
109,192,218136,128,0,218217:0:0:0:0:
256,192,218136,128,0,218217:0:0:0:0:
182,192,218217,128,0,218298:0:0:0:0:
36,192,218217,128,0,218460:0:0:0:0:
256,192,218298,128,0,218379:0:0:0:0:
329,192,218298,128,0,218379:0:0:0:0:
109,192,218298,128,0,218379:0:0:0:0:
182,192,218379,128,0,218460:0:0:0:0:
402,192,218379,128,0,218460:0:0:0:0:
109,192,218460,128,0,218541:0:0:0:0:
475,192,218460,128,0,218541:0:0:0:0:
256,192,218460,128,0,218541:0:0:0:0:
329,192,218541,128,0,218622:0:0:0:0:
402,192,218541,128,0,218622:0:0:0:0:
182,192,218541,128,0,218622:0:0:0:0:
36,192,218541,128,0,218622:0:0:0:0:
256,192,218622,128,0,218703:0:0:0:0:
475,192,218622,128,0,218703:0:0:0:0:
109,192,218622,128,0,218703:0:0:0:0:
182,192,218703,128,0,218785:0:0:0:0:
36,192,218703,128,0,219109:0:0:0:0:
329,192,218703,1,0,0:0:0:0:
256,192,218785,128,0,218866:0:0:0:0:
109,192,218785,128,0,219028:0:0:0:0:
402,192,218785,1,0,0:0:0:0:
182,192,218866,128,0,218947:0:0:0:0:
475,192,218866,1,0,0:0:0:0:
256,192,218947,128,0,219028:0:0:0:0:
402,192,218947,1,0,0:0:0:0:
182,192,219028,128,0,219109:0:0:0:0:
475,192,219028,128,0,219433:0:0:0:0:
329,192,219028,1,0,0:0:0:0:
109,192,219109,128,0,219190:0:0:0:0:
402,192,219109,128,0,219352:0:0:0:0:
256,192,219109,1,0,0:0:0:0:
36,192,219190,128,0,219271:0:0:0:0:
329,192,219190,128,0,219271:0:0:0:0:
182,192,219190,1,0,0:0:0:0:
256,192,219271,128,0,219352:0:0:0:0:
109,192,219271,1,0,0:0:0:0:
329,192,219352,128,0,219433:0:0:0:0:
36,192,219352,1,0,0:0:0:0:
182,192,219352,1,0,0:0:0:0:
402,192,219433,128,0,219514:0:0:0:0:
109,192,219433,1,0,0:0:0:0:
256,192,219433,1,0,0:0:0:0:
475,192,219514,128,0,219595:0:0:0:0:
182,192,219514,1,0,0:0:0:0:
329,192,219514,1,0,0:0:0:0:
256,192,219595,1,0,0:0:0:0:
402,192,219595,1,0,0:0:0:0:
329,192,219676,1,0,0:0:0:0:
182,192,219676,128,0,219757:0:0:0:0:
475,192,219676,128,0,219757:0:0:0:0:
256,192,219757,1,0,0:0:0:0:
109,192,219757,128,0,219839:0:0:0:0:
402,192,219757,128,0,219839:0:0:0:0:
182,192,219839,1,0,0:0:0:0:
36,192,219839,128,0,219920:0:0:0:0:
329,192,219839,128,0,219920:0:0:0:0:
109,192,219920,1,0,0:0:0:0:
256,192,219920,128,0,220001:0:0:0:0:
182,192,220001,128,0,220163:0:0:0:0:
402,192,220001,128,0,220082:0:0:0:0:
475,192,220001,128,0,220082:0:0:0:0:
36,192,220001,128,0,220082:0:0:0:0:
329,192,220082,128,0,220163:0:0:0:0:
109,192,220082,128,0,220163:0:0:0:0:
256,192,220163,128,0,220244:0:0:0:0:
402,192,220163,128,0,220406:0:0:0:0:
475,192,220163,128,0,220244:0:0:0:0:
36,192,220163,128,0,220244:0:0:0:0:
329,192,220244,128,0,220325:0:0:0:0:
182,192,220244,128,0,220325:0:0:0:0:
109,192,220325,128,0,220406:0:0:0:0:
36,192,220325,128,0,220406:0:0:0:0:
256,192,220325,128,0,220406:0:0:0:0:
475,192,220325,128,0,220406:0:0:0:0:
182,192,220406,128,0,220568:0:0:0:0:
329,192,220406,128,0,220487:0:0:0:0:
402,192,220487,128,0,220649:0:0:0:0:
475,192,220487,128,0,220568:0:0:0:0:
36,192,220487,128,0,220568:0:0:0:0:
109,192,220487,128,0,220568:0:0:0:0:
256,192,220487,1,0,0:0:0:0:
329,192,220568,128,0,220649:0:0:0:0:
256,192,220568,128,0,220730:0:0:0:0:
36,192,220649,128,0,220893:0:0:0:0:
109,192,220649,128,0,220730:0:0:0:0:
475,192,220649,128,0,220812:0:0:0:0:
182,192,220649,128,0,220730:0:0:0:0:
402,192,220730,128,0,220812:0:0:0:0:
329,192,220730,128,0,220812:0:0:0:0:
256,192,220812,128,0,220974:0:0:0:0:
109,192,220812,128,0,220893:0:0:0:0:
182,192,220812,128,0,220893:0:0:0:0:
402,192,220893,128,0,220974:0:0:0:0:
329,192,220893,128,0,220974:0:0:0:0:
182,192,220974,128,0,221055:0:0:0:0:
36,192,220974,128,0,221055:0:0:0:0:
109,192,220974,128,0,221055:0:0:0:0:
475,192,220974,128,0,221136:0:0:0:0:
256,192,221055,128,0,221136:0:0:0:0:
329,192,221055,128,0,221136:0:0:0:0:
402,192,221136,128,0,221217:0:0:0:0:
182,192,221136,128,0,221217:0:0:0:0:
109,192,221136,128,0,221217:0:0:0:0:
36,192,221136,128,0,221298:0:0:0:0:
329,192,221217,128,0,221298:0:0:0:0:
475,192,221217,128,0,221298:0:0:0:0:
256,192,221298,128,0,221379:0:0:0:0:
182,192,221298,128,0,221379:0:0:0:0:
402,192,221298,128,0,221541:0:0:0:0:
109,192,221298,128,0,221379:0:0:0:0:
36,192,221460,128,0,221541:0:0:0:0:
256,192,221460,128,0,221541:0:0:0:0:
182,192,221460,128,0,221541:0:0:0:0:
329,192,221460,128,0,221541:0:0:0:0:
475,192,221460,128,0,221541:0:0:0:0:
109,192,221460,1,0,0:0:0:0:
402,192,221622,128,0,221703:0:0:0:0:
182,192,221622,128,0,221703:0:0:0:0:
256,192,221622,128,0,221703:0:0:0:0:
109,192,221622,128,0,221703:0:0:0:0:
329,192,221622,128,0,221703:0:0:0:0:
475,192,221622,1,0,0:0:0:0:
36,192,221622,128,0,221703:0:0:0:0:
329,192,221785,128,0,221866:0:0:0:0:
109,192,221785,128,0,222028:0:0:0:0:
402,192,221785,128,0,221866:0:0:0:0:
475,192,221785,128,0,221866:0:0:0:0:
256,192,221785,1,0,0:0:0:0:
182,192,221785,128,0,221866:0:0:0:0:
36,192,221785,1,0,0:0:0:0:
402,192,221947,128,0,222028:0:0:0:0:
329,192,221947,128,0,222028:0:0:0:0:
182,192,221947,1,0,0:0:0:0:
475,192,221947,1,0,0:0:0:0:
36,192,221947,128,0,222028:0:0:0:0:
256,192,222028,128,0,222109:0:0:0:0:
475,192,222109,128,0,222190:0:0:0:0:
329,192,222109,128,0,222190:0:0:0:0:
109,192,222109,128,0,222190:0:0:0:0:
182,192,222109,128,0,222190:0:0:0:0:
36,192,222109,128,0,222190:0:0:0:0:
402,192,222109,128,0,222190:0:0:0:0:
256,192,222190,128,0,222271:0:0:0:0:
109,192,222271,128,0,222352:0:0:0:0:
402,192,222271,128,0,222352:0:0:0:0:
182,192,222271,128,0,222352:0:0:0:0:
36,192,222271,1,0,0:0:0:0:
475,192,222271,1,0,0:0:0:0:
329,192,222271,128,0,222352:0:0:0:0:
256,192,222352,128,0,222433:0:0:0:0:
109,192,222433,1,0,0:0:0:0:
402,192,222433,1,0,0:0:0:0:
329,192,222433,128,0,222514:0:0:0:0:
182,192,222433,128,0,222514:0:0:0:0:
256,192,222514,1,0,0:0:0:0:
109,192,222595,128,0,222757:0:0:0:0:
36,192,222595,128,0,222676:0:0:0:0:
402,192,222595,128,0,222757:0:0:0:0:
475,192,222595,128,0,222676:0:0:0:0:
182,192,222676,128,0,222839:0:0:0:0:
329,192,222676,128,0,222839:0:0:0:0:
256,192,222757,128,0,222920:0:0:0:0:
36,192,222757,128,0,223163:0:0:0:0:
475,192,222757,128,0,223163:0:0:0:0:
402,192,222839,128,0,223082:0:0:0:0:
109,192,222839,128,0,223082:0:0:0:0:
182,192,222920,128,0,223001:0:0:0:0:
329,192,222920,128,0,223001:0:0:0:0:
256,192,223001,128,0,223244:0:0:0:0:
182,192,223082,128,0,223163:0:0:0:0:
329,192,223082,128,0,223163:0:0:0:0:
402,192,223163,128,0,223244:0:0:0:0:
109,192,223163,128,0,223244:0:0:0:0:
36,192,223244,128,0,223406:0:0:0:0:
475,192,223244,128,0,223406:0:0:0:0:
329,192,223244,128,0,223325:0:0:0:0:
182,192,223244,128,0,223325:0:0:0:0:
109,192,223325,128,0,223487:0:0:0:0:
402,192,223325,128,0,223487:0:0:0:0:
256,192,223325,128,0,223406:0:0:0:0:
182,192,223406,128,0,223568:0:0:0:0:
329,192,223406,128,0,223568:0:0:0:0:
256,192,223487,128,0,223812:0:0:0:0:
36,192,223487,128,0,223730:0:0:0:0:
475,192,223487,128,0,223730:0:0:0:0:
402,192,223568,128,0,223649:0:0:0:0:
109,192,223568,128,0,223649:0:0:0:0:
182,192,223649,128,0,223812:0:0:0:0:
329,192,223649,128,0,223812:0:0:0:0:
109,192,223730,128,0,223812:0:0:0:0:
402,192,223730,128,0,223812:0:0:0:0:
475,192,223812,128,0,223893:0:0:0:0:
36,192,223812,128,0,224298:0:0:0:0:
109,192,223893,1,0,0:0:0:0:
182,192,223893,1,0,0:0:0:0:
256,192,223893,1,0,0:0:0:0:
329,192,223893,1,0,0:0:0:0:
402,192,223893,1,0,0:0:0:0:
109,192,224217,1,0,0:0:0:0:
182,192,224217,1,0,0:0:0:0:
256,192,224217,1,0,0:0:0:0:
329,192,224217,1,0,0:0:0:0:
402,192,224217,1,0,0:0:0:0:
475,192,224217,128,0,224622:0:0:0:0:
402,192,224379,1,0,0:0:0:0:
329,192,224379,1,0,0:0:0:0:
256,192,224379,1,0,0:0:0:0:
109,192,224379,1,0,0:0:0:0:
182,192,224379,1,0,0:0:0:0:
36,192,224379,128,0,224947:0:0:0:0:
109,192,224541,1,0,0:0:0:0:
182,192,224541,1,0,0:0:0:0:
256,192,224541,1,0,0:0:0:0:
329,192,224541,1,0,0:0:0:0:
402,192,224541,1,0,0:0:0:0:
402,192,224703,1,0,0:0:0:0:
329,192,224703,1,0,0:0:0:0:
256,192,224703,1,0,0:0:0:0:
182,192,224703,1,0,0:0:0:0:
109,192,224703,1,0,0:0:0:0:
475,192,224703,128,0,225109:0:0:0:0:
109,192,224866,1,0,0:0:0:0:
182,192,224866,1,0,0:0:0:0:
256,192,224866,1,0,0:0:0:0:
329,192,224866,1,0,0:0:0:0:
402,192,224866,1,0,0:0:0:0:
256,192,225028,1,0,0:0:0:0:
182,192,225028,1,0,0:0:0:0:
109,192,225028,1,0,0:0:0:0:
329,192,225028,1,0,0:0:0:0:
402,192,225028,1,0,0:0:0:0:
36,192,225028,128,0,225839:0:0:0:0:
256,192,225190,1,0,0:0:0:0:
182,192,225190,128,0,225514:0:0:0:0:
109,192,225190,128,0,225839:0:0:0:0:
329,192,225190,128,0,225514:0:0:0:0:
402,192,225190,128,0,225839:0:0:0:0:
475,192,225190,128,0,225757:0:0:0:0:
256,192,225514,1,0,0:0:0:0:
182,192,225676,1,0,0:0:0:0:
329,192,225676,1,0,0:0:0:0:
182,192,225839,1,0,0:0:0:0:
329,192,225839,1,0,0:0:0:0:
475,192,225839,128,0,225920:0:0:0:0:
256,192,226001,128,0,226082:0:0:0:0:
475,192,226001,128,0,226082:0:0:0:0:
36,192,226001,128,0,226082:0:0:0:0:
36,192,226163,128,0,226568:0:0:0:0:
475,192,226163,128,0,226568:0:0:0:0:
256,192,226163,1,0,0:0:0:0:
36,192,226649,1,0,0:0:0:0:
475,192,226649,1,0,0:0:0:0:
402,192,226649,1,0,0:0:0:0:
109,192,226649,1,0,0:0:0:0:
182,192,226812,1,0,0:0:0:0:
109,192,226812,1,0,0:0:0:0:
402,192,226812,1,0,0:0:0:0:
329,192,226812,1,0,0:0:0:0:
182,192,226974,1,0,0:0:0:0:
256,192,226974,1,0,0:0:0:0:
329,192,226974,1,0,0:0:0:0:
256,192,227055,1,0,0:0:0:0:
256,192,227136,128,0,227352:0:0:0:0:
182,192,227190,128,0,227298:0:0:0:0:
329,192,227190,128,0,227298:0:0:0:0:
109,192,227244,1,0,0:0:0:0:
402,192,227244,1,0,0:0:0:0:
36,192,227298,128,0,227352:0:0:0:0:
475,192,227298,128,0,227352:0:0:0:0:
402,192,227352,128,0,227406:0:0:0:0:
109,192,227352,128,0,227406:0:0:0:0:
182,192,227406,128,0,227460:0:0:0:0:
329,192,227406,128,0,227460:0:0:0:0:
256,192,227460,128,0,227514:0:0:0:0:
109,192,227514,128,0,227568:0:0:0:0:
402,192,227514,128,0,227568:0:0:0:0:
329,192,227568,128,0,227622:0:0:0:0:
182,192,227568,128,0,227622:0:0:0:0:
256,192,227622,1,0,0:0:0:0:
36,192,227622,128,0,227676:0:0:0:0:
475,192,227622,128,0,227676:0:0:0:0:
402,192,227676,128,0,227730:0:0:0:0:
109,192,227676,128,0,227730:0:0:0:0:
182,192,227730,128,0,227785:0:0:0:0:
329,192,227730,128,0,227785:0:0:0:0:
256,192,227785,1,0,0:0:0:0:
109,192,227785,1,0,0:0:0:0:
36,192,227785,1,0,0:0:0:0:
475,192,227785,1,0,0:0:0:0:
402,192,227785,1,0,0:0:0:0:
36,192,227947,1,0,0:0:0:0:
109,192,227947,1,0,0:0:0:0:
256,192,227947,1,0,0:0:0:0:
475,192,227947,1,0,0:0:0:0:
402,192,227947,1,0,0:0:0:0:
329,192,228109,1,0,0:0:0:0:
182,192,228109,1,0,0:0:0:0:
256,192,228271,1,0,0:0:0:0:
109,192,228271,1,0,0:0:0:0:
36,192,228271,1,0,0:0:0:0:
402,192,228271,1,0,0:0:0:0:
475,192,228271,1,0,0:0:0:0:
402,192,228433,1,0,0:0:0:0:
475,192,228433,1,0,0:0:0:0:
256,192,228433,1,0,0:0:0:0:
36,192,228433,1,0,0:0:0:0:
109,192,228433,1,0,0:0:0:0:
329,192,228595,1,0,0:0:0:0:
182,192,228595,1,0,0:0:0:0:
256,192,228757,1,0,0:0:0:0:
109,192,228757,1,0,0:0:0:0:
36,192,228757,1,0,0:0:0:0:
402,192,228757,1,0,0:0:0:0:
475,192,228757,1,0,0:0:0:0:
475,192,228920,1,0,0:0:0:0:
402,192,228920,1,0,0:0:0:0:
256,192,228920,1,0,0:0:0:0:
109,192,228920,1,0,0:0:0:0:
36,192,228920,1,0,0:0:0:0:
256,192,229082,1,0,0:0:0:0:
182,192,229082,128,0,229163:0:0:0:0:
329,192,229082,128,0,229163:0:0:0:0:
109,192,229244,128,0,229325:0:0:0:0:
402,192,229244,128,0,229325:0:0:0:0:
256,192,229406,1,0,0:0:0:0:
475,192,229406,128,0,229487:0:0:0:0:
36,192,229406,128,0,229487:0:0:0:0:
109,192,229568,128,0,229649:0:0:0:0:
402,192,229568,128,0,229649:0:0:0:0:
256,192,229568,1,0,0:0:0:0:
36,192,229649,1,0,0:0:0:0:
475,192,229649,1,0,0:0:0:0:
256,192,229730,1,0,0:0:0:0:
329,192,229730,128,0,229812:0:0:0:0:
182,192,229730,128,0,229812:0:0:0:0:
256,192,229893,1,0,0:0:0:0:
109,192,229893,128,0,229974:0:0:0:0:
36,192,229893,1,0,0:0:0:0:
475,192,229893,1,0,0:0:0:0:
402,192,229893,128,0,229974:0:0:0:0:
256,192,230055,1,0,0:0:0:0:
36,192,230055,128,0,230136:0:0:0:0:
475,192,230055,128,0,230136:0:0:0:0:
109,192,230217,128,0,230298:0:0:0:0:
402,192,230217,128,0,230298:0:0:0:0:
256,192,230379,1,0,0:0:0:0:
182,192,230379,1,0,0:0:0:0:
109,192,230379,1,0,0:0:0:0:
329,192,230379,1,0,0:0:0:0:
402,192,230379,1,0,0:0:0:0:
256,192,230541,1,0,0:0:0:0:
182,192,230541,1,0,0:0:0:0:
109,192,230541,1,0,0:0:0:0:
329,192,230541,1,0,0:0:0:0:
402,192,230541,1,0,0:0:0:0:
329,192,230703,1,0,0:0:0:0:
182,192,230703,1,0,0:0:0:0:
256,192,230866,1,0,0:0:0:0:
109,192,230866,1,0,0:0:0:0:
36,192,230866,1,0,0:0:0:0:
402,192,230866,1,0,0:0:0:0:
475,192,230866,1,0,0:0:0:0:
256,192,231028,1,0,0:0:0:0:
475,192,231028,1,0,0:0:0:0:
402,192,231028,1,0,0:0:0:0:
109,192,231028,1,0,0:0:0:0:
36,192,231028,1,0,0:0:0:0:
109,192,231190,1,0,0:0:0:0:
402,192,231190,1,0,0:0:0:0:
256,192,231352,1,0,0:0:0:0:
109,192,231352,1,0,0:0:0:0:
36,192,231352,1,0,0:0:0:0:
402,192,231352,1,0,0:0:0:0:
475,192,231352,1,0,0:0:0:0:
256,192,231514,1,0,0:0:0:0:
475,192,231514,1,0,0:0:0:0:
402,192,231514,1,0,0:0:0:0:
109,192,231514,1,0,0:0:0:0:
36,192,231514,1,0,0:0:0:0:
256,192,231676,1,0,0:0:0:0:
182,192,231676,128,0,231757:0:0:0:0:
329,192,231676,128,0,231757:0:0:0:0:
109,192,231839,128,0,231920:0:0:0:0:
402,192,231839,128,0,231920:0:0:0:0:
256,192,232001,1,0,0:0:0:0:
36,192,232001,128,0,232082:0:0:0:0:
475,192,232001,128,0,232082:0:0:0:0:
329,192,232163,128,0,232244:0:0:0:0:
182,192,232163,128,0,232244:0:0:0:0:
36,192,232244,1,0,0:0:0:0:
475,192,232244,1,0,0:0:0:0:
256,192,232325,1,0,0:0:0:0:
109,192,232325,128,0,232406:0:0:0:0:
402,192,232325,128,0,232406:0:0:0:0:
329,192,232325,1,0,0:0:0:0:
182,192,232325,1,0,0:0:0:0:
329,192,232487,128,0,232568:0:0:0:0:
182,192,232487,128,0,232568:0:0:0:0:
36,192,232487,1,0,0:0:0:0:
475,192,232487,1,0,0:0:0:0:
109,192,232568,1,0,0:0:0:0:
402,192,232568,1,0,0:0:0:0:
256,192,232649,1,0,0:0:0:0:
36,192,232649,128,0,232730:0:0:0:0:
475,192,232649,128,0,232730:0:0:0:0:
109,192,232812,128,0,232893:0:0:0:0:
402,192,232812,128,0,232893:0:0:0:0:
182,192,232812,1,0,0:0:0:0:
329,192,232812,1,0,0:0:0:0:
256,192,232974,1,0,0:0:0:0:
182,192,232974,1,0,0:0:0:0:
109,192,232974,1,0,0:0:0:0:
329,192,232974,1,0,0:0:0:0:
402,192,232974,1,0,0:0:0:0:
256,192,233136,1,0,0:0:0:0:
329,192,233136,1,0,0:0:0:0:
182,192,233136,1,0,0:0:0:0:
109,192,233136,1,0,0:0:0:0:
402,192,233136,1,0,0:0:0:0:
36,192,233298,1,0,0:0:0:0:
475,192,233298,1,0,0:0:0:0:
256,192,233460,1,0,0:0:0:0:
36,192,233460,1,0,0:0:0:0:
182,192,233460,1,0,0:0:0:0:
475,192,233460,1,0,0:0:0:0:
329,192,233460,1,0,0:0:0:0:
256,192,233622,1,0,0:0:0:0:
475,192,233622,1,0,0:0:0:0:
329,192,233622,1,0,0:0:0:0:
36,192,233622,1,0,0:0:0:0:
182,192,233622,1,0,0:0:0:0:
109,192,233785,1,0,0:0:0:0:
402,192,233785,1,0,0:0:0:0:
256,192,233947,1,0,0:0:0:0:
36,192,233947,1,0,0:0:0:0:
109,192,233947,1,0,0:0:0:0:
402,192,233947,1,0,0:0:0:0:
475,192,233947,1,0,0:0:0:0:
256,192,234109,1,0,0:0:0:0:
36,192,234109,1,0,0:0:0:0:
109,192,234109,1,0,0:0:0:0:
475,192,234109,1,0,0:0:0:0:
402,192,234109,1,0,0:0:0:0:
329,192,234271,1,0,0:0:0:0:
182,192,234271,1,0,0:0:0:0:
256,192,234595,1,0,0:0:0:0:
109,192,234595,128,0,235325:0:0:0:0:
36,192,234595,128,0,235406:0:0:0:0:
402,192,234595,128,0,235325:0:0:0:0:
475,192,234595,128,0,235406:0:0:0:0:
256,192,235082,1,0,0:0:0:0:
256,192,235244,1,0,0:0:0:0:
182,192,235406,1,0,0:0:0:0:
329,192,235406,1,0,0:0:0:0:
109,192,235460,1,0,0:0:0:0:
402,192,235460,1,0,0:0:0:0:
36,192,235514,1,0,0:0:0:0:
475,192,235514,1,0,0:0:0:0:
256,192,235568,128,0,238163:0:0:0:0:
402,192,235568,1,0,0:0:0:0:
329,192,235568,1,0,0:0:0:0:
182,192,235568,1,0,0:0:0:0:
109,192,235568,1,0,0:0:0:0:
