osu file format v14

[General]
AudioFilename: audio.mp3
AudioLeadIn: 0
PreviewTime: -1
Countdown: 1
SampleSet: Soft
StackLeniency: 0.7
Mode: 0
LetterboxInBreaks: 0
WidescreenStoryboard: 0

[Editor]
DistanceSpacing: 1.8
BeatDivisor: 4
GridSize: 4
TimelineZoom: 2.1

[Metadata]
Title:fantastic dreamer
TitleUnicode:fantastic dreamer
Artist:Machico
ArtistUnicode:Machico
Creator:GranDSenpai
Version:Konosuba
Source:
Tags:
BeatmapID:1837139
BeatmapSetID:878414

[Difficulty]
HPDrainRate:5
CircleSize:5.7
OverallDifficulty:9.7
ApproachRate:8.7
SliderMultiplier:1.4
SliderTickRate:1

[Events]
//Background and Video events
0,0,"75467-full-size-konosuba-wallpaper-1920x1080.jpg",0,0
//Break Periods
//Storyboard Layer 0 (Background)
//Storyboard Layer 1 (Fail)
//Storyboard Layer 2 (Pass)
//Storyboard Layer 3 (Foreground)
//Storyboard Sound Samples

[TimingPoints]
583,324.324324324324,4,2,0,100,1,0
45988,324.324324324324,6,2,0,100,1,0
49879,324.324324324324,4,2,0,100,1,0

[HitObjects]
102,52,583,5,0,0:0:0:0:
102,52,907,1,0,0:0:0:0:
102,52,1231,5,0,0:0:0:0:
102,52,1312,1,0,0:0:0:0:
102,52,1393,1,0,0:0:0:0:
102,52,1555,5,0,0:0:0:0:
239,270,1718,2,0,L|264:108,1,140
139,200,2204,1,0,0:0:0:0:
139,200,2853,5,0,0:0:0:0:
380,160,3015,2,0,L|407:311,1,140
503,170,3501,1,0,0:0:0:0:
503,170,4150,5,0,0:0:0:0:
240,95,4312,2,0,P|230:151|282:220,1,140
380,98,4799,1,0,0:0:0:0:
172,278,4961,2,0,L|157:131,1,140
39,140,5447,1,0,0:0:0:0:
157,358,5610,6,0,P|212:352|245:265,1,140
329,211,6096,1,0,0:0:0:0:
338,239,6177,1,0,0:0:0:0:
347,267,6258,2,0,P|380:292|422:220,1,140
462,152,6664,1,0,0:0:0:0:
477,169,6745,2,0,P|497:210|497:261,1,70
196,148,7069,5,0,0:0:0:0:
410,113,7393,5,0,0:0:0:0:
309,129,7555,1,0,0:0:0:0:
411,186,7718,5,0,0:0:0:0:
300,204,7880,1,0,0:0:0:0:
412,267,8042,5,0,0:0:0:0:
290,286,8204,1,0,0:0:0:0:
413,355,8366,1,0,0:0:0:0:
413,355,8691,5,0,0:0:0:0:
484,96,8853,1,0,0:0:0:0:
484,96,9177,5,0,0:0:0:0:
309,87,9339,1,0,0:0:0:0:
489,188,9501,1,0,0:0:0:0:
489,188,9826,5,0,0:0:0:0:
259,226,9988,1,0,0:0:0:0:
344,232,10150,1,0,0:0:0:0:
239,314,10312,1,0,0:0:0:0:
255,83,10474,1,0,0:0:0:0:
203,149,10637,1,0,0:0:0:0:
366,163,10799,1,0,0:0:0:0:
101,258,10961,1,0,0:0:0:0:
88,143,11610,6,0,L|88:125,3,17.5
116,100,11772,5,0,0:0:0:0:
154,106,11853,1,0,0:0:0:0:
192,112,11934,2,0,L|242:104,1,35
329,342,12096,1,0,0:0:0:0:
329,342,12177,1,0,0:0:0:0:
329,342,12258,2,0,P|286:330|234:346,1,70
153,242,12582,6,0,P|190:204|198:274,1,140
96,169,13069,1,0,0:0:0:0:
309,133,13231,2,0,L|311:189,1,35
281,292,13393,2,0,P|242:333|167:317,1,140
43,225,13880,2,0,L|37:327,1,70
100,355,14123,1,0,0:0:0:0:
110,361,14204,6,0,P|150:360|155:353,1,35
217,279,14366,2,0,P|249:292|259:303,1,35
376,360,14528,2,0,P|412:348|418:339,1,35
461,248,14691,2,0,P|462:212|454:198,1,35
346,135,14853,6,0,P|334:202|372:288,1,140
472,175,15339,1,0,0:0:0:0:
241,115,15501,1,0,0:0:0:0:
413,67,15664,1,0,0:0:0:0:
254,202,15826,1,0,0:0:0:0:
93,55,15988,6,0,L|76:198,1,140
142,308,16474,2,0,P|192:306|222:335,1,70
318,342,16718,1,0,0:0:0:0:
331,346,16799,2,0,P|367:328|379:307,1,35
416,216,16961,1,0,0:0:0:0:
254,202,17123,2,0,L|252:256,1,35
240,359,17285,2,0,P|232:357|241:335,1,35
321,224,17447,6,0,P|313:163|223:145,1,140
98,251,17934,1,0,0:0:0:0:
31,104,18096,2,0,L|20:182,1,70
25,301,18420,1,0,0:0:0:0:
195,164,18582,6,0,L|209:325,1,140
418,347,19069,2,0,P|411:269|376:357,1,245
387,311,19718,1,0,0:0:0:0:
184,243,19880,6,0,P|223:214|208:126,1,140
66,219,20366,5,0,0:0:0:0:
166,176,20528,1,0,0:0:0:0:
366,90,20691,5,0,0:0:0:0:
409,190,20853,1,0,0:0:0:0:
123,76,21015,5,0,0:0:0:0:
223,33,21177,1,0,0:0:0:0:
309,233,21339,5,0,0:0:0:0:
209,276,21501,1,0,0:0:0:0:
466,47,21664,5,0,0:0:0:0:
509,147,21826,1,0,0:0:0:0:
66,219,21988,5,0,0:0:0:0:
166,176,22150,1,0,0:0:0:0:
166,176,22231,1,0,0:0:0:0:
166,176,22312,1,0,0:0:0:0:
153,346,22474,2,0,P|193:364|287:322,1,140
432,225,22961,5,0,0:0:0:0:
186,254,23124,1,0,0:0:0:0:
336,212,23286,5,0,0:0:0:0:
270,183,23448,1,0,0:0:0:0:
443,109,23610,5,0,0:0:0:0:
253,86,23773,1,0,0:0:0:0:
386,19,23935,5,0,0:0:0:0:
316,44,24097,1,0,0:0:0:0:
316,44,24177,1,0,0:0:0:0:
316,44,24258,1,0,0:0:0:0:
173,191,24420,5,0,0:0:0:0:
173,191,24501,1,0,0:0:0:0:
173,191,24582,1,0,0:0:0:0:
70,48,24745,1,0,0:0:0:0:
168,332,25069,6,0,P|240:311|275:241,1,140
482,275,25555,2,0,L|481:347,1,70
373,268,25880,2,0,P|381:226|365:161,1,105
321,123,26204,2,0,P|300:118|280:121,1,35
139,211,26366,6,0,P|150:273|242:294,1,140
234,144,26853,2,0,P|186:121|149:136,1,70
145,359,27177,2,0,P|206:377|294:330,1,140
453,220,27664,2,0,L|445:363,1,140
322,252,28150,2,0,P|328:189|402:129,1,140
469,72,28637,1,0,0:0:0:0:
385,33,28799,1,0,0:0:0:0:
385,33,28961,6,0,P|340:44|300:140,1,140
211,223,29447,2,0,P|159:225|158:128,1,140
350,244,29934,2,0,L|317:392,1,140
185,327,30420,5,0,0:0:0:0:
83,343,30582,1,0,0:0:0:0:
22,259,30745,1,0,0:0:0:0:
14,254,31069,5,0,0:0:0:0:
81,346,31232,1,0,0:0:0:0:
193,328,31394,1,0,0:0:0:0:
302,357,31555,2,0,P|373:347|397:288,1,140
485,199,32042,2,0,L|466:342,1,140
247,153,32528,1,0,0:0:0:0:
411,103,32691,6,0,L|394:137,1,35
276,235,32853,1,0,0:0:0:0:
310,232,32934,1,0,0:0:0:0:
346,242,33015,2,0,P|363:279|344:325,1,70
199,337,33339,2,0,L|211:291,1,35
71,231,33501,6,0,L|94:316,1,70
181,169,33826,2,0,P|168:210|137:245,1,70
302,202,34150,2,0,P|270:233|229:213,1,70
364,310,34474,1,0,0:0:0:0:
213,314,34637,1,0,0:0:0:0:
434,281,34799,2,0,P|435:337|362:384,1,140
283,333,35204,1,0,0:0:0:0:
274,342,35285,2,0,L|287:378,1,35
237,224,35447,2,0,L|220:264,1,35
321,152,35610,6,0,L|333:245,1,70
457,126,35934,2,0,P|462:101|444:54,1,70
247,62,36258,2,0,L|231:172,1,105
212,222,36582,2,0,P|172:221|151:178,1,70
26,188,36907,6,0,L|49:338,1,140
225,357,37393,5,0,0:0:0:0:
355,302,37555,2,0,P|312:288|276:317,1,70
378,378,37880,1,0,0:0:0:0:
474,250,38042,2,0,L|479:347,1,70
348,237,38366,1,0,0:0:0:0:
406,110,38528,2,0,P|451:108|480:138,1,70
241,195,38853,2,0,L|253:106,1,70
102,228,39177,2,0,L|123:319,1,70
329,363,39501,6,0,P|320:307|238:306,1,140
43,355,39988,2,0,L|104:221,1,140
190,185,40393,1,0,0:0:0:0:
196,196,40474,1,0,0:0:0:0:
308,241,40637,1,0,0:0:0:0:
303,259,40718,1,0,0:0:0:0:
289,271,40799,5,0,0:0:0:0:
157,258,40961,1,0,0:0:0:0:
277,162,41123,1,0,0:0:0:0:
293,353,41285,1,0,0:0:0:0:
123,342,41447,2,0,L|130:266,1,70
189,164,41772,1,0,0:0:0:0:
401,238,41934,6,0,P|365:281|279:261,1,140
388,139,42420,1,0,0:0:0:0:
222,247,42582,2,0,P|224:294|249:326,1,70
446,325,42907,5,0,0:0:0:0:
310,347,43069,1,0,0:0:0:0:
327,335,43231,5,0,0:0:0:0:
189,330,43393,1,0,0:0:0:0:
273,239,43555,1,0,0:0:0:0:
260,308,43718,1,0,0:0:0:0:
187,241,43880,1,0,0:0:0:0:
275,145,44042,5,0,0:0:0:0:
137,163,44204,1,0,0:0:0:0:
214,174,44366,1,0,0:0:0:0:
169,74,44528,1,0,0:0:0:0:
169,74,44853,5,0,0:0:0:0:
287,66,45015,1,0,0:0:0:0:
172,0,45177,1,0,0:0:0:0:
54,7,45501,2,0,P|46:31|47:49,1,35
39,129,45664,2,0,P|47:151|65:166,1,35
125,212,45826,1,0,0:0:0:0:
125,212,45907,1,0,0:0:0:0:
125,212,45988,6,0,P|199:206|231:176,1,93.3333333333333
287,154,46312,2,0,L|293:219,1,46.6666666666667
439,278,46528,1,0,0:0:0:0:
439,278,46636,2,0,P|413:330|357:335,1,93.3333333333333
258,343,46960,6,0,L|237:288,1,46.6666666666667
85,353,47285,6,0,P|92:331|73:298,1,35
118,214,47609,2,0,P|117:243|140:254,1,35
324,245,47825,1,0,0:0:0:0:
353,244,47933,6,0,P|310:203|294:163,1,93.3333333333333
405,154,48258,2,0,P|379:171|399:140,1,93.3333333333333
465,72,48582,5,0,0:0:0:0:
493,107,48690,1,0,0:0:0:0:
473,139,48798,1,0,0:0:0:0:
480,220,48906,5,0,0:0:0:0:
478,321,49231,6,0,P|410:318|368:358,1,105
302,352,49555,5,0,0:0:0:0:
268,360,49636,1,0,0:0:0:0:
234,351,49717,1,0,0:0:0:0:
209,328,49798,1,0,0:0:0:0:
198,295,49879,6,0,P|212:236|235:222,1,70
382,160,50203,2,0,L|375:201,1,35
355,292,50365,1,0,0:0:0:0:
275,185,50527,1,0,0:0:0:0:
437,226,50689,1,0,0:0:0:0:
312,79,50851,1,0,0:0:0:0:
324,97,51014,1,0,0:0:0:0:
108,241,51176,6,0,L|100:142,1,70
237,32,51500,2,0,L|216:67,1,35
125,175,51662,1,0,0:0:0:0:
101,24,51824,1,0,0:0:0:0:
241,139,51987,1,0,0:0:0:0:
48,102,52149,1,0,0:0:0:0:
67,97,52311,1,0,0:0:0:0:
172,117,52473,5,0,0:0:0:0:
188,187,52635,1,0,0:0:0:0:
293,90,52797,5,0,0:0:0:0:
224,68,52960,1,0,0:0:0:0:
257,209,53122,5,0,0:0:0:0:
423,102,53284,5,0,0:0:0:0:
411,70,53365,1,0,0:0:0:0:
399,38,53446,1,0,0:0:0:0:
273,279,53608,5,0,0:0:0:0:
171,300,53933,5,0,0:0:0:0:
72,347,54095,2,0,P|58:306|77:268,1,70
118,218,54338,1,0,0:0:0:0:
129,208,54419,2,0,P|128:192|112:175,1,35
186,127,54581,2,0,P|178:112|156:104,1,35
203,29,54743,2,0,P|190:19|166:20,1,35
229,221,54906,6,0,P|305:210|339:142,1,140
408,80,55392,2,0,L|414:170,1,70
454,275,55716,2,0,P|434:320|460:333,1,70
314,359,56041,2,0,P|310:327|321:313,1,35
171,330,56203,6,0,P|134:349|60:285,1,140
167,172,56689,2,0,L|152:256,1,70
308,182,57014,2,0,P|308:125|298:103,1,70
180,45,57338,2,0,P|171:88|176:106,1,35
409,32,57500,6,0,P|357:20|304:81,1,140
421,194,57987,2,0,L|425:143,1,35
333,287,58149,2,0,P|281:287|220:360,1,140
68,331,58635,2,0,P|53:318|41:284,1,35
135,141,58797,2,0,P|129:211|64:252,1,140
83,68,59284,2,0,P|132:43|171:54,1,70
201,157,59608,2,0,P|217:104|253:84,1,70
347,136,59933,2,0,P|322:86|333:48,1,70
452,68,60176,1,0,0:0:0:0:
475,73,60257,6,0,L|457:124,1,35
487,215,60419,2,0,P|467:227|454:229,1,35
385,331,60581,2,0,P|368:291|397:252,1,70
197,209,60906,2,0,L|185:300,1,70
19,331,61230,2,0,P|45:336|20:349,1,70
126,95,61554,2,0,P|120:122|98:133,1,35
68,241,61716,2,0,P|79:261|97:268,1,35
222,288,61878,5,0,0:0:0:0:
362,354,62041,1,0,0:0:0:0:
476,236,62203,2,0,L|493:323,1,70
423,118,62446,1,0,0:0:0:0:
409,130,62527,2,0,P|398:180|408:223,1,70
307,65,62770,1,0,0:0:0:0:
286,82,62851,2,0,P|289:129|296:136,1,35
266,241,63014,6,0,P|204:239|239:178,1,140
342,227,63419,1,0,0:0:0:0:
355,246,63500,2,0,P|336:282|319:294,1,35
156,276,63662,2,0,P|137:237|140:200,1,70
412,161,63987,6,0,L|443:310,1,140
246,321,64473,5,0,0:0:0:0:
323,338,64635,1,0,0:0:0:0:
234,331,64797,1,0,0:0:0:0:
300,282,64960,1,0,0:0:0:0:
165,265,65122,1,0,0:0:0:0:
383,283,65284,6,0,P|409:238|349:272,1,175
386,299,65770,2,0,L|476:294,1,70
484,175,66095,1,0,0:0:0:0:
373,145,66257,1,0,0:0:0:0:
432,218,66419,1,0,0:0:0:0:
399,81,66581,6,0,P|347:81|308:161,1,140
219,241,67068,2,0,P|184:239|176:197,1,70
160,51,67392,1,0,0:0:0:0:
66,89,67554,1,0,0:0:0:0:
79,190,67716,1,0,0:0:0:0:
273,156,67878,6,0,P|272:93|205:42,1,140
181,242,68365,1,0,0:0:0:0:
358,158,68527,2,0,L|371:266,1,105
375,304,68851,1,0,0:0:0:0:
260,300,69014,1,0,0:0:0:0:
483,114,69176,6,0,P|446:167|439:246,1,140
476,363,69662,2,0,P|456:339|457:359,1,70
374,358,69987,2,0,P|340:353|326:386,1,70
231,349,70230,1,0,0:0:0:0:
204,342,70311,2,0,P|167:349|134:379,1,70
41,299,70554,1,0,0:0:0:0:
27,283,70635,6,0,P|40:250|55:244,1,35
160,231,70797,2,0,P|182:206|185:182,1,35
243,60,70960,2,0,P|276:61|291:82,1,35
394,160,71122,1,0,0:0:0:0:
232,147,71284,1,0,0:0:0:0:
464,71,71446,2,0,P|484:132|438:202,1,140
308,255,71933,1,0,0:0:0:0:
482,303,72095,2,0,L|401:330,1,70
263,321,72419,1,0,0:0:0:0:
499,200,72581,2,0,L|414:192,1,70
184,121,72906,5,0,0:0:0:0:
299,149,73068,1,0,0:0:0:0:
214,237,73230,5,0,0:0:0:0:
201,103,73392,1,0,0:0:0:0:
367,80,73554,5,0,0:0:0:0:
268,47,73716,1,0,0:0:0:0:
446,18,73878,5,0,0:0:0:0:
336,21,74041,1,0,0:0:0:0:
483,184,74203,5,0,0:0:0:0:
445,96,74365,2,0,P|414:134|409:167,1,70
456,310,74689,1,0,0:0:0:0:
285,348,74851,2,0,L|308:258,1,70
222,197,75095,1,0,0:0:0:0:
204,203,75176,2,0,P|200:243|205:247,1,35
373,224,75338,2,0,P|373:185|334:149,1,70
255,100,75581,1,0,0:0:0:0:
227,100,75662,2,0,P|214:91|210:69,1,35
97,44,75824,5,0,0:0:0:0:
294,23,75987,1,0,0:0:0:0:
309,54,76149,5,0,0:0:0:0:
85,23,76311,1,0,0:0:0:0:
68,172,76473,5,0,0:0:0:0:
308,147,76635,1,0,0:0:0:0:
321,167,76797,5,0,0:0:0:0:
59,144,76960,1,0,0:0:0:0:
350,271,77122,5,0,0:0:0:0:
365,285,77446,5,0,0:0:0:0:
59,262,77608,1,0,0:0:0:0:
277,234,77770,5,0,0:0:0:0:
84,328,77932,1,0,0:0:0:0:
230,296,78095,5,0,0:0:0:0:
136,268,78257,1,0,0:0:0:0:
211,234,78419,5,0,0:0:0:0:
211,234,78743,5,0,0:0:0:0:
379,80,78906,1,0,0:0:0:0:
96,82,79068,1,0,0:0:0:0:
258,29,79392,5,0,0:0:0:0:
278,23,79716,5,0,0:0:0:0:
159,156,79878,1,0,0:0:0:0:
409,154,80041,1,0,0:0:0:0:
192,275,80203,5,0,0:0:0:0:
192,275,80284,1,0,0:0:0:0:
192,275,80365,1,0,0:0:0:0:
466,318,80527,5,0,0:0:0:0:
466,318,80608,1,0,0:0:0:0:
466,318,80689,1,0,0:0:0:0:
181,365,80851,5,0,0:0:0:0:
181,365,80933,1,0,0:0:0:0:
181,365,81014,1,0,0:0:0:0:
375,244,81176,1,0,0:0:0:0:
285,240,81338,1,0,0:0:0:0:
359,314,81500,5,0,0:0:0:0:
398,47,81662,1,0,0:0:0:0:
317,90,81824,1,0,0:0:0:0:
426,117,81987,5,0,0:0:0:0:
115,67,82149,1,0,0:0:0:0:
139,152,82311,1,0,0:0:0:0:
204,88,82473,5,0,0:0:0:0:
207,123,82635,1,0,0:0:0:0:
226,75,82797,1,0,0:0:0:0:
218,101,82960,1,0,0:0:0:0:
252,71,83122,5,0,0:0:0:0:
236,85,83284,1,0,0:0:0:0:
273,79,83446,1,0,0:0:0:0:
256,86,83608,5,0,0:0:0:0:
481,46,83770,1,0,0:0:0:0:
452,132,83933,1,0,0:0:0:0:
409,62,84095,5,0,0:0:0:0:
458,341,84257,1,0,0:0:0:0:
379,318,84419,1,0,0:0:0:0:
441,266,84581,5,0,0:0:0:0:
145,300,84743,1,0,0:0:0:0:
177,229,84906,1,0,0:0:0:0:
277,197,85230,5,0,0:0:0:0:
256,192,85311,12,0,86203,0:0:0:0:
256,192,86284,12,0,88635,0:0:0:0:
