osu file format v14

[General]
AudioFilename: fantastic dreamer.mp3
AudioLeadIn: 0
PreviewTime: 53651
Countdown: 0
SampleSet: Soft
StackLeniency: 0.7
Mode: 3
LetterboxInBreaks: 0
SpecialStyle: 0
WidescreenStoryboard: 0

[Editor]
DistanceSpacing: 1.1
BeatDivisor: 4
GridSize: 4
TimelineZoom: 1.6

[Metadata]
Title:fantastic dreamer
TitleUnicode:fantastic dreamer
Artist:Machico
ArtistUnicode:Machico
Creator:Gomuryuu
Version:MX
Source:この素晴らしい世界に祝福を!
Tags:Kono Subarashii Sekai ni Shukufuku wo! このすば KonoSuba: God's Blessing on This Wonderful World! OP Opening TV Size
BeatmapID:898140
BeatmapSetID:414312

[Difficulty]
HPDrainRate:8.5
CircleSize:4
OverallDifficulty:8.5
ApproachRate:5
SliderMultiplier:1.4
SliderTickRate:1

[Events]
//Background and Video events
0,0,"konosubabg.jpg",0,0
//Break Periods
//Storyboard Layer 0 (Background)
//Storyboard Layer 1 (Fail)
//Storyboard Layer 2 (Pass)
//Storyboard Layer 3 (Foreground)
//Storyboard Sound Samples

[TimingPoints]
300,324.324324324324,4,2,0,30,1,0
6462,-80,4,2,0,30,0,0
6543,-133.333333333333,4,2,0,30,0,0
6786,-100,4,2,0,30,0,0
54624,-100,4,2,0,30,0,1
70354,-100,4,2,0,30,0,0

[HitObjects]
64,192,300,5,0,0:0:0:0:
64,192,624,1,0,0:0:0:0:
448,192,948,1,0,0:0:0:0:
192,192,948,1,0,0:0:0:0:
320,192,1110,1,0,0:0:0:0:
192,192,1110,1,0,0:0:0:0:
64,192,1272,1,0,0:0:0:0:
320,192,1272,1,0,0:0:0:0:
448,192,1435,1,0,0:0:0:0:
192,192,1435,128,0,2570:0:0:0:0:
64,192,1435,128,0,3218:0:0:0:0:
448,192,1921,1,0,0:0:0:0:
448,192,2570,1,0,0:0:0:0:
192,192,2732,1,0,0:0:0:0:
320,192,2732,128,0,3867:0:0:0:0:
448,192,3218,128,0,3543:0:0:0:0:
192,192,3543,128,0,3867:0:0:0:0:
64,192,3867,128,0,4029:0:0:0:0:
320,192,4029,1,0,0:0:0:0:
448,192,4029,128,0,5327:0:0:0:0:
192,192,4029,128,0,5327:0:0:0:0:
64,192,4516,1,0,0:0:0:0:
64,192,5164,1,0,0:0:0:0:
320,192,5327,128,0,5813:0:0:0:0:
64,192,5327,1,0,0:0:0:0:
64,192,5651,1,0,0:0:0:0:
192,192,5651,1,0,0:0:0:0:
448,192,5813,128,0,5975:0:0:0:0:
64,192,5813,1,0,0:0:0:0:
320,192,5975,128,0,6299:0:0:0:0:
192,192,5975,1,0,0:0:0:0:
64,192,6299,1,0,0:0:0:0:
192,192,6381,1,0,0:0:0:0:
448,192,6462,1,0,0:0:0:0:
320,192,6462,1,0,0:0:0:0:
64,192,6462,1,0,0:0:0:0:
320,192,6786,1,0,0:0:0:0:
448,192,6786,1,0,0:0:0:0:
192,192,6786,1,0,0:0:0:0:
320,192,7110,1,0,0:0:0:0:
64,192,7110,1,0,0:0:0:0:
448,192,7272,1,0,0:0:0:0:
64,192,7272,1,0,0:0:0:0:
192,192,7435,1,0,0:0:0:0:
448,192,7435,1,0,0:0:0:0:
320,192,7597,1,0,0:0:0:0:
192,192,7597,1,0,0:0:0:0:
64,192,7759,1,0,0:0:0:0:
320,192,7759,1,0,0:0:0:0:
64,192,7921,1,0,0:0:0:0:
192,192,7921,1,0,0:0:0:0:
448,192,8083,1,0,0:0:0:0:
320,192,8083,128,0,8408:0:0:0:0:
64,192,8408,1,0,0:0:0:0:
448,192,8408,1,0,0:0:0:0:
320,192,8570,1,0,0:0:0:0:
192,192,8570,128,0,8894:0:0:0:0:
64,192,8570,1,0,0:0:0:0:
320,192,8894,128,0,9056:0:0:0:0:
64,192,8894,1,0,0:0:0:0:
192,192,9056,1,0,0:0:0:0:
448,192,9056,1,0,0:0:0:0:
64,192,9218,1,0,0:0:0:0:
320,192,9218,1,0,0:0:0:0:
448,192,9218,128,0,11327:0:0:0:0:
192,192,9543,1,0,0:0:0:0:
64,192,9705,1,0,0:0:0:0:
320,192,9705,1,0,0:0:0:0:
192,192,9867,1,0,0:0:0:0:
320,192,10029,128,0,10678:0:0:0:0:
64,192,10029,1,0,0:0:0:0:
192,192,10354,1,0,0:0:0:0:
64,192,10354,1,0,0:0:0:0:
192,192,10678,128,0,11327:0:0:0:0:
64,192,10678,1,0,0:0:0:0:
320,192,11327,1,0,0:0:0:0:
64,192,11327,1,0,0:0:0:0:
192,192,11489,1,0,0:0:0:0:
320,192,11570,1,0,0:0:0:0:
448,192,11570,1,0,0:0:0:0:
64,192,11651,1,0,0:0:0:0:
192,192,11651,1,0,0:0:0:0:
320,192,11813,1,0,0:0:0:0:
448,192,11813,1,0,0:0:0:0:
64,192,11894,1,0,0:0:0:0:
192,192,11894,1,0,0:0:0:0:
320,192,11975,1,0,0:0:0:0:
64,192,11975,1,0,0:0:0:0:
448,192,11975,128,0,13110:0:0:0:0:
192,192,12299,1,0,0:0:0:0:
320,192,12299,1,0,0:0:0:0:
64,192,12462,1,0,0:0:0:0:
192,192,12624,1,0,0:0:0:0:
320,192,12624,1,0,0:0:0:0:
64,192,12786,1,0,0:0:0:0:
64,192,12948,1,0,0:0:0:0:
320,192,12948,1,0,0:0:0:0:
192,192,13110,128,0,14570:0:0:0:0:
320,192,13272,1,0,0:0:0:0:
448,192,13272,1,0,0:0:0:0:
64,192,13435,1,0,0:0:0:0:
320,192,13597,1,0,0:0:0:0:
448,192,13597,1,0,0:0:0:0:
64,192,13759,1,0,0:0:0:0:
320,192,13840,1,0,0:0:0:0:
448,192,13840,1,0,0:0:0:0:
64,192,13921,1,0,0:0:0:0:
320,192,14083,1,0,0:0:0:0:
64,192,14245,1,0,0:0:0:0:
448,192,14245,1,0,0:0:0:0:
320,192,14408,1,0,0:0:0:0:
448,192,14570,128,0,15705:0:0:0:0:
64,192,14570,1,0,0:0:0:0:
320,192,14732,1,0,0:0:0:0:
64,192,14894,1,0,0:0:0:0:
192,192,14894,1,0,0:0:0:0:
320,192,15056,1,0,0:0:0:0:
64,192,15218,1,0,0:0:0:0:
192,192,15218,1,0,0:0:0:0:
320,192,15381,1,0,0:0:0:0:
64,192,15543,1,0,0:0:0:0:
320,192,15543,1,0,0:0:0:0:
192,192,15705,128,0,17164:0:0:0:0:
320,192,15867,1,0,0:0:0:0:
448,192,15867,1,0,0:0:0:0:
64,192,16029,1,0,0:0:0:0:
320,192,16191,1,0,0:0:0:0:
448,192,16191,1,0,0:0:0:0:
64,192,16354,1,0,0:0:0:0:
320,192,16435,1,0,0:0:0:0:
448,192,16435,1,0,0:0:0:0:
64,192,16516,1,0,0:0:0:0:
320,192,16678,1,0,0:0:0:0:
64,192,16840,1,0,0:0:0:0:
448,192,16840,1,0,0:0:0:0:
320,192,17002,1,0,0:0:0:0:
320,192,17164,128,0,18299:0:0:0:0:
64,192,17164,1,0,0:0:0:0:
448,192,17164,1,0,0:0:0:0:
192,192,17489,1,0,0:0:0:0:
448,192,17489,1,0,0:0:0:0:
64,192,17651,1,0,0:0:0:0:
192,192,17813,1,0,0:0:0:0:
448,192,17813,1,0,0:0:0:0:
64,192,17975,1,0,0:0:0:0:
64,192,18137,1,0,0:0:0:0:
192,192,18137,1,0,0:0:0:0:
448,192,18299,128,0,19110:0:0:0:0:
192,192,18462,1,0,0:0:0:0:
64,192,18462,1,0,0:0:0:0:
320,192,18624,1,0,0:0:0:0:
320,192,18786,1,0,0:0:0:0:
64,192,18786,1,0,0:0:0:0:
192,192,18948,1,0,0:0:0:0:
64,192,19110,1,0,0:0:0:0:
320,192,19110,1,0,0:0:0:0:
192,192,19272,1,0,0:0:0:0:
64,192,19272,1,0,0:0:0:0:
192,192,19435,1,0,0:0:0:0:
320,192,19435,1,0,0:0:0:0:
320,192,19597,1,0,0:0:0:0:
64,192,19597,128,0,19921:0:0:0:0:
448,192,19597,1,0,0:0:0:0:
192,192,19921,1,0,0:0:0:0:
320,192,19921,1,0,0:0:0:0:
64,192,20083,1,0,0:0:0:0:
448,192,20083,128,0,20245:0:0:0:0:
320,192,20245,1,0,0:0:0:0:
192,192,20245,1,0,0:0:0:0:
192,192,20408,128,0,20570:0:0:0:0:
448,192,20408,1,0,0:0:0:0:
64,192,20570,1,0,0:0:0:0:
320,192,20570,1,0,0:0:0:0:
320,192,20732,128,0,20894:0:0:0:0:
192,192,20732,1,0,0:0:0:0:
448,192,20894,1,0,0:0:0:0:
64,192,20894,1,0,0:0:0:0:
64,192,21056,128,0,21218:0:0:0:0:
320,192,21056,1,0,0:0:0:0:
192,192,21218,1,0,0:0:0:0:
448,192,21218,1,0,0:0:0:0:
448,192,21381,128,0,21543:0:0:0:0:
64,192,21381,1,0,0:0:0:0:
320,192,21543,1,0,0:0:0:0:
192,192,21543,1,0,0:0:0:0:
192,192,21705,128,0,21867:0:0:0:0:
448,192,21705,1,0,0:0:0:0:
64,192,21867,1,0,0:0:0:0:
320,192,21867,128,0,22029:0:0:0:0:
448,192,21948,1,0,0:0:0:0:
192,192,22029,1,0,0:0:0:0:
64,192,22029,1,0,0:0:0:0:
320,192,22191,1,0,0:0:0:0:
448,192,22191,1,0,0:0:0:0:
64,192,22191,1,0,0:0:0:0:
192,192,22516,1,0,0:0:0:0:
320,192,22516,1,0,0:0:0:0:
448,192,22678,128,0,22840:0:0:0:0:
192,192,22678,1,0,0:0:0:0:
320,192,22840,1,0,0:0:0:0:
64,192,22840,1,0,0:0:0:0:
64,192,23002,128,0,23164:0:0:0:0:
448,192,23002,1,0,0:0:0:0:
320,192,23164,1,0,0:0:0:0:
192,192,23164,1,0,0:0:0:0:
320,192,23327,128,0,23489:0:0:0:0:
64,192,23327,1,0,0:0:0:0:
192,192,23489,1,0,0:0:0:0:
448,192,23489,1,0,0:0:0:0:
64,192,23651,1,0,0:0:0:0:
448,192,23651,128,0,23813:0:0:0:0:
320,192,23813,1,0,0:0:0:0:
192,192,23894,1,0,0:0:0:0:
64,192,23894,1,0,0:0:0:0:
320,192,23975,1,0,0:0:0:0:
448,192,23975,1,0,0:0:0:0:
448,192,24137,1,0,0:0:0:0:
320,192,24137,1,0,0:0:0:0:
192,192,24218,1,0,0:0:0:0:
64,192,24218,1,0,0:0:0:0:
448,192,24299,1,0,0:0:0:0:
320,192,24299,1,0,0:0:0:0:
192,192,24381,1,0,0:0:0:0:
64,192,24462,1,0,0:0:0:0:
448,192,24462,1,0,0:0:0:0:
320,192,24543,1,0,0:0:0:0:
192,192,24624,1,0,0:0:0:0:
64,192,24705,1,0,0:0:0:0:
320,192,24786,1,0,0:0:0:0:
448,192,24786,1,0,0:0:0:0:
192,192,24786,1,0,0:0:0:0:
64,192,25110,1,0,0:0:0:0:
192,192,25110,1,0,0:0:0:0:
320,192,25272,1,0,0:0:0:0:
448,192,25272,1,0,0:0:0:0:
64,192,25597,1,0,0:0:0:0:
192,192,25597,1,0,0:0:0:0:
192,192,25759,1,0,0:0:0:0:
448,192,25759,1,0,0:0:0:0:
320,192,25921,1,0,0:0:0:0:
448,192,25921,1,0,0:0:0:0:
192,192,26083,1,0,0:0:0:0:
64,192,26083,128,0,26408:0:0:0:0:
448,192,26245,1,0,0:0:0:0:
192,192,26408,1,0,0:0:0:0:
320,192,26408,1,0,0:0:0:0:
64,192,26570,1,0,0:0:0:0:
448,192,26570,1,0,0:0:0:0:
192,192,26732,1,0,0:0:0:0:
64,192,26894,1,0,0:0:0:0:
320,192,26894,1,0,0:0:0:0:
64,192,27056,1,0,0:0:0:0:
448,192,27056,1,0,0:0:0:0:
448,192,27218,1,0,0:0:0:0:
192,192,27218,1,0,0:0:0:0:
320,192,27381,1,0,0:0:0:0:
64,192,27381,128,0,27705:0:0:0:0:
192,192,27543,1,0,0:0:0:0:
320,192,27705,1,0,0:0:0:0:
448,192,27705,1,0,0:0:0:0:
64,192,27867,1,0,0:0:0:0:
192,192,27867,1,0,0:0:0:0:
448,192,28029,1,0,0:0:0:0:
192,192,28191,1,0,0:0:0:0:
64,192,28191,1,0,0:0:0:0:
448,192,28354,1,0,0:0:0:0:
192,192,28354,1,0,0:0:0:0:
64,192,28516,1,0,0:0:0:0:
448,192,28516,1,0,0:0:0:0:
192,192,28678,1,0,0:0:0:0:
320,192,28678,128,0,29002:0:0:0:0:
64,192,28840,1,0,0:0:0:0:
192,192,29002,1,0,0:0:0:0:
448,192,29002,1,0,0:0:0:0:
320,192,29164,1,0,0:0:0:0:
64,192,29164,1,0,0:0:0:0:
192,192,29327,1,0,0:0:0:0:
448,192,29489,1,0,0:0:0:0:
320,192,29489,1,0,0:0:0:0:
192,192,29651,1,0,0:0:0:0:
448,192,29651,1,0,0:0:0:0:
192,192,29813,1,0,0:0:0:0:
64,192,29813,1,0,0:0:0:0:
320,192,29975,1,0,0:0:0:0:
448,192,29975,128,0,30299:0:0:0:0:
64,192,30137,1,0,0:0:0:0:
320,192,30299,1,0,0:0:0:0:
192,192,30299,1,0,0:0:0:0:
448,192,30462,1,0,0:0:0:0:
64,192,30462,1,0,0:0:0:0:
320,192,30624,1,0,0:0:0:0:
64,192,30786,1,0,0:0:0:0:
192,192,30786,1,0,0:0:0:0:
64,192,30948,1,0,0:0:0:0:
320,192,30948,1,0,0:0:0:0:
192,192,31110,1,0,0:0:0:0:
320,192,31110,1,0,0:0:0:0:
448,192,31272,1,0,0:0:0:0:
64,192,31272,128,0,31597:0:0:0:0:
192,192,31435,1,0,0:0:0:0:
320,192,31597,1,0,0:0:0:0:
448,192,31597,1,0,0:0:0:0:
64,192,31759,1,0,0:0:0:0:
192,192,31759,1,0,0:0:0:0:
448,192,31921,1,0,0:0:0:0:
320,192,32002,1,0,0:0:0:0:
192,192,32083,1,0,0:0:0:0:
64,192,32083,1,0,0:0:0:0:
64,192,32245,1,0,0:0:0:0:
192,192,32245,1,0,0:0:0:0:
320,192,32408,1,0,0:0:0:0:
448,192,32408,1,0,0:0:0:0:
320,192,32570,1,0,0:0:0:0:
448,192,32570,1,0,0:0:0:0:
64,192,32651,1,0,0:0:0:0:
192,192,32651,1,0,0:0:0:0:
320,192,32732,1,0,0:0:0:0:
64,192,32732,1,0,0:0:0:0:
448,192,32732,128,0,33056:0:0:0:0:
192,192,33056,128,0,33218:0:0:0:0:
64,192,33056,1,0,0:0:0:0:
320,192,33218,128,0,33381:0:0:0:0:
448,192,33218,1,0,0:0:0:0:
320,192,33543,1,0,0:0:0:0:
64,192,33543,128,0,33705:0:0:0:0:
448,192,33705,1,0,0:0:0:0:
192,192,33705,1,0,0:0:0:0:
64,192,33867,128,0,34191:0:0:0:0:
320,192,33867,1,0,0:0:0:0:
448,192,33867,1,0,0:0:0:0:
192,192,34191,128,0,34354:0:0:0:0:
448,192,34191,1,0,0:0:0:0:
320,192,34354,128,0,34516:0:0:0:0:
64,192,34354,1,0,0:0:0:0:
448,192,34516,128,0,34840:0:0:0:0:
192,192,34516,1,0,0:0:0:0:
192,192,34840,1,0,0:0:0:0:
64,192,34840,1,0,0:0:0:0:
192,192,35002,1,0,0:0:0:0:
64,192,35002,1,0,0:0:0:0:
192,192,35164,1,0,0:0:0:0:
64,192,35164,1,0,0:0:0:0:
448,192,35245,1,0,0:0:0:0:
320,192,35245,1,0,0:0:0:0:
192,192,35327,1,0,0:0:0:0:
448,192,35327,1,0,0:0:0:0:
64,192,35327,128,0,36624:0:0:0:0:
320,192,35651,1,0,0:0:0:0:
192,192,35651,1,0,0:0:0:0:
192,192,35975,1,0,0:0:0:0:
448,192,35975,1,0,0:0:0:0:
320,192,36299,1,0,0:0:0:0:
448,192,36299,1,0,0:0:0:0:
192,192,36624,128,0,37272:0:0:0:0:
320,192,36624,1,0,0:0:0:0:
64,192,36948,1,0,0:0:0:0:
448,192,36948,1,0,0:0:0:0:
320,192,37272,128,0,37921:0:0:0:0:
448,192,37272,1,0,0:0:0:0:
64,192,37597,1,0,0:0:0:0:
192,192,37597,1,0,0:0:0:0:
448,192,37921,128,0,39218:0:0:0:0:
192,192,37921,1,0,0:0:0:0:
64,192,38245,1,0,0:0:0:0:
320,192,38245,1,0,0:0:0:0:
320,192,38570,1,0,0:0:0:0:
192,192,38570,1,0,0:0:0:0:
64,192,38894,1,0,0:0:0:0:
192,192,38894,1,0,0:0:0:0:
192,192,39218,128,0,40516:0:0:0:0:
320,192,39218,1,0,0:0:0:0:
64,192,39543,1,0,0:0:0:0:
448,192,39543,1,0,0:0:0:0:
320,192,39867,1,0,0:0:0:0:
448,192,39867,1,0,0:0:0:0:
64,192,40110,1,0,0:0:0:0:
320,192,40191,1,0,0:0:0:0:
448,192,40191,1,0,0:0:0:0:
64,192,40354,1,0,0:0:0:0:
320,192,40435,1,0,0:0:0:0:
448,192,40435,1,0,0:0:0:0:
64,192,40516,128,0,41489:0:0:0:0:
448,192,40516,1,0,0:0:0:0:
192,192,40840,1,0,0:0:0:0:
448,192,40840,1,0,0:0:0:0:
192,192,41164,1,0,0:0:0:0:
320,192,41164,1,0,0:0:0:0:
192,192,41327,1,0,0:0:0:0:
448,192,41327,1,0,0:0:0:0:
320,192,41489,1,0,0:0:0:0:
448,192,41489,1,0,0:0:0:0:
192,192,41651,128,0,42137:0:0:0:0:
64,192,41651,1,0,0:0:0:0:
192,192,41651,1,0,0:0:0:0:
320,192,41651,1,0,0:0:0:0:
448,192,41975,1,0,0:0:0:0:
64,192,41975,1,0,0:0:0:0:
64,192,42137,1,0,0:0:0:0:
320,192,42137,1,0,0:0:0:0:
448,192,42299,128,0,43110:0:0:0:0:
320,192,42299,1,0,0:0:0:0:
192,192,42299,1,0,0:0:0:0:
192,192,42624,1,0,0:0:0:0:
64,192,42624,1,0,0:0:0:0:
192,192,42786,1,0,0:0:0:0:
320,192,42786,1,0,0:0:0:0:
64,192,43110,128,0,44083:0:0:0:0:
192,192,43110,1,0,0:0:0:0:
320,192,43435,1,0,0:0:0:0:
448,192,43435,1,0,0:0:0:0:
192,192,43759,1,0,0:0:0:0:
448,192,43759,1,0,0:0:0:0:
192,192,43921,1,0,0:0:0:0:
320,192,43921,1,0,0:0:0:0:
320,192,44083,1,0,0:0:0:0:
448,192,44083,1,0,0:0:0:0:
192,192,44245,128,0,44732:0:0:0:0:
64,192,44245,1,0,0:0:0:0:
448,192,44245,1,0,0:0:0:0:
320,192,44570,1,0,0:0:0:0:
64,192,44570,1,0,0:0:0:0:
64,192,44732,1,0,0:0:0:0:
448,192,44732,1,0,0:0:0:0:
320,192,44894,128,0,45218:0:0:0:0:
192,192,44894,1,0,0:0:0:0:
448,192,44894,1,0,0:0:0:0:
64,192,45218,1,0,0:0:0:0:
448,192,45218,1,0,0:0:0:0:
192,192,45381,1,0,0:0:0:0:
320,192,45381,1,0,0:0:0:0:
64,192,45543,1,0,0:0:0:0:
192,192,45543,1,0,0:0:0:0:
320,192,45624,1,0,0:0:0:0:
448,192,45624,1,0,0:0:0:0:
64,192,45705,1,0,0:0:0:0:
192,192,45705,1,0,0:0:0:0:
448,192,45705,1,0,0:0:0:0:
320,192,45921,1,0,0:0:0:0:
448,192,45921,1,0,0:0:0:0:
64,192,46029,1,0,0:0:0:0:
192,192,46245,1,0,0:0:0:0:
320,192,46245,1,0,0:0:0:0:
64,192,46354,1,0,0:0:0:0:
448,192,46354,1,0,0:0:0:0:
192,192,46678,1,0,0:0:0:0:
320,192,46678,1,0,0:0:0:0:
320,192,47002,1,0,0:0:0:0:
448,192,47002,1,0,0:0:0:0:
64,192,47327,1,0,0:0:0:0:
448,192,47327,1,0,0:0:0:0:
64,192,47651,1,0,0:0:0:0:
192,192,47651,1,0,0:0:0:0:
320,192,47867,1,0,0:0:0:0:
448,192,47867,1,0,0:0:0:0:
64,192,47975,1,0,0:0:0:0:
192,192,47975,1,0,0:0:0:0:
192,192,48191,1,0,0:0:0:0:
320,192,48191,1,0,0:0:0:0:
64,192,48299,1,0,0:0:0:0:
448,192,48299,1,0,0:0:0:0:
320,192,48516,1,0,0:0:0:0:
64,192,48624,1,0,0:0:0:0:
192,192,48624,1,0,0:0:0:0:
192,192,48948,1,0,0:0:0:0:
320,192,48948,1,0,0:0:0:0:
320,192,49272,1,0,0:0:0:0:
448,192,49272,1,0,0:0:0:0:
192,192,49354,1,0,0:0:0:0:
64,192,49354,1,0,0:0:0:0:
320,192,49435,1,0,0:0:0:0:
448,192,49435,1,0,0:0:0:0:
192,192,49516,1,0,0:0:0:0:
64,192,49516,1,0,0:0:0:0:
64,192,49597,1,0,0:0:0:0:
320,192,49597,1,0,0:0:0:0:
448,192,49597,128,0,50245:0:0:0:0:
192,192,49921,1,0,0:0:0:0:
320,192,49921,1,0,0:0:0:0:
192,192,50245,128,0,50894:0:0:0:0:
64,192,50245,1,0,0:0:0:0:
64,192,50408,1,0,0:0:0:0:
320,192,50408,1,0,0:0:0:0:
320,192,50570,1,0,0:0:0:0:
448,192,50570,1,0,0:0:0:0:
320,192,50894,128,0,51543:0:0:0:0:
64,192,50894,1,0,0:0:0:0:
64,192,51056,1,0,0:0:0:0:
448,192,51056,1,0,0:0:0:0:
192,192,51218,1,0,0:0:0:0:
448,192,51218,1,0,0:0:0:0:
64,192,51381,1,0,0:0:0:0:
192,192,51381,1,0,0:0:0:0:
448,192,51543,128,0,52191:0:0:0:0:
64,192,51705,1,0,0:0:0:0:
192,192,51705,1,0,0:0:0:0:
320,192,51867,1,0,0:0:0:0:
64,192,51867,1,0,0:0:0:0:
64,192,52191,1,0,0:0:0:0:
192,192,52191,1,0,0:0:0:0:
320,192,52191,1,0,0:0:0:0:
320,192,52354,1,0,0:0:0:0:
192,192,52354,1,0,0:0:0:0:
64,192,52516,1,0,0:0:0:0:
448,192,52516,1,0,0:0:0:0:
192,192,52678,1,0,0:0:0:0:
320,192,52678,1,0,0:0:0:0:
64,192,52840,1,0,0:0:0:0:
448,192,52840,1,0,0:0:0:0:
192,192,53002,1,0,0:0:0:0:
320,192,53002,1,0,0:0:0:0:
64,192,53083,1,0,0:0:0:0:
448,192,53083,1,0,0:0:0:0:
192,192,53164,1,0,0:0:0:0:
320,192,53164,1,0,0:0:0:0:
64,192,53327,1,0,0:0:0:0:
192,192,53327,1,0,0:0:0:0:
448,192,53327,128,0,53651:0:0:0:0:
64,192,53813,1,0,0:0:0:0:
192,192,54137,1,0,0:0:0:0:
448,192,54137,1,0,0:0:0:0:
320,192,54218,1,0,0:0:0:0:
64,192,54299,1,0,0:0:0:0:
192,192,54299,1,0,0:0:0:0:
448,192,54381,1,0,0:0:0:0:
320,192,54381,1,0,0:0:0:0:
64,192,54462,1,0,0:0:0:0:
192,192,54462,1,0,0:0:0:0:
64,192,54624,1,0,0:0:0:0:
320,192,54624,1,0,0:0:0:0:
448,192,54624,128,0,55759:0:0:0:0:
64,192,55110,1,0,0:0:0:0:
320,192,55110,1,0,0:0:0:0:
192,192,55272,1,0,0:0:0:0:
64,192,55435,1,0,0:0:0:0:
320,192,55435,1,0,0:0:0:0:
192,192,55597,1,0,0:0:0:0:
192,192,55759,1,0,0:0:0:0:
320,192,55759,1,0,0:0:0:0:
64,192,55921,128,0,57056:0:0:0:0:
320,192,56083,1,0,0:0:0:0:
448,192,56083,1,0,0:0:0:0:
192,192,56245,1,0,0:0:0:0:
320,192,56408,1,0,0:0:0:0:
192,192,56408,1,0,0:0:0:0:
448,192,56570,1,0,0:0:0:0:
192,192,56732,1,0,0:0:0:0:
320,192,56732,1,0,0:0:0:0:
448,192,56894,1,0,0:0:0:0:
192,192,57056,1,0,0:0:0:0:
448,192,57056,1,0,0:0:0:0:
320,192,57218,128,0,58354:0:0:0:0:
64,192,57381,1,0,0:0:0:0:
192,192,57381,1,0,0:0:0:0:
448,192,57543,1,0,0:0:0:0:
192,192,57705,1,0,0:0:0:0:
448,192,57705,1,0,0:0:0:0:
64,192,57867,1,0,0:0:0:0:
192,192,58029,1,0,0:0:0:0:
448,192,58029,1,0,0:0:0:0:
64,192,58191,1,0,0:0:0:0:
64,192,58354,1,0,0:0:0:0:
448,192,58354,1,0,0:0:0:0:
192,192,58516,128,0,59002:0:0:0:0:
320,192,58678,1,0,0:0:0:0:
448,192,58678,1,0,0:0:0:0:
64,192,58840,1,0,0:0:0:0:
64,192,59002,1,0,0:0:0:0:
448,192,59002,1,0,0:0:0:0:
320,192,59164,128,0,59651:0:0:0:0:
448,192,59327,1,0,0:0:0:0:
192,192,59327,1,0,0:0:0:0:
64,192,59489,1,0,0:0:0:0:
192,192,59651,128,0,59975:0:0:0:0:
448,192,59651,1,0,0:0:0:0:
64,192,59813,1,0,0:0:0:0:
448,192,59894,1,0,0:0:0:0:
320,192,59894,1,0,0:0:0:0:
64,192,59975,128,0,60948:0:0:0:0:
448,192,59975,1,0,0:0:0:0:
192,192,60299,1,0,0:0:0:0:
320,192,60299,1,0,0:0:0:0:
448,192,60462,1,0,0:0:0:0:
192,192,60624,1,0,0:0:0:0:
320,192,60624,1,0,0:0:0:0:
448,192,60786,1,0,0:0:0:0:
192,192,60948,1,0,0:0:0:0:
448,192,60948,1,0,0:0:0:0:
320,192,61110,1,0,0:0:0:0:
192,192,61272,128,0,62245:0:0:0:0:
64,192,61272,1,0,0:0:0:0:
448,192,61435,1,0,0:0:0:0:
448,192,61597,1,0,0:0:0:0:
64,192,61597,1,0,0:0:0:0:
320,192,61759,1,0,0:0:0:0:
64,192,61921,1,0,0:0:0:0:
448,192,61921,1,0,0:0:0:0:
320,192,62083,1,0,0:0:0:0:
320,192,62245,1,0,0:0:0:0:
64,192,62245,1,0,0:0:0:0:
448,192,62408,1,0,0:0:0:0:
320,192,62570,128,0,63543:0:0:0:0:
192,192,62570,1,0,0:0:0:0:
448,192,62732,1,0,0:0:0:0:
192,192,62894,1,0,0:0:0:0:
64,192,62894,1,0,0:0:0:0:
448,192,63056,1,0,0:0:0:0:
64,192,63137,1,0,0:0:0:0:
192,192,63137,1,0,0:0:0:0:
448,192,63218,1,0,0:0:0:0:
192,192,63381,1,0,0:0:0:0:
64,192,63543,1,0,0:0:0:0:
448,192,63543,1,0,0:0:0:0:
192,192,63705,128,0,64029:0:0:0:0:
320,192,63705,1,0,0:0:0:0:
448,192,63705,1,0,0:0:0:0:
64,192,64029,1,0,0:0:0:0:
320,192,64029,1,0,0:0:0:0:
192,192,64191,1,0,0:0:0:0:
448,192,64191,1,0,0:0:0:0:
320,192,64354,1,0,0:0:0:0:
448,192,64354,1,0,0:0:0:0:
64,192,64354,128,0,64678:0:0:0:0:
192,192,64516,1,0,0:0:0:0:
320,192,64678,1,0,0:0:0:0:
448,192,64678,1,0,0:0:0:0:
64,192,64840,1,0,0:0:0:0:
192,192,64840,1,0,0:0:0:0:
64,192,65002,1,0,0:0:0:0:
320,192,65002,1,0,0:0:0:0:
448,192,65002,128,0,66137:0:0:0:0:
64,192,65489,1,0,0:0:0:0:
192,192,65489,1,0,0:0:0:0:
320,192,65651,1,0,0:0:0:0:
64,192,65813,1,0,0:0:0:0:
192,192,65813,1,0,0:0:0:0:
320,192,65975,1,0,0:0:0:0:
64,192,66137,1,0,0:0:0:0:
320,192,66137,1,0,0:0:0:0:
192,192,66299,128,0,66786:0:0:0:0:
320,192,66462,1,0,0:0:0:0:
448,192,66462,1,0,0:0:0:0:
64,192,66624,1,0,0:0:0:0:
64,192,66786,1,0,0:0:0:0:
448,192,66786,1,0,0:0:0:0:
320,192,66948,128,0,67435:0:0:0:0:
64,192,67110,1,0,0:0:0:0:
192,192,67110,1,0,0:0:0:0:
448,192,67272,1,0,0:0:0:0:
192,192,67435,1,0,0:0:0:0:
448,192,67435,1,0,0:0:0:0:
64,192,67597,128,0,68732:0:0:0:0:
320,192,67759,1,0,0:0:0:0:
448,192,67759,1,0,0:0:0:0:
192,192,67921,1,0,0:0:0:0:
192,192,68083,1,0,0:0:0:0:
320,192,68083,1,0,0:0:0:0:
448,192,68245,1,0,0:0:0:0:
192,192,68408,1,0,0:0:0:0:
320,192,68408,1,0,0:0:0:0:
448,192,68570,1,0,0:0:0:0:
192,192,68732,1,0,0:0:0:0:
448,192,68732,1,0,0:0:0:0:
320,192,68894,128,0,69381:0:0:0:0:
64,192,69056,1,0,0:0:0:0:
192,192,69056,1,0,0:0:0:0:
448,192,69218,1,0,0:0:0:0:
64,192,69381,1,0,0:0:0:0:
448,192,69381,1,0,0:0:0:0:
192,192,69543,128,0,70029:0:0:0:0:
320,192,69705,1,0,0:0:0:0:
448,192,69705,1,0,0:0:0:0:
64,192,69867,1,0,0:0:0:0:
320,192,69948,1,0,0:0:0:0:
64,192,70029,1,0,0:0:0:0:
448,192,70029,1,0,0:0:0:0:
64,192,70191,1,0,0:0:0:0:
192,192,70191,1,0,0:0:0:0:
320,192,70272,1,0,0:0:0:0:
448,192,70272,1,0,0:0:0:0:
64,192,70354,1,0,0:0:0:0:
192,192,70354,1,0,0:0:0:0:
448,192,70354,1,0,0:0:0:0:
448,192,70678,1,0,0:0:0:0:
320,192,70678,1,0,0:0:0:0:
448,192,70840,1,0,0:0:0:0:
320,192,70840,1,0,0:0:0:0:
64,192,71002,1,0,0:0:0:0:
192,192,71002,1,0,0:0:0:0:
64,192,71164,1,0,0:0:0:0:
192,192,71164,1,0,0:0:0:0:
64,192,71327,1,0,0:0:0:0:
448,192,71327,1,0,0:0:0:0:
192,192,71489,1,0,0:0:0:0:
320,192,71489,1,0,0:0:0:0:
64,192,71651,1,0,0:0:0:0:
192,192,71813,1,0,0:0:0:0:
320,192,71813,1,0,0:0:0:0:
64,192,71975,1,0,0:0:0:0:
448,192,71975,1,0,0:0:0:0:
64,192,72137,1,0,0:0:0:0:
448,192,72137,1,0,0:0:0:0:
192,192,72299,1,0,0:0:0:0:
320,192,72299,1,0,0:0:0:0:
192,192,72462,1,0,0:0:0:0:
320,192,72462,1,0,0:0:0:0:
192,192,72624,1,0,0:0:0:0:
448,192,72624,1,0,0:0:0:0:
64,192,72948,1,0,0:0:0:0:
192,192,72948,1,0,0:0:0:0:
192,192,73272,1,0,0:0:0:0:
448,192,73272,1,0,0:0:0:0:
192,192,73435,1,0,0:0:0:0:
448,192,73435,1,0,0:0:0:0:
64,192,73597,1,0,0:0:0:0:
320,192,73597,1,0,0:0:0:0:
64,192,73759,1,0,0:0:0:0:
320,192,73759,1,0,0:0:0:0:
64,192,73921,1,0,0:0:0:0:
448,192,73921,1,0,0:0:0:0:
192,192,74083,1,0,0:0:0:0:
320,192,74083,1,0,0:0:0:0:
64,192,74245,1,0,0:0:0:0:
320,192,74408,1,0,0:0:0:0:
192,192,74408,1,0,0:0:0:0:
64,192,74570,1,0,0:0:0:0:
448,192,74570,1,0,0:0:0:0:
64,192,74732,1,0,0:0:0:0:
448,192,74732,1,0,0:0:0:0:
192,192,74894,1,0,0:0:0:0:
320,192,74894,1,0,0:0:0:0:
64,192,75137,1,0,0:0:0:0:
192,192,75137,1,0,0:0:0:0:
320,192,75218,1,0,0:0:0:0:
448,192,75218,1,0,0:0:0:0:
64,192,75381,1,0,0:0:0:0:
448,192,75381,1,0,0:0:0:0:
320,192,75462,1,0,0:0:0:0:
192,192,75462,1,0,0:0:0:0:
64,192,75543,1,0,0:0:0:0:
448,192,75543,1,0,0:0:0:0:
64,192,75705,1,0,0:0:0:0:
192,192,75705,1,0,0:0:0:0:
448,192,75867,1,0,0:0:0:0:
192,192,75867,1,0,0:0:0:0:
320,192,76029,1,0,0:0:0:0:
448,192,76029,1,0,0:0:0:0:
320,192,76191,1,0,0:0:0:0:
64,192,76191,1,0,0:0:0:0:
64,192,76354,1,0,0:0:0:0:
192,192,76354,1,0,0:0:0:0:
192,192,76516,1,0,0:0:0:0:
448,192,76516,1,0,0:0:0:0:
320,192,76678,1,0,0:0:0:0:
448,192,76678,1,0,0:0:0:0:
192,192,76840,1,0,0:0:0:0:
320,192,76840,1,0,0:0:0:0:
64,192,76840,1,0,0:0:0:0:
64,192,77164,1,0,0:0:0:0:
448,192,77164,1,0,0:0:0:0:
192,192,77327,1,0,0:0:0:0:
448,192,77327,1,0,0:0:0:0:
192,192,77489,1,0,0:0:0:0:
320,192,77489,1,0,0:0:0:0:
64,192,77651,1,0,0:0:0:0:
320,192,77651,1,0,0:0:0:0:
64,192,77813,1,0,0:0:0:0:
448,192,77813,1,0,0:0:0:0:
192,192,77975,1,0,0:0:0:0:
448,192,77975,1,0,0:0:0:0:
64,192,78137,1,0,0:0:0:0:
192,192,78137,1,0,0:0:0:0:
320,192,78137,1,0,0:0:0:0:
320,192,78462,1,0,0:0:0:0:
448,192,78462,1,0,0:0:0:0:
64,192,78624,1,0,0:0:0:0:
320,192,78624,1,0,0:0:0:0:
192,192,78786,1,0,0:0:0:0:
448,192,78786,1,0,0:0:0:0:
320,192,79110,1,0,0:0:0:0:
448,192,79110,1,0,0:0:0:0:
64,192,79110,1,0,0:0:0:0:
192,192,79435,1,0,0:0:0:0:
64,192,79597,1,0,0:0:0:0:
448,192,79597,1,0,0:0:0:0:
192,192,79759,1,0,0:0:0:0:
320,192,79759,1,0,0:0:0:0:
320,192,80002,1,0,0:0:0:0:
448,192,80002,1,0,0:0:0:0:
64,192,80083,1,0,0:0:0:0:
192,192,80083,1,0,0:0:0:0:
448,192,80245,1,0,0:0:0:0:
192,192,80245,1,0,0:0:0:0:
64,192,80327,1,0,0:0:0:0:
320,192,80327,1,0,0:0:0:0:
192,192,80408,1,0,0:0:0:0:
448,192,80408,1,0,0:0:0:0:
320,192,80570,1,0,0:0:0:0:
192,192,80651,1,0,0:0:0:0:
448,192,80732,1,0,0:0:0:0:
64,192,80732,128,0,80813:0:0:0:0:
320,192,80732,1,0,0:0:0:0:
448,192,80894,1,0,0:0:0:0:
320,192,80894,1,0,0:0:0:0:
64,192,81056,128,0,81137:0:0:0:0:
192,192,81056,1,0,0:0:0:0:
320,192,81218,1,0,0:0:0:0:
448,192,81218,1,0,0:0:0:0:
64,192,81381,128,0,81462:0:0:0:0:
448,192,81381,1,0,0:0:0:0:
320,192,81381,1,0,0:0:0:0:
64,192,81705,128,0,81786:0:0:0:0:
448,192,81705,1,0,0:0:0:0:
320,192,81705,1,0,0:0:0:0:
320,192,81867,1,0,0:0:0:0:
448,192,81867,1,0,0:0:0:0:
64,192,82029,128,0,82110:0:0:0:0:
192,192,82029,1,0,0:0:0:0:
320,192,82191,128,0,82354:0:0:0:0:
448,192,82354,128,0,82516:0:0:0:0:
192,192,82354,1,0,0:0:0:0:
320,192,82516,128,0,82678:0:0:0:0:
64,192,82516,1,0,0:0:0:0:
64,192,82597,1,0,0:0:0:0:
448,192,82678,128,0,82840:0:0:0:0:
192,192,82678,1,0,0:0:0:0:
320,192,82840,128,0,83002:0:0:0:0:
64,192,82840,1,0,0:0:0:0:
448,192,83002,128,0,83164:0:0:0:0:
192,192,83002,1,0,0:0:0:0:
320,192,83164,128,0,83327:0:0:0:0:
448,192,83327,128,0,83408:0:0:0:0:
192,192,83327,1,0,0:0:0:0:
64,192,83327,1,0,0:0:0:0:
192,192,83489,1,0,0:0:0:0:
64,192,83489,1,0,0:0:0:0:
448,192,83651,128,0,83732:0:0:0:0:
320,192,83651,1,0,0:0:0:0:
192,192,83813,1,0,0:0:0:0:
64,192,83813,1,0,0:0:0:0:
448,192,83975,128,0,84056:0:0:0:0:
64,192,83975,1,0,0:0:0:0:
192,192,83975,1,0,0:0:0:0:
448,192,84299,128,0,84381:0:0:0:0:
64,192,84299,1,0,0:0:0:0:
192,192,84299,1,0,0:0:0:0:
192,192,84462,1,0,0:0:0:0:
64,192,84462,1,0,0:0:0:0:
448,192,84624,128,0,84705:0:0:0:0:
320,192,84624,1,0,0:0:0:0:
64,192,84948,128,0,85759:0:0:0:0:
448,192,84948,128,0,85759:0:0:0:0:
192,192,84948,1,0,0:0:0:0:
320,192,85435,1,0,0:0:0:0:
192,192,85597,1,0,0:0:0:0:
192,192,85921,128,0,88840:0:0:0:0:
320,192,85921,128,0,88516:0:0:0:0:
448,192,85921,1,0,0:0:0:0:
