osu file format v14

[General]
AudioFilename: fantastic dreamer.mp3
AudioLeadIn: 0
PreviewTime: 53933
Countdown: 0
SampleSet: Soft
StackLeniency: 0.7
Mode: 0
LetterboxInBreaks: 0
WidescreenStoryboard: 0

[Editor]
DistanceSpacing: 1
BeatDivisor: 4
GridSize: 4
TimelineZoom: 1

[Metadata]
Title:fantastic dreamer
TitleUnicode:fantastic dreamer
Artist:Machico
ArtistUnicode:Machico
Creator:Del05
Version:Normal
Source:この素晴らしい世界に祝福を!
Tags:-Famous- A_R_M_I_N Karia eINess walaowey enjoy
BeatmapID:887444
BeatmapSetID:405975

[Difficulty]
HPDrainRate:4
CircleSize:3.3
OverallDifficulty:3
ApproachRate:5
SliderMultiplier:1
SliderTickRate:1

[Events]
//Background and Video events
0,0,"BG.jpg",0,0
Video,0,"Konosuba.avi"
//Break Periods
//Storyboard Layer 0 (Background)
//Storyboard Layer 1 (Fail)
//Storyboard Layer 2 (Pass)
//Storyboard Layer 3 (Foreground)
//Storyboard Sound Samples

[TimingPoints]
583,324.324324324324,4,2,1,90,1,0
583,-100,4,2,1,90,0,0
1718,-100,4,2,1,80,0,0
5610,-100,4,2,1,75,0,0
8366,-100,4,2,1,75,0,0
12258,-100,4,2,1,80,0,0
25069,-100,4,2,1,55,0,0
33015,-100,4,2,1,70,0,0
35610,-100,4,2,1,65,0,0
45988,324.324324324324,6,2,1,75,1,0
45988,-100,4,2,1,75,0,0
49879,324.324324324324,4,2,1,60,1,0
49879,-100,4,2,1,60,0,0
54906,-100,4,2,1,85,0,1
75824,-100,4,2,1,65,0,0
81014,-100,4,2,1,60,0,0
83122,-100,4,2,1,75,0,0
83284,-100,4,2,1,60,0,0
88149,-100,4,2,1,50,0,0
88311,-100,4,2,1,40,0,0
88473,-100,4,2,1,30,0,0
88635,-100,4,2,1,20,0,0

[Colours]
Combo1 : 128,255,128
Combo2 : 255,128,191
Combo3 : 128,191,255
Combo4 : 255,255,128

[HitObjects]
136,320,583,6,0,P|81:332|32:312,2,100,8|8|8,0:1|0:1|0:0,0:0:0:0:
172,284,1393,2,0,L|168:228,1,50,2|8,0:0|0:0,0:0:0:0:
208,200,1718,6,0,P|256:224|352:188,1,150,6|8,0:0|0:1,0:0:0:0:
480,48,2853,1,8,0:1:0:0:
480,48,3015,2,0,L|324:40,1,150,6|8,0:0|0:1,0:0:0:0:
194,189,4150,1,8,0:1:0:0:
194,189,4312,2,0,L|350:197,1,150,6|8,0:0|0:1,0:0:0:0:
476,344,5447,1,8,0:1:0:0:
476,344,5609,6,0,L|320:336,1,150,6|8,0:0|0:0,0:0:0:0:
288,304,6258,2,0,P|228:300|184:320,1,100,2|2,0:0|0:0,0:0:0:0:
160,352,6745,1,2,0:0:0:0:
100,272,7069,2,0,L|96:172,1,100,6|8,0:0|0:0,0:0:0:0:
184,128,7718,2,0,L|180:244,1,100,8|8,0:0|0:0,0:0:0:0:
264,176,8366,6,0,L|267:76,1,100,6|8,0:0|0:0,0:0:0:0:
312,56,8853,2,0,P|366:71|423:58,1,100,2|2,0:0|0:0,0:0:0:0:
452,40,9339,1,8,0:0:0:0:
488,76,9501,2,0,L|480:232,1,150,2|8,0:0|0:0,0:0:0:0:
420,304,10312,2,0,P|369:320|308:305,1,100,2|8,0:0|0:0,0:0:0:0:
248,248,10961,6,0,P|204:176|172:252,1,200,2|0,0:0|0:0,0:0:0:0:
368,272,12258,6,0,P|378:209|368:160,1,100,6|8,0:0|0:0,0:0:0:0:
304,100,12907,2,0,P|241:110|192:100,1,100,2|8,0:0|0:0,0:0:0:0:
172,68,13393,2,0,B|165:184|165:184|176:224,1,150,0|8,0:0|0:0,0:0:0:0:
248,284,14204,2,0,L|360:276,1,100,2|8,0:0|0:0,0:0:0:0:
304,368,14853,6,0,L|192:376,1,100,6|8,0:0|0:0,0:0:0:0:
116,328,15501,2,0,P|87:326|60:336,2,50,2|2|8,0:0|0:0|0:0,0:0:0:0:
160,304,15988,2,0,P|164:220|128:160,1,150,0|8,0:0|0:0,0:0:0:0:
60,96,16799,1,2,0:0:0:0:
140,36,17123,1,8,0:0:0:0:
208,108,17447,6,0,P|261:117|320:104,1,100,6|8,0:0|0:0,0:0:0:0:
392,60,18096,2,0,P|388:32|388:4,2,50,2|2|8,0:0|0:0|0:0,0:0:0:0:
428,96,18582,2,0,P|428:152|424:200,1,100,0|0,0:0|0:0,0:0:0:0:
388,232,19069,2,0,B|348:220|348:220|308:260|232:232,1,150,8|8,0:0|0:0,0:0:0:0:
212,200,19718,1,8,0:0:0:0:
212,200,19880,6,0,P|190:109|139:76,1,150,6|8,0:0|0:0,0:0:0:0:
112,176,20691,1,8,0:0:0:0:
28,124,21015,1,8,0:0:0:0:
0,220,21339,2,0,P|7:269|36:312,1,100,8|8,0:0|0:0,0:0:0:0:
120,364,21988,2,0,L|172:352,1,50,8|2,0:0|0:0,0:0:0:0:
208,320,22312,1,8,0:0:0:0:
208,320,22474,6,0,B|268:288|323:326|323:326|352:308,1,150,6|8,0:0|0:0,0:0:0:0:
436,264,23285,1,8,0:0:0:0:
360,196,23610,1,8,0:0:0:0:
436,132,23934,2,0,P|393:102|346:98,1,100,8|8,0:0|0:0,0:0:0:0:
300,120,24420,2,0,P|246:137|183:121,1,100,8|2,0:0|0:0,0:0:0:0:
116,84,25069,6,0,L|104:233,1,150,6|8,0:0|0:0,0:0:0:0:
48,316,25880,2,0,P|23:291|12:259,2,50,2|2|8,0:0|0:0|0:0,0:0:0:0:
80,352,26366,2,0,L|232:344,1,150,2|8,0:0|0:0,0:0:0:0:
316,292,27177,2,0,P|312:261|320:232,2,50,2|2|8,0:0|0:0|0:0,0:0:0:0:
344,336,27664,6,0,L|460:344,1,100,2|2,0:0|0:0,0:0:0:0:
488,320,28150,2,0,B|491:261|491:261|480:204,1,100,8|2,0:0|0:0,0:0:0:0:
444,188,28637,2,0,L|437:138,1,50,2|8,0:0|0:0,0:0:0:0:
400,108,28961,2,0,P|350:120|299:108,1,100,2|2,0:0|0:0,0:0:0:0:
264,80,29447,1,8,0:0:0:0:
184,144,29772,2,0,P|163:94|164:66,2,50,2|2|8,0:0|0:0|0:0,0:0:0:0:
220,180,30258,6,0,B|228:219|228:219|212:248|212:248|232:292|217:322,1,150,2|8,0:0|0:0,0:0:0:0:
120,292,31069,2,0,P|115:318|119:347,2,50,2|2|8,0:0|0:0|0:0,0:0:0:0:
132,244,31555,2,0,L|-16:248,1,100,2|2,0:0|0:0,0:0:0:0:
0,208,32042,2,0,P|-7:150|8:88,1,100,8|2,0:0|0:0,0:0:0:0:
40,80,32528,2,0,L|92:96,1,50,2|8,0:0|0:0,0:0:0:0:
160,164,33015,6,0,L|260:132,1,100,6|8,0:0|0:0,0:0:0:0:
304,144,33501,2,0,P|313:195|304:264,1,100,2|2,0:0|0:0,0:0:0:0:
280,284,33988,1,8,0:0:0:0:
280,284,34150,2,0,L|392:272,1,100,2|2,0:0|0:0,0:0:0:0:
416,240,34637,1,8,0:0:0:0:
416,240,34799,2,0,B|424:192|424:192|412:160|412:160|428:120|396:76,1,150,2|8,0:0|0:0,0:0:0:0:
328,36,35610,6,0,L|220:44,1,100,6|8,0:0|0:0,0:0:0:0:
168,124,36258,2,0,L|60:116,1,100,2|8,0:0|0:0,0:0:0:0:
24,144,36745,2,0,B|16:184|16:184|24:208|24:208|8:260|44:308,1,150,0|8,0:0|0:0,0:0:0:0:
104,356,37555,2,0,P|156:364|208:348,1,100,2|8,0:0|0:0,0:0:0:0:
240,320,38042,6,0,B|232:216,1,100,0|0,0:0|0:0,0:0:0:0:
236,172,38528,1,8,0:0:0:0:
332,204,38853,2,0,P|379:213|432:204,1,100,2|8,0:0|0:0,0:0:0:0:
464,168,39339,1,0,0:0:0:0:
464,168,39501,2,0,P|446:111|444:52,1,100,2|8,0:0|0:0,0:0:0:0:
476,32,39988,2,0,L|304:48,1,150,0|8,0:0|0:0,0:0:0:0:
244,104,40799,6,0,B|243:159|243:159|256:216,1,100,2|8,0:0|0:0,0:0:0:0:
324,272,41447,2,0,L|384:256,2,50,0|2|8,0:0|0:0|0:0,0:0:0:0:
284,304,41934,2,0,P|232:313|161:298,1,100,6|2,0:0|0:0,0:0:0:0:
140,284,42420,1,8,0:0:0:0:
140,284,42582,2,0,B|124:168|124:168|136:120,1,150,6|8,0:0|0:0,0:0:0:0:
208,72,43393,6,0,L|308:80,1,100,6|8,0:0|0:0,0:0:0:0:
400,116,44042,2,0,P|409:81|404:46,2,50,2|2|8,0:0|0:0|0:0,0:0:0:0:
368,152,44528,2,0,B|358:182|358:182|368:204|368:204|360:232|360:232|384:276|352:312,1,150,2|8,0:0|0:0,0:0:0:0:
292,368,45339,1,0,0:0:0:0:
212,304,45664,1,8,0:0:0:0:
136,372,45988,6,0,P|110:312|119:262,1,100,2|0,0:0|0:0,0:0:0:0:
164,192,46636,1,8,0:0:0:0:
260,212,46960,1,2,0:0:0:0:
232,116,47285,2,0,P|184:92|117:101,2,100,2|8|2,0:0|0:0|0:0,0:0:0:0:
328,140,48258,1,2,0:0:0:0:
260,212,48582,6,0,B|257:266|257:266|267:310,1,100,8|2,0:0|0:0,0:0:0:0:
368,328,49231,2,0,B|378:283|378:283|375:229,1,100,8|8,0:0|0:0,0:0:0:0:
328,140,49879,6,0,P|266:115|231:120,1,100,6|8,0:0|0:0,0:0:0:0:
144,160,50527,2,0,L|96:140,2,50,2|2|8,0:0|0:0|0:0,0:0:0:0:
213,231,51176,2,0,L|261:211,2,50,2|0|8,0:0|0:0|0:0,0:0:0:0:
188,272,51662,2,0,P|192:324|224:360,1,100,2|2,0:0|0:0,0:0:0:0:
272,372,52149,1,8,0:0:0:0:
344,304,52473,6,0,L|336:200,1,100,2|8,0:0|0:0,0:0:0:0:
276,124,53122,2,0,B|236:108|236:108|212:120|212:120|164:96|123:120,1,150,8|6,0:0|0:0,0:0:0:0:
12,200,54095,1,2,0:1:0:0:
216,348,54906,6,0,L|365:340,1,150,6|8,0:0|0:0,0:0:0:0:
464,344,55716,1,2,0:0:0:0:
420,256,56041,1,8,0:0:0:0:
420,256,56203,2,0,P|396:176|424:108,1,150,0|8,0:0|0:0,0:0:0:0:
484,40,57014,1,2,0:0:0:0:
384,28,57338,1,8,0:0:0:0:
384,28,57500,6,0,L|276:44,1,100,0|0,0:0|0:0,0:0:0:0:
248,76,57987,1,8,0:0:0:0:
248,76,58149,2,0,B|244:184|244:184|220:224,1,150,0|8,0:0|0:0,0:0:0:0:
124,244,58960,2,0,B|102:209|102:209|98:141,1,100,0|8,0:0|0:0,0:0:0:0:
148,64,59608,1,2,0:0:0:0:
248,76,59933,1,8,0:0:0:0:
336,32,60257,6,0,L|448:44,1,100,6|8,0:0|0:0,0:0:0:0:
472,76,60743,2,0,P|455:152|478:239,1,150,0|8,0:0|0:0,0:0:0:0:
408,300,61554,2,0,P|331:283|245:306,1,150,2|0,0:0|0:0,0:0:0:0:
220,324,62203,2,0,P|215:260|208:224,1,100,2|8,0:0|0:0,0:0:0:0:
132,160,62851,6,0,P|136:96|143:60,1,100,6|8,0:0|0:0,0:0:0:0:
188,40,63338,2,0,L|288:48,1,100,2|2,0:0|0:0,0:0:0:0:
328,76,63824,1,8,0:0:0:0:
328,76,63987,2,0,P|328:140|380:206,1,150,6|8,0:0|0:0,0:0:0:0:
420,232,64635,2,0,P|356:232|290:284,1,150,6|8,0:0|0:0,0:0:0:0:
264,324,65284,6,0,L|240:172,1,150,6|8,0:0|0:0,0:0:0:0:
200,84,66095,1,2,0:0:0:0:
111,131,66419,1,8,0:0:0:0:
111,131,66581,2,0,P|167:179|240:175,1,150,0|8,0:0|0:0,0:0:0:0:
312,104,67392,1,2,0:0:0:0:
384,176,67716,1,8,0:0:0:0:
384,176,67878,6,0,P|388:231|384:276,1,100,0|0,0:0|0:0,0:0:0:0:
360,320,68365,1,8,0:0:0:0:
360,320,68527,2,0,P|301:313|252:324,1,100,0|2,0:0|0:0,0:0:0:0:
220,348,69014,1,8,0:0:0:0:
144,284,69338,2,0,L|152:168,1,100,0|8,0:0|0:0,0:0:0:0:
184,148,69824,1,0,0:0:0:0:
184,148,69987,2,0,P|236:144|290:149,1,100,2|8,0:0|0:0,0:0:0:0:
372,192,70635,6,0,P|384:260|372:304,1,100,6|8,0:0|0:0,0:0:0:0:
348,328,71122,1,8,0:0:0:0:
348,328,71284,2,0,L|240:316,1,100,2|8,0:0|0:0,0:0:0:0:
224,272,71770,2,0,L|116:284,1,100,2|2,0:0|0:0,0:0:0:0:
76,300,72257,1,8,0:0:0:0:
28,212,72581,2,0,L|-40:224,2,50,2|2|8,0:0|0:0|0:0,0:0:0:0:
96,140,73230,6,0,L|208:160,1,100,2|8,0:0|0:0,0:0:0:0:
236,188,73717,1,8,0:0:0:0:
236,188,73879,2,0,P|289:196|356:182,1,100,2|8,0:0|0:0,0:0:0:0:
372,160,74365,2,0,L|384:268,1,100,2|2,0:0|0:0,0:0:0:0:
376,308,74852,1,8,0:0:0:0:
292,360,75176,1,2,0:0:0:0:
200,324,75500,2,0,L|196:264,1,50,8|8,0:0|0:0,0:0:0:0:
164,236,75824,6,0,P|117:251|64:244,1,100,6|8,0:0|0:0,0:0:0:0:
56,144,76473,2,0,P|102:128|156:136,1,100,8|8,0:0|0:0,0:0:0:0:
240,180,77122,1,12,0:0:0:0:
312,112,77446,1,2,0:0:0:0:
384,180,77770,2,0,L|392:288,1,100,2|2,0:0|0:0,0:0:0:0:
468,216,78419,6,0,L|476:108,1,100,6|2,0:0|0:0,0:0:0:0:
444,80,78906,2,0,P|390:64|340:81,1,100,8|0,0:0|0:0,0:0:0:0:
312,112,79392,1,6,0:0:0:0:
236,48,79716,2,0,L|180:36,1,50,8|8,0:1|0:0,0:0:0:0:
144,64,80041,2,0,P|128:113|150:177,2,100,2|0|8,0:0|0:0|0:0,0:0:0:0:
228,116,81014,6,0,L|220:176,1,50,6|6,0:0|0:0,0:0:0:0:
300,228,81500,2,0,L|311:155,1,50,6|6,0:0|0:0,0:0:0:0:
404,148,81987,2,0,L|397:206,1,50,6|6,0:0|0:0,0:0:0:0:
400,248,82311,1,2,0:0:0:0:
340,328,82635,2,0,P|305:332|284:328,1,50,2|2,0:0|0:0,0:0:0:0:
244,312,82960,2,0,P|209:307|188:312,1,50,2|8,0:0|0:0,0:0:0:0:
148,332,83284,1,2,0:0:0:0:
72,268,83608,6,0,L|80:212,1,50,6|6,0:0|0:0,0:0:0:0:
164,164,84095,2,0,L|172:220,1,50,6|6,0:0|0:0,0:0:0:0:
260,168,84581,6,0,L|268:112,1,50,6|6,0:0|0:0,0:0:0:0:
292,76,84905,1,2,0:0:0:0:
384,36,85230,1,12,0:0:0:0:
476,152,85716,2,0,L|472:208,1,50,8|8,0:0|0:0,0:0:0:0:
400,272,86203,5,6,0:0:0:0:
256,192,86365,12,0,88797,0:0:0:0:
