osu file format v14

[General]
AudioFilename: fantastic dreamer.mp3
AudioLeadIn: 0
PreviewTime: 53933
Countdown: 1
SampleSet: Soft
StackLeniency: 0.7
Mode: 0
LetterboxInBreaks: 0
WidescreenStoryboard: 1

[Editor]
DistanceSpacing: 1.3
BeatDivisor: 4
GridSize: 4
TimelineZoom: 1

[Metadata]
Title:fantastic dreamer
TitleUnicode:fantastic dreamer
Artist:Machico
ArtistUnicode:Machico
Creator:Del05
Version:Advanced
Source:この素晴らしい世界に祝福を!
Tags:-Famous- A_R_M_I_N Karia eINess walaowey enjoy
BeatmapID:892867
BeatmapSetID:405975

[Difficulty]
HPDrainRate:4
CircleSize:3.7
OverallDifficulty:4
ApproachRate:6
SliderMultiplier:1.2
SliderTickRate:1

[Events]
//Background and Video events
0,0,"BG.jpg",0,0
Video,0,"Konosuba.avi"
//Break Periods
//Storyboard Layer 0 (Background)
//Storyboard Layer 1 (Fail)
//Storyboard Layer 2 (Pass)
//Storyboard Layer 3 (Foreground)
//Storyboard Sound Samples

[TimingPoints]
583,324.324324324324,4,2,1,90,1,0
583,-100,4,2,1,90,0,0
1718,-100,4,2,1,80,0,0
5610,-100,4,2,1,75,0,0
8366,-100,4,2,1,75,0,0
12258,-100,4,2,1,80,0,0
25069,-100,4,2,1,55,0,0
33015,-100,4,2,1,70,0,0
35610,-100,4,2,1,65,0,0
45988,324.324324324324,6,2,1,75,1,0
45988,-100,4,2,1,75,0,0
49879,324.324324324324,4,2,1,60,1,0
49879,-100,4,2,1,60,0,0
54906,-100,4,2,1,85,0,1
75824,-100,4,2,1,65,0,0
81014,-100,4,2,1,60,0,0
83122,-100,4,2,1,75,0,0
83284,-100,4,2,1,60,0,0
88149,-100,4,2,1,50,0,0
88311,-100,4,2,1,40,0,0
88473,-100,4,2,1,30,0,0
88635,-100,4,2,1,20,0,0

[Colours]
Combo1 : 128,255,128
Combo2 : 255,128,191
Combo3 : 128,191,255
Combo4 : 255,255,128

[HitObjects]
340,316,583,6,0,B|376:304|376:304|400:320|400:320|424:308|464:320,2,120,8|8|8,0:1|0:1|0:0,0:0:0:0:
276,360,1393,2,0,L|204:352,1,60,2|8,0:0|0:0,0:0:0:0:
152,312,1718,6,0,B|146:250|146:250|156:192,1,120,6|0,0:0|0:0,0:0:0:0:
188,124,2204,1,8,0:1:0:0:
492,128,2853,1,8,0:1:0:0:
492,128,3015,6,0,B|497:189|497:189|488:248,1,120,6|0,0:0|0:0,0:0:0:0:
452,316,3501,1,8,0:1:0:0:
144,356,4150,1,8,0:1:0:0:
144,356,4312,6,0,L|128:224,1,120,6|0,0:0|0:0,0:0:0:0:
124,160,4799,1,8,0:1:0:0:
412,40,5447,1,8,0:1:0:0:
412,40,5609,6,0,L|428:172,1,120,6|2,0:0|0:0,0:0:0:0:
432,236,6096,1,8,0:0:0:0:
372,284,6258,2,0,P|310:271|240:289,1,120,2|2,0:0|0:0,0:0:0:0:
192,328,6745,1,2,0:0:0:0:
48,264,7069,2,0,P|26:195|36:122,1,120,6|8,0:0|0:0,0:0:0:0:
76,88,7555,1,2,0:0:0:0:
144,128,7718,2,0,P|148:164|140:208,2,60,8|2|8,0:0|0:0|0:0,0:0:0:0:
176,56,8204,1,2,0:0:0:0:
176,56,8366,6,0,B|207:47|207:47|228:56|228:56|260:44|298:59,1,120,6|8,0:0|0:0,0:0:0:0:
344,116,8853,2,0,P|350:184|336:248,1,120,2|2,0:0|0:0,0:0:0:0:
296,296,9339,1,8,0:0:0:0:
232,252,9501,2,0,P|164:242|100:256,1,120,2|2,0:0|0:0,0:0:0:0:
48,292,9988,1,8,0:0:0:0:
0,144,10312,2,0,P|67:153|132:140,1,120,2|8,0:0|0:0,0:0:0:0:
252,68,10961,6,0,B|304:56|304:56|332:72|332:72|373:50|426:73,1,180,2|0,0:0|0:0,0:0:0:0:
484,120,11610,1,0,0:0:0:0:
376,328,12096,1,8,0:0:0:0:
376,328,12177,1,8,0:0:0:0:
376,328,12258,6,0,P|317:338|246:330,1,120,6|8,0:0|0:0,0:0:0:0:
116,264,12907,2,0,L|100:140,1,120,2|8,0:0|0:0,0:0:0:0:
156,88,13393,2,0,P|214:104|282:82,1,120,0|0,0:0|0:0,0:0:0:0:
316,28,13880,1,8,0:0:0:0:
428,136,14204,2,0,L|440:264,1,120,2|8,0:0|0:0,0:0:0:0:
320,356,14853,6,0,L|332:228,1,120,6|8,0:0|0:0,0:0:0:0:
248,104,15501,2,0,L|255:164,1,60,2|2,0:0|0:0,0:0:0:0:
224,236,15826,1,8,0:0:0:0:
160,192,15988,2,0,P|92:176|38:216,1,120,0|0,0:0|0:0,0:0:0:0:
12,268,16474,1,8,0:0:0:0:
140,360,16799,1,2,0:0:0:0:
284,300,17123,1,8,0:0:0:0:
428,364,17447,6,0,P|441:296|432:244,1,120,6|8,0:0|0:0,0:0:0:0:
336,124,18096,2,0,L|339:64,2,60,2|2|8,0:0|0:0|0:0,0:0:0:0:
292,188,18582,2,0,P|230:199|168:180,1,120,0|0,0:0|0:0,0:0:0:0:
108,148,19069,2,0,L|88:276,1,120,8|2,0:0|0:0,0:0:0:0:
144,324,19555,2,0,P|176:324|208:332,1,60,8|8,0:0|0:0,0:0:0:0:
276,360,19880,6,0,P|344:376|392:352,1,120,6|2,0:0|0:0,0:0:0:0:
440,296,20366,1,8,0:0:0:0:
308,216,20691,1,8,0:0:0:0:
440,132,21015,1,8,0:0:0:0:
308,48,21339,2,0,B|276:37|276:37|256:44|256:44|217:28|173:54,1,120,8|8,0:0|0:0,0:0:0:0:
56,124,21988,2,0,L|-12:112,2,60,8|2|8,0:0|0:0|0:0,0:0:0:0:
112,180,22474,6,0,B|105:271|105:271|112:304,1,120,6|2,0:0|0:0,0:0:0:0:
152,368,22961,1,8,0:0:0:0:
256,252,23285,1,8,0:0:0:0:
360,368,23610,1,8,0:0:0:0:
484,272,23934,2,0,L|472:212,1,60,8|2,0:0|0:0,0:0:0:0:
400,184,24258,2,0,L|411:125,2,60,8|8|8,0:0|0:0|0:0,0:0:0:0:
328,212,24745,1,2,0:0:0:0:
200,304,25069,6,0,P|132:316|63:296,1,120,6|2,0:0|0:0,0:0:0:0:
28,252,25555,1,8,0:0:0:0:
104,116,25880,2,0,P|72:100|26:92,2,60,2|2|8,0:0|0:0|0:0,0:0:0:0:
160,168,26366,2,0,P|218:179|277:171,1,120,2|2,0:0|0:0,0:0:0:0:
336,120,26853,2,0,L|328:60,1,60,8|0,0:0|0:0,0:0:0:0:
404,68,27177,2,0,L|392:-4,2,60,2|2|8,0:0|0:0|0:0,0:0:0:0:
448,132,27664,6,0,P|455:187|432:252,1,120,2|2,0:0|0:0,0:0:0:0:
372,292,28150,2,0,P|308:288|237:293,1,120,8|2,0:0|0:0,0:0:0:0:
176,268,28637,2,0,L|168:204,1,60,2|8,0:0|0:0,0:0:0:0:
96,184,28961,2,0,P|56:180|24:108,1,120,2|2,0:0|0:0,0:0:0:0:
60,44,29447,1,8,0:0:0:0:
208,96,29772,2,0,P|245:100|277:95,1,60,2|2,0:0|0:0,0:0:0:0:
336,60,30096,1,8,0:0:0:0:
388,116,30258,6,0,B|404:208|404:208|400:244,1,120,2|2,0:0|0:0,0:0:0:0:
348,292,30745,1,8,0:0:0:0:
200,248,31069,2,0,P|193:281|193:313,2,60,2|2|8,0:0|0:0|0:0,0:0:0:0:
260,196,31555,2,0,P|277:138|264:64,1,120,2|2,0:0|0:0,0:0:0:0:
208,36,32042,2,0,L|76:56,1,120,8|2,0:0|0:0,0:0:0:0:
28,104,32528,1,2,0:0:0:0:
140,216,32853,1,8,0:0:0:0:
140,216,32934,1,8,0:0:0:0:
140,216,33015,6,0,L|216:308,1,120,6|8,0:0|0:0,0:0:0:0:
292,288,33501,2,0,P|280:222|298:169,1,120,2|2,0:0|0:0,0:0:0:0:
356,120,33988,1,8,0:0:0:0:
416,168,34150,2,0,B|436:260|436:260|432:296,1,120,2|2,0:0|0:0,0:0:0:0:
408,360,34637,1,8,0:0:0:0:
340,324,34799,2,0,P|274:316|206:327,1,120,2|2,0:0|0:0,0:0:0:0:
152,360,35285,1,8,0:0:0:0:
36,252,35610,6,0,L|48:124,1,120,6|8,0:0|0:0,0:0:0:0:
172,40,36258,2,0,L|183:164,1,120,2|8,0:0|0:0,0:0:0:0:
252,200,36745,2,0,P|304:188|374:204,1,120,0|0,0:0|0:0,0:0:0:0:
428,252,37231,1,8,0:0:0:0:
320,364,37555,2,0,L|196:352,1,120,2|8,0:0|0:0,0:0:0:0:
136,308,38042,6,0,P|118:246|128:188,1,120,0|0,0:0|0:0,0:0:0:0:
172,128,38528,1,8,0:0:0:0:
296,220,38853,2,0,P|356:236|433:213,1,120,2|8,0:0|0:0,0:0:0:0:
468,172,39339,1,0,0:0:0:0:
424,108,39501,2,0,L|284:96,1,120,2|8,0:0|0:0,0:0:0:0:
228,76,39988,1,0,0:0:0:0:
88,140,40312,1,0,0:0:0:0:
88,140,40474,2,0,L|95:199,1,60,8|8,0:0|0:0,0:0:0:0:
156,248,40799,6,0,P|216:238|280:256,1,120,2|8,0:0|0:0,0:0:0:0:
408,324,41447,2,0,L|400:396,2,60,0|2|8,0:0|0:0|0:0,0:0:0:0:
460,264,41934,2,0,B|472:176|472:176|464:144,1,120,6|2,0:0|0:0,0:0:0:0:
408,92,42420,1,8,0:0:0:0:
408,92,42582,2,0,P|340:76|280:92,1,120,6|2,0:0|0:0,0:0:0:0:
228,132,43069,1,8,0:0:0:0:
96,48,43393,6,0,P|75:98|76:170,1,120,6|8,0:0|0:0,0:0:0:0:
164,292,44042,2,0,L|152:364,2,60,2|2|8,0:0|0:0|0:0,0:0:0:0:
236,260,44528,2,0,P|296:276|360:260,1,120,2|2,0:0|0:0,0:0:0:0:
412,216,45015,1,8,0:0:0:0:
300,108,45339,1,0,0:0:0:0:
168,192,45664,1,8,0:0:0:0:
240,332,45988,6,0,P|323:351|359:339,1,120,2|0,0:0|0:0,0:0:0:0:
472,240,46636,1,8,0:0:0:0:
380,116,46960,1,2,0:0:0:0:
240,188,47285,2,0,P|221:134|228:71,2,120,2|8|2,0:0|0:0|0:0,0:0:0:0:
348,300,48258,1,2,0:0:0:0:
488,232,48582,6,0,L|472:112,1,120,8|2,0:0|0:0,0:0:0:0:
332,40,49231,2,0,L|348:164,1,120,8|8,0:0|0:0,0:0:0:0:
276,296,49879,6,0,P|219:313|141:294,1,120,6|8,0:0|0:0,0:0:0:0:
60,184,50527,2,0,L|-24:196,2,60,2|2|8,0:0|0:0|0:0,0:0:0:0:
192,88,51176,2,0,L|260:84,2,60,2|0|8,0:0|0:0|0:0,0:0:0:0:
168,164,51662,2,0,L|312:156,1,120,2|2,0:0|0:0,0:0:0:0:
364,132,52149,1,8,0:0:0:0:
468,248,52473,6,0,L|460:324,1,60,2|2,0:0|0:0,0:0:0:0:
392,344,52797,2,0,P|357:337|316:344,1,60,8|2,0:0|0:0,0:0:0:0:
260,368,53122,1,8,0:0:0:0:
260,368,53284,2,0,L|256:248,1,120,2|6,0:0|0:0,0:0:0:0:
88,84,54095,1,2,0:1:0:0:
88,84,54906,6,0,L|72:216,1,120,6|2,0:0|0:0,0:0:0:0:
128,260,55392,2,0,P|192:248|256:280,1,120,8|2,0:0|0:0,0:0:0:0:
356,372,56041,1,8,0:0:0:0:
356,372,56203,2,0,L|364:252,1,120,0|0,0:0|0:0,0:0:0:0:
316,192,56689,2,0,P|376:176|435:222,2,120,8|2|8,0:0|0:0|0:0,0:0:0:0:
256,244,57500,6,0,P|196:260|137:214,1,120,0|0,0:0|0:0,0:0:0:0:
104,168,57987,1,8,0:0:0:0:
104,168,58149,2,0,L|116:36,1,120,0|2,0:0|0:0,0:0:0:0:
192,32,58635,2,0,P|215:52|248:64,1,60,8|0,0:0|0:0,0:0:0:0:
320,56,58960,2,0,P|384:48|436:68,1,120,0|8,0:0|0:0,0:0:0:0:
512,200,59608,1,2,0:0:0:0:
408,316,59933,1,8,0:0:0:0:
280,228,60257,6,0,P|216:224|143:252,1,120,6|8,0:0|0:0,0:0:0:0:
104,292,60743,2,0,L|104:144,1,120,0|0,0:0|0:0,0:0:0:0:
132,100,61230,1,8,0:0:0:0:
284,68,61554,2,0,L|412:80,1,120,2|8,0:0|0:0,0:0:0:0:
456,136,62041,1,0,0:0:0:0:
456,136,62203,2,0,P|441:189|452:260,1,120,2|8,0:0|0:0,0:0:0:0:
332,356,62851,6,0,P|346:302|336:232,1,120,6|8,0:0|0:0,0:0:0:0:
276,192,63338,2,0,L|140:200,1,120,2|2,0:0|0:0,0:0:0:0:
88,236,63824,1,8,0:0:0:0:
32,180,63987,2,0,P|23:107|56:56,1,120,6|2,0:0|0:0,0:0:0:0:
112,32,64473,1,8,0:0:0:0:
172,80,64635,2,0,P|231:91|292:75,1,120,6|2,0:0|0:0,0:0:0:0:
352,32,65122,1,8,0:0:0:0:
400,96,65284,6,0,P|406:150|397:222,1,120,6|2,0:0|0:0,0:0:0:0:
352,280,65770,2,0,L|284:268,1,60,8|0,0:0|0:0,0:0:0:0:
224,232,66095,2,0,L|160:240,1,60,2|2,0:0|0:0,0:0:0:0:
92,212,66419,1,8,0:0:0:0:
92,212,66581,2,0,L|80:88,1,120,0|0,0:0|0:0,0:0:0:0:
144,52,67068,2,0,P|196:76|284:64,1,120,8|2,0:0|0:0,0:0:0:0:
396,8,67716,1,8,0:0:0:0:
396,8,67878,6,0,B|408:100|408:100|392:144,1,120,0|0,0:0|0:0,0:0:0:0:
356,192,68365,1,8,0:0:0:0:
284,160,68527,2,0,P|212:164|152:176,1,120,0|2,0:0|0:0,0:0:0:0:
92,204,69014,1,8,0:0:0:0:
180,336,69338,6,0,P|252:332|312:320,1,120,2|8,0:0|0:0,0:0:0:0:
360,276,69824,1,0,0:0:0:0:
360,276,69987,2,0,L|368:132,1,120,2|8,0:0|0:0,0:0:0:0:
272,32,70635,6,0,L|266:168,1,120,6|8,0:0|0:0,0:0:0:0:
204,196,71122,1,8,0:0:0:0:
204,196,71284,2,0,P|140:172|72:200,1,120,2|8,0:0|0:0,0:0:0:0:
48,248,71770,2,0,P|59:317|112:344,1,120,2|2,0:0|0:0,0:0:0:0:
176,340,72257,1,8,0:0:0:0:
320,276,72581,2,0,P|352:272|394:279,2,60,2|2|8,0:0|0:0|0:0,0:0:0:0:
176,340,73230,6,0,L|160:208,1,120,2|8,0:0|0:0,0:0:0:0:
216,164,73716,1,8,0:0:0:0:
216,164,73878,2,0,P|276:172|345:153,1,120,2|8,0:0|0:0,0:0:0:0:
392,108,74365,2,0,L|384:240,1,120,2|2,0:0|0:0,0:0:0:0:
352,300,74852,1,8,0:0:0:0:
208,240,75176,1,2,0:0:0:0:
88,340,75500,2,0,P|66:308|57:277,1,60,8|8,0:0|0:0,0:0:0:0:
76,212,75824,6,0,P|86:157|76:80,1,120,6|8,0:0|0:0,0:0:0:0:
224,32,76473,2,0,P|213:86|224:164,1,120,8|8,0:0|0:0,0:0:0:0:
292,288,77122,1,12,0:0:0:0:
436,224,77446,2,0,L|448:160,1,60,2|8,0:0|0:0,0:0:0:0:
508,116,77770,2,0,L|496:52,1,60,2|8,0:0|0:0,0:0:0:0:
420,36,78095,2,0,P|391:52|348:56,1,60,2|8,0:0|0:0,0:0:0:0:
292,28,78419,6,0,L|152:44,1,120,6|2,0:0|0:0,0:0:0:0:
140,112,78906,2,0,P|153:166|136:238,1,120,8|0,0:0|0:0,0:0:0:0:
92,288,79392,1,6,0:0:0:0:
232,351,79716,2,0,L|316:339,1,60,8|8,0:1|0:0,0:0:0:0:
348,288,80041,2,0,P|358:229|334:155,2,120,2|0|8,0:0|0:0|0:0,0:0:0:0:
200,236,81014,6,0,L|128:240,1,60,6|6,0:0|0:0,0:0:0:0:
32,128,81500,2,0,L|104:132,1,60,6|6,0:0|0:0,0:0:0:0:
220,44,81987,2,0,L|292:48,1,60,6|6,0:0|0:0,0:0:0:0:
344,88,82311,1,2,0:0:0:0:
404,232,82635,2,0,L|396:300,1,60,2|2,0:0|0:0,0:0:0:0:
320,312,82960,2,0,L|312:244,1,60,2|8,0:0|0:0,0:0:0:0:
264,192,83284,1,2,0:0:0:0:
144,292,83608,6,0,L|136:356,1,60,6|6,0:0|0:0,0:0:0:0:
48,224,84095,2,0,L|40:160,1,60,6|6,0:0|0:0,0:0:0:0:
144,48,84581,2,0,L|152:112,1,60,6|6,0:0|0:0,0:0:0:0:
196,172,84905,1,2,0:0:0:0:
320,76,85230,1,12,0:0:0:0:
496,228,85716,2,0,L|460:276,1,60,8|8,0:0|0:0,0:0:0:0:
344,372,86203,5,6,0:0:0:0:
256,192,86365,12,0,88797,0:0:0:0:
