osu file format v14

[General]
AudioFilename: audio.mp3
AudioLeadIn: 0
PreviewTime: 60305
Countdown: 0
SampleSet: Soft
StackLeniency: 0.7
Mode: 3
LetterboxInBreaks: 0
SpecialStyle: 0
WidescreenStoryboard: 1

[Editor]
DistanceSpacing: 1.3
BeatDivisor: 4
GridSize: 4
TimelineZoom: 3.099999

[Metadata]
Title:TOMORROW
TitleUnicode:TOMORROW
Artist:Machico
ArtistUnicode:Machico
Creator:leqek
Version:4K EZ
Source:この素晴らしい世界に祝福を!2
Tags:Kono Subarashii Sekai ni Syukufuku wo! 2 konosuba God's blessing on this wonderful world!
BeatmapID:1270144
BeatmapSetID:578820

[Difficulty]
HPDrainRate:7.4
CircleSize:4
OverallDifficulty:6.9
ApproachRate:5
SliderMultiplier:1.4
SliderTickRate:1

[Events]
//Background and Video events
0,0,"BG.jpg",0,0
//Break Periods
//Storyboard Layer 0 (Background)
//Storyboard Layer 1 (Fail)
//Storyboard Layer 2 (Pass)
//Storyboard Layer 3 (Foreground)
//Storyboard Sound Samples

[TimingPoints]
417,447.761194029851,4,2,0,22,1,0
61312,-100,4,2,0,22,0,1
82805,-100,4,2,0,22,0,0

[HitObjects]
64,192,417,128,0,640:0:0:0:0:
448,192,640,128,0,864:0:0:0:0:
192,192,864,1,0,0:0:0:0:
320,192,1312,1,0,0:0:0:0:
192,192,1760,1,0,0:0:0:0:
64,192,1984,128,0,2208:0:0:0:0:
448,192,2208,128,0,2431:0:0:0:0:
192,192,2431,128,0,2655:0:0:0:0:
320,192,2655,1,0,0:0:0:0:
192,192,3103,1,0,0:0:0:0:
320,192,3551,1,0,0:0:0:0:
192,192,3775,128,0,3999:0:0:0:0:
448,192,3999,128,0,4222:0:0:0:0:
64,192,4222,128,0,4446:0:0:0:0:
320,192,4446,1,0,0:0:0:0:
192,192,4894,1,0,0:0:0:0:
320,192,5342,1,0,0:0:0:0:
192,192,5566,1,0,0:0:0:0:
448,192,5790,1,0,0:0:0:0:
64,192,5790,128,0,6237:0:0:0:0:
192,192,6237,128,0,6685:0:0:0:0:
320,192,6685,128,0,7133:0:0:0:0:
64,192,7133,1,0,0:0:0:0:
192,192,7357,1,0,0:0:0:0:
448,192,7581,128,0,7917:0:0:0:0:
320,192,7917,128,0,8252:0:0:0:0:
192,192,8252,128,0,8924:0:0:0:0:
448,192,8924,1,0,0:0:0:0:
320,192,9148,1,0,0:0:0:0:
64,192,9372,128,0,9708:0:0:0:0:
192,192,9708,128,0,10043:0:0:0:0:
320,192,10043,128,0,10491:0:0:0:0:
192,192,10491,1,0,0:0:0:0:
448,192,10715,1,0,0:0:0:0:
320,192,10939,1,0,0:0:0:0:
64,192,11163,128,0,11611:0:0:0:0:
448,192,11834,128,0,12730:0:0:0:0:
192,192,12730,1,0,0:0:0:0:
320,192,12954,1,0,0:0:0:0:
448,192,12954,1,0,0:0:0:0:
192,192,13290,1,0,0:0:0:0:
64,192,13625,128,0,14297:0:0:0:0:
192,192,14297,128,0,14745:0:0:0:0:
320,192,14745,1,0,0:0:0:0:
448,192,14745,128,0,14969:0:0:0:0:
64,192,14969,1,0,0:0:0:0:
192,192,15193,1,0,0:0:0:0:
320,192,15417,1,0,0:0:0:0:
192,192,15640,1,0,0:0:0:0:
448,192,15864,1,0,0:0:0:0:
320,192,16088,1,0,0:0:0:0:
192,192,16312,1,0,0:0:0:0:
64,192,16536,1,0,0:0:0:0:
448,192,16760,1,0,0:0:0:0:
320,192,16984,1,0,0:0:0:0:
192,192,17208,1,0,0:0:0:0:
448,192,17431,1,0,0:0:0:0:
64,192,17655,1,0,0:0:0:0:
192,192,17879,1,0,0:0:0:0:
320,192,18103,1,0,0:0:0:0:
192,192,18327,1,0,0:0:0:0:
448,192,18551,1,0,0:0:0:0:
64,192,18775,1,0,0:0:0:0:
320,192,18999,1,0,0:0:0:0:
192,192,19222,1,0,0:0:0:0:
448,192,19446,1,0,0:0:0:0:
64,192,19670,1,0,0:0:0:0:
192,192,19894,1,0,0:0:0:0:
320,192,20118,1,0,0:0:0:0:
64,192,20342,1,0,0:0:0:0:
448,192,20566,1,0,0:0:0:0:
192,192,20790,1,0,0:0:0:0:
320,192,21014,1,0,0:0:0:0:
64,192,21237,1,0,0:0:0:0:
448,192,21461,1,0,0:0:0:0:
320,192,21685,1,0,0:0:0:0:
192,192,21909,1,0,0:0:0:0:
64,192,21909,1,0,0:0:0:0:
448,192,22133,1,0,0:0:0:0:
64,192,22357,1,0,0:0:0:0:
320,192,22581,1,0,0:0:0:0:
192,192,22805,1,0,0:0:0:0:
448,192,23028,1,0,0:0:0:0:
192,192,23252,1,0,0:0:0:0:
320,192,23476,1,0,0:0:0:0:
64,192,23700,1,0,0:0:0:0:
448,192,23700,1,0,0:0:0:0:
320,192,24036,1,0,0:0:0:0:
192,192,24372,1,0,0:0:0:0:
448,192,24596,1,0,0:0:0:0:
320,192,24819,1,0,0:0:0:0:
64,192,25043,128,0,25267:0:0:0:0:
192,192,25267,128,0,25491:0:0:0:0:
320,192,25491,1,0,0:0:0:0:
448,192,25491,1,0,0:0:0:0:
192,192,25715,1,0,0:0:0:0:
448,192,25939,1,0,0:0:0:0:
192,192,26163,1,0,0:0:0:0:
64,192,26387,1,0,0:0:0:0:
320,192,26611,1,0,0:0:0:0:
64,192,26834,1,0,0:0:0:0:
320,192,27058,1,0,0:0:0:0:
448,192,27282,1,0,0:0:0:0:
192,192,27282,128,0,27618:0:0:0:0:
320,192,27618,128,0,27954:0:0:0:0:
448,192,27954,128,0,28178:0:0:0:0:
64,192,28178,1,0,0:0:0:0:
192,192,28402,1,0,0:0:0:0:
448,192,28625,1,0,0:0:0:0:
320,192,28849,1,0,0:0:0:0:
64,192,29073,128,0,29297:0:0:0:0:
192,192,29073,1,0,0:0:0:0:
448,192,29297,1,0,0:0:0:0:
320,192,29521,1,0,0:0:0:0:
192,192,29745,1,0,0:0:0:0:
320,192,29969,1,0,0:0:0:0:
64,192,30193,1,0,0:0:0:0:
192,192,30417,1,0,0:0:0:0:
320,192,30640,1,0,0:0:0:0:
448,192,30864,1,0,0:0:0:0:
64,192,31088,1,0,0:0:0:0:
192,192,31312,1,0,0:0:0:0:
320,192,31536,1,0,0:0:0:0:
64,192,31760,1,0,0:0:0:0:
448,192,31984,1,0,0:0:0:0:
320,192,32208,1,0,0:0:0:0:
192,192,32431,1,0,0:0:0:0:
320,192,32655,1,0,0:0:0:0:
64,192,32879,1,0,0:0:0:0:
448,192,33103,1,0,0:0:0:0:
192,192,33327,1,0,0:0:0:0:
320,192,33551,1,0,0:0:0:0:
64,192,33775,1,0,0:0:0:0:
448,192,33999,1,0,0:0:0:0:
320,192,34222,1,0,0:0:0:0:
192,192,34446,1,0,0:0:0:0:
448,192,34670,1,0,0:0:0:0:
64,192,34894,1,0,0:0:0:0:
320,192,35118,1,0,0:0:0:0:
192,192,35342,1,0,0:0:0:0:
448,192,35566,1,0,0:0:0:0:
64,192,35790,1,0,0:0:0:0:
192,192,36014,1,0,0:0:0:0:
320,192,36237,1,0,0:0:0:0:
448,192,36237,1,0,0:0:0:0:
64,192,36461,1,0,0:0:0:0:
448,192,36685,1,0,0:0:0:0:
192,192,36909,1,0,0:0:0:0:
320,192,37133,1,0,0:0:0:0:
64,192,37357,1,0,0:0:0:0:
320,192,37581,1,0,0:0:0:0:
192,192,37805,1,0,0:0:0:0:
448,192,38028,1,0,0:0:0:0:
64,192,38028,1,0,0:0:0:0:
192,192,38364,1,0,0:0:0:0:
320,192,38700,1,0,0:0:0:0:
64,192,38924,1,0,0:0:0:0:
192,192,39148,1,0,0:0:0:0:
448,192,39372,128,0,39596:0:0:0:0:
320,192,39596,128,0,39819:0:0:0:0:
192,192,39819,1,0,0:0:0:0:
64,192,39819,1,0,0:0:0:0:
320,192,40043,1,0,0:0:0:0:
64,192,40267,1,0,0:0:0:0:
320,192,40491,1,0,0:0:0:0:
448,192,40715,1,0,0:0:0:0:
192,192,40939,1,0,0:0:0:0:
448,192,41163,1,0,0:0:0:0:
192,192,41387,1,0,0:0:0:0:
64,192,41611,1,0,0:0:0:0:
320,192,41611,128,0,41946:0:0:0:0:
192,192,41946,128,0,42282:0:0:0:0:
64,192,42282,128,0,42506:0:0:0:0:
448,192,42506,1,0,0:0:0:0:
320,192,42730,1,0,0:0:0:0:
64,192,42954,1,0,0:0:0:0:
192,192,43178,1,0,0:0:0:0:
448,192,43402,1,0,0:0:0:0:
320,192,43402,128,0,44073:0:0:0:0:
64,192,44073,1,0,0:0:0:0:
448,192,44297,1,0,0:0:0:0:
320,192,44745,1,0,0:0:0:0:
192,192,45193,128,0,45864:0:0:0:0:
448,192,45864,1,0,0:0:0:0:
64,192,46088,1,0,0:0:0:0:
192,192,46536,1,0,0:0:0:0:
448,192,46984,128,0,47655:0:0:0:0:
64,192,47655,1,0,0:0:0:0:
320,192,47879,1,0,0:0:0:0:
192,192,48327,1,0,0:0:0:0:
64,192,48775,128,0,49446:0:0:0:0:
448,192,49446,1,0,0:0:0:0:
192,192,49670,1,0,0:0:0:0:
320,192,50118,1,0,0:0:0:0:
64,192,50566,1,0,0:0:0:0:
448,192,50566,128,0,52357:0:0:0:0:
192,192,51461,1,0,0:0:0:0:
320,192,52357,128,0,54148:0:0:0:0:
64,192,53252,1,0,0:0:0:0:
192,192,54148,128,0,55939:0:0:0:0:
448,192,55043,1,0,0:0:0:0:
64,192,55939,128,0,57282:0:0:0:0:
320,192,56834,1,0,0:0:0:0:
192,192,57058,1,0,0:0:0:0:
448,192,57282,1,0,0:0:0:0:
320,192,57506,1,0,0:0:0:0:
192,192,57506,1,0,0:0:0:0:
64,192,57954,1,0,0:0:0:0:
448,192,58178,1,0,0:0:0:0:
320,192,58625,1,0,0:0:0:0:
192,192,58961,1,0,0:0:0:0:
64,192,59297,128,0,59969:0:0:0:0:
448,192,59969,1,0,0:0:0:0:
320,192,61312,1,0,0:0:0:0:
192,192,61312,1,0,0:0:0:0:
448,192,61536,1,0,0:0:0:0:
64,192,61760,1,0,0:0:0:0:
192,192,61984,1,0,0:0:0:0:
320,192,62208,1,0,0:0:0:0:
64,192,62431,1,0,0:0:0:0:
448,192,62655,1,0,0:0:0:0:
192,192,62879,1,0,0:0:0:0:
320,192,63103,1,0,0:0:0:0:
192,192,63327,1,0,0:0:0:0:
64,192,63551,1,0,0:0:0:0:
448,192,63775,1,0,0:0:0:0:
192,192,63999,1,0,0:0:0:0:
320,192,64222,1,0,0:0:0:0:
64,192,64446,1,0,0:0:0:0:
448,192,64670,1,0,0:0:0:0:
320,192,64894,1,0,0:0:0:0:
192,192,65118,1,0,0:0:0:0:
448,192,65342,1,0,0:0:0:0:
64,192,65566,1,0,0:0:0:0:
448,192,65790,1,0,0:0:0:0:
192,192,66014,1,0,0:0:0:0:
320,192,66237,1,0,0:0:0:0:
64,192,66461,1,0,0:0:0:0:
192,192,66685,1,0,0:0:0:0:
448,192,66909,1,0,0:0:0:0:
64,192,67133,1,0,0:0:0:0:
320,192,67357,1,0,0:0:0:0:
192,192,67581,1,0,0:0:0:0:
448,192,67805,1,0,0:0:0:0:
320,192,68028,128,0,68252:0:0:0:0:
192,192,68252,128,0,68476:0:0:0:0:
448,192,68476,1,0,0:0:0:0:
320,192,68700,1,0,0:0:0:0:
192,192,68924,1,0,0:0:0:0:
64,192,69148,1,0,0:0:0:0:
448,192,69372,1,0,0:0:0:0:
320,192,69596,1,0,0:0:0:0:
192,192,69819,1,0,0:0:0:0:
448,192,70043,1,0,0:0:0:0:
64,192,70267,1,0,0:0:0:0:
192,192,70491,1,0,0:0:0:0:
320,192,70715,1,0,0:0:0:0:
448,192,70939,1,0,0:0:0:0:
64,192,71163,1,0,0:0:0:0:
192,192,71387,1,0,0:0:0:0:
320,192,71611,1,0,0:0:0:0:
64,192,71834,1,0,0:0:0:0:
192,192,72058,1,0,0:0:0:0:
448,192,72282,1,0,0:0:0:0:
320,192,72506,1,0,0:0:0:0:
192,192,72730,1,0,0:0:0:0:
448,192,72954,1,0,0:0:0:0:
64,192,73178,1,0,0:0:0:0:
192,192,73402,1,0,0:0:0:0:
320,192,73625,1,0,0:0:0:0:
64,192,73849,1,0,0:0:0:0:
448,192,73849,128,0,74297:0:0:0:0:
320,192,74297,128,0,74745:0:0:0:0:
192,192,74745,128,0,75193:0:0:0:0:
64,192,75193,128,0,75640:0:0:0:0:
448,192,75640,128,0,76536:0:0:0:0:
320,192,75640,1,0,0:0:0:0:
192,192,75864,1,0,0:0:0:0:
320,192,76312,1,0,0:0:0:0:
64,192,76536,128,0,76984:0:0:0:0:
448,192,76760,1,0,0:0:0:0:
192,192,76984,128,0,77208:0:0:0:0:
448,192,77208,128,0,77431:0:0:0:0:
320,192,77431,128,0,78327:0:0:0:0:
64,192,77655,1,0,0:0:0:0:
192,192,78103,1,0,0:0:0:0:
448,192,78327,128,0,78775:0:0:0:0:
320,192,78551,1,0,0:0:0:0:
64,192,78775,128,0,79222:0:0:0:0:
448,192,78999,1,0,0:0:0:0:
320,192,79222,128,0,80118:0:0:0:0:
192,192,79446,1,0,0:0:0:0:
64,192,79894,1,0,0:0:0:0:
192,192,80118,128,0,81014:0:0:0:0:
448,192,80342,1,0,0:0:0:0:
320,192,80790,1,0,0:0:0:0:
448,192,81014,128,0,81349:0:0:0:0:
64,192,81349,128,0,81685:0:0:0:0:
320,192,81685,128,0,81909:0:0:0:0:
448,192,81909,1,0,0:0:0:0:
320,192,82133,1,0,0:0:0:0:
64,192,82357,1,0,0:0:0:0:
192,192,82581,1,0,0:0:0:0:
448,192,82805,1,0,0:0:0:0:
320,192,82805,1,0,0:0:0:0:
192,192,83028,1,0,0:0:0:0:
448,192,83252,1,0,0:0:0:0:
320,192,83476,1,0,0:0:0:0:
64,192,83700,1,0,0:0:0:0:
192,192,83924,1,0,0:0:0:0:
448,192,84148,1,0,0:0:0:0:
320,192,84372,1,0,0:0:0:0:
192,192,84596,1,0,0:0:0:0:
448,192,84819,1,0,0:0:0:0:
64,192,85043,1,0,0:0:0:0:
192,192,85267,128,0,85491:0:0:0:0:
320,192,85491,128,0,85827:0:0:0:0:
64,192,85827,128,0,86163:0:0:0:0:
448,192,86163,128,0,86387:0:0:0:0:
192,192,86387,1,0,0:0:0:0:
64,192,86387,1,0,0:0:0:0:
448,192,87282,1,0,0:0:0:0:
320,192,87618,1,0,0:0:0:0:
192,192,87954,1,0,0:0:0:0:
64,192,88178,1,0,0:0:0:0:
448,192,88178,1,0,0:0:0:0:
192,192,89073,1,0,0:0:0:0:
320,192,89073,1,0,0:0:0:0:
64,192,89409,1,0,0:0:0:0:
192,192,89409,1,0,0:0:0:0:
320,192,89745,1,0,0:0:0:0:
448,192,89745,1,0,0:0:0:0:
