osu file format v14

[General]
AudioFilename: tomorrow.mp3
AudioLeadIn: 0
PreviewTime: 60257
Countdown: 0
SampleSet: Soft
StackLeniency: 0.7
Mode: 0
LetterboxInBreaks: 0
WidescreenStoryboard: 0

[Editor]
DistanceSpacing: 1.5
BeatDivisor: 4
GridSize: 4
TimelineZoom: 2.1

[Metadata]
Title:TOMORROW
TitleUnicode:TOMORROW
Artist:Machico
ArtistUnicode:Machico
Creator:Little
Version:Xxdeathx's Insane
Source:この素晴らしい世界に祝福を!2
Tags:Kono Subarashii Sekai ni Syukufuku wo! 2 Shukufuku o! KONOSUBA -God's blessing on this wonderful world! anime opening tv size まちこ CloudSplash16 Doormat Irohas MugiwaraSekai Sekaii Sekai-nyan RepL4y xxdeathx Meg iMage--
BeatmapID:1179169
BeatmapSetID:550035

[Difficulty]
HPDrainRate:5
CircleSize:4
OverallDifficulty:7
ApproachRate:9
SliderMultiplier:2.55999999999999
SliderTickRate:2

[Events]
//Background and Video events
0,0,"6c.jpg",0,0
Video,0,"lol.avi"
//Break Periods
//Storyboard Layer 0 (Background)
//Storyboard Layer 1 (Fail)
//Storyboard Layer 2 (Pass)
//Storyboard Layer 3 (Foreground)
//Storyboard Sound Samples

[TimingPoints]
-1422,447.761194029851,4,2,1,50,1,0
369,-83.3333333333333,4,2,1,60,0,0
816,-133.333333333333,4,2,1,50,0,0
2160,-83.3333333333333,4,2,1,60,0,0
2607,-133.333333333333,4,2,1,50,0,0
3951,-83.3333333333333,4,2,1,60,0,0
4398,-133.333333333333,4,2,1,50,0,0
5742,-83.3333333333333,4,2,1,60,0,0
7533,-100,4,2,1,60,0,0
12906,-83.3333333333333,4,2,1,60,0,0
14697,-100,4,2,1,50,0,0
23652,-133.333333333333,4,2,1,50,0,0
24995,-100,4,2,1,50,0,0
25443,-83.3333333333333,4,2,1,50,0,0
27234,-66.6666666666667,4,2,1,60,0,0
29025,-100,4,2,1,50,0,0
37980,-133.333333333333,4,2,1,50,0,0
39772,-83.3333333333333,4,2,1,50,0,0
41563,-66.6666666666667,4,2,1,60,0,0
43354,-133.333333333333,4,2,1,50,0,0
57458,-83.3333333333333,4,2,1,60,0,0
59249,-166.666666666667,4,2,1,50,0,0
59697,-100,4,2,1,40,0,0
61264,-83.3333333333333,4,2,1,70,0,1
73801,-66.6666666666667,4,2,1,70,0,1
74697,-83.3333333333333,4,2,1,70,0,1
75592,-83.3333333333333,4,2,1,70,0,1
86339,-133.333333333333,4,2,1,60,0,0
89025,-88.8888888888889,4,2,1,60,0,0

[Colours]
Combo1 : 0,162,224
Combo2 : 239,0,117
Combo3 : 249,139,0
Combo4 : 161,199,2

[HitObjects]
476,320,369,6,0,P|436:328|400:320,1,76.7999976562498,4|0,0:0|0:0,0:0:0:0:
405,128,592,2,0,P|442:120|479:128,1,76.7999976562498,2|0,0:0|0:0,0:0:0:0:
440,224,816,5,8,0:0:0:0:
440,224,928,2,0,L|372:236,1,48.0000018310546,2|0,0:0|0:0,0:0:0:0:
280,156,1152,1,8,0:0:0:0:
280,156,1264,2,0,L|349:177,1,48.0000018310546,2|8,0:0|0:0,0:0:0:0:
328,76,1488,2,0,L|316:8,1,48.0000018310546,0|2,0:0|0:0,0:0:0:0:
204,112,1712,2,0,L|192:168,1,48.0000018310546,8|0,0:0|0:0,0:0:0:0:
160,352,1936,1,2,0:0:0:0:
160,352,2048,1,0,0:0:0:0:
160,352,2160,6,0,P|140:324|136:280,1,76.7999976562498,4|0,0:0|0:0,0:0:0:0:
296,232,2383,2,0,P|316:260|320:304,1,76.7999976562498,2|0,0:0|0:0,0:0:0:0:
228,292,2607,5,8,0:0:0:0:
228,292,2719,2,0,L|204:228,1,48.0000018310546,2|0,0:0|0:0,0:0:0:0:
248,116,2943,1,8,0:0:0:0:
248,116,3055,2,0,L|240:176,1,48.0000018310546,2|0,0:0|0:0,0:0:0:0:
328,152,3279,2,0,L|376:140,1,48.0000018310546,0|2,0:0|0:0,0:0:0:0:
284,32,3503,2,0,L|228:24,1,48.0000018310546,8|0,0:0|0:0,0:0:0:0:
40,68,3727,1,2,0:0:0:0:
40,68,3839,1,0,0:0:0:0:
40,68,3951,6,0,P|76:52|128:60,1,76.7999976562498,4|0,0:0|0:0,0:0:0:0:
148,228,4175,2,0,P|111:244|59:236,1,76.7999976562498,2|0,0:0|0:0,0:0:0:0:
96,148,4398,5,8,0:0:0:0:
96,148,4510,2,0,L|168:136,1,48.0000018310546,2|0,0:0|0:0,0:0:0:0:
272,192,4734,1,8,0:0:0:0:
272,192,4846,2,0,L|208:176,1,48.0000018310546,2|0,0:0|0:0,0:0:0:0:
228,272,5070,2,0,L|236:336,1,48.0000018310546,0|2,0:0|0:0,0:0:0:0:
348,368,5295,1,8,0:0:0:0:
383,374,5406,1,0,0:0:0:0:
418,368,5518,1,2,0:0:0:0:
448,349,5630,1,0,0:0:0:0:
468,320,5743,6,0,L|456:164,1,153.5999953125,4|0,0:0|0:0,0:0:0:0:
376,88,6078,1,0,0:0:0:0:
348,116,6189,2,0,P|312:137|260:131,1,76.7999976562498,8|0,0:0|0:0,0:0:0:0:
168,12,6413,2,0,P|204:31|224:79,1,76.7999976562498,8|0,0:0|0:0,0:0:0:0:
188,212,6637,5,8,0:0:0:0:
133,223,6748,1,8,0:0:0:0:
90,188,6860,1,8,0:0:0:0:
89,133,6972,1,8,0:0:0:0:
132,97,7085,2,0,L|139:151,6,38.3999988281249,10|0|8|0|8|0|8,0:0|0:0|0:0|0:0|0:0|0:0|0:0,0:0:0:0:
16,68,7533,6,0,P|-9:103|7:191,1,127.999999999999,4|8,0:0|0:0,0:0:0:0:
88,232,7869,2,0,B|134:207|169:259|219:239,1,127.999999999999,2|0,0:0|0:0,0:0:0:0:
304,200,8204,2,0,L|316:288,1,63.9999999999997,8|0,0:0|0:0,0:0:0:0:
332,376,8428,6,0,P|356:356|400:352,1,63.9999999999997,2|0,0:0|0:0,0:0:0:0:
504,328,8652,2,0,P|474:317|449:281,1,63.9999999999997,8|0,0:0|0:0,0:0:0:0:
368,104,8876,1,2,0:0:0:0:
378,75,8987,1,0,0:0:0:0:
408,76,9099,1,8,0:0:0:0:
418,105,9211,1,0,0:0:0:0:
394,122,9324,6,0,B|352:128|352:128|316:108|316:108|272:116,1,127.999999999999,2|8,0:0|0:0,0:0:0:0:
160,128,9660,2,0,B|184:188|184:188|160:264,1,127.999999999999,2|0,0:0|0:0,0:0:0:0:
128,340,9995,2,0,L|192:344,1,63.9999999999997,8|0,0:0|0:0,0:0:0:0:
276,220,10219,6,0,P|266:248|275:300,1,63.9999999999997,2|0,0:0|0:0,0:0:0:0:
372,260,10443,2,0,P|381:231|372:179,1,63.9999999999997,8|0,0:0|0:0,0:0:0:0:
368,44,10667,1,2,0:0:0:0:
368,44,10779,1,0,0:0:0:0:
280,48,10891,2,0,L|196:52,1,63.9999999999997,8|0,0:0|0:0,0:0:0:0:
136,172,11115,6,0,P|192:180|248:124,2,127.999999999999,2|8|2,0:0|0:0|0:0,0:0:0:0:
40,144,11675,1,0,0:0:0:0:
40,144,11786,2,0,B|32:224,1,63.9999999999997,8|0,0:0|0:0,0:0:0:0:
116,312,12010,6,0,L|176:288,1,63.9999999999997,2|0,0:0|0:0,0:0:0:0:
312,236,12234,1,8,0:0:0:0:
312,236,12346,2,0,P|304:271|328:314,1,63.9999999999997,2|0,0:0|0:0,0:0:0:0:
420,352,12570,1,2,0:0:0:0:
420,352,12682,2,0,P|453:340|479:298,1,63.9999999999997,8|0,0:0|0:0,0:0:0:0:
396,116,12906,6,0,B|368:164|428:212|400:264,1,153.5999953125,4|0,0:0|0:0,0:0:0:0:
224,252,13242,2,0,P|245:170|316:148,1,153.5999953125,8|0,0:0|0:0,0:0:0:0:
348,324,13578,2,0,L|244:320,1,76.7999976562498,8|0,0:0|0:0,0:0:0:0:
32,292,13801,5,8,0:0:0:0:
45,252,13912,1,8,0:0:0:0:
58,213,14024,1,8,0:0:0:0:
71,173,14136,1,8,0:0:0:0:
84,124,14248,1,2,0:0:0:0:
111,154,14360,1,2,0:0:0:0:
139,184,14472,1,2,0:0:0:0:
167,214,14584,1,2,0:0:0:0:
122,217,14697,6,0,L|46:213,1,63.9999999999997,4|0,0:0|0:0,0:0:0:0:
84,124,14921,2,0,B|168:116|168:116|224:180|224:180|308:148,1,255.999999999999,8|8,0:0|0:0,0:0:0:0:
400,124,15480,1,0,0:0:0:0:
400,124,15592,2,0,P|384:168|380:204,1,63.9999999999997,2|0,0:0|0:0,0:0:0:0:
320,300,15816,2,0,P|316:252|304:220,1,63.9999999999997,8|0,0:0|0:0,0:0:0:0:
248,84,16040,1,2,0:0:0:0:
248,84,16152,1,0,0:0:0:0:
248,84,16264,2,0,L|316:68,1,63.9999999999997,8|0,0:0|0:0,0:0:0:0:
452,89,16488,6,0,P|400:125|381:197,1,127.999999999999,2|8,0:0|0:0,0:0:0:0:
392,288,16824,1,0,0:0:0:0:
392,288,16936,2,0,B|344:296|320:240|272:252,1,127.999999999999,2|8,0:0|0:0,0:0:0:0:
144,356,17272,1,0,0:0:0:0:
144,356,17383,2,0,L|304:340,1,127.999999999999,2|8,0:0|0:0,0:0:0:0:
32,104,17831,2,0,P|24:136|32:168,1,63.9999999999997,2|0,0:0|0:0,0:0:0:0:
72,268,18055,1,8,0:0:0:0:
204,60,18279,6,0,P|284:28|352:76,1,127.999999999999,2|8,0:0|0:0,0:0:0:0:
392,120,18615,1,0,0:0:0:0:
392,120,18727,2,0,P|412:148|416:180,1,63.9999999999997,2|0,0:0|0:0,0:0:0:0:
392,276,18951,2,0,P|370:302|340:314,1,63.9999999999997,8|0,0:0|0:0,0:0:0:0:
295,199,19175,2,0,L|299:115,1,63.9999999999997,2|0,0:0|0:0,0:0:0:0:
395,56,19398,2,0,L|391:140,1,63.9999999999997,8|0,0:0|0:0,0:0:0:0:
203,216,19622,2,0,L|207:132,1,63.9999999999997,2|0,0:0|0:0,0:0:0:0:
301,71,19846,2,0,L|297:155,1,63.9999999999997,8|0,0:0|0:0,0:0:0:0:
148,304,20070,6,0,P|84:300|52:240,1,127.999999999999,2|8,0:0|0:0,0:0:0:0:
156,40,20518,1,2,0:0:0:0:
156,40,20630,1,0,0:0:0:0:
156,40,20742,2,0,P|180:60|220:68,1,63.9999999999997,8|0,0:0|0:0,0:0:0:0:
384,132,20966,2,0,P|412:120|456:116,2,63.9999999999997,2|0|8,0:0|0:0|0:0,0:0:0:0:
264,184,21301,1,0,0:0:0:0:
296,164,21413,2,0,B|288:124|288:124|304:84|304:84|296:40,1,127.999999999999,2|8,0:0|0:0,0:0:0:0:
48,148,21861,6,0,P|104:168|188:164,1,127.999999999999,4|8,0:0|0:0,0:0:0:0:
296,164,22197,1,0,0:0:0:0:
296,164,22309,2,0,P|268:184|256:232,1,63.9999999999997,2|0,0:0|0:0,0:0:0:0:
268,328,22533,2,0,P|325:369|404:360,2,127.999999999999,8|2|8,0:0|0:0|0:0,0:0:0:0:
356,260,23092,1,0,0:0:0:0:
356,260,23204,2,0,L|424:248,1,63.9999999999997,2|0,0:0|0:0,0:0:0:0:
156,260,23428,2,0,L|88:248,1,63.9999999999997,8|0,0:0|0:0,0:0:0:0:
256,76,23652,5,8,0:0:0:0:
156,260,23988,1,8,0:3:0:0:
356,260,24324,2,0,P|400:244|408:184,1,96.0000036621091,4|0,0:3|0:0,0:0:0:0:
132,112,24772,2,0,L|136:180,1,48.0000018310546,8|0,0:3|0:0,0:0:0:0:
232,308,24995,5,8,0:0:0:0:
272,264,25107,1,8,0:0:0:0:
272,204,25219,2,0,P|264:168|232:140,1,63.9999999999997,8|0,0:2|0:0,0:0:0:0:
24,156,25443,6,0,P|8:200|32:260,1,76.7999976562498,4|0,0:0|0:0,0:0:0:0:
148,336,25667,2,0,L|140:236,1,76.7999976562498,8|0,0:0|0:0,0:0:0:0:
128,60,25891,2,0,P|172:120|252:120,1,153.5999953125,2|8,0:0|0:0,0:0:0:0:
436,124,26227,2,0,P|400:128|364:152,1,76.7999976562498,0|2,0:0|0:0,0:0:0:0:
212,244,26451,2,0,P|251:232|291:237,1,76.7999976562498,0|8,0:0|0:0,0:0:0:0:
435,260,26675,1,0,0:0:0:0:
370,299,26786,2,0,B|338:250|390:197|365:147,1,153.5999953125,2|8,0:0|0:0,0:0:0:0:
216,32,27122,1,0,0:0:0:0:
216,32,27234,6,0,B|180:8|160:68|204:96|252:72|276:24|344:88,1,192.000007324218,4|0,0:0|0:0,0:0:0:0:
416,216,27570,2,0,P|352:232|284:140,1,192.000007324218,8|0,0:0|0:0,0:0:0:0:
440,44,27906,2,0,L|452:148,1,96.0000036621091,8|0,0:0|0:0,0:0:0:0:
404,328,28130,5,8,0:0:0:0:
359,320,28241,1,8,0:0:0:0:
315,313,28353,1,8,0:0:0:0:
270,306,28465,1,8,0:0:0:0:
226,298,28577,1,2,0:0:0:0:
181,291,28689,1,2,0:0:0:0:
137,284,28801,1,2,0:0:0:0:
93,276,28913,1,2,0:0:0:0:
48,269,29025,6,0,L|40:168,1,63.9999999999997,4|0,0:0|0:0,0:0:0:0:
116,72,29249,2,0,B|108:116|108:116|132:148|132:148|140:196,1,127.999999999999,8|2,0:0|0:0,0:0:0:0:
208,264,29585,1,0,0:0:0:0:
208,264,29697,2,0,P|244:244|272:240,1,63.9999999999997,8|0,0:0|0:0,0:0:0:0:
344,156,29921,2,0,L|272:144,1,63.9999999999997,2|0,0:0|0:0,0:0:0:0:
212,40,30145,2,0,L|284:52,1,63.9999999999997,8|0,0:0|0:0,0:0:0:0:
436,136,30369,2,0,P|456:160|464:200,1,63.9999999999997,2|0,0:0|0:0,0:0:0:0:
434,309,30592,2,0,P|412:331|373:344,1,63.9999999999997,8|0,0:0|0:0,0:0:0:0:
340,220,30816,6,0,L|352:72,1,127.999999999999,2|8,0:0|0:0,0:0:0:0:
275,50,31152,1,0,0:0:0:0:
275,50,31264,2,0,B|212:40|212:40|152:76,1,127.999999999999,2|8,0:0|0:0,0:0:0:0:
48,156,31600,1,0,0:0:0:0:
48,156,31712,2,0,B|89:148|89:148|118:172|118:172|172:172,1,127.999999999999,2|8,0:0|0:0,0:0:0:0:
248,236,32048,1,0,0:0:0:0:
248,236,32160,2,0,P|252:268|240:304,1,63.9999999999997,2|0,0:0|0:0,0:0:0:0:
192,356,32383,2,0,P|162:368|124:365,1,63.9999999999997,8|0,0:0|0:0,0:0:0:0:
28,300,32607,6,0,B|80:258|80:258|143:259,1,127.999999999999,2|8,0:0|0:0,0:0:0:0:
243,298,32943,1,0,0:0:0:0:
243,298,33055,2,0,P|264:320|308:332,1,63.9999999999997,2|0,0:0|0:0,0:0:0:0:
392,324,33279,2,0,P|418:309|441:270,1,63.9999999999997,8|0,0:0|0:0,0:0:0:0:
335,211,33503,2,0,L|251:199,1,63.9999999999997,2|0,0:0|0:0,0:0:0:0:
179,289,33727,2,0,L|263:301,1,63.9999999999997,8|0,0:0|0:0,0:0:0:0:
366,117,33951,2,0,L|282:105,1,63.9999999999997,2|0,0:0|0:0,0:0:0:0:
209,193,34175,2,0,L|293:205,1,63.9999999999997,8|0,0:0|0:0,0:0:0:0:
300,17,34398,6,0,P|230:50|213:122,1,127.999999999999,2|8,0:0|0:0,0:0:0:0:
209,193,34734,1,0,0:0:0:0:
209,193,34846,2,0,P|225:217|229:265,2,63.9999999999997,2|0|8,0:0|0:0|0:0,0:0:0:0:
118,141,35182,1,0,0:0:0:0:
118,141,35294,2,0,P|53:157|10:218,1,127.999999999999,2|8,0:0|0:0,0:0:0:0:
79,285,35630,1,0,0:0:0:0:
79,285,35742,2,0,P|106:300|138:303,2,63.9999999999997,2|0|8,0:0|0:0|0:0,0:0:0:0:
264,360,36189,6,0,L|412:344,1,127.999999999999,4|8,0:0|0:0,0:0:0:0:
471,279,36525,1,0,0:0:0:0:
471,279,36637,2,0,P|435:271|402:239,1,63.9999999999997,2|0,0:0|0:0,0:0:0:0:
386,71,36861,2,0,P|397:104|386:150,1,63.9999999999997,8|0,0:0|0:0,0:0:0:0:
248,248,37085,2,0,P|271:221|316:208,1,63.9999999999997,2|0,0:0|0:0,0:0:0:0:
501,146,37309,2,0,P|477:172|432:185,1,63.9999999999997,8|0,0:0|0:0,0:0:0:0:
253,107,37533,2,0,P|288:114|321:146,1,63.9999999999997,2|0,0:0|0:0,0:0:0:0:
344,341,37757,2,0,P|332:307|344:261,1,63.9999999999997,8|0,0:0|0:0,0:0:0:0:
386,71,37980,5,2,0:0:0:0:
126,71,38316,1,8,0:3:0:0:
368,200,38652,2,0,P|412:240|412:292,1,96.0000036621091,4|0,0:3|0:0,0:0:0:0:
126,255,39100,2,0,L|126:179,1,48.0000018310546
256,44,39324,5,8,0:0:0:0:
256,92,39435,1,8,0:0:0:0:
256,140,39547,1,8,0:0:0:0:
256,188,39659,1,8,0:0:0:0:
256,236,39772,6,0,P|256:280|232:320,1,76.7999976562498,4|0,0:0|0:0,0:0:0:0:
56,364,39995,2,0,P|25:341|7:307,1,76.7999976562498,8|0,0:0|0:0,0:0:0:0:
74,73,40219,2,0,B|126:132|126:132|126:221,1,153.5999953125,2|8,0:0|0:0,0:0:0:0:
176,342,40555,2,0,P|204:318|252:310,1,76.7999976562498,0|2,0:0|0:0,0:0:0:0:
428,332,40779,2,0,P|393:319|362:282,1,76.7999976562498,0|8,0:0|0:0,0:0:0:0:
400,136,41003,1,0,0:0:0:0:
348,200,41115,2,0,P|276:224|216:148,1,153.5999953125,2|8,0:0|0:0,0:0:0:0:
160,16,41451,1,0,0:0:0:0:
160,16,41563,6,0,B|144:64|188:104|188:104|136:128|140:188,1,192.000007324218,4|0,0:0|0:0,0:0:0:0:
288,320,41898,2,0,B|424:312|424:312|368:364,1,192.000007324218,8|0,0:0|0:0,0:0:0:0:
196,368,42234,2,0,B|180:324|180:324|192:272,1,96.0000036621091,8|0,0:0|0:0,0:0:0:0:
240,36,42458,5,8,0:0:0:0:
285,48,42569,1,8,0:0:0:0:
330,61,42681,1,8,0:0:0:0:
376,75,42793,1,8,0:0:0:0:
428,92,42906,1,2,0:0:0:0:
376,113,43017,1,2,0:0:0:0:
324,135,43129,1,2,0:0:0:0:
273,158,43241,1,2,0:0:0:0:
221,178,43354,6,0,P|128:200|100:244,1,144.000005493164,4|2,0:0|0:0,0:0:0:0:
288,320,44025,1,8,0:0:0:0:
288,320,44249,2,0,L|300:212,1,96.0000036621091
384,192,44585,1,2,0:0:0:0:
384,192,44697,2,0,L|372:300,1,96.0000036621091,2|8,0:0|0:3,0:0:0:0:
191,276,45145,5,2,0:0:0:0:
384,192,45480,1,2,0:0:0:0:
192,108,45816,1,8,0:0:0:0:
320,72,46040,2,0,P|368:64|432:92,1,96.0000036621091,2|0,0:0|0:0,0:0:0:0:
472,128,46376,1,2,0:0:0:0:
472,128,46488,2,0,L|468:188,1,48.0000018310546,2|0,0:0|0:0,0:0:0:0:
460,256,46712,1,8,0:2:0:0:
316,172,46936,6,0,B|264:152|232:216|176:200,1,144.000005493164,2|2,0:0|0:0,0:0:0:0:
92,160,47383,2,0,L|88:52,1,96.0000036621091,2|8,0:0|0:0,0:0:0:0:
100,256,47831,2,0,P|162:301|234:285,2,144.000005493164,2|2|8,0:0|0:0|0:3,0:0:0:0:
316,172,48727,6,0,P|308:268|316:324,2,144.000005493164,2|2|8,0:0|0:0|0:0,0:0:0:0:
400,64,49622,2,0,P|423:60|447:64,2,48.0000018310546,2|2|0,0:0|0:0|0:0,0:0:0:0:
192,108,50070,2,0,P|216:112|240:108,1,48.0000018310546,2|2,0:0|0:0,0:0:0:0:
316,84,50294,1,8,0:3:0:0:
128,172,50518,6,0,P|93:253|127:296,1,144.000005493164,4|2,0:0|0:0,0:0:0:0:
324,360,51189,1,2,0:0:0:0:
324,360,51413,2,0,P|416:340|476:344,2,144.000005493164,12|2|0,0:0|0:0|0:0,0:0:0:0:
240,248,52309,6,0,B|216:204|261:149|236:100,1,144.000005493164,2|2,0:0|0:0,0:0:0:0:
192,24,52757,2,0,L|296:28,1,96.0000036621091,0|2,0:0|0:0,0:0:0:0:
444,40,53204,2,0,P|376:96|384:160,1,144.000005493164,12|0,0:0|0:0,0:0:0:0:
408,224,53652,2,0,P|448:200|504:204,1,96.0000036621091,2|0,0:0|0:0,0:0:0:0:
324,212,54100,6,0,L|168:204,1,144.000005493164,2|2,0:0|0:0,0:0:0:0:
108,152,54548,2,0,P|148:132|172:88,1,96.0000036621091,0|2,0:0|0:0,0:0:0:0:
16,8,54995,2,0,P|-1:94|40:142,2,144.000005493164,12|2|0,0:0|0:0|0:0,0:0:0:0:
108,152,55891,6,0,L|112:316,1,144.000005493164,2|2,0:0|0:0,0:0:0:0:
160,372,56339,2,0,P|184:340|240:324,1,96.0000036621091,0|2,0:0|0:0,0:0:0:0:
416,364,56786,1,8,0:3:0:0:
204,232,57010,1,8,0:3:0:0:
416,364,57234,1,8,0:3:0:0:
391,115,57458,6,0,B|343:79|415:39|467:91|423:147|380:180|416:244,1,230.399992968749,4|0,0:0|0:0,0:0:0:0:
412,236,57906,1,8,0:0:0:0:
259,91,58130,2,0,P|170:101|131:160,1,153.5999953125,12|0,0:0|0:0,0:0:0:0:
224,180,58466,1,0,0:0:0:0:
224,180,58578,6,0,B|328:172|328:172|292:224,1,153.5999953125,8|0,0:0|0:0,0:0:0:0:
145,231,58913,2,0,B|86:144|86:144|149:150,1,153.5999953125,8|0,0:3|0:0,0:0:0:0:
232,270,59249,6,0,B|186:364|186:364|159:306,1,153.5999953125,4|2,0:3|0:0,0:0:0:0:
166,320,59753,2,0,P|147:319|120:328,3,31.9999999999999,2|2|2|0,0:0|0:0|0:0|0:0,0:0:0:0:
460,116,60816,5,8,0:3:0:0:
460,116,61264,6,0,L|368:128,1,76.7999976562498,4|0,0:0|0:0,0:0:0:0:
268,32,61488,2,0,L|372:44,1,76.7999976562498,8|0,0:0|0:0,0:0:0:0:
184,156,61712,2,0,P|175:118|184:82,1,76.7999976562498,2|0,0:0|0:0,0:0:0:0:
288,124,61936,2,0,P|296:161|287:197,1,76.7999976562498,8|0,0:0|0:0,0:0:0:0:
212,344,62160,6,0,P|203:306|212:270,1,76.7999976562498,2|0,0:0|0:0,0:0:0:0:
372,264,62383,2,0,P|336:296|284:300,1,76.7999976562498,8|0,0:0|0:0,0:0:0:0:
112,300,62607,1,2,0:0:0:0:
112,300,62719,1,0,0:0:0:0:
40,224,62831,2,0,P|72:204|124:200,1,76.7999976562498,8|0,0:0|0:0,0:0:0:0:
286,198,63055,6,0,B|294:146|294:146|330:106|330:106|334:54,2,153.5999953125,2|8|2,0:0|0:0|0:0,0:0:0:0:
264,304,63615,1,0,0:0:0:0:
264,304,63727,2,0,P|240:276|192:264,1,76.7999976562498,8|0,0:0|0:0,0:0:0:0:
36,280,63951,6,0,P|76:276|116:248,1,76.7999976562498,2|0,0:0|0:0,0:0:0:0:
160,180,64175,2,0,P|166:140|149:94,1,76.7999976562498,8|0,0:0|0:0,0:0:0:0:
44,48,64398,1,2,0:0:0:0:
128,16,64510,2,0,L|208:20,1,76.7999976562498,0|8,0:0|0:0,0:0:0:0:
448,24,64734,1,0,0:0:0:0:
396,88,64846,6,0,B|344:92|344:92|300:120|300:120|244:112,1,153.5999953125,2|8,0:0|0:0,0:0:0:0:
456,228,65294,2,0,P|468:196|460:152,1,76.7999976562498,2|0,0:0|0:0,0:0:0:0:
312,44,65518,2,0,P|300:76|308:120,1,76.7999976562498,8|0,0:0|0:0,0:0:0:0:
372,184,65742,5,2,0:0:0:0:
372,184,65854,1,0,0:0:0:0:
279,207,65966,2,0,L|183:211,1,76.7999976562498,8|0,0:0|0:0,0:0:0:0:
8,204,66189,1,2,0:0:0:0:
29,153,66301,1,0,0:0:0:0:
75,125,66413,2,0,P|115:118|169:145,1,76.7999976562498,8|0,0:0|0:0,0:0:0:0:
134,282,66637,6,0,P|107:243|105:206,1,76.7999976562498,2|0,0:0|0:0,0:0:0:0:
244,150,66861,2,0,P|226:192|196:214,1,76.7999976562498,8|0,0:0|0:0,0:0:0:0:
132,44,67085,2,0,L|228:56,1,76.7999976562498,2|0,0:0|0:0,0:0:0:0:
424,104,67309,2,0,L|344:120,1,76.7999976562498,8|0,0:0|0:0,0:0:0:0:
209,284,67533,5,2,0:0:0:0:
209,284,67645,1,0,0:0:0:0:
209,284,67757,2,0,P|196:241|214:192,1,76.7999976562498,8|0,0:0|0:0,0:0:0:0:
512,140,67980,1,8,0:0:0:0:
506,212,68091,1,8,0:0:0:0:
469,275,68203,1,8,0:0:0:0:
409,317,68315,1,8,0:0:0:0:
335,336,68428,6,0,P|283:282|191:294,1,153.5999953125,4|8,0:0|0:0,0:0:0:0:
68,316,68764,1,0,0:0:0:0:
68,316,68876,2,0,P|41:280|41:235,1,76.7999976562498,2|0,0:0|0:0,0:0:0:0:
168,192,69100,2,0,P|150:233|111:255,1,76.7999976562498,8|0,0:0|0:0,0:0:0:0:
40,140,69324,6,0,B|90:137|90:137|128:102|128:102|182:100,1,153.5999953125,2|8,0:0|0:0,0:0:0:0:
280,148,69660,1,0,0:0:0:0:
280,148,69772,2,0,L|240:240,1,76.7999976562498,2|0,0:0|0:0,0:0:0:0:
244,332,69995,2,0,L|320:323,1,76.7999976562498,8|0,0:0|0:0,0:0:0:0:
440,312,70219,6,0,B|400:240|400:240|424:152,1,153.5999953125,2|8,0:0|0:0,0:0:0:0:
460,20,70555,1,0,0:0:0:0:
476,104,70667,2,0,L|388:84,1,76.7999976562498,2|0,0:0|0:0,0:0:0:0:
256,156,70891,2,0,L|340:148,1,76.7999976562498,8|0,0:0|0:0,0:0:0:0:
152,64,71115,6,0,P|140:104|148:140,2,76.7999976562498,2|0|8,0:0|0:0|0:0,0:0:0:0:
248,16,71451,2,0,P|283:28|309:57,1,76.7999976562498,0|2,0:0|0:0,0:0:0:0:
336,244,71675,1,0,0:0:0:0:
404,196,71786,2,0,P|440:192|488:216,1,76.7999976562498,8|0,0:0|0:0,0:0:0:0:
428,328,72010,6,0,L|252:320,1,153.5999953125,2|8,0:0|0:0,0:0:0:0:
96,308,72346,1,0,0:0:0:0:
188,272,72458,2,0,P|217:249|231:202,1,76.7999976562498,2|0,0:0|0:0,0:0:0:0:
111,123,72682,2,0,P|115:159|149:195,1,76.7999976562498,8|0,0:0|0:0,0:0:0:0:
320,244,72906,5,2,0:0:0:0:
320,244,73017,1,0,0:0:0:0:
408,244,73130,2,0,P|404:208|370:172,1,76.7999976562498,8|0,0:0|0:0,0:0:0:0:
212,48,73354,1,2,0:0:0:0:
212,48,73466,1,0,0:0:0:0:
212,48,73578,2,0,L|204:124,1,76.7999976562498,8|0,0:0|0:0,0:0:0:0:
192,352,73801,6,0,B|224:292|280:276|280:276|308:300|360:300,1,192.000007324218,4|8,0:0|0:0,0:0:0:0:
456,296,74137,1,0,0:0:0:0:
359,179,74249,2,0,B|327:167|295:183|295:183|283:167|283:167|247:211|187:211,1,192.000007324218,4|8,0:0|0:0,0:0:0:0:
123,157,74622,1,0,0:0:0:0:
123,157,74697,6,0,P|113:133|116:108,5,51.1999984374999,2|2|2|8|2|2,0:0|0:0|0:0|0:0|0:0|0:0,0:0:0:0:
204,124,75145,1,8,0:0:0:0:
273,91,75256,1,8,0:0:0:0:
349,91,75368,1,8,0:0:0:0:
418,122,75480,1,8,0:0:0:0:
456,204,75592,6,0,B|416:248|472:300|432:352,1,153.5999953125,4|8,0:0|0:0,0:0:0:0:
336,380,75928,1,0,0:0:0:0:
336,380,76040,2,0,P|308:352|264:340,1,76.7999976562498,2|0,0:0|0:0,0:0:0:0:
112,352,76264,2,0,P|150:341|182:309,1,76.7999976562498,8|0,0:0|0:0,0:0:0:0:
8,212,76488,6,0,P|-3:250|9:294,1,76.7999976562498,2|0,0:0|0:0,0:0:0:0:
100,252,76712,2,0,P|107:214|97:177,1,76.7999976562498,8|0,0:0|0:0,0:0:0:0:
64,16,76936,1,2,0:0:0:0:
64,16,77048,1,0,0:0:0:0:
40,104,77160,2,0,L|136:88,1,76.7999976562498,8|0,0:0|0:0,0:0:0:0:
256,76,77383,6,0,B|220:140|220:140|240:244,1,153.5999953125,2|8,0:0|0:0,0:0:0:0:
248,312,77719,1,0,0:0:0:0:
248,312,77831,2,0,L|324:296,1,76.7999976562498,2|0,0:0|0:0,0:0:0:0:
468,360,78055,2,0,L|384:348,1,76.7999976562498,8|0,0:0|0:0,0:0:0:0:
504,212,78279,6,0,P|516:253|504:300,1,76.7999976562498,2|0,2:0|2:0,2:0:0:0:
415,256,78503,2,0,P|402:214|414:167,1,76.7999976562498,8|0,0:0|0:0,0:0:0:0:
504,44,78727,1,2,0:0:0:0:
432,100,78839,2,0,L|340:96,1,76.7999976562498,0|8,0:0|0:0,0:0:0:0:
108,92,79063,1,0,0:0:0:0:
164,164,79175,6,0,B|216:160|216:160|256:188|256:188|316:184,1,153.5999953125,2|8,0:0|0:0,0:0:0:0:
508,304,79622,1,2,0:0:0:0:
508,304,79734,1,0,0:0:0:0:
420,308,79846,2,0,L|320:316,1,76.7999976562498,8|0,0:0|0:0,0:0:0:0:
122,320,80070,6,0,P|150:300|166:256,1,76.7999976562498,2|0,0:0|0:0,0:0:0:0:
42,172,80294,2,0,P|45:206|75:242,1,76.7999976562498,8|0,0:0|0:0,0:0:0:0:
260,276,80518,1,2,0:0:0:0:
252,220,80630,1,0,0:0:0:0:
212,180,80742,2,0,P|181:165|134:173,1,76.7999976562498,8|0,0:0|0:0,0:0:0:0:
208,368,80966,6,0,L|292:356,1,76.7999976562498,2|0,0:0|0:0,0:0:0:0:
472,336,81189,1,8,0:0:0:0:
384,384,81301,1,0,0:0:0:0:
384,384,81413,2,0,L|368:284,1,76.7999976562498,2|0,0:0|0:0,0:0:0:0:
468,152,81637,2,0,L|444:248,1,76.7999976562498,8|0,0:0|0:0,0:0:0:0:
280,280,81861,5,8,0:0:0:0:
227,272,81972,1,8,0:0:0:0:
175,264,82084,1,8,0:0:0:0:
123,256,82196,1,8,0:0:0:0:
68,188,82309,5,8,0:0:0:0:
61,113,82420,1,8,0:0:0:0:
109,55,82532,1,8,0:0:0:0:
184,48,82644,1,8,0:0:0:0:
256,120,82757,6,0,P|308:136|380:72,2,153.5999953125,4|8|2,0:0|0:0|0:0,0:0:0:0:
160,144,83316,1,0,0:0:0:0:
160,144,83428,2,0,L|168:236,1,76.7999976562498,8|0,0:0|0:0,0:0:0:0:
320,356,83652,6,0,P|320:316|348:276,1,76.7999976562498,2|0,0:0|0:0,0:0:0:0:
484,324,83876,2,0,P|449:343|401:339,1,76.7999976562498,8|0,0:0|0:0,0:0:0:0:
230,292,84100,1,2,0:0:0:0:
230,292,84212,1,0,0:0:0:0:
166,220,84324,2,0,P|200:200|248:204,1,76.7999976562498,8|0,0:0|0:0,0:0:0:0:
428,252,84548,6,0,B|400:176|400:176|424:84,1,153.5999953125,2|8,0:0|0:0,0:0:0:0:
456,20,84883,1,0,0:0:0:0:
456,20,84995,2,0,L|352:12,1,76.7999976562498,2|0,0:0|0:0,0:0:0:0:
248,28,85219,2,0,L|288:120,1,76.7999976562498,8|0,0:0|0:0,0:0:0:0:
90,146,85443,6,0,P|114:113|163:101,1,76.7999976562498,2|0,0:0|0:0,0:0:0:0:
173,283,85667,2,0,P|133:278|98:242,1,76.7999976562498,8|0,0:0|0:0,0:0:0:0:
172,190,85891,1,2,0:0:0:0:
172,190,86003,1,0,0:0:0:0:
267,191,86115,2,0,L|351:187,1,76.7999976562498,8|0,0:0|0:0,0:0:0:0:
408,332,86339,6,0,B|315:275|223:424|118:358,1,288.000010986327,4|0,0:0|0:0,0:0:0:0:
127,206,87122,1,0,0:0:0:0:
127,206,87234,2,0,P|164:240|172:292,1,96.0000036621091,8|0,0:3|0:0,0:0:0:0:
0,288,87570,2,0,P|10:238|51:206,1,96.0000036621091,8|0,0:3|0:0,0:0:0:0:
88,284,87906,1,4,0:3:0:0:
272,88,88130,6,0,B|357:44|357:44|360:102,1,144.000005493164,4|0,0:0|0:0,0:0:0:0:
226,167,88578,2,0,B|145:115|145:115|194:83,1,144.000005493164,0|2,0:0|0:0,0:0:0:0:
318,168,89025,6,0,B|312:263|312:263|261:237,1,144.000005493164,8|0,0:0|0:0,0:0:0:0:
272,88,89361,2,0,B|357:44|357:44|360:102,1,144.000005493164,8|0,0:0|0:0,0:0:0:0:
226,167,89697,1,8,0:0:0:0:
