osu file format v14

[General]
AudioFilename: tomorrow.mp3
AudioLeadIn: 0
PreviewTime: 60257
Countdown: 0
SampleSet: Soft
StackLeniency: 0.7
Mode: 0
LetterboxInBreaks: 0
WidescreenStoryboard: 0

[Editor]
DistanceSpacing: 1.2
BeatDivisor: 8
GridSize: 4
TimelineZoom: 4.199998

[Metadata]
Title:TOMORROW
TitleUnicode:TOMORROW
Artist:Machico
ArtistUnicode:Machico
Creator:Little
Version:RepL4y's Insane
Source:この素晴らしい世界に祝福を!2
Tags:Kono Subarashii Sekai ni Syukufuku wo! 2 Shukufuku o! KONOSUBA -God's blessing on this wonderful world! anime opening tv size まちこ CloudSplash16 Doormat Irohas MugiwaraSekai Sekaii Sekai-nyan RepL4y xxdeathx Meg iMage--
BeatmapID:1182784
BeatmapSetID:550035

[Difficulty]
HPDrainRate:6
CircleSize:4.2
OverallDifficulty:7
ApproachRate:9
SliderMultiplier:1.7
SliderTickRate:2

[Events]
//Background and Video events
0,0,"6c.jpg",0,0
Video,0,"lol.avi"
//Break Periods
2,25643,26634
2,39972,40963
//Storyboard Layer 0 (Background)
//Storyboard Layer 1 (Fail)
//Storyboard Layer 2 (Pass)
//Storyboard Layer 3 (Foreground)
//Storyboard Sound Samples

[TimingPoints]
-1422,447.761194029851,4,2,1,50,1,0
369,-76.9230769230769,4,2,1,50,0,0
5742,-66.6666666666667,4,2,1,50,0,0
7309,-58.8235294117647,4,2,1,50,0,0
14697,-66.6666666666667,4,2,1,50,0,0
37980,-58.8235294117647,4,2,1,50,0,0
38204,-58.8235294117647,4,2,1,5,0,0
38316,-58.8235294117647,4,2,1,50,0,0
38540,-76.9230769230769,4,2,1,5,0,0
38652,-58.8235294117647,4,2,1,50,0,0
43354,-76.9230769230769,4,2,1,50,0,0
61264,-55.5555555555556,4,2,1,50,0,1
74697,-55.5555555555556,4,2,1,50,0,0
75592,-55.5555555555556,4,2,1,50,0,1
86339,-66.6666666666667,4,2,1,50,0,0
88130,-133.333333333333,4,2,1,50,0,0

[Colours]
Combo1 : 0,162,224
Combo2 : 239,0,117
Combo3 : 249,139,0
Combo4 : 161,199,2

[HitObjects]
153,132,369,6,8,P|212:136|259:117,1,110.499994941712
377,36,816,2,0,P|408:36|436:48,1,55.2499974708558,2|0,3:0|0:0,0:0:0:0:
471,144,1040,1,2,0:0:0:0:
467,171,1152,1,8,0:0:0:0:
463,198,1264,1,0,0:0:0:0:
460,225,1376,1,8,0:0:0:0:
456,252,1488,1,2,0:0:0:0:
226,256,1712,6,0,P|254:248|295:249,1,55.2499974708558,2|0,3:0|0:0,0:0:0:0:
370,356,1936,2,0,P|342:364|301:363,1,55.2499974708558,0|2,0:0|3:0,0:0:0:0:
226,256,2160,2,8,L|213:122,1,110.499994941712
83,69,2607,2,0,P|112:80|144:80,1,55.2499974708558,2|0,3:0|0:0,0:0:0:0:
263,121,2831,1,2,0:0:0:0:
239,134,2943,1,8,0:0:0:0:
215,146,3055,1,0,0:0:0:0:
191,159,3167,1,8,0:0:0:0:
167,173,3279,1,2,0:0:0:0:
254,37,3503,6,0,P|286:40|321:57,1,55.2499974708558,2|0,3:0|0:0,0:0:0:0:
416,134,3727,2,0,L|483:126,1,55.2499974708558,0|2,0:0|3:0,0:0:0:0:
338,187,3951,2,0,P|334:241|361:302,1,110.499994941712,8|8,0:0|0:0,0:0:0:0:
234,329,4398,6,0,L|118:319,1,110.499994941712,2|2,3:0|0:0,0:0:0:0:
68,273,4734,1,8,0:0:0:0:
68,273,4846,2,0,P|61:245|60:210,1,55.2499974708558,0|8,0:0|0:0,0:0:0:0:
200,197,5070,2,0,P|180:216|157:231,1,55.2499974708558,2|0,0:0|0:0,0:0:0:0:
107,80,5294,1,8,0:0:0:0:
132,69,5406,1,8,0:0:0:0:
157,57,5518,1,8,0:0:0:0:
182,46,5630,1,8,0:0:0:0:
211,33,5742,6,0,P|290:84|380:60,1,191.250007295609,6|0,0:0|0:0,0:0:0:0:
447,124,6189,2,0,B|452:177|452:177|415:321,1,191.250007295609,6|0,0:0|0:0,0:0:0:0:
278,316,6637,5,0,3:0:0:0:
283,356,6749,1,0,3:0:0:0:
245,374,6861,1,0,3:0:0:0:
217,343,6973,1,0,3:0:0:0:
237,307,7085,2,8,P|245:276|244:235,1,63.7500024318696
148,33,7309,2,8,L|161:127,1,72.2500013780594
231,156,7533,6,0,P|297:128|380:149,1,144.500002756119,6|8,0:0|0:0,0:0:0:0:
438,203,7869,1,2,0:0:0:0:
252,59,8092,1,2,0:0:0:0:
252,59,8204,2,0,L|157:56,1,72.2500013780594,8|0,0:0|0:0,0:0:0:0:
104,103,8428,2,0,P|123:173|92:246,1,144.500002756119,2|8,0:0|0:0,0:0:0:0:
24,284,8764,1,0,0:0:0:0:
95,332,8876,2,0,P|133:332|173:317,1,72.2500013780594,2|2,0:0|0:0,0:0:0:0:
196,243,9100,2,0,L|177:157,1,72.2500013780594,8|0,0:0|0:0,0:0:0:0:
54,62,9324,6,0,L|43:209,1,144.500002756119,2|8,0:0|0:0,0:0:0:0:
126,253,9660,2,0,P|160:244|212:246,1,72.2500013780594,2|0,0:0|0:0,0:0:0:0:
284,326,9883,1,2,0:0:0:0:
284,326,9995,2,0,P|320:325|354:315,1,72.2500013780594,8|0,0:0|0:0,0:0:0:0:
412,199,10219,6,0,P|417:123|467:73,1,144.500002756119,2|8,0:0|0:0,0:0:0:0:
498,165,10555,1,2,0:0:0:0:
412,199,10667,2,0,L|317:188,1,72.2500013780594,0|2,0:0|0:0,0:0:0:0:
156,101,10891,2,0,P|192:101|238:81,1,72.2500013780594,8|0,0:0|0:0,0:0:0:0:
104,28,11115,6,0,P|72:79|89:160,1,144.500002756119,2|8,0:0|0:0,0:0:0:0:
388,268,11563,2,0,L|467:261,1,72.2500013780594,2|2,0:0|0:0,0:0:0:0:
351,353,11786,2,0,P|316:363|278:358,1,72.2500013780594,8|0,0:0|0:0,0:0:0:0:
204,302,12010,2,0,L|223:146,1,144.500002756119,2|8,0:0|0:0,0:0:0:0:
290,28,12346,2,0,P|289:95|337:157,1,144.500002756119,2|2,0:0|0:0,0:0:0:0:
441,67,12682,2,0,P|405:65|369:72,1,72.2500013780594,8|0,0:0|0:0,0:0:0:0:
221,158,12906,5,8,0:0:0:0:
221,158,13018,2,0,L|128:151,1,72.2500013780594,0|2,0:0|0:0,0:0:0:0:
17,105,13242,1,8,0:0:0:0:
17,105,13354,2,0,P|32:75|34:27,1,72.2500013780594,0|2,0:0|0:0,0:0:0:0:
60,203,13578,2,0,L|74:299,1,72.2500013780594,8|0,0:0|0:0,0:0:0:0:
137,347,13801,5,8,0:0:0:0:
166,339,13913,1,8,0:0:0:0:
194,333,14025,1,8,0:0:0:0:
222,326,14137,1,8,0:0:0:0:
250,321,14249,2,2,L|348:327,1,72.2500013780594,8|2,0:3|0:0,0:0:0:0:
499,265,14473,2,0,P|468:274|420:270,1,72.2500013780594,2|2,0:0|0:0,0:0:0:0:
343,219,14697,6,0,L|333:80,1,127.500004863739,6|8,0:0|0:0,0:0:0:0:
152,83,15145,2,0,P|150:51|136:17,1,63.7500024318696,2|0,0:0|0:0,0:0:0:0:
66,73,15369,1,8,0:0:0:0:
66,73,15480,1,0,0:0:0:0:
66,73,15592,2,0,L|75:200,1,127.500004863739,2|8,0:0|0:0,0:0:0:0:
126,289,15928,1,0,0:0:0:0:
126,289,16040,2,0,P|156:296|198:294,1,63.7500024318696,2|0,0:0|0:0,0:0:0:0:
272,355,16264,2,0,P|302:347|334:348,1,63.7500024318696,8|0,0:0|0:0,0:0:0:0:
425,300,16488,6,0,B|443:276|443:276|454:175,1,127.500004863739,2|8,0:0|0:0,0:0:0:0:
372,39,16936,1,2,0:0:0:0:
372,39,17048,1,0,0:0:0:0:
372,39,17160,2,0,L|297:46,1,63.7500024318696,8|0,0:0|0:0,0:0:0:0:
234,118,17383,2,0,L|170:112,1,63.7500024318696,2|0,0:0|0:0,0:0:0:0:
25,200,17607,2,8,P|57:203|94:192,1,63.7500024318696,8|0,0:0|0:0,0:0:0:0:
180,210,17831,2,0,L|173:288,1,63.7500024318696,2|0,0:0|0:0,0:0:0:0:
328,277,18055,2,0,P|299:260|261:257,1,63.7500024318696,8|0,0:0|0:0,0:0:0:0:
270,347,18279,6,0,P|326:370|402:342,1,127.500004863739,6|8,0:0|0:0,0:0:0:0:
497,189,18727,1,2,0:0:0:0:
497,189,18839,1,0,0:0:0:0:
497,189,18951,2,0,L|488:115,1,63.7500024318696,8|0,0:0|0:0,0:0:0:0:
343,149,19175,2,0,P|373:160|420:163,1,63.7500024318696,2|0,0:0|0:0,0:0:0:0:
267,63,19398,2,0,L|191:71,1,63.7500024318696,8|0,0:0|0:0,0:0:0:0:
111,131,19622,1,2,0:0:0:0:
111,131,19734,1,0,0:0:0:0:
111,131,19846,2,0,P|81:133|37:114,1,63.7500024318696,8|0,0:0|0:0,0:0:0:0:
200,181,20070,6,0,L|193:317,1,127.500004863739,2|8,0:0|0:0,0:0:0:0:
321,153,20518,1,2,0:0:0:0:
321,153,20630,1,0,0:0:0:0:
321,153,20742,2,0,L|305:80,1,63.7500024318696,8|0,0:0|0:0,0:0:0:0:
412,38,20966,2,0,P|414:70|403:106,1,63.7500024318696,2|0,0:0|0:0,0:0:0:0:
321,153,21189,2,0,L|246:146,1,63.7500024318696,8|0,0:0|0:0,0:0:0:0:
47,86,21413,2,0,L|122:79,1,63.7500024318696,2|0,0:0|0:0,0:0:0:0:
297,66,21637,1,8,0:0:0:0:
58,204,21861,6,0,P|52:269|85:334,1,127.500004863739,6|8,0:0|0:0,0:0:0:0:
206,249,22197,1,0,0:0:0:0:
206,249,22309,2,0,P|174:247|143:254,1,63.7500024318696,2|0,0:0|0:0,0:0:0:0:
250,354,22533,2,0,L|323:344,1,63.7500024318696,8|0,0:0|0:0,0:0:0:0:
388,329,22757,6,0,P|400:271|365:211,1,127.500004863739,2|8,0:0|0:0,0:0:0:0:
311,159,23092,1,0,0:0:0:0:
311,159,23204,2,0,P|279:104|291:43,1,127.500004863739,2|8,0:0|0:0,0:0:0:0:
207,93,23540,5,0,0:0:0:0:
207,93,23652,2,0,P|180:101|138:99,1,63.7500024318696,8|0,0:0|0:0,0:0:0:0:
41,154,23876,1,0,0:0:0:0:
41,154,23988,2,0,L|49:240,1,63.7500024318696,8|0,0:3|0:0,0:0:0:0:
187,351,24212,1,0,0:0:0:0:
187,351,24324,2,0,L|181:287,1,63.7500024318696,2|0,0:0|0:0,0:0:0:0:
186,75,24548,6,0,P|218:76|268:109,1,63.7500024318696
317,13,24772,2,0,P|338:36|350:95,1,63.7500024318696,0|0,3:0|3:0,3:0:0:0:
459,115,24995,1,8,0:0:0:0:
456,140,25107,1,8,0:0:0:0:
452,165,25219,1,2,0:0:0:0:
447,190,25331,1,0,0:0:0:0:
441,214,25443,1,4,0:0:0:0:
328,342,27234,5,8,0:0:0:0:
328,342,27346,2,0,P|367:351|419:348,1,63.7500024318696,0|2,0:0|0:0,0:0:0:0:
190,242,27570,1,8,0:0:0:0:
190,242,27682,2,0,P|161:271|137:317,1,63.7500024318696,0|2,0:0|0:0,0:0:0:0:
342,173,27906,2,0,P|330:134|302:90,1,63.7500024318696,8|0,0:0|0:0,0:0:0:0:
243,74,28130,5,0,3:0:0:0:
213,69,28242,1,0,3:0:0:0:
182,67,28354,1,0,3:0:0:0:
150,64,28466,1,0,3:0:0:0:
118,61,28578,2,0,P|127:90|126:140,1,63.7500024318696,8|2,3:0|0:0,0:0:0:0:
16,196,28801,2,0,P|17:227|26:258,1,63.7500024318696,2|2,0:0|0:0,0:0:0:0:
128,341,29025,6,0,L|266:327,1,127.500004863739,4|8,0:0|0:0,0:0:0:0:
471,182,29473,1,2,0:0:0:0:
471,182,29585,1,0,0:0:0:0:
471,182,29697,2,0,P|484:214|484:260,1,63.7500024318696,8|0,0:0|0:0,0:0:0:0:
367,204,29921,2,0,L|388:68,1,127.500004863739,2|8,0:0|0:0,0:0:0:0:
306,128,30257,5,0,0:0:0:0:
306,128,30369,2,0,P|275:133|235:131,1,63.7500024318696,2|0,0:0|0:0,0:0:0:0:
127,57,30592,2,0,L|203:47,1,63.7500024318696,8|0,0:0|0:0,0:0:0:0:
59,11,30816,6,0,P|48:73|86:128,1,127.500004863739,2|8,0:0|0:0,0:0:0:0:
142,177,31152,1,0,0:0:0:0:
142,177,31264,2,0,L|134:258,1,63.7500024318696,2|0,0:0|0:0,0:0:0:0:
185,308,31488,2,0,P|216:316|255:311,1,63.7500024318696,8|0,0:0|0:0,0:0:0:0:
327,263,31712,6,0,L|459:253,1,127.500004863739,2|8,0:0|0:0,0:0:0:0:
398,335,32048,1,0,0:0:0:0:
327,263,32160,2,0,P|322:233|328:193,1,63.7500024318696,2|0,0:0|0:0,0:0:0:0:
429,175,32383,2,0,P|434:145|428:105,1,63.7500024318696,8|0,0:0|0:0,0:0:0:0:
323,36,32607,6,0,L|183:45,1,127.500004863739,6|8,0:0|0:0,0:0:0:0:
34,134,33055,2,0,P|32:168|37:205,1,63.7500024318696,2|0,0:0|0:0,0:0:0:0:
167,316,33279,2,0,P|170:284|168:252,1,63.7500024318696,8|0,0:0|0:0,0:0:0:0:
108,99,33503,1,2,0:0:0:0:
108,99,33615,1,0,0:0:0:0:
108,99,33727,2,0,L|31:108,1,63.7500024318696,8|0,0:0|0:0,0:0:0:0:
187,41,33951,6,0,P|217:51|258:51,1,63.7500024318696,2|0,0:0|0:0,0:0:0:0:
340,4,34175,2,0,P|371:5|401:15,1,63.7500024318696,8|0,0:0|0:0,0:0:0:0:
464,100,34398,2,0,L|452:234,1,127.500004863739,6|8,0:0|0:0,0:0:0:0:
288,271,34846,1,2,0:0:0:0:
288,271,34958,1,0,0:0:0:0:
288,271,35070,2,0,P|294:240|310:207,1,63.7500024318696,8|0,0:0|0:0,0:0:0:0:
367,333,35294,6,0,P|317:362|240:358,1,127.500004863739,2|8,0:0|0:0,0:0:0:0:
164,296,35630,1,0,0:0:0:0:
164,296,35742,2,0,L|89:291,1,63.7500024318696,2|0,0:0|0:0,0:0:0:0:
2,194,35966,2,0,L|77:189,1,63.7500024318696,8|0,0:0|0:0,0:0:0:0:
179,154,36189,6,0,P|200:95|175:25,1,127.500004863739,6|8,0:0|0:0,0:0:0:0:
118,92,36525,1,0,0:0:0:0:
179,154,36637,2,0,L|256:146,1,63.7500024318696,2|0,0:0|0:0,0:0:0:0:
298,59,36861,2,0,L|372:65,1,63.7500024318696,8|0,0:0|0:0,0:0:0:0:
473,164,37085,6,0,B|478:204|478:204|454:293,1,127.500004863739,2|8,0:0|0:0,0:0:0:0:
379,354,37421,1,0,0:0:0:0:
379,354,37533,2,0,P|346:352|308:363,1,63.7500024318696,2|0,0:0|0:0,0:0:0:0:
250,289,37757,2,0,P|219:296|187:294,1,63.7500024318696,8|0,0:0|0:0,0:0:0:0:
118,240,37980,6,0,L|105:88,1,144.500002756119,4|0,0:0|0:0,0:0:0:0:
153,29,38316,2,0,P|220:60|303:58,1,144.500002756119,4|0,0:0|0:0,0:0:0:0:
422,34,38652,2,0,P|457:47|483:74,1,72.2500013780594,8|0,3:0|0:0,0:0:0:0:
383,193,38876,2,0,L|371:108,1,72.2500013780594,2|0,0:0|0:0,0:0:0:0:
492,223,39100,2,0,L|471:308,1,72.2500013780594,8|0,0:0|0:0,0:0:0:0:
400,379,39324,5,8,0:0:0:0:
364,371,39436,1,8,0:0:0:0:
329,359,39548,1,2,0:0:0:0:
294,346,39660,1,0,0:0:0:0:
260,333,39772,1,4,0:0:0:0:
201,337,41563,5,8,0:0:0:0:
201,337,41675,2,0,P|169:326|118:326,1,72.2500013780594,0|2,0:0|0:0,0:0:0:0:
51,251,41898,1,8,0:0:0:0:
51,251,42010,2,0,L|61:166,1,72.2500013780594
212,95,42234,2,0,P|180:106|129:106,1,72.2500013780594,8|2,0:0|0:0,0:0:0:0:
172,1,42458,5,8,0:0:0:0:
205,7,42570,1,8,0:0:0:0:
241,13,42682,1,8,0:0:0:0:
276,19,42794,1,8,0:0:0:0:
309,25,42906,2,0,L|407:20,1,72.2500013780594,8|2,0:3|0:0,0:0:0:0:
353,99,43130,2,0,L|281:103,1,72.2500013780594,2|2,0:0|0:0,0:0:0:0:
431,91,43354,6,0,P|463:163|442:261,1,165.749992412568,4|0,0:0|0:0,0:0:0:0:
449,246,43801,1,0,0:0:0:0:
257,206,44025,2,0,P|312:184|373:182,1,110.499994941712,8|2,0:0|3:0,0:0:0:0:
79,97,44585,1,8,0:3:0:0:
332,284,44921,1,8,3:0:0:0:
68,183,45145,5,0,0:0:0:0:
184,88,45369,2,0,L|180:25,1,55.2499974708558,0|0,3:0|3:0,3:0:0:0:
248,130,45592,2,0,P|306:134|358:118,1,110.499994941712,0|8,0:0|0:0,0:0:0:0:
508,55,46040,2,0,L|497:229,1,165.749992412568,4|8,0:0|3:0,0:0:0:0:
432,289,46488,2,0,P|404:283|356:286,1,55.2499974708558
321,356,46712,2,2,P|293:355|266:349,1,55.2499974708558,2|0,0:0|0:0,0:0:0:0:
212,269,46936,6,0,B|178:287|178:287|37:267,1,165.749992412568,2|2,0:0|0:0,0:0:0:0:
0,207,47383,2,0,P|-9:153|2:98,1,110.499994941712,0|8,0:0|0:0,0:0:0:0:
139,25,47831,2,0,P|185:73|196:2,1,165.749992412568,2|8,0:0|3:0,0:0:0:0:
235,68,48279,2,0,L|347:57,1,110.499994941712,0|2,0:0|0:0,0:0:0:0:
428,97,48615,1,0,0:0:0:0:
428,97,48727,2,0,P|447:144|445:217,1,110.499994941712,2|0,0:0|0:0,0:0:0:0:
303,183,49063,6,0,P|328:172|355:167,1,55.2499974708558,2|0,0:0|0:0,0:0:0:0:
364,312,49286,1,0,0:0:0:0:
364,312,49398,2,0,P|309:327|250:314,1,110.499994941712,8|0,0:0|0:0,0:0:0:0:
195,258,49734,1,8,3:0:0:0:
112,36,50070,1,8,3:0:0:0:
87,54,50182,1,8,3:0:0:0:
62,72,50294,2,0,L|53:143,1,55.2499974708558,2|0,0:0|0:0,0:0:0:0:
97,297,50518,6,0,P|169:332|253:312,1,165.749992412568,4|0,0:0|0:0,0:0:0:0:
319,262,50966,2,0,L|323:145,1,110.499994941712,0|8,0:0|0:0,0:0:0:0:
464,37,51413,2,0,P|500:102|491:219,1,165.749992412568,4|0,0:0|0:0,0:0:0:0:
457,272,51861,1,2,3:0:0:0:
52,78,52309,6,2,L|222:62,1,165.749992412568
292,119,52757,2,0,P|310:169|308:235,1,110.499994941712,2|0,3:0|0:0,0:0:0:0:
355,312,53092,1,0,0:0:0:0:
355,312,53204,2,0,P|432:301|509:352,2,165.749992412568,8|8|2,0:0|3:0|3:0,0:0:0:0:
212,152,54100,2,0,B|47:137,1,165.749992412568,4|0,0:0|0:0,0:0:0:0:
47,137,54548,1,2,3:0:0:0:
152,23,54772,5,0,0:0:0:0:
297,84,54995,2,0,P|318:163|285:241,1,165.749992412568,4|0,0:0|0:0,0:0:0:0:
377,260,55443,2,0,L|498:247,1,110.499994941712,2|0,3:0|0:0,0:0:0:0:
415,140,55891,2,0,P|337:157|253:110,1,165.749992412568,4|0,0:0|0:0,0:0:0:0:
217,190,56339,2,0,L|237:338,1,110.499994941712,2|0,3:0|0:0,0:0:0:0:
231,299,56675,1,0,0:0:0:0:
231,299,56786,1,8,3:0:0:0:
72,175,57010,5,8,3:0:0:0:
322,71,57234,1,2,0:0:0:0:
146,330,57458,2,0,P|211:381|295:363,1,165.749992412568,4|0,0:0|0:0,0:0:0:0:
352,325,57906,2,4,P|399:300|474:310,1,110.499994941712
231,291,58354,5,0,0:0:0:0:
231,291,58466,1,0,0:0:0:0:
231,291,58578,2,0,L|241:166,1,110.499994941712,8|0,0:0|0:0,0:0:0:0:
112,72,58913,2,0,P|103:130|129:200,1,110.499994941712,8|0,0:0|0:0,0:0:0:0:
231,291,59249,2,0,L|453:272,1,220.999989883423,8|0,0:0|0:0,0:0:0:0:
500,218,59753,2,0,L|512:194,3,27.6249987354279,8|2|2|2,3:0|0:0|0:0|0:0,0:0:0:0:
80,66,60816,5,8,3:0:0:0:
80,66,61264,6,0,P|150:91|236:80,1,152.999995330811,4|8,0:0|0:0,0:0:0:0:
497,69,61712,1,2,0:0:0:0:
480,85,61824,1,0,0:0:0:0:
464,101,61936,2,0,L|461:184,1,76.4999976654053,8|0,0:0|0:0,0:0:0:0:
399,308,62160,6,0,B|356:286|356:286|240:301,1,152.999995330811,2|8,0:0|0:0,0:0:0:0:
186,260,62495,1,0,0:0:0:0:
186,260,62607,2,0,P|173:227|173:181,1,76.4999976654053,2|0,0:0|0:0,0:0:0:0:
311,121,62831,2,0,P|310:82|296:47,1,76.4999976654053,8|0,0:0|0:0,0:0:0:0:
215,12,63055,6,0,L|47:23,1,152.999995330811,2|8,0:0|0:0,0:0:0:0:
17,84,63391,1,0,0:0:0:0:
92,97,63503,2,0,P|96:136|84:188,1,76.4999976654053,2|0,0:0|0:0,0:0:0:0:
26,296,63727,1,8,0:0:0:0:
205,249,63951,5,2,0:0:0:0:
226,269,64063,1,0,0:0:0:0:
247,290,64175,2,0,P|282:300|330:293,1,76.4999976654053,8|2,0:0|0:0,0:0:0:0:
462,238,64398,1,0,0:0:0:0:
441,215,64510,1,2,0:0:0:0:
420,192,64622,2,0,L|424:108,1,76.4999976654053,8|0,0:0|0:0,0:0:0:0:
391,32,64846,6,0,P|319:5|238:20,1,152.999995330811,2|8,0:0|0:0,0:0:0:0:
187,80,65182,1,0,0:0:0:0:
187,80,65294,2,0,L|193:164,1,76.4999976654053,2|0,0:0|0:0,0:0:0:0:
295,193,65518,2,0,L|282:280,1,76.4999976654053,8|0,0:0|0:0,0:0:0:0:
212,347,65742,6,0,P|145:374|66:358,1,152.999995330811,2|8,0:0|0:0,0:0:0:0:
126,206,66077,1,0,0:0:0:0:
126,206,66189,2,0,P|137:240|131:297,1,76.4999976654053,2|0,0:0|0:0,0:0:0:0:
24,211,66413,1,8,0:0:0:0:
32,181,66525,1,0,0:0:0:0:
40,151,66637,6,0,L|36:60,1,76.4999976654053,2|0,0:0|0:0,0:0:0:0:
191,111,66861,2,0,P|158:124|112:126,1,76.4999976654053,8|0,0:0|0:0,0:0:0:0:
132,14,67085,2,0,L|292:35,1,152.999995330811,2|8,0:0|0:0,0:0:0:0:
448,109,67421,5,0,0:0:0:0:
448,109,67533,2,0,P|462:142|465:192,1,76.4999976654053,2|0,0:0|0:0,0:0:0:0:
335,167,67757,2,0,P|321:200|288:237,1,76.4999976654053,8|0,0:0|0:0,0:0:0:0:
218,126,67980,1,8,0:0:0:0:
187,122,68092,1,8,0:0:0:0:
156,118,68204,1,8,0:0:0:0:
125,112,68316,1,8,0:0:0:0:
94,107,68428,6,0,P|86:145|97:191,1,76.4999976654053,2|0,0:0|0:0,0:0:0:0:
203,215,68652,2,0,P|210:252|204:289,1,76.4999976654053,8|0,0:0|0:0,0:0:0:0:
303,348,68876,2,0,L|390:343,1,76.4999976654053,2|0,0:0|0:0,0:0:0:0:
491,253,69100,2,0,L|391:244,1,76.4999976654053,8|0,0:0|0:0,0:0:0:0:
330,191,69324,6,0,P|305:121|341:51,1,152.999995330811,2|8,0:0|0:0,0:0:0:0:
390,127,69660,1,0,0:0:0:0:
330,191,69772,2,0,P|296:196|248:188,1,76.4999976654053,2|0,0:0|0:0,0:0:0:0:
122,80,69995,2,0,L|128:180,1,76.4999976654053,8|0,0:0|0:0,0:0:0:0:
65,342,70219,6,0,P|39:275|57:196,1,152.999995330811,2|8,0:0|0:0,0:0:0:0:
126,156,70555,1,0,0:0:0:0:
194,211,70667,2,0,L|270:205,1,76.4999976654053,2|0,0:0|0:0,0:0:0:0:
322,115,70891,2,8,L|410:122,1,76.4999976654053
495,182,71115,6,0,P|504:260|462:340,1,152.999995330811,2|8,0:0|0:0,0:0:0:0:
374,309,71451,2,2,B|320:317|320:317|277:305|277:305|209:313,1,152.999995330811
136,262,71786,2,0,P|139:222|132:182,1,76.4999976654053,8|0,0:0|0:0,0:0:0:0:
33,75,72010,2,0,P|27:112|31:151,1,76.4999976654053,2|0,0:0|0:0,0:0:0:0:
136,262,72234,2,0,L|225:255,1,76.4999976654053,8|0,0:0|0:0,0:0:0:0:
331,323,72458,6,0,P|368:325|414:308,1,76.4999976654053,2|0,0:0|0:0,0:0:0:0:
461,256,72682,2,0,L|453:179,1,76.4999976654053,8|0,0:0|0:0,0:0:0:0:
350,0,72906,2,0,L|342:76,1,76.4999976654053,2|0,0:0|0:0,0:0:0:0:
274,110,73130,2,0,P|238:101|188:102,1,76.4999976654053,8|0,0:0|0:0,0:0:0:0:
38,168,73354,6,0,L|43:253,1,76.4999976654053,2|2,0:0|0:0,0:0:0:0:
215,250,73578,2,0,L|200:337,1,76.4999976654053,8|0,0:0|0:0,0:0:0:0:
158,186,73801,2,0,P|229:170|301:228,1,152.999995330811,4|0,0:0|0:0,0:0:0:0:
392,287,74137,1,0,0:0:0:0:
392,287,74249,2,0,L|375:116,1,152.999995330811,4|0,0:0|0:0,0:0:0:0:
298,36,74585,5,0,0:0:0:0:
228,74,74697,2,0,P|195:74|154:62,1,76.4999976654053,4|0,0:0|3:0,3:0:0:0:
40,118,74921,2,0,P|73:118|114:130,1,76.4999976654053,0|0,3:0|3:0,3:0:0:0:
69,203,75145,1,8,0:0:0:0:
72,233,75257,1,8,0:0:0:0:
75,263,75369,1,8,0:0:0:0:
76,293,75480,1,8,0:0:0:0:
79,323,75592,6,0,B|119:327|138:317|138:317|173:336|173:336|200:327|238:330,1,152.999995330811,2|8,0:0|0:0,0:0:0:0:
317,367,75928,1,0,0:0:0:0:
317,367,76040,2,0,P|357:368|400:353,1,76.4999976654053,2|0,0:0|0:0,0:0:0:0:
465,204,76264,2,0,L|459:294,1,76.4999976654053,8|0,0:0|0:0,0:0:0:0:
332,236,76488,2,0,P|330:160|370:98,1,152.999995330811,2|8,0:0|0:0,0:0:0:0:
260,130,76824,5,0,0:0:0:0:
260,130,76936,2,0,P|227:141|174:139,1,76.4999976654053,2|0,0:0|0:0,0:0:0:0:
39,46,77160,2,0,P|72:35|125:37,1,76.4999976654053,8|0,0:0|0:0,0:0:0:0:
186,142,77383,2,0,L|174:298,1,152.999995330811,2|8,0:0|0:0,0:0:0:0:
233,366,77719,1,0,0:0:0:0:
311,317,77831,2,0,P|348:306|394:308,1,76.4999976654053,2|0,0:0|0:0,0:0:0:0:
512,229,78055,2,0,P|475:218|429:220,1,76.4999976654053,8|0,0:0|0:0,0:0:0:0:
359,163,78279,5,2,0:0:0:0:
354,132,78391,1,0,0:0:0:0:
348,101,78503,2,0,L|359:20,1,76.4999976654053,8|2,0:0|0:0,0:0:0:0:
243,109,78727,1,0,0:0:0:0:
218,127,78839,1,2,0:0:0:0:
192,143,78951,2,0,P|155:147|110:131,1,76.4999976654053,8|0,0:0|0:0,0:0:0:0:
0,65,79175,6,0,B|27:104|27:104|41:211,1,152.999995330811,2|8,0:0|0:0,0:0:0:0:
58,283,79510,1,0,0:0:0:0:
58,283,79622,2,0,P|125:316|216:283,1,152.999995330811,2|8,0:0|0:0,0:0:0:0:
278,255,79958,1,0,0:0:0:0:
278,255,80070,2,0,P|314:245|357:248,1,76.4999976654053,2|0,0:0|0:0,0:0:0:0:
477,352,80294,2,0,P|441:362|398:359,1,76.4999976654053,8|0,0:0|0:0,0:0:0:0:
278,255,80518,6,0,L|287:155,1,76.4999976654053,2|2,0:0|0:0,0:0:0:0:
391,105,80742,2,0,L|405:199,1,76.4999976654053,8|0,0:0|0:0,0:0:0:0:
453,48,80966,2,0,P|380:26|317:64,1,152.999995330811,2|8,0:0|0:0,0:0:0:0:
269,122,81301,1,0,0:0:0:0:
196,96,81413,2,2,L|104:92,1,76.4999976654053
0,204,81637,2,0,L|76:207,1,76.4999976654053,8|0,0:0|0:0,0:0:0:0:
212,256,81861,5,0,3:0:0:0:
207,296,81973,1,0,3:0:0:0:
245,314,82085,1,0,3:0:0:0:
273,283,82197,1,0,3:0:0:0:
253,247,82309,5,8,0:0:0:0:
245,201,82421,1,8,0:0:0:0:
246,156,82533,1,8,0:0:0:0:
262,113,82645,1,0,0:0:0:0:
294,80,82757,6,0,L|392:70,1,76.4999976654053,2|0,0:0|0:0,0:0:0:0:
348,178,82980,2,0,L|446:168,1,76.4999976654053,8|0,0:0|0:0,0:0:0:0:
273,283,83204,2,0,L|371:273,1,76.4999976654053,2|0,0:0|0:0,0:0:0:0:
148,342,83428,5,8,0:0:0:0:
117,336,83540,1,0,0:0:0:0:
87,328,83652,2,0,P|74:295|75:233,1,76.4999976654053,2|0,0:0|0:0,0:0:0:0:
10,174,83876,2,0,P|24:141|68:98,1,76.4999976654053,8|0,0:0|0:0,0:0:0:0:
91,19,84100,2,0,P|124:6|186:7,1,76.4999976654053,2|2,0:0|0:0,0:0:0:0:
349,60,84324,6,0,L|342:155,1,76.4999976654053,8|0,0:0|0:0,0:0:0:0:
223,320,84548,1,2,0:0:0:0:
259,309,84660,1,0,0:0:0:0:
295,297,84772,2,0,P|330:307|376:302,1,76.4999976654053,8|0,0:0|0:0,0:0:0:0:
494,200,84995,2,0,P|459:190|413:195,1,76.4999976654053,2|0,0:0|0:0,0:0:0:0:
343,136,85219,6,0,L|349:60,1,76.4999976654053,8|0,0:0|0:0,0:0:0:0:
190,89,85443,2,0,P|223:110|266:117,1,76.4999976654053,2|0,0:0|0:0,0:0:0:0:
202,6,85667,1,8,0:0:0:0:
164,14,85779,1,0,0:0:0:0:
128,27,85891,2,0,L|38:18,1,76.4999976654053,2|2,0:0|0:0,0:0:0:0:
84,99,86115,2,0,P|98:134|99:177,1,76.4999976654053,8|0,0:0|0:0,0:0:0:0:
0,290,86339,6,0,P|88:344|171:315,2,191.250007295609,4|0|0,0:0|0:0|0:0,0:0:0:0:
97,207,87234,1,8,0:0:0:0:
423,89,87570,1,4,3:0:0:0:
166,319,87906,1,2,0:0:0:0:
216,25,88130,6,0,P|224:85|214:169,1,127.500004863739,4|0,0:0|0:0,0:0:0:0:
244,279,88801,2,0,L|249:306,2,15.9375006079674
244,279,89025,1,8,0:0:0:0:
80,143,89361,1,12,0:0:0:0:
448,79,89697,1,12,0:0:0:0:
