osu file format v14

[General]
AudioFilename: tomorrow.mp3
AudioLeadIn: 0
PreviewTime: 60257
Countdown: 0
SampleSet: Soft
StackLeniency: 0.7
Mode: 0
LetterboxInBreaks: 0
WidescreenStoryboard: 0

[Editor]
Bookmarks: 7533,14697,29025
DistanceSpacing: 0.4
BeatDivisor: 4
GridSize: 4
TimelineZoom: 2.1

[Metadata]
Title:TOMORROW
TitleUnicode:TOMORROW
Artist:Machico
ArtistUnicode:Machico
Creator:Little
Version:Meg's Expert
Source:この素晴らしい世界に祝福を!2
Tags:Kono Subarashii Sekai ni Syukufuku wo! 2 Shukufuku o! KONOSUBA -God's blessing on this wonderful world! anime opening tv size まちこ CloudSplash16 Doormat Irohas MugiwaraSekai Sekaii Sekai-nyan RepL4y xxdeathx Meg iMage--
BeatmapID:1180619
BeatmapSetID:550035

[Difficulty]
HPDrainRate:5.5
CircleSize:4
OverallDifficulty:8
ApproachRate:9.3
SliderMultiplier:2.8
SliderTickRate:2

[Events]
//Background and Video events
0,0,"6c.jpg",0,0
Video,0,"lol.avi"
//Break Periods
//Storyboard Layer 0 (Background)
//Storyboard Layer 1 (Fail)
//Storyboard Layer 2 (Pass)
//Storyboard Layer 3 (Foreground)
//Storyboard Sound Samples

[TimingPoints]
-1422,447.761194029851,4,2,1,50,1,0
28578,-133.333333333333,4,2,1,50,0,0
29025,-100,4,2,1,50,0,0
43354,-133.333333333333,4,2,1,50,0,0
52309,-125,4,2,1,50,0,0
54100,-117.647058823529,4,2,1,50,0,0
55891,-111.111111111111,4,2,1,50,0,0
57458,-100,4,2,1,50,0,0
61264,-90.9090909090909,4,2,1,50,0,1
73801,-76.9230769230769,4,2,1,50,0,1
75592,-90.9090909090909,4,2,1,50,0,1
86339,-125,4,2,1,50,0,0
88130,-166.666666666667,4,2,1,50,0,0

[Colours]
Combo1 : 0,162,224
Combo2 : 239,0,117
Combo3 : 249,139,0
Combo4 : 161,199,2

[HitObjects]
64,192,369,6,0,L|75:331,1,140,6|2,0:0|0:0,0:0:0:0:
248,88,816,1,8,0:0:0:0:
283,84,928,2,0,P|317:94|343:117,2,70,2|0|8,0:0|0:0|0:0,0:0:0:0:
159,221,1264,1,2,0:0:0:0:
122,224,1376,2,0,P|89:214|63:191,2,70,8|0|2,0:0|0:0|0:0,0:0:0:0:
276,160,1712,5,8,0:0:0:0:
276,160,1824,1,0,0:0:0:0:
276,160,1936,2,0,B|280:196|280:196|267:227,1,70,8|0,0:0|0:0,0:0:0:0:
231,323,2160,6,0,P|300:308|370:308,1,140,6|2,0:0|0:0,0:0:0:0:
480,152,2607,1,8,0:0:0:0:
468,124,2719,2,0,L|481:55,2,70,2|0|8,0:0|0:0|0:0,0:0:0:0:
376,180,3055,1,2,0:0:0:0:
364,152,3167,2,0,L|377:83,2,70,8|0|2,0:0|0:0|0:0,0:0:0:0:
272,208,3503,5,8,0:0:0:0:
260,180,3615,1,2,0:0:0:0:
248,152,3727,2,0,L|261:83,1,70,2|0,0:0|0:0,0:0:0:0:
364,268,3951,6,0,B|280:244|280:244|230:262,1,140,6|2,0:0|0:0,0:0:0:0:
160,28,4398,1,8,0:0:0:0:
175,51,4510,2,0,P|189:84|186:118,1,70,2|0,0:0|0:0,0:0:0:0:
88,160,4734,1,8,0:0:0:0:
72,183,4846,2,0,P|58:215|60:250,1,70,2|8,0:0|0:0,0:0:0:0:
186,382,5070,2,0,P|188:347|175:315,1,70,0|2,0:0|0:0,0:0:0:0:
204,200,5294,5,8,0:0:0:0:
271,168,5406,1,2,0:0:0:0:
340,197,5518,1,2,0:0:0:0:
364,268,5630,1,0,0:0:0:0:
327,332,5742,6,0,P|312:265|317:195,1,140,6|0,0:0|0:0,0:0:0:0:
408,112,6078,1,2,0:0:0:0:
395,231,6189,2,0,P|342:275|275:266,1,140,6|0,0:0|0:0,0:0:0:0:
196,172,6525,1,2,0:0:0:0:
99,247,6637,6,0,P|88:279|81:314,1,70,6|0,0:0|0:0,0:0:0:0:
275,266,6861,2,0,P|269:232|257:199,1,70,0|0,0:0|0:0,0:0:0:0:
137,28,7085,1,8,0:0:0:0:
52,14,7197,1,2,0:0:0:0:
13,90,7309,1,2,0:0:0:0:
75,154,7421,1,2,0:0:0:0:
154,115,7533,6,0,B|239:98|239:98|289:114,1,140,6|8,0:0|0:0,0:0:0:0:
336,184,7869,2,0,L|320:44,1,140,2|2,0:0|0:0,0:0:0:0:
431,31,8204,2,0,P|430:65|419:99,1,70,8|0,0:0|0:0,0:0:0:0:
336,184,8428,6,0,P|371:178|406:182,1,70,2|0,0:0|0:0,0:0:0:0:
496,287,8652,2,0,P|461:292|426:288,1,70,8|0,0:0|0:0,0:0:0:0:
296,272,8876,1,2,0:0:0:0:
293,289,8988,1,0,0:0:0:0:
290,306,9100,1,8,0:0:0:0:
287,323,9212,1,0,0:0:0:0:
284,341,9324,6,0,B|214:314|214:314|225:250,1,140,2|8,0:0|0:0,0:0:0:0:
160,173,9660,2,0,L|134:310,1,140,2|2,0:0|0:0,0:0:0:0:
225,250,9995,2,0,L|237:181,1,70,8|0,0:0|0:0,0:0:0:0:
144,43,10219,6,0,P|84:78|68:144,2,140,2|8|2,0:0|0:0|0:0,0:0:0:0:
251,67,10779,1,0,0:0:0:0:
251,67,10891,2,0,P|285:72|319:66,1,70,8|0,0:0|0:0,0:0:0:0:
155,131,11115,6,0,P|151:200|157:270,1,140,2|8,0:0|0:0,0:0:0:0:
212,328,11451,1,2,0:0:0:0:
287,328,11563,2,0,P|319:312|347:291,1,70,0|2,0:0|0:0,0:0:0:0:
155,130,11786,6,0,P|85:130|23:160,1,140,8|2,0:0|0:0,0:0:0:0:
16,256,12122,1,0,0:0:0:0:
16,256,12234,2,0,L|22:325,1,70,8|0,0:0|0:0,0:0:0:0:
149,200,12458,2,0,L|155:130,1,70,2|0,0:0|0:0,0:0:0:0:
15,4,12682,2,0,L|22:74,1,70,8|0,0:0|0:0,0:0:0:0:
107,263,12906,6,0,P|173:272|221:224,1,140,6|0,0:0|0:0,0:0:0:0:
224,196,13242,1,6,0:0:0:0:
227,168,13354,1,0,0:0:0:0:
230,140,13466,1,0,0:0:0:0:
233,112,13578,2,0,L|239:42,1,70,14|0,0:0|0:0,0:0:0:0:
418,68,13801,5,8,0:0:0:0:
465,135,13913,1,8,0:0:0:0:
418,203,14025,1,8,0:0:0:0:
338,177,14137,1,8,0:0:0:0:
338,93,14249,5,2,0:0:0:0:
396,135,14361,2,0,L|465:135,2,70,2|2|2,0:0|0:0|0:0,0:0:0:0:
280,51,14697,5,6,0:0:0:0:
280,51,14921,2,0,L|140:65,1,140,8|2,0:0|0:0,0:0:0:0:
68,112,15257,5,0,0:0:0:0:
68,112,15369,2,0,B|56:148|56:148|63:179,1,70,8|0,0:0|0:0,0:0:0:0:
192,188,15592,2,0,B|166:159|166:159|136:150,1,70,2|0,0:0|0:0,0:0:0:0:
64,257,15816,2,0,B|101:249|101:249|124:227,1,70,8|0,0:0|0:0,0:0:0:0:
271,215,16040,2,0,P|261:181|264:146,1,70,2|0,0:0|0:0,0:0:0:0:
195,288,16264,2,0,P|196:323|187:357,1,70,8|0,0:0|0:0,0:0:0:0:
323,344,16488,6,0,P|390:324|460:315,1,140,2|8,0:0|0:0,0:0:0:0:
300,232,16824,1,0,0:0:0:0:
271,216,16936,2,0,P|204:196|135:188,1,140,2|8,0:0|0:0,0:0:0:0:
296,104,17272,1,0,0:0:0:0:
323,88,17383,2,0,P|390:68|460:59,1,140,2|8,0:0|0:0,0:0:0:0:
484,188,17719,1,0,0:0:0:0:
484,188,17831,2,0,L|477:257,1,70,2|0,0:0|0:0,0:0:0:0:
317,157,18055,2,0,L|323:87,1,70,8|0,0:0|0:0,0:0:0:0:
323,343,18279,6,0,P|254:349|201:306,1,140,2|8,0:0|0:0,0:0:0:0:
152,228,18615,1,0,0:0:0:0:
143,199,18727,2,0,P|142:165|148:130,1,70,2|0,0:0|0:0,0:0:0:0:
207,15,18951,2,0,P|233:36|267:46,1,70,8|0,0:0|0:0,0:0:0:0:
243,135,19175,2,0,P|276:147|311:144,1,70,2|0,0:0|0:0,0:0:0:0:
317,235,19398,2,0,P|352:234|384:220,1,70,8|0,0:0|0:0,0:0:0:0:
421,304,19622,2,0,P|454:290|479:266,1,70,2|0,0:0|0:0,0:0:0:0:
470,83,19846,2,0,P|438:94|413:118,1,70,8|0,0:0|0:0,0:0:0:0:
383,220,20070,6,0,B|315:209|315:209|254:245,1,140,2|8,0:0|0:0,0:0:0:0:
92,272,20406,1,0,0:0:0:0:
120,268,20518,2,0,B|188:256|188:256|248:292,1,140,2|8,0:0|0:0,0:0:0:0:
412,320,20854,1,0,0:0:0:0:
384,316,20966,2,0,B|315:304|315:304|255:340,1,140,2|8,0:0|0:0,0:0:0:0:
92,368,21301,1,0,0:0:0:0:
120,364,21413,2,0,B|131:294,1,70,2|0,0:0|0:0,0:0:0:0:
255,245,21637,2,0,B|243:176,1,70,8|0,0:0|0:0,0:0:0:0:
192,48,21861,6,0,P|164:111|167:180,1,140,6|8,0:0|0:0,0:0:0:0:
255,245,22197,2,0,L|115:235,1,140,0|0,0:0|0:0,0:0:0:0:
24,160,22533,2,0,L|93:164,1,70,8|0,0:0|0:0,0:0:0:0:
192,48,22757,1,2,0:0:0:0:
352,212,22980,6,0,L|362:281,1,70,8|0,0:0|0:0,0:0:0:0:
364,200,23204,2,0,L|374:269,1,70,2|0,0:0|0:0,0:0:0:0:
376,188,23428,2,0,L|386:257,1,70,8|0,0:0|0:0,0:0:0:0:
212,336,23652,6,0,L|142:332,2,70,2|0|0,0:0|0:0|0:0,0:0:0:0:
292,284,23988,2,0,L|361:280,2,70,8|0|0,0:3|0:0|0:0,0:0:0:0:
212,232,24324,6,0,L|142:228,1,70,4|0,0:3|0:0,0:0:0:0:
292,180,24548,2,0,L|361:176,1,70,0|0,0:0|0:0,0:0:0:0:
212,128,24772,2,0,L|142:124,1,70,0|0,0:0|0:0,0:0:0:0:
292,76,24995,5,8,0:0:0:0:
344,73,25107,1,8,0:0:0:0:
396,70,25219,1,8,0:0:0:0:
449,67,25331,1,8,0:0:0:0:
501,64,25443,6,0,L|511:134,1,70,6|0,0:0|0:0,0:0:0:0:
420,252,25667,2,0,L|409:182,1,70,8|2,0:0|0:0,0:0:0:0:
292,76,25891,2,0,L|302:145,1,70,0|0,0:0|0:0,0:0:0:0:
324,304,26115,5,8,0:0:0:0:
324,304,26227,2,0,L|254:293,1,70,0|2,0:0|0:0,0:0:0:0:
232,216,26451,2,0,L|162:205,1,70,0|8,0:0|0:0,0:0:0:0:
140,128,26675,5,0,0:0:0:0:
140,128,26786,2,0,L|70:117,1,70,2|0,0:0|0:0,0:0:0:0:
254,293,27010,2,0,L|324:304,1,70,8|0,0:0|0:0,0:0:0:0:
134,335,27234,6,0,P|130:266|162:205,1,140,6|2,0:0|0:0,0:0:0:0:
252,204,27570,2,0,P|256:134|224:73,1,140,8|2,0:0|0:0,0:0:0:0:
134,72,27906,2,0,P|135:37|144:3,1,70,8|0,0:0|0:0,0:0:0:0:
328,64,28130,5,8,0:0:0:0:
320,115,28242,1,8,0:0:0:0:
289,157,28354,1,8,0:0:0:0:
242,178,28466,1,8,0:0:0:0:
190,174,28578,2,0,P|164:174|138:178,3,52.5000020027161,2|2|2|2,0:0|0:0|0:0|0:0,0:0:0:0:
44,340,29025,6,0,L|34:200,1,140,6|8,0:0|0:0,0:0:0:0:
32,88,29361,1,0,0:0:0:0:
137,178,29473,2,0,L|67:171,1,70,2|0,0:0|0:0,0:0:0:0:
224,76,29697,2,0,L|293:69,1,70,8|0,0:0|0:0,0:0:0:0:
279,225,29921,6,0,P|288:191|288:156,1,70,2|0,0:0|0:0,0:0:0:0:
144,28,30145,2,0,P|134:61|134:96,1,70,8|0,0:0|0:0,0:0:0:0:
167,285,30369,2,0,P|176:251|176:216,1,70,2|0,0:0|0:0,0:0:0:0:
32,88,30592,2,0,P|22:121|22:156,1,70,8|0,0:0|0:0,0:0:0:0:
37,311,30816,6,0,P|98:277|166:284,1,140,2|8,0:0|0:0,0:0:0:0:
244,332,31152,1,0,0:0:0:0:
336,316,31264,2,0,P|341:252|278:245,1,140,2|8,0:0|0:0,0:0:0:0:
244,332,31600,1,0,0:0:0:0:
335,316,31712,6,0,P|404:303|470:324,1,140,2|8,0:0|0:0,0:0:0:0:
500,232,32048,1,0,0:0:0:0:
404,224,32160,2,0,P|394:190|389:155,1,70,2|0,0:0|0:0,0:0:0:0:
512,44,32383,2,0,P|506:78|497:112,1,70,8|0,0:0|0:0,0:0:0:0:
320,128,32607,6,0,L|459:131,1,140,2|8,0:0|0:0,0:0:0:0:
332,32,32943,1,0,0:0:0:0:
244,76,33055,2,0,L|236:145,1,70,2|0,0:0|0:0,0:0:0:0:
396,224,33279,2,0,L|389:155,1,70,8|0,0:0|0:0,0:0:0:0:
256,328,33503,6,0,P|221:330|188:343,1,70,2|0,0:0|0:0,0:0:0:0:
364,316,33727,2,0,P|398:318|431:331,1,70,8|0,0:0|0:0,0:0:0:0:
225,284,33951,2,0,P|202:310|187:342,1,70,2|0,0:0|0:0,0:0:0:0:
320,160,34175,2,0,P|346:137|378:122,1,70,8|0,0:0|0:0,0:0:0:0:
156,228,34398,6,0,B|92:200|92:200|72:172|73:133,1,140,2|8,0:0|0:0,0:0:0:0:
228,44,34734,2,0,B|229:82|209:110|209:110|145:138,1,140,0|0,0:0|0:0,0:0:0:0:
16,248,35070,2,0,L|79:277,1,70,8|0,0:0|0:0,0:0:0:0:
176,348,35294,6,0,B|228:324|280:344|280:344|264:315,1,140,2|8,0:0|0:0,0:0:0:0:
104,215,35630,2,0,B|52:239|0:219|0:219|15:247,1,140,0|0,0:0|0:0,0:0:0:0:
212,220,35966,2,0,P|209:185|193:154,1,70,8|0,0:0|0:0,0:0:0:0:
24,80,36189,6,0,P|89:96|146:59,1,140,6|8,0:0|0:0,0:0:0:0:
264,112,36525,2,0,P|207:74|141:90,1,140,0|0,0:0|0:0,0:0:0:0:
104,215,36861,2,0,P|98:249|104:283,2,70,8|0|2,0:0|0:0|0:0,0:0:0:0:
344,348,37309,6,0,B|308:348|308:348|280:328,1,70,8|0,0:0|0:0,0:0:0:0:
388,232,37533,2,0,B|406:263|406:263|402:296,1,70,2|0,0:0|0:0,0:0:0:0:
266,252,37757,2,0,B|284:220|284:220|315:207,1,70,8|0,0:0|0:0,0:0:0:0:
456,88,37980,6,0,P|448:53|447:18,2,70,2|0|0,0:0|0:0|0:0,0:0:0:0:
396,162,38316,2,0,P|388:196|387:231,2,70,8|0|0,0:3|0:0|0:0,0:0:0:0:
336,88,38652,2,0,P|328:53|327:18,2,70,4|0|0,0:3|0:0|0:0,0:0:0:0:
276,162,38988,2,0,P|268:197|267:232,2,70,0|0|0,0:0|0:0|0:0,0:0:0:0:
228,96,39324,5,8,0:0:0:0:
147,79,39436,1,8,0:0:0:0:
67,63,39548,2,0,L|2:91,1,70,8|8,0:0|0:0,0:0:0:0:
43,324,39772,6,0,P|70:301|89:272,1,70,6|0,0:0|0:0,0:0:0:0:
168,143,39995,2,0,P|162:178|166:213,1,70,8|2,0:0|0:0,0:0:0:0:
208,332,40219,2,0,L|277:323,1,70,0|0,0:0|0:0,0:0:0:0:
464,272,40443,5,8,0:0:0:0:
464,272,40555,2,0,L|395:263,1,70,0|2,0:0|0:0,0:0:0:0:
277,322,40779,2,0,L|234:266,1,70,0|8,0:0|0:0,0:0:0:0:
109,225,41003,1,0,0:0:0:0:
109,225,41115,2,0,L|118:155,1,70,2|0,0:0|0:0,0:0:0:0:
136,16,41339,1,8,0:0:0:0:
400,132,41563,6,0,B|328:136|328:136|288:80,1,140,6|2,0:0|0:0,0:0:0:0:
217,112,41898,2,0,B|256:172|256:172|227:234,1,140,8|2,0:0|0:0,0:0:0:0:
292,280,42234,2,0,B|324:215,1,70,8|0,0:0|0:0,0:0:0:0:
397,61,42458,5,8,0:0:0:0:
433,120,42569,1,8,0:0:0:0:
444,189,42681,1,8,0:0:0:0:
428,256,42793,1,8,0:0:0:0:
386,312,42906,2,0,L|316:303,1,70,2|2,0:0|0:0,0:0:0:0:
223,339,43130,2,0,L|153:329,1,70,2|2,0:0|0:0,0:0:0:0:
59,365,43354,6,0,P|63:288|116:232,2,157.500006008148,6|2|8,0:0|0:0|0:0,0:0:0:0:
136,104,44249,2,0,B|68:68|-7:90|-7:90|4:124|33:134,1,210.000008010865,2|2,0:0|0:0,0:0:0:0:
224,60,44921,1,8,0:3:0:0:
224,60,45145,6,0,B|232:136|232:136|220:188|220:188|227:267,1,210.000008010865,2|0,0:0|0:0,0:0:0:0:
327,177,45816,1,8,0:0:0:0:
132,232,46040,1,2,0:0:0:0:
322,302,46264,1,0,0:0:0:0:
322,302,46376,1,0,0:0:0:0:
322,302,46488,1,2,0:0:0:0:
203,143,46712,1,8,0:3:0:0:
195,345,46936,6,0,P|216:284|304:292,1,157.500006008148,2|2,0:0|0:0,0:0:0:0:
322,301,47383,2,0,P|374:299|425:310,1,105.000004005432,2|8,0:0|0:0,0:0:0:0:
484,152,47831,6,0,B|472:68|472:68|509:6,2,157.500006008148,2|2|8,0:0|0:0|0:3,0:0:0:0:
347,156,48727,2,0,B|359:240|359:240|321:301,2,157.500006008148,2|2|8,0:0|0:0|0:0,0:0:0:0:
180,64,49622,5,2,0:0:0:0:
148,79,49734,2,0,P|121:80|97:71,1,52.5000020027161,8|2,0:3|0:0,0:0:0:0:
16,196,50070,2,0,P|42:195|66:204,2,52.5000020027161,2|8|2,0:0|0:3|0:0,0:0:0:0:
156,342,50518,6,0,B|192:268|120:264|156:191,1,157.500006008148,6|0,0:0|0:0,0:0:0:0:
156,152,50966,2,0,P|203:173|255:183,1,105.000004005432,2|2,0:0|0:0,0:0:0:0:
352,60,51413,2,0,B|244:80|244:80|266:38,2,157.500006008148,12|0|0,0:0|0:0|0:0,0:0:0:0:
449,170,52309,6,0,P|441:248|364:259,1,168,6|0,0:0|0:0,0:0:0:0:
356,232,52757,2,0,L|348:343,1,112,2|2,0:0|0:0,0:0:0:0:
256,224,53204,2,0,B|268:161|232:117|232:117|260:121|286:112,2,168,12|0|0,0:0|0:0|0:0,0:0:0:0:
179,336,54100,6,0,P|100:328|113:249,1,178.500003404617,6|0,0:0|0:0,0:0:0:0:
124,232,54548,2,0,P|150:180|134:123,1,119.000002269745,2|2,0:0|0:0,0:0:0:0:
36,68,54995,2,0,B|108:64|164:88|164:88|187:64|201:59,2,178.500003404617,12|0|0,0:0|0:0|0:0,0:0:0:0:
111,312,55891,6,0,P|128:225|48:190,1,188.999994232178,6|0,0:0|0:0,0:0:0:0:
64,260,56339,2,0,B|136:248|136:248|176:272|176:272|244:260,1,188.999994232178,0|0,0:0|0:0,0:0:0:0:
348,300,56786,2,0,L|325:176,1,125.999996154785,8|2,0:3|0:0,0:0:0:0:
408,104,57122,1,0,0:0:0:0:
408,104,57234,1,2,0:0:0:0:
347,300,57458,6,0,P|249:302|214:210,1,210,6|0,0:0|0:0,0:0:0:0:
308,107,57906,2,0,P|319:141|324:175,1,70,6|0,0:0|0:0,0:0:0:0:
124,224,58130,2,0,P|129:189|139:156,1,70,6|0,0:0|0:0,0:0:0:0:
212,40,58354,1,2,0:0:0:0:
212,40,58466,1,2,0:0:0:0:
211,40,58578,6,0,P|143:54|74:63,1,140,6|0,0:0|0:0,0:0:0:0:
139,155,58913,2,0,P|208:146|277:133,1,140,2|0,0:0|0:0,0:0:0:0:
342,224,59249,2,0,P|273:238|204:247,1,140,2|0,0:0|0:0,0:0:0:0:
472,344,59697,6,0,L|463:310,4,35,8|2|2|2|4,0:3|0:0|0:0|0:0|0:3,0:0:0:0:
255,111,60816,1,4,0:3:0:0:
255,111,61264,6,0,P|269:147|268:186,1,77.0000023498536,6|0,0:0|0:0,0:0:0:0:
155,259,61488,2,0,P|142:224|141:186,1,77.0000023498536,8|0,0:0|0:0,0:0:0:0:
232,312,61712,2,0,B|128:303|128:303|170:328,1,154.000004699707,2|8,0:0|0:0,0:0:0:0:
364,372,62048,1,0,0:0:0:0:
312,276,62160,6,0,P|349:264|392:272,1,77.0000023498536,2|0,0:0|0:0,0:0:0:0:
276,136,62383,1,8,0:0:0:0:
276,136,62495,2,0,L|264:212,1,77.0000023498536,0|2,0:0|0:0,0:0:0:0:
436,128,62719,1,0,0:0:0:0:
436,128,62831,2,0,L|424:51,1,77.0000023498536,8|0,0:0|0:0,0:0:0:0:
504,196,63055,6,0,L|428:213,1,77.0000023498536,2|0,0:0|0:0,0:0:0:0:
288,338,63279,2,0,L|362:355,1,77.0000023498536,8|0,0:0|0:0,0:0:0:0:
264,212,63503,2,0,L|188:229,1,77.0000023498536,2|0,0:0|0:0,0:0:0:0:
48,322,63727,2,0,L|122:339,1,77.0000023498536,8|0,0:0|0:0,0:0:0:0:
146,213,63951,6,0,P|127:140|61:105,1,154.000004699707,2|8,0:0|0:0,0:0:0:0:
60,195,64286,1,0,0:0:0:0:
162,72,64398,1,2,0:0:0:0:
162,72,64510,2,0,P|189:101|206:135,1,77.0000023498536,0|8,0:0|0:0,0:0:0:0:
147,213,64734,1,0,0:0:0:0:
278,245,64846,6,0,P|355:242|419:201,2,154.000004699707,2|8|2,0:0|0:0|0:0,0:0:0:0:
120,328,65406,1,0,0:0:0:0:
219,370,65518,2,0,B|231:334|231:334|221:296,1,77.0000023498536,8|0,0:0|0:0,0:0:0:0:
146,212,65742,6,0,P|70:213|6:254,2,154.000004699707,2|8|2,0:0|0:0|0:0,0:0:0:0:
305,130,66301,1,0,0:0:0:0:
207,88,66413,2,0,B|195:124|195:124|204:161,1,77.0000023498536,8|0,0:0|0:0,0:0:0:0:
398,183,66637,6,0,P|437:187|472:201,1,77.0000023498536,2|0,0:0|0:0,0:0:0:0:
333,286,66861,2,0,P|294:281|259:267,1,77.0000023498536,8|0,0:0|0:0,0:0:0:0:
400,164,67085,2,0,P|438:168|473:182,1,77.0000023498536,2|0,0:0|0:0,0:0:0:0:
331,305,67309,2,0,P|292:300|257:286,1,77.0000023498536,8|0,0:0|0:0,0:0:0:0:
465,337,67533,5,2,0:0:0:0:
465,337,67645,1,0,0:0:0:0:
465,337,67757,2,0,L|472:261,1,77.0000023498536,8|0,0:0|0:0,0:0:0:0:
463,110,67980,5,8,0:0:0:0:
390,167,68092,1,8,0:0:0:0:
343,86,68204,1,8,0:0:0:0:
270,143,68316,1,8,0:0:0:0:
223,62,68428,6,0,B|185:22|185:22|167:119,1,154.000004699707,6|8,0:0|0:0,0:0:0:0:
16,220,68764,1,0,0:0:0:0:
49,134,68876,2,0,B|86:94|86:94|103:191,1,154.000004699707,2|8,0:0|0:0,0:0:0:0:
243,281,69212,1,0,0:0:0:0:
172,331,69324,6,0,P|156:297|159:259,1,77.0000023498536,2|0,0:0|0:0,0:0:0:0:
322,314,69548,2,0,P|299:344|265:362,1,77.0000023498536,8|0,0:0|0:0,0:0:0:0:
230,194,69772,2,0,P|269:197|300:218,1,77.0000023498536,2|0,0:0|0:0,0:0:0:0:
391,347,69995,5,8,0:0:0:0:
462,328,70106,1,0,0:0:0:0:
481,257,70219,2,0,P|474:220|471:181,1,77.0000023498536,2|0,0:0|0:0,0:0:0:0:
424,36,70443,2,0,P|421:74|413:112,1,77.0000023498536,8|0,0:0|0:0,0:0:0:0:
248,124,70667,6,0,B|195:129|195:129|150:114|150:114|97:118,1,154.000004699707,2|8,0:0|0:0,0:0:0:0:
264,46,71003,1,0,0:0:0:0:
232,202,71115,6,0,B|179:207|179:207|134:192|134:192|81:196,1,154.000004699707,2|8,0:0|0:0,0:0:0:0:
248,124,71451,1,0,0:0:0:0:
216,280,71563,6,0,B|163:285|163:285|118:270|118:270|65:274,1,154.000004699707,2|8,0:0|0:0,0:0:0:0:
232,202,71899,1,0,0:0:0:0:
69,349,72010,6,0,P|61:311|64:273,1,77.0000023498536,2|0,0:0|0:0,0:0:0:0:
144,144,72234,2,0,P|151:181|148:219,1,77.0000023498536,8|0,0:0|0:0,0:0:0:0:
56,356,72458,6,0,P|48:318|51:280,1,77.0000023498536,2|0,0:0|0:0,0:0:0:0:
157,137,72682,2,0,P|164:174|161:212,1,77.0000023498536,8|0,0:0|0:0,0:0:0:0:
43,363,72906,6,0,P|35:325|38:287,1,77.0000023498536,2|0,0:0|0:0,0:0:0:0:
170,130,73130,2,0,P|177:167|174:205,1,77.0000023498536,8|0,0:0|0:0,0:0:0:0:
30,370,73354,6,0,P|22:332|25:294,1,77.0000023498536,2|0,0:0|0:0,0:0:0:0:
183,123,73578,2,0,P|190:160|187:198,1,77.0000023498536,8|0,0:0|0:0,0:0:0:0:
280,340,73801,6,0,P|356:378|419:320,1,181.999991668702,6|8,0:0|0:0,0:0:0:0:
240,151,74137,1,2,0:0:0:0:
348,304,74249,2,0,P|429:277|432:191,1,181.999991668702,6|8,0:0|0:0,0:0:0:0:
167,145,74585,1,2,0:0:0:0:
369,230,74697,6,0,P|383:186|387:141,1,90.9999958343508,6|0,0:0|0:0,0:0:0:0:
185,57,74921,2,0,P|171:100|167:145,1,90.9999958343508,8|0,0:0|0:0,0:0:0:0:
120,368,75145,1,2,0:0:0:0:
32,338,75257,1,2,0:0:0:0:
32,247,75369,1,2,0:0:0:0:
120,219,75480,1,2,0:0:0:0:
172,292,75592,6,0,P|208:306|246:311,1,77.0000023498536,6|0,0:0|0:0,0:0:0:0:
442,248,75816,2,0,P|406:234|368:229,1,77.0000023498536,8|0,0:0|0:0,0:0:0:0:
215,203,76040,2,0,B|195:130|195:130|220:56,1,154.000004699707,2|8,0:0|0:0,0:0:0:0:
272,128,76376,1,0,0:0:0:0:
116,144,76488,6,0,L|139:70,1,77.0000023498536,2|0,0:0|0:0,0:0:0:0:
296,232,76712,1,8,0:0:0:0:
284,260,76824,2,0,P|253:283|215:288,1,77.0000023498536,0|2,0:0|0:0,0:0:0:0:
48,232,77048,1,0,0:0:0:0:
76,220,77160,2,0,P|113:225|144:247,1,77.0000023498536,8|0,0:0|0:0,0:0:0:0:
76,368,77383,6,0,L|88:280,1,77.0000023498536,2|0,0:0|0:0,0:0:0:0:
235,140,77607,2,0,L|224:216,1,77.0000023498536,8|0,0:0|0:0,0:0:0:0:
48,232,77831,2,0,L|60:144,1,77.0000023498536,2|0,0:0|0:0,0:0:0:0:
263,276,78055,2,0,L|251:364,1,77.0000023498536,8|0,0:0|0:0,0:0:0:0:
156,123,78279,6,0,P|201:65|275:66,1,154.000004699707,2|8,0:0|0:0,0:0:0:0:
377,212,78615,1,0,0:0:0:0:
443,111,78727,1,2,0:0:0:0:
443,111,78839,2,0,P|405:107|367:109,1,77.0000023498536,0|8,0:0|0:0,0:0:0:0:
284,168,79063,1,0,0:0:0:0:
294,270,79175,6,0,B|300:308|300:308|320:340,1,77.0000023498536,2|0,0:0|0:0,0:0:0:0:
464,216,79398,2,0,B|458:178|458:178|438:146,1,77.0000023498536,8|0,0:0|0:0,0:0:0:0:
208,150,79622,2,0,L|283:167,1,77.0000023498536,2|0,0:0|0:0,0:0:0:0:
410,322,79846,1,8,0:0:0:0:
320,340,79958,1,0,0:0:0:0:
230,358,80070,6,0,L|154:340,1,77.0000023498536,2|0,0:0|0:0,0:0:0:0:
388,233,80294,2,0,L|463:215,1,77.0000023498536,8|0,0:0|0:0,0:0:0:0:
184,256,80518,2,0,L|108:238,1,77.0000023498536,2|0,0:0|0:0,0:0:0:0:
434,131,80742,2,0,L|509:113,1,77.0000023498536,8|0,0:0|0:0,0:0:0:0:
296,280,80966,2,0,B|284:244|284:244|292:205,1,77.0000023498536,2|0,0:0|0:0,0:0:0:0:
416,16,81189,5,8,0:0:0:0:
364,99,81301,2,0,P|330:118|292:123,1,77.0000023498536,0|2,0:0|0:0,0:0:0:0:
416,16,81525,5,0,0:0:0:0:
434,131,81637,2,0,P|423:167|400:198,1,77.0000023498536,8|0,0:0|0:0,0:0:0:0:
171,116,81861,5,8,0:0:0:0:
86,102,81973,1,8,0:0:0:0:
47,178,82085,1,2,0:0:0:0:
108,238,82197,1,2,0:0:0:0:
183,199,82309,1,8,0:0:0:0:
244,259,82421,1,2,0:0:0:0:
205,335,82533,1,8,0:0:0:0:
120,321,82645,1,8,0:0:0:0:
107,237,82757,6,0,P|101:200|101:161,1,77.0000023498536,6|0,0:0|0:0,0:0:0:0:
292,168,82980,2,0,P|262:192|228:211,1,77.0000023498536,8|0,0:0|0:0,0:0:0:0:
139,43,83204,2,0,P|175:56|208:75,1,77.0000023498536,2|0,0:0|0:0,0:0:0:0:
302,299,83428,1,8,0:0:0:0:
392,320,83540,1,0,0:0:0:0:
470,271,83652,2,0,P|448:239|415:219,1,77.0000023498536,2|0,0:0|0:0,0:0:0:0:
191,308,83876,6,0,L|185:231,1,77.0000023498536,8|0,0:0|0:0,0:0:0:0:
286,46,84100,2,0,L|292:123,1,77.0000023498536,2|0,0:0|0:0,0:0:0:0:
95,192,84324,2,0,L|89:115,1,77.0000023498536,8|0,0:0|0:0,0:0:0:0:
304,252,84548,6,0,B|416:220|416:220|380:209,1,154.000004699707,2|8,0:0|0:0,0:0:0:0:
248,184,84883,1,0,0:0:0:0:
268,325,84995,2,0,P|306:331|344:324,1,77.0000023498536,2|0,0:0|0:0,0:0:0:0:
170,190,85219,2,0,P|132:184|95:192,1,77.0000023498536,8|0,0:0|0:0,0:0:0:0:
353,112,85443,6,0,L|328:40,1,77.0000023498536,2|0,0:0|0:0,0:0:0:0:
184,40,85667,2,0,L|158:112,1,77.0000023498536,8|0,0:0|0:0,0:0:0:0:
397,227,85891,2,0,L|412:152,1,77.0000023498536,2|0,0:0|0:0,0:0:0:0:
100,152,86115,2,0,L|114:227,1,77.0000023498536,8|0,0:0|0:0,0:0:0:0:
256,356,86339,6,0,B|276:304|276:304|244:256|244:256|263:204,2,168,6|0|0,0:0|0:0|0:0,0:0:0:0:
376,312,87234,1,8,0:0:0:0:
136,312,87570,1,8,0:3:0:0:
376,312,87906,1,8,0:3:0:0:
256,105,88130,5,6,0:0:0:0:
255,104,88578,2,0,P|260:166|218:210,1,125.999996154785,0|0,0:0|0:0,0:0:0:0:
120,240,89025,6,0,P|160:228|201:231,1,83.9999974365235,12|0,0:0|0:0,0:0:0:0:
256,320,89361,2,0,P|215:331|174:328,1,83.9999974365235,8|0,0:3|0:0,0:0:0:0:
65,151,89697,5,8,0:3:0:0:
